osu file format v14

[General]
AudioFilename: audio.mp3
AudioLeadIn: 0
PreviewTime: 235014
Countdown: 0
SampleSet: Drum
StackLeniency: 0.7
Mode: 2
LetterboxInBreaks: 0
WidescreenStoryboard: 1

[Editor]
Bookmarks: 1657,24696,45341,60825,89857,98243,108566,129211,144695,173727,194209,217595,235014,267917,280658,306626,316304
DistanceSpacing: 1.1
BeatDivisor: 4
GridSize: 4
TimelineZoom: 2.500002

[Metadata]
Title:Hyperion
TitleUnicode:Hyperion
Artist:Raccoon Factory
ArtistUnicode:あらいぐまファクトリー
Creator:JBHyperion
Version:Phyperion's Salad
Source:東方地霊殿 ~ Subterranean Animism.
Tags:東方Project Touhou Chireiden Earth Spirit Palace 霊知の太陽信仰 ~ Nuclear Fusion Solar Sect of Mystic Wisdom 霊烏路 空 Reiuji Utsuho Hell Raven of Blazing Fires 業火マントル Hellfire Mantle Stage 6 Theme Boss the protocol of executer そえ Soe 吉良花鶏 Atori Kira C82 Comiket CRFH-0005 Rock Metal Guitar Electronica Japanese Phob Greaper Baron
BeatmapID:2448428
BeatmapSetID:1110955

[Difficulty]
HPDrainRate:3
CircleSize:2.5
OverallDifficulty:7
ApproachRate:7
SliderMultiplier:1.4
SliderTickRate:1

[Events]
//Background and Video events
0,0,"Reiuji.Utsuho.full.2031728.jpg",0,0
//Break Periods
2,108766,115030
2,231343,233469
//Storyboard Layer 0 (Background)
//Storyboard Layer 1 (Fail)
//Storyboard Layer 2 (Pass)
//Storyboard Layer 3 (Foreground)
//Storyboard Layer 4 (Overlay)
//Storyboard Sound Samples

[TimingPoints]
1657,428.571428571429,6,2,1,40,1,0
1657,-80,4,2,1,40,0,0
2299,-100,4,2,1,40,0,0
9371,-80,4,2,1,40,0,0
12799,-100,4,2,1,40,0,0
16657,441.176470588235,4,2,1,40,1,0
17098,461.538461538462,4,2,1,40,1,0
17559,517.241379310345,4,2,1,40,1,0
18076,545.454545454546,4,2,1,40,1,0
18621,588.235294117647,4,2,1,40,1,0
19209,652.173913043478,4,2,1,40,1,0
19861,721.153846153846,4,2,1,40,1,0
20582,342.857142857143,4,2,1,30,1,0
20924,-100,4,2,0,20,0,0
21267,-100,4,2,0,21,0,0
21610,-100,4,2,0,22,0,0
21953,-100,4,2,0,24,0,0
22296,-100,4,2,0,26,0,0
22639,-100,4,2,0,28,0,0
22982,-100,4,2,0,30,0,0
23324,-100,4,2,0,33,0,0
23667,-100,4,2,0,36,0,0
24010,-100,4,2,0,39,0,0
24353,-100,4,2,0,5,0,0
24696,322.58064516129,4,2,2,70,1,0
25825,-100,4,2,1,60,0,0
26147,-100,4,2,2,70,0,0
26631,-100,4,2,2,60,0,0
27276,-100,4,2,1,60,0,0
27921,-100,4,2,2,50,0,0
28244,-100,4,2,1,70,0,0
29212,-100,4,2,2,50,0,0
29857,-100,4,2,2,70,0,0
31147,-100,4,2,1,80,0,0
31792,-100,4,2,2,60,0,0
32437,-100,4,2,1,80,0,0
33083,-100,4,2,2,60,0,0
33405,-100,4,2,1,70,0,0
34373,-100,4,3,1,80,0,0
39534,-100,4,3,0,70,0,0
39695,-100,4,3,1,60,0,0
39857,-100,4,3,1,80,0,0
40179,-100,4,2,2,80,0,0
40341,-100,4,3,1,80,0,0
42760,-100,4,2,2,80,0,0
43002,-100,4,2,2,30,0,0
43083,-100,4,3,1,80,0,0
43244,-100,4,2,2,80,0,0
43486,-100,4,2,2,30,0,0
43567,-100,4,3,1,80,0,0
44050,-100,4,3,0,70,0,0
44212,-100,4,3,1,60,0,0
44373,-100,4,3,0,70,0,0
44534,-100,4,3,1,60,0,0
44695,-100,4,3,1,80,0,0
45341,-100,4,2,2,80,0,0
45663,-100,4,3,1,80,0,0
46308,-100,4,2,2,80,0,0
47276,-100,4,3,1,80,0,0
47921,-100,4,2,2,80,0,0
48566,-100,4,3,1,80,0,0
48728,-100,4,2,2,80,0,0
49050,-100,4,3,1,80,0,0
50179,-100,4,3,0,80,0,0
50341,-100,4,3,1,80,0,0
50502,-100,4,2,2,80,0,0
50825,-100,4,3,1,80,0,0
51470,-100,4,2,2,80,0,0
51792,-100,4,3,1,80,0,0
53083,-100,4,2,2,80,0,0
53405,-100,4,3,1,80,0,0
55663,-100,4,2,2,80,0,0
55744,-100,4,3,1,80,0,0
56954,-100,4,2,2,80,0,0
57035,-100,4,3,1,80,0,0
58244,-100,4,2,2,80,0,0
59534,-100,4,3,0,60,0,0
59695,-100,4,3,1,60,0,0
59857,-100,4,3,0,70,0,0
60018,-100,4,3,1,70,0,0
60179,-100,4,3,1,80,0,0
60502,-100,4,2,1,60,0,0
60825,322.58064516129,6,3,1,90,1,1
64050,-100,6,3,0,80,0,1
64212,-100,6,3,1,80,0,1
64373,-100,6,3,1,90,0,1
64695,-100,6,2,2,90,0,1
64857,-100,6,3,1,90,0,1
66631,-100,6,2,2,90,0,1
66793,-100,6,3,1,90,0,1
67921,-100,6,3,0,80,0,1
68083,-100,6,3,1,80,0,1
68244,-100,6,3,1,90,0,1
69534,-66.6666666666667,6,3,1,70,0,1
70341,-100,6,3,1,70,0,1
71792,-100,6,3,0,80,0,1
71954,-100,6,3,1,80,0,1
72115,-100,6,3,1,90,0,1
72437,-100,6,2,2,90,0,1
72599,-100,6,3,1,90,0,1
74373,-100,6,2,2,90,0,1
74535,-100,6,3,0,70,0,1
74803,-100,6,3,1,70,0,1
74857,-100,6,3,0,70,0,1
74911,-100,6,3,1,70,0,1
75018,-100,6,3,1,75,0,1
75341,-100,6,3,1,90,0,1
75986,-100,6,3,0,80,0,1
76147,-100,6,3,1,80,0,1
76308,-66.6666666666667,6,3,1,90,0,1
76954,-100,6,3,1,70,0,1
79534,-100,6,3,0,80,0,1
79695,-100,6,3,1,80,0,1
79857,-100,6,3,1,90,0,1
80179,-100,6,2,2,90,0,1
80341,-100,6,3,1,90,0,1
82115,-100,6,2,2,90,0,1
82276,-100,6,3,1,90,0,1
83728,-100,6,3,1,70,0,1
83889,-100,6,3,1,80,0,1
84050,-100,6,2,2,90,0,1
84131,-100,6,3,1,65,0,1
84373,-100,6,3,1,80,0,1
84454,-100,6,3,1,65,0,1
85018,-100,6,3,1,80,0,1
85099,-100,6,3,1,65,0,1
85663,-100,6,3,1,80,0,1
85744,-100,6,3,1,65,0,1
86954,-100,6,3,0,70,0,1
87276,-100,6,3,0,50,0,1
87599,-100,6,3,1,60,0,1
87921,-100,6,2,2,80,0,1
88244,-100,6,2,1,80,0,1
88889,-100,6,3,1,80,0,1
89050,-100,6,3,1,80,0,0
89212,-100,6,2,1,60,0,0
89857,-100,6,2,2,70,0,0
90018,-100,6,2,1,70,0,0
92115,-100,6,2,2,70,0,0
95663,322.58064516129,4,2,2,80,1,0
97598,-100,4,3,1,80,0,0
102921,-100,4,3,1,60,0,0
103082,-100,4,3,1,80,0,0
103404,-100,4,2,2,80,0,0
103485,-100,4,3,1,80,0,0
105501,-100,4,3,1,80,0,0
106308,-100,4,2,1,80,0,0
106469,-100,4,3,1,80,0,0
106792,-100,4,2,1,80,0,0
107114,-100,4,2,1,50,0,0
108566,-100,4,2,2,70,0,0
116308,-100,4,2,1,20,0,0
117275,-100,4,2,1,30,0,0
118082,-100,4,2,2,70,0,0
118404,-100,4,3,1,80,0,0
123404,-100,4,3,0,70,0,0
123566,-100,4,3,1,70,0,0
123727,-100,4,3,1,80,0,0
124050,-100,4,2,2,80,0,0
124211,-100,4,3,1,80,0,0
126630,-100,4,2,2,80,0,0
126792,-100,4,3,1,80,0,0
127114,-100,4,2,2,80,0,0
127276,-100,4,3,1,80,0,0
128082,-100,4,3,0,80,0,0
128136,-100,4,3,1,80,0,0
129211,-57.1428571428571,4,3,1,70,0,0
129695,-100,4,3,1,70,0,0
130179,-100,4,2,2,80,0,0
130340,-100,4,3,1,80,0,0
131792,-100,4,2,2,80,0,0
131953,-100,4,3,1,80,0,0
133458,-100,4,3,0,80,0,0
133646,-100,4,3,1,80,0,0
134372,-100,4,2,2,80,0,0
134453,-100,4,3,1,80,0,0
135340,-100,4,2,2,80,0,0
135662,-100,4,3,1,80,0,0
136953,-100,4,2,2,80,0,0
137275,-100,4,3,1,80,0,0
138888,-100,4,2,2,80,0,0
139130,-100,4,3,1,80,0,0
141146,-100,4,3,1,85,0,0
142114,-100,4,2,2,80,0,0
142154,-100,4,2,1,80,0,0
142598,-100,4,2,2,80,0,0
142638,-100,4,2,1,80,0,0
143082,-100,4,2,2,80,0,0
143404,-100,4,3,0,60,0,0
143565,-100,4,3,1,60,0,0
143727,-100,4,3,0,70,0,0
143888,-100,4,3,1,70,0,0
144050,-100,4,3,1,80,0,0
144695,322.58064516129,6,3,1,90,1,1
147920,-100,6,3,0,80,0,1
148082,-100,6,3,1,80,0,1
148243,-100,6,3,1,90,0,1
148565,-100,6,2,2,90,0,1
148727,-100,6,3,1,90,0,1
150501,-100,6,2,2,90,0,1
150663,-100,6,3,1,90,0,1
151791,-100,6,3,0,80,0,1
151953,-100,6,3,1,80,0,1
152114,-100,6,3,1,90,0,1
155662,-100,6,3,0,80,0,1
155824,-100,6,3,1,80,0,1
155985,-100,6,3,1,90,0,1
156307,-100,6,2,2,90,0,1
156469,-100,6,3,1,90,0,1
157275,-100,6,2,2,90,0,1
157437,-100,6,3,1,90,0,1
158243,-100,6,2,2,90,0,1
158405,-100,6,3,0,70,0,1
158458,-100,6,3,1,70,0,1
159533,-100,6,3,0,80,0,1
159695,-100,6,3,1,70,0,1
160017,-100,6,3,1,60,0,1
160178,-100,6,3,1,90,0,1
163404,-100,6,3,0,80,0,1
163565,-100,6,3,1,80,0,1
163727,-100,6,3,1,90,0,1
164049,-100,6,2,2,90,0,1
164211,-100,6,3,1,90,0,1
166953,-100,6,3,0,80,0,1
167114,-100,6,3,1,80,0,1
167275,-100,6,3,1,90,0,1
167920,-100,6,2,2,90,0,1
168001,-100,6,3,1,65,0,1
168243,-100,6,3,1,80,0,1
168324,-100,6,3,1,65,0,1
168888,-100,6,3,1,80,0,1
168969,-100,6,3,1,65,0,1
169533,-100,6,3,1,80,0,1
169614,-100,6,3,1,65,0,1
170824,-100,6,3,0,70,0,1
171146,-100,6,3,0,50,0,1
171469,-100,6,3,1,60,0,1
171791,-100,6,2,2,80,0,1
172114,-100,6,3,1,80,0,1
172436,-100,6,3,0,80,0,1
172517,-100,6,3,1,80,0,1
172920,-100,6,3,1,80,0,0
173082,-100,6,2,1,60,0,0
173727,-100,6,2,1,80,0,0
174049,-100,6,2,2,80,0,0
174533,322.58064516129,6,2,2,80,1,0
174855,322.58064516129,4,3,1,80,1,0
175016,-100,4,2,2,80,0,0
177596,-100,4,2,1,80,0,0
177919,-100,4,2,2,80,0,0
178564,-100,4,2,1,80,0,0
178725,-100,4,2,2,70,0,0
179048,-100,4,2,1,80,0,0
179209,-100,4,2,2,70,0,0
179855,-100,4,2,1,70,0,0
180016,-100,4,2,2,80,0,0
182596,-100,4,3,0,70,0,0
182704,-100,4,2,2,70,0,0
182919,-100,4,2,2,80,0,0
184102,-100,4,3,0,80,0,0
184209,-100,4,2,2,80,0,0
185177,-100,4,3,1,70,0,0
185338,-100,4,2,2,80,0,0
188725,-100,4,2,1,80,0,0
189048,-100,4,2,2,80,0,0
189209,-100,4,2,1,80,0,0
189532,-100,4,2,2,80,0,0
189693,-100,4,2,1,80,0,0
189855,-100,4,2,2,80,0,0
190177,-100,4,2,1,80,0,0
190338,-100,4,2,2,80,0,0
191199,-100,4,3,0,80,0,0
191467,-100,4,2,2,80,0,0
192435,-100,4,3,0,80,0,0
192596,-100,4,3,1,80,0,0
192919,-100,4,2,2,80,0,0
193725,-100,4,2,1,80,0,0
194048,-100,4,3,1,80,0,0
194209,-100,4,2,2,90,0,0
194370,322.58064516129,4,3,1,80,1,0
199370,-100,4,2,2,80,0,0
199531,-100,4,3,1,80,0,0
203240,-100,4,3,1,90,0,0
203563,-100,4,3,1,80,0,0
204208,-100,4,2,2,80,0,0
204692,-100,4,3,1,80,0,0
209370,-100,4,2,2,80,0,0
209692,-80,4,2,0,100,0,0
210015,-100,4,3,1,80,0,0
212434,-100,4,2,2,80,0,0
212595,-100,4,3,1,80,0,0
214369,-100,4,3,0,80,0,0
214692,-100,4,3,1,70,0,0
215015,-100,4,3,1,80,0,0
215337,-100,4,3,1,40,0,0
216144,-100,4,3,1,35,0,0
216628,-100,4,3,1,30,0,0
216950,-100,4,3,1,25,0,0
217273,-100,4,2,1,5,0,0
217595,322.58064516129,6,2,1,100,1,0
217757,-100,6,2,2,60,0,0
218885,-100,6,2,2,50,0,0
219530,-100,6,2,1,60,0,0
220175,-100,6,2,2,60,0,0
220498,-100,6,2,2,50,0,0
221143,-100,6,2,1,70,0,0
221465,-100,6,2,2,50,0,0
221788,-100,6,2,1,70,0,0
222111,-100,6,2,2,60,0,0
222433,-100,6,2,1,60,0,0
223078,-100,6,2,2,50,0,0
223401,-100,6,2,2,60,0,0
224046,-100,6,2,1,60,0,0
224691,-100,6,2,2,50,0,0
225014,-100,6,2,2,60,0,0
225336,-100,6,2,1,70,0,0
225982,-100,6,2,2,60,0,0
226304,-100,6,2,2,50,0,0
226627,-100,6,2,1,60,0,0
227272,-100,6,2,2,50,0,0
227595,-100,6,2,1,70,0,0
227917,-100,6,2,2,60,0,0
228240,-100,6,2,1,60,0,0
228562,-100,6,2,2,50,0,0
228885,-100,6,2,2,60,0,0
229207,-100,6,2,2,50,0,0
229530,-100,6,2,1,70,0,0
229853,-100,6,2,2,60,0,0
230175,-100,6,2,1,60,0,0
230820,-100,6,2,2,50,0,0
231143,-100,6,2,1,50,0,0
234369,-100,6,3,1,80,0,0
234853,-100,6,2,1,60,0,0
235014,-100,6,3,1,90,0,1
238240,-100,6,3,0,80,0,1
238401,-100,6,3,1,80,0,1
238562,-100,6,3,1,90,0,1
240820,-100,6,2,2,90,0,1
240982,-100,6,3,1,90,0,1
248885,-100,6,3,0,80,0,1
248939,-100,6,3,1,80,0,1
249046,-100,6,3,0,70,0,1
249100,-100,6,3,1,70,0,1
249207,-100,6,3,1,90,0,1
250014,-100,6,3,0,80,0,1
250336,-100,6,3,1,90,0,1
253724,-100,6,3,0,80,0,1
253885,-100,6,3,1,80,0,1
254046,-100,6,3,1,90,0,1
254369,-100,6,2,2,90,0,1
254530,-100,6,3,1,90,0,1
256304,-100,6,2,2,90,0,1
256465,-100,6,3,1,90,0,1
258240,-100,6,2,2,90,0,1
258320,-100,6,3,1,65,0,1
258562,-100,6,3,1,80,0,1
258643,-100,6,3,1,65,0,1
259207,-100,6,3,1,80,0,1
259288,-100,6,3,1,65,0,1
259853,-100,6,3,1,80,0,1
259934,-100,6,3,1,65,0,1
260175,-100,6,3,1,90,0,1
261143,-100,6,3,0,60,0,1
261465,-100,6,3,0,50,0,1
261788,-100,6,3,1,70,0,1
262111,-100,6,2,2,90,0,1
262272,-100,6,3,1,90,0,1
264046,-100,6,2,2,90,0,1
264207,-100,6,3,1,90,0,1
265336,-100,6,3,1,70,0,1
265498,-100,6,3,0,60,0,1
265659,-100,6,3,0,50,0,1
265821,-100,6,3,1,70,0,1
265982,-100,6,2,2,90,0,1
266304,-100,6,2,1,70,0,1
266949,-100,6,2,2,90,0,1
267272,-100,6,2,1,70,0,1
267594,-100,6,3,1,90,0,1
267917,322.58064516129,4,3,1,80,1,0
269046,-100,4,2,2,80,0,0
269207,-100,4,3,1,80,0,0
270336,-100,4,2,2,80,0,0
270497,-100,4,3,1,80,0,0
271626,-100,4,2,2,80,0,0
271787,-100,4,3,1,80,0,0
272433,-100,4,3,0,80,0,0
272594,-100,4,3,1,80,0,0
272917,-100,4,2,2,80,0,0
273078,-100,4,3,1,80,0,0
274207,-100,4,2,2,80,0,0
274368,-100,4,3,1,80,0,0
275497,-100,4,2,2,80,0,0
275658,-100,4,3,1,80,0,0
276787,-100,4,2,2,80,0,0
276948,-100,4,3,1,80,0,0
277433,-100,4,2,2,80,0,0
277594,-100,4,3,1,80,0,0
278239,-100,4,3,0,80,0,0
278400,-100,4,3,1,80,0,0
278884,-100,4,2,2,80,0,0
279046,-100,4,3,1,80,0,0
279207,-100,4,3,0,80,0,0
279368,-100,4,3,1,80,0,0
279529,-100,4,2,2,80,0,0
279691,-100,4,3,1,80,0,0
280175,-100,4,3,1,85,0,0
280336,-100,4,3,1,90,0,0
280497,-100,4,3,1,95,0,0
280658,-100,4,3,1,100,0,1
280820,-100,4,3,1,90,0,1
285820,-100,4,2,2,90,0,1
285981,-100,4,3,1,90,0,1
288562,-100,4,2,2,90,0,1
288723,-100,4,3,1,90,0,1
290658,-100,4,3,0,80,0,1
290820,-100,4,3,0,70,0,1
290981,-100,4,2,2,90,0,1
291142,-100,4,3,1,90,0,1
295820,-100,4,3,0,80,0,1
295982,-100,4,3,0,70,0,1
296142,-100,4,2,2,90,0,1
296303,-100,4,3,1,90,0,1
298884,-100,4,2,2,90,0,1
299045,-100,4,3,1,90,0,1
300013,-100,4,2,2,90,0,1
300174,-100,4,3,1,90,0,1
301465,-100,4,2,2,90,0,1
301626,-100,4,3,1,80,0,1
303884,-100,4,3,1,90,0,0
304852,-100,4,3,0,80,0,0
305013,-100,4,3,1,90,0,0
305228,-100,4,3,0,80,0,0
305336,-100,4,3,0,90,0,0
305390,-100,4,3,1,90,0,0
305497,-100,4,3,0,80,0,0
305551,-100,4,3,1,80,0,0
305820,-100,4,3,0,80,0,0
305873,-100,4,3,1,80,0,0
305981,-100,4,3,0,80,0,0
306304,-100,4,3,1,70,0,0
306465,-100,4,3,0,70,0,0
306505,-100,4,3,1,70,0,0
306586,-100,4,3,1,80,0,0
306949,-100,4,3,1,90,0,0
307271,-100,4,2,0,61,0,0
307594,-100,4,2,0,69,0,0
307916,-100,4,2,0,57,0,0
308239,-100,4,2,0,55,0,0
308562,-100,4,2,0,53,0,0
308885,-100,4,2,0,51,0,0
309207,-100,4,2,0,49,0,0
309530,-100,4,2,0,47,0,0
309853,-100,4,2,0,45,0,0
310175,-100,4,2,0,43,0,0
310498,-100,4,2,0,41,0,0
310820,-100,4,2,0,39,0,0
311143,-100,4,2,0,37,0,0
311466,-100,4,2,0,35,0,0
311787,-100,4,2,0,33,0,0
312110,-100,4,2,0,31,0,0
312432,-100,4,2,0,29,0,0
312755,-100,4,2,0,27,0,0
313078,-100,4,2,0,25,0,0
313400,-100,4,2,0,23,0,0
313723,-100,4,2,0,21,0,0
314045,-100,4,2,0,19,0,0
314368,-100,4,2,0,17,0,0
314691,-100,4,2,0,15,0,0
315013,-100,4,2,0,13,0,0
315336,-100,4,2,0,11,0,0
315658,-100,4,2,0,9,0,0
315981,-100,4,2,0,7,0,0
316304,-100,4,2,0,5,0,0

[Colours]
Combo1 : 150,75,50
Combo2 : 175,50,50
Combo3 : 200,100,50
Combo4 : 200,150,50
Combo5 : 75,150,75

[HitObjects]
360,240,1228,6,0,L|364:152,1,70,2|0,0:0|0:0,0:0:0:0:
160,136,1657,6,0,B|72:136|72:136|64:240|180:292,1,262.5,12|0,0:0|0:0,0:0:0:0:
264,304,2514,1,2,0:0:0:0:
464,192,2942,5,8,0:0:0:0:
312,160,3371,1,2,0:0:0:0:
464,136,3799,1,8,0:0:0:0:
264,208,4228,5,12,0:0:0:0:
112,232,4657,1,2,0:0:0:0:
264,264,5085,1,8,0:0:0:0:
464,192,5514,5,2,0:0:0:0:
312,168,5942,1,2,0:0:0:0:
256,72,6371,1,0,0:0:0:0:
456,80,6799,5,6,0:0:0:0:
128,128,7228,1,8,0:0:0:0:
280,152,7657,1,2,0:0:0:0:
80,208,8085,5,8,0:0:0:0:
232,192,8514,1,0,0:0:0:0:
384,176,8942,1,2,0:0:0:0:
184,40,9371,6,0,P|108:280|280:40,1,875,6|2,0:0|0:0,0:0:0:0:
184,40,11728,1,0,0:0:0:0:
392,80,11942,6,0,P|464:136|392:264,1,262.5,12|0,0:0|0:0,0:0:0:0:
288,264,12799,1,2,0:0:0:0:
88,200,13228,5,8,0:0:0:0:
240,176,13657,1,2,0:0:0:0:
88,160,14085,1,8,0:0:0:0:
288,144,14514,5,12,0:0:0:0:
440,160,14942,1,2,0:0:0:0:
288,176,15371,1,8,0:0:0:0:
88,208,15799,5,2,0:0:0:0:
240,224,16228,1,8,0:0:0:0:
296,320,16657,1,2,0:0:0:0:
96,320,17098,5,6,0:0:0:0:
440,256,17559,1,8,0:0:0:0:
256,192,18076,1,0,0:0:0:0:
72,128,18621,5,8,0:0:0:0:
256,128,19209,1,0,0:0:0:0:
440,128,19861,1,2,0:0:0:0:
192,128,20582,5,4,0:0:0:0:
256,192,20924,12,0,24353,0:0:0:0:
256,192,24696,5,6,0:0:0:0:
140,192,25018,2,0,P|80:160|146:60,1,210,6|0,0:0|0:0,0:0:0:0:
317,164,25986,6,0,L|136:59,2,210,2|0|8,0:0|0:0|0:0,0:0:0:0:
460,164,27276,5,2,0:0:0:0:
232,296,27921,2,0,L|224:144,1,140,8|0,0:0|0:0,0:0:0:0:
364,156,28566,6,0,P|408:112|356:72,1,140,2|0,0:0|0:0,0:0:0:0:
292,72,29050,1,0,0:0:0:0:
220,72,29212,2,0,L|98:142,1,140,2|8,0:0|0:0,0:0:0:0:
380,256,29857,6,0,L|384:100,1,140,6|6,0:0|0:0,0:0:0:0:
244,116,30502,2,0,L|100:116,1,140,8|0,0:0|0:0,0:0:0:0:
384,272,31147,6,0,P|368:188|272:116,2,210,2|2|8,0:0|0:0|0:0,0:0:0:0:
120,272,32437,6,0,L|116:124,1,140,2|0,0:0|0:0,0:0:0:0:
188,132,32921,1,0,0:0:0:0:
260,132,33083,2,0,L|398:52,1,140,8|2,0:0|0:0,0:0:0:0:
236,64,33728,6,0,L|232:216,1,140,6|6,0:0|0:0,0:0:0:0:
88,204,34373,2,0,L|8:204,2,70,8|8|8,0:0|0:0|0:0,0:0:0:0:
368,208,35018,6,0,L|508:208,1,140,6|8,0:0|0:0,0:0:0:0:
368,204,35663,2,0,L|364:128,1,70,2|2,0:0|0:0,0:0:0:0:
436,132,35986,1,8,0:0:0:0:
364,134,36147,6,0,L|212:134,1,140,2|2,0:0|0:0,0:0:0:0:
152,136,36631,1,8,0:0:0:0:
224,134,36792,2,0,P|264:90|224:30,1,140,2|2,0:0|0:0,0:0:0:0:
156,28,37276,1,8,0:0:0:0:
88,28,37437,1,0,0:0:0:0:
244,32,37599,6,0,L|388:32,1,140,2|8,0:0|0:0,0:0:0:0:
244,32,38244,2,0,L|192:88,2,70,2|0|8,0:0|0:0|0:0,0:0:0:0:
316,32,38728,6,0,P|360:80|316:128,1,140,2|0,0:0|0:0,0:0:0:0:
248,128,39212,1,8,0:0:0:0:
108,128,39534,2,0,L|104:224,1,70,8|2,0:0|0:0,0:0:0:0:
188,216,39857,2,0,L|272:216,1,70,8|2,0:0|0:0,0:0:0:0:
412,216,40179,5,6,0:0:0:0:
284,216,40502,1,8,0:0:0:0:
440,216,40825,2,0,B|440:288|440:288|360:288,1,140,2|8,0:0|0:0,0:0:0:0:
304,288,41308,1,2,0:0:0:0:
148,288,41470,6,0,P|104:244|148:192,1,140,0|8,0:0|0:0,0:0:0:0:
216,192,41954,1,0,0:0:0:0:
285,192,42115,2,0,L|145:192,1,140,2|8,0:0|0:0,0:0:0:0:
424,192,42760,6,0,P|464:148|420:92,1,140,6|8,0:0|0:0,0:0:0:0:
340,92,43244,2,0,L|196:92,1,140,6|2,0:0|0:0,0:0:0:0:
280,92,43728,1,8,0:0:0:0:
448,92,44050,6,0,L|452:200,1,70,8|2,0:0|0:0,0:0:0:0:
368,184,44373,2,0,L|316:236,1,70,8|2,0:0|0:0,0:0:0:0:
160,232,44695,1,8,0:0:0:0:
76,232,44857,1,8,0:0:0:0:
76,148,45018,1,8,0:0:0:0:
160,148,45179,1,8,0:0:0:0:
320,148,45341,6,0,B|392:148|392:148|392:72,1,140,6|8,0:0|0:0,0:0:0:0:
312,80,45825,2,0,L|172:80,1,140,2|2,0:0|0:0,0:0:0:0:
16,80,46308,2,0,P|4:156|20:224,1,140,6|0,0:0|0:0,0:0:0:0:
172,216,46954,5,2,0:0:0:0:
324,216,47276,2,0,L|376:168,1,70,8|2,0:0|0:0,0:0:0:0:
300,168,47599,2,0,L|248:120,1,70,2|8,0:0|0:0,0:0:0:0:
404,168,47921,6,0,B|464:128|464:128|404:96,1,140,6|0,0:0|0:0,0:0:0:0:
124,96,48566,2,0,L|120:24,1,70,8|6,0:0|0:0,0:0:0:0:
400,24,49050,6,0,B|400:96|400:96|320:96,1,140,2|8,0:0|0:0,0:0:0:0:
256,96,49534,1,8,0:0:0:0:
180,96,49695,1,2,0:0:0:0:
104,96,49857,2,0,L|100:180,1,70,8|2,0:0|0:0,0:0:0:0:
172,168,50179,1,8,0:0:0:0:
452,168,50502,6,0,P|480:236|436:308,1,140,6|8,0:0|0:0,0:0:0:0:
376,292,50986,2,0,L|300:292,2,70,2|2|8,0:0|0:0|0:0,0:0:0:0:
220,292,51470,6,0,P|176:248|220:192,1,140,6|0,0:0|0:0,0:0:0:0:
282,193,51954,1,2,0:0:0:0:
352,192,52115,1,8,0:0:0:0:
76,192,52437,2,0,L|72:108,1,70,8|2,0:0|0:0,0:0:0:0:
144,72,52760,2,0,L|228:72,1,70,8|8,0:0|0:0,0:0:0:0:
376,72,53083,6,0,B|448:72|448:72|372:72,1,140,6|8,0:0|0:0,0:0:0:0:
312,72,53566,1,0,0:0:0:0:
240,72,53728,2,0,L|236:212,1,140,2|8,0:0|0:0,0:0:0:0:
384,296,54373,6,0,L|376:128,1,140,2|8,0:0|0:0,0:0:0:0:
308,156,54857,1,2,0:0:0:0:
377,156,55018,2,0,L|498:86,1,140,8|8,0:0|0:0,0:0:0:0:
216,88,55663,6,0,B|144:88|144:88|144:168,1,140,6|8,0:0|0:0,0:0:0:0:
296,192,56308,1,2,0:0:0:0:
220,192,56470,1,2,0:0:0:0:
144,192,56631,1,8,0:0:0:0:
424,192,56954,6,0,B|424:120|424:120|348:120,1,140,6|8,0:0|0:0,0:0:0:0:
188,192,57599,1,2,0:0:0:0:
288,192,57760,1,2,0:0:0:0:
384,192,57921,2,0,L|388:272,1,70,8|0,0:0|0:0,0:0:0:0:
228,192,58244,5,6,0:0:0:0:
80,192,58728,1,6,0:0:0:0:
272,192,59212,1,6,0:0:0:0:
256,192,59534,12,0,60502,0:0:0:0:
412,88,60825,6,0,P|476:120|404:200,1,210,6|0,0:0|0:0,0:0:0:0:
336,240,61470,2,0,L|424:240,1,70,2|2,0:0|0:0,0:0:0:0:
248,288,61792,2,0,L|72:288,1,140,8|2,0:0|0:0,0:0:0:0:
232,288,62437,2,0,L|152:288,1,70,8|2,0:0|0:0,0:0:0:0:
320,144,62760,6,0,P|366:183|317:227,1,140,2|8,0:0|0:0,0:0:0:0:
232,112,63244,2,0,P|160:136|112:256,1,210,2|8,0:0|0:0,0:0:0:0:
192,256,63889,1,2,0:0:0:0:
360,232,64050,2,0,L|432:232,2,70,8|2|0,0:0|0:0|0:0,0:0:0:0:
104,120,64695,6,0,L|248:120,1,140,6|8,0:0|0:0,0:0:0:0:
400,152,65341,1,2,0:0:0:0:
392,208,65502,1,2,0:0:0:0:
320,216,65663,1,8,0:0:0:0:
152,256,65986,2,0,L|64:256,2,70,2|2|8,0:0|0:0|0:0,0:0:0:0:
408,200,66631,5,6,0:0:0:0:
480,176,66792,1,2,0:0:0:0:
480,104,66954,1,8,0:0:0:0:
408,72,67115,1,2,0:0:0:0:
248,112,67276,1,2,0:0:0:0:
176,128,67437,1,2,0:0:0:0:
168,200,67599,1,8,0:0:0:0:
328,224,67760,6,0,L|408:224,2,70,2|8|2,0:0|0:0|0:0,0:0:0:0:
256,272,68244,2,0,L|336:272,1,70,8|2,0:0|0:0,0:0:0:0:
160,96,68566,6,0,P|96:136|168:224,1,210,6|0,0:0|0:0,0:0:0:0:
240,240,69212,2,0,L|312:240,1,70,2|2,0:0|0:0,0:0:0:0:
152,208,69534,2,0,B|80:224|80:224|56:208|56:208|104:200|64:192|56:96,2,210.000008010865,8|2|8,0:0|0:0|0:0,0:0:0:0:
232,208,70341,1,2,0:0:0:0:
400,272,70502,6,0,P|440:248|400:184,1,140,2|8,0:0|0:0,0:0:0:0:
320,160,70986,2,0,L|248:160,2,70,2|2|2,0:0|0:0|0:0,0:0:0:0:
160,104,71470,2,0,B|88:104|88:104|88:184,1,140,8|8,0:0|0:0,0:0:0:0:
168,200,71954,2,0,L|88:200,1,70,2|8,0:0|0:0,0:0:0:0:
368,232,72437,6,0,L|376:160,1,70,6|2,0:0|0:0,0:0:0:0:
288,152,72760,2,0,L|440:152,1,140,8|8,0:0|0:0,0:0:0:0:
160,232,73405,2,0,L|152:160,1,70,2|2,0:0|0:0,0:0:0:0:
240,152,73728,2,0,L|88:152,1,140,8|8,0:0|0:0,0:0:0:0:
376,80,74373,6,0,L|448:80,1,70,6|0,0:0|0:0,0:0:0:0:
368,128,74695,2,0,L|272:128,1,70,8|8,0:0|0:0,0:0:0:0:
136,112,75018,1,12,0:0:0:0:
264,208,75341,2,0,P|328:192|352:112,1,140,8|8,0:0|0:0,0:0:0:0:
272,112,75824,1,8,0:0:0:0:
352,104,75986,2,0,L|424:104,1,70,8|2,0:0|0:0,0:0:0:0:
256,48,76308,6,0,B|192:48|168:48|168:48|168:56|144:72|120:104|96:152|184:192|118:268,1,315.000012016297,6|0,0:0|0:0,0:0:0:0:
288,296,76954,2,0,L|440:296,1,140
280,240,77599,2,0,L|440:240,1,140,2|10,0:0|0:0,0:0:0:0:
344,176,78083,1,2,0:0:0:0:
176,112,78244,6,0,B|104:112|104:112|200:112,1,140,2|8,0:0|0:0,0:0:0:0:
264,208,78728,2,0,P|328:232|344:304,1,140,2|2,0:0|0:0,0:0:0:0:
264,312,79212,2,0,L|176:312,1,70,8|0,0:0|0:0,0:0:0:0:
360,248,79534,2,0,L|448:248,2,70,8|2|0,0:0|0:0|0:0,0:0:0:0:
104,120,80179,6,0,L|88:264,1,140,6|8,0:0|0:0,0:0:0:0:
248,272,80824,2,0,L|320:272,1,70,2|2,0:0|0:0,0:0:0:0:
240,224,81147,2,0,L|168:224,1,70,8|0,0:0|0:0,0:0:0:0:
336,176,81631,2,0,L|408:176,1,70,0|8,0:0|0:0,0:0:0:0:
144,88,82115,5,6,0:0:0:0:
72,112,82276,1,0,0:0:0:0:
72,184,82437,1,8,0:0:0:0:
144,208,82599,1,2,0:0:0:0:
304,232,82760,1,8,0:0:0:0:
376,232,82921,1,2,0:0:0:0:
216,288,83083,5,8,0:0:0:0:
144,248,83244,1,2,0:0:0:0:
120,168,83405,1,8,0:0:0:0:
144,88,83566,1,2,0:0:0:0:
232,56,83728,2,0,L|144:56,1,70,8|8,0:0|0:0,0:0:0:0:
328,80,84050,6,0,P|392:136|304:208,1,210,6|2,0:0|0:0,0:0:0:0:
152,248,84695,2,0,L|136:104,1,140,2|10,0:0|0:0,0:0:0:0:
216,104,85179,1,2,0:0:0:0:
296,112,85341,2,0,L|280:256,1,140,2|10,0:0|0:0,0:0:0:0:
200,256,85824,1,2,0:0:0:0:
368,240,85986,6,0,P|408:216|368:152,1,140,8|8,0:0|0:0,0:0:0:0:
288,144,86470,2,0,L|144:144,1,140,2|2,0:0|0:0,0:0:0:0:
312,64,86954,1,4,0:0:0:0:
384,96,87115,1,4,0:0:0:0:
384,168,87276,1,8,0:0:0:0:
312,200,87437,1,8,0:0:0:0:
400,240,87599,2,0,L|408:168,1,70,2|2,0:0|0:0,0:0:0:0:
240,264,87921,6,0,L|88:264,2,140,6|2|2,0:0|0:0|0:0,0:0:0:0:
172,240,88728,1,2,0:0:0:0:
328,216,88889,2,0,L|472:216,2,140,8|8|2,0:0|0:0|0:0,0:0:0:0:
48,216,89857,5,6,0:0:0:0:
256,192,90179,12,2,93405,0:0:0:0:
252,192,93728,6,0,L|260:112,1,70,6|0,0:0|0:0,0:0:0:0:
148,52,94212,2,0,L|152:192,1,140,2|2,0:0|0:0,0:0:0:0:
220,192,94695,1,8,0:0:0:0:
292,192,94857,1,2,0:0:0:0:
292,192,95179,1,2,0:0:0:0:
152,192,95502,1,2,0:0:0:0:
84,192,95663,6,0,L|80:352,1,140,6|0,0:0|0:0,0:0:0:0:
220,332,96308,2,0,L|224:192,1,140,8|8,0:0|0:0,0:0:0:0:
364,192,96953,6,0,L|216:192,1,140,8|8,0:0|0:0,0:0:0:0:
380,192,97598,2,0,L|440:148,2,70,2|8|8,0:0|0:0|0:0,0:0:0:0:
100,192,98243,6,0,P|56:152|104:104,1,140,6|8,0:0|0:0,0:0:0:0:
172,104,98727,1,2,0:0:0:0:
240,104,98888,2,0,P|324:140|372:244,1,210,8|8,0:0|0:0,0:0:0:0:
216,304,99695,6,0,L|212:224,1,70,8|8,0:0|0:0,0:0:0:0:
364,212,100179,2,0,L|368:124,1,70,8|2,0:0|0:0,0:0:0:0:
228,144,100663,1,8,0:0:0:0:
297,142,100824,6,0,L|377:142,2,70,2|2|8,0:0|0:0|0:0,0:0:0:0:
32,144,101469,1,8,0:0:0:0:
20,76,101630,1,2,0:0:0:0:
56,16,101792,1,2,0:0:0:0:
124,12,101953,1,2,0:0:0:0:
272,100,102275,6,0,L|196:100,1,70,8|2,0:0|0:0,0:0:0:0:
60,192,102759,1,8,0:0:0:0:
144,192,102921,1,8,0:0:0:0:
228,192,103082,1,2,0:0:0:0:
312,192,103243,1,8,0:0:0:0:
156,280,103404,6,0,L|8:280,1,140,6|2,0:0|0:0,0:0:0:0:
300,280,104050,2,0,L|376:280,1,70,8|2,0:0|0:0,0:0:0:0:
288,280,104372,2,0,L|208:280,1,70,8|2,0:0|0:0,0:0:0:0:
496,280,104856,6,0,L|492:204,1,70,8|2,0:0|0:0,0:0:0:0:
340,192,105340,1,8,0:0:0:0:
268,172,105501,1,2,0:0:0:0:
268,96,105662,1,2,0:0:0:0:
340,68,105824,1,8,0:0:0:0:
496,68,105985,6,0,L|504:132,2,35,8|8|8,0:0|0:0|0:0,0:0:0:0:
328,160,106469,2,0,L|324:220,2,35,8|8|8,0:0|0:0|0:0,0:0:0:0:
256,192,107114,12,6,108566,0:0:0:0:
256,192,116308,12,2,118082,0:0:0:0:
200,192,118404,5,8,0:0:0:0:
124,192,118566,1,8,0:0:0:0:
200,192,118727,1,8,0:0:0:0:
356,192,118888,6,0,B|428:192|428:192|428:124,1,140,6|8,0:0|0:0,0:0:0:0:
360,120,119372,1,0,0:0:0:0:
288,122,119533,2,0,L|222:83,2,70,2|2|8,0:0|0:0|0:0,0:0:0:0:
360,120,120017,6,0,L|208:120,1,140,2|2,0:0|0:0,0:0:0:0:
144,120,120501,1,8,0:0:0:0:
288,120,120824,2,0,L|292:40,1,70,0|2,0:0|0:0,0:0:0:0:
216,52,121146,1,8,0:0:0:0:
148,52,121308,1,2,0:0:0:0:
304,48,121469,5,2,0:0:0:0:
432,48,121792,2,0,L|360:48,1,70,8|0,0:0|0:0,0:0:0:0:
292,48,122114,2,0,L|436:48,1,140,2|8,0:0|0:0,0:0:0:0:
276,48,122759,6,0,B|204:48|204:48|204:116,1,140,0|8,0:0|0:0,0:0:0:0:
280,116,123243,1,2,0:0:0:0:
356,116,123404,2,0,L|360:212,1,70,8|2,0:0|0:0,0:0:0:0:
278,204,123727,2,0,L|194:204,1,70,8|8,0:0|0:0,0:0:0:0:
52,208,124050,6,0,L|44:296,1,70,6|2,0:0|0:0,0:0:0:0:
112,296,124372,1,8,0:0:0:0:
252,296,124695,2,0,B|100:296,1,140,2|8,0:0|0:0,0:0:0:0:
180,296,125179,1,2,0:0:0:0:
336,296,125340,6,0,P|380:252|336:200,1,140,0|8,0:0|0:0,0:0:0:0:
268,200,125824,1,2,0:0:0:0:
199,200,125985,2,0,L|56:192,1,140,8|8,0:0|0:0,0:0:0:0:
340,192,126630,6,0,L|408:160,2,70,6|2|8,0:0|0:0|0:0,0:0:0:0:
268,192,127114,2,0,L|124:192,1,140,6|2,0:0|0:0,0:0:0:0:
208,192,127598,1,8,0:0:0:0:
480,44,127921,6,0,L|496:112,2,70,8|8|8,0:0|0:0|0:0,0:0:0:0:
392,44,128404,1,8,0:0:0:0:
356,44,128485,1,8,0:0:0:0:
320,44,128566,1,2,0:0:0:0:
160,44,128727,1,8,0:0:0:0:
76,44,128888,1,8,0:0:0:0:
160,44,129050,1,2,0:0:0:0:
328,296,129211,6,0,P|404:240|328:144,1,245.000002336502,6|8,0:0|0:0,0:0:0:0:
248,144,129695,2,0,P|184:168|160:240,1,140,2|2,0:0|0:0,0:0:0:0:
328,88,130179,2,0,P|416:136|328:248,1,280,6|8,0:0|0:0,0:0:0:0:
248,248,130985,6,0,L|176:248,2,70,2|8|2,0:0|0:0|0:0,0:0:0:0:
328,216,131469,2,0,L|336:144,1,70,2|8,0:0|0:0,0:0:0:0:
168,144,131792,6,0,L|16:144,1,140,6|2,0:0|0:0,0:0:0:0:
184,88,132437,2,0,L|104:88,1,70,8|2,0:0|0:0,0:0:0:0:
384,64,132921,2,0,P|360:128|296:144,1,140,2|2,0:0|0:0,0:0:0:0:
216,208,133404,6,0,L|128:208,2,70,10|8|2,0:0|0:0|0:0,0:0:0:0:
368,224,134050,2,0,L|376:152,1,70,8|8,0:0|0:0,0:0:0:0:
208,104,134372,6,0,B|136:104|136:104|128:192,1,140,6|8,0:0|0:0,0:0:0:0:
216,184,134856,2,0,L|368:184,1,140,2|2,0:0|0:0,0:0:0:0:
184,304,135340,2,0,P|112:272|192:128,1,280,6|8,0:0|0:0,0:0:0:0:
344,128,136308,5,8,0:0:0:0:
416,160,136469,1,2,0:0:0:0:
416,240,136630,1,8,0:0:0:0:
344,264,136792,1,8,0:0:0:0:
176,104,136953,6,0,P|120:136|184:240,1,210,6|0,0:0|0:0,0:0:0:0:
264,248,137598,2,0,P|320:232|344:152,1,140,2|8,0:0|0:0,0:0:0:0:
192,176,138243,6,0,L|176:32,1,140,2|8,0:0|0:0,0:0:0:0:
256,48,138727,2,0,L|344:48,2,70,2|2|2,0:0|0:0|0:0,0:0:0:0:
176,104,139211,2,0,L|168:176,1,70,8|2,0:0|0:0,0:0:0:0:
336,208,139533,5,2,0:0:0:0:
416,184,139695,2,0,L|424:112,1,70,2|8,0:0|0:0,0:0:0:0:
264,168,140179,2,0,L|184:168,2,70,2|2|8,0:0|0:0|0:0,0:0:0:0:
424,224,140824,6,0,L|416:293,1,70,2|2,0:0|0:0,0:0:0:0:
336,317,141146,1,8,0:0:0:0:
72,248,141469,1,2,0:0:0:0:
64,184,141630,1,2,0:0:0:0:
56,120,141792,1,8,0:0:0:0:
336,80,142114,5,6,0:0:0:0:
120,80,142598,1,6,0:0:0:0:
440,72,143082,1,6,0:0:0:0:
256,192,143404,12,2,144372,0:0:0:0:
320,264,144695,6,0,P|340:192|328:128,1,140,6|8,0:0|0:0,0:0:0:0:
244,128,145178,2,0,L|115:54,1,140,2|2,0:0|0:0,0:0:0:0:
208,60,145662,1,8,0:0:0:0:
348,60,145985,2,0,L|424:60,1,70,2|2,0:0|0:0,0:0:0:0:
418,60,146307,1,8,0:0:0:0:
136,60,146630,6,0,P|92:108|140:152,1,140,2|8,0:0|0:0,0:0:0:0:
220,152,147114,2,0,P|264:200|216:244,1,140,2|2,0:0|0:0,0:0:0:0:
136,244,147598,1,8,0:0:0:0:
260,244,147920,2,0,L|264:320,1,70,8|2,0:0|0:0,0:0:0:0:
188,276,148243,2,0,L|116:276,1,70,8|0,0:0|0:0,0:0:0:0:
276,244,148565,6,0,L|408:192,1,140,6|8,0:0|0:0,0:0:0:0:
236,152,149211,1,2,0:0:0:0:
301,126,149372,1,2,0:0:0:0:
366,100,149533,1,8,0:0:0:0:
212,152,149856,2,0,L|148:124,2,70,2|2|8,0:0|0:0|0:0,0:0:0:0:
492,152,150501,6,0,B|492:80|492:80|424:52,1,140,6|8,0:0|0:0,0:0:0:0:
360,56,150985,1,2,0:0:0:0:
292,56,151146,2,0,L|212:56,2,70,2|2|8,0:0|0:0|0:0,0:0:0:0:
152,56,151791,2,0,L|144:152,1,70,8|2,0:0|0:0,0:0:0:0:
304,56,152114,2,0,L|380:56,1,70,8|2,0:0|0:0,0:0:0:0:
216,56,152436,6,0,B|144:56|144:56|136:148,1,140,6|8,0:0|0:0,0:0:0:0:
216,124,152920,1,0,0:0:0:0:
138,123,153082,2,0,L|72:161,2,70,2|2|8,0:0|0:0|0:0,0:0:0:0:
292,176,153727,1,2,0:0:0:0:
215,148,153888,1,2,0:0:0:0:
138,123,154049,1,8,0:0:0:0:
420,124,154372,6,0,P|464:168|420:216,1,140,2|8,0:0|0:0,0:0:0:0:
344,216,154856,1,2,0:0:0:0:
420,216,155017,2,0,L|488:192,1,70,2|2,0:0|0:0,0:0:0:0:
328,216,155340,1,8,0:0:0:0:
188,216,155662,2,0,L|184:280,1,35,8|8,0:0|0:0,0:0:0:0:
224,288,155824,1,2,0:0:0:0:
312,288,155985,1,8,0:0:0:0:
32,288,156307,6,0,B|153:218,2,140,6|8|8,0:0|0:0|0:0,0:0:0:0:
312,192,157275,1,6,0:0:0:0:
172,192,157598,1,8,0:0:0:0:
324,192,157920,1,8,0:0:0:0:
44,192,158243,6,0,P|4:140|44:88,1,140,8|8,0:0|0:0,0:0:0:0:
112,88,158727,1,2,0:0:0:0:
268,88,158888,1,8,0:0:0:0:
408,88,159211,2,0,L|412:12,1,70,2|8,0:0|0:0,0:0:0:0:
316,16,159533,2,0,L|272:16,2,35,8|8|8,0:0|0:0|0:0,0:0:0:0:
408,88,159856,1,2,0:0:0:0:
443,88,159936,1,2,0:0:0:0:
478,88,160017,1,2,0:0:0:0:
316,92,160178,6,0,L|164:92,1,140,6|8,0:0|0:0,0:0:0:0:
104,92,160662,1,2,0:0:0:0:
180,92,160824,2,0,L|256:92,1,70,2|2,0:0|0:0,0:0:0:0:
250,92,161146,1,8,0:0:0:0:
104,92,161469,1,2,0:0:0:0:
384,92,161791,2,0,L|388:176,1,70,8|2,0:0|0:0,0:0:0:0:
228,192,162114,6,0,B|168:228|168:228|228:264,1,140,2|8,0:0|0:0,0:0:0:0:
304,260,162598,2,0,L|428:192,1,140,2|2,0:0|0:0,0:0:0:0:
356,192,163082,2,0,L|272:192,1,70,8|2,0:0|0:0,0:0:0:0:
208,192,163404,2,0,L|200:140,2,35,8|8|2,0:0|0:0|0:0,0:0:0:0:
368,192,163727,2,0,L|372:112,1,70,8|0,0:0|0:0,0:0:0:0:
212,68,164049,6,0,L|48:68,1,140,6|8,0:0|0:0,0:0:0:0:
232,192,164694,2,0,L|236:116,1,70,2|2,0:0|0:0,0:0:0:0:
144,160,165017,2,0,L|152:244,1,70,8|2,0:0|0:0,0:0:0:0:
232,192,165340,2,0,L|384:192,1,140,2|8,0:0|0:0,0:0:0:0:
92,320,165985,6,0,L|248:320,1,140,8|8,0:0|0:0,0:0:0:0:
308,320,166469,1,2,0:0:0:0:
224,320,166630,2,0,L|220:244,1,70,8|2,0:0|0:0,0:0:0:0:
380,320,166953,2,0,L|456:320,1,70,8|2,0:0|0:0,0:0:0:0:
368,320,167275,2,0,L|360:244,1,70,8|2,0:0|0:0,0:0:0:0:
452,192,167598,2,0,L|364:192,1,70,8|8,0:0|0:0,0:0:0:0:
224,192,167920,6,0,P|180:144|220:96,1,140,6|10,0:0|0:0,0:0:0:0:
280,104,168404,1,2,0:0:0:0:
220,95,168565,1,2,0:0:0:0:
152,96,168727,1,2,0:0:0:0:
84,96,168888,1,10,0:0:0:0:
252,96,169211,2,0,L|236:240,1,140,2|8,0:0|0:0,0:0:0:0:
160,232,169694,1,2,0:0:0:0:
320,236,169856,6,0,B|392:236|392:236|392:308,1,140,8|8,0:0|0:0,0:0:0:0:
316,304,170340,1,2,0:0:0:0:
276,236,170501,1,8,0:0:0:0:
320,172,170662,1,2,0:0:0:0:
476,172,170824,1,4,0:0:0:0:
364,172,171146,1,8,0:0:0:0:
448,172,171307,1,8,0:0:0:0:
372,172,171469,2,0,L|292:172,1,70,2|2,0:0|0:0,0:0:0:0:
140,172,171791,6,0,P|76:152|48:88,2,140,4|10|10,0:0|0:0|0:0,0:0:0:0:
212,172,172598,1,2,0:0:0:0:
372,172,172759,2,0,L|376:76,1,70,8|8,0:0|0:0,0:0:0:0:
304,100,173082,2,0,L|184:184,1,140,8|2,0:0|0:0,0:0:0:0:
336,80,173727,6,0,P|408:116|416:180,1,140,2|2,0:0|0:0,0:0:0:0:
144,216,174372,2,0,L|136:144,1,70,8|2,0:0|0:0,0:0:0:0:
400,104,174855,6,0,L|176:104,1,210,6|2,0:0|0:0,0:0:0:0:
344,168,175661,1,8,0:0:0:0:
416,176,175822,2,0,L|424:248,1,70,0|0,0:0|0:0,0:0:0:0:
264,280,176145,6,0,L|120:280,1,140,2|0,0:0|0:0,0:0:0:0:
200,248,176629,2,0,L|352:248,1,140,2|8,0:0|0:0,0:0:0:0:
412,108,177113,2,0,L|408:180,1,70,2|0,0:0|0:0,0:0:0:0:
244,112,177435,6,0,P|188:136|260:232,1,210,6|2,0:0|0:0,0:0:0:0:
396,208,178242,2,0,L|476:208,2,70,8|0|2,0:0|0:0|0:0,0:0:0:0:
236,184,178725,6,0,L|220:40,1,140,2|2,0:0|0:0,0:0:0:0:
308,32,179209,2,0,L|324:176,1,140,2|8,0:0|0:0,0:0:0:0:
244,192,179693,2,0,L|164:192,1,70,2|8,0:0|0:0,0:0:0:0:
340,264,180016,6,0,B|476:264|476:264|484:184,1,210,6|2,0:0|0:0,0:0:0:0:
332,136,180822,1,8,0:0:0:0:
404,128,180984,1,2,0:0:0:0:
476,120,181145,1,0,0:0:0:0:
308,56,181306,6,0,P|236:88|220:160,1,140,2|8,0:0|0:0,0:0:0:0:
300,152,181790,1,2,0:0:0:0:
444,196,182113,2,0,L|452:268,1,70,8|2,0:0|0:0,0:0:0:0:
380,276,182435,1,0,0:0:0:0:
308,276,182596,6,0,L|220:276,1,70,8|0,0:0|0:0,0:0:0:0:
80,192,182919,2,0,B|8:192|8:192|88:192,1,140,12|2,0:0|0:0,0:0:0:0:
152,192,183403,2,0,L|224:192,2,70,8|2|2,0:0|0:0|0:0,0:0:0:0:
312,192,183887,6,0,B|384:192|384:192|384:264,1,140,12|2,0:0|0:0,0:0:0:0:
308,260,184371,1,8,0:0:0:0:
168,260,184693,2,0,L|160:188,1,70,8|2,0:0|0:0,0:0:0:0:
236,172,185016,1,8,0:0:0:0:
396,124,185177,6,0,B|468:124|468:124|392:124,1,140,6|8,0:0|0:0,0:0:0:0:
328,124,185661,2,0,L|248:124,1,70,2|2,0:0|0:0,0:0:0:0:
100,244,185984,1,8,0:0:0:0:
28,228,186145,2,0,L|20:156,1,70,2|0,0:0|0:0,0:0:0:0:
180,172,186467,6,0,L|324:172,1,140,2|8,0:0|0:0,0:0:0:0:
248,72,186951,1,2,0:0:0:0:
168,88,187113,1,2,0:0:0:0:
244,112,187274,1,8,0:0:0:0:
384,112,187596,1,0,0:0:0:0:
216,184,187758,6,0,P|136:208|112:328,1,210,6|2,0:0|0:0,0:0:0:0:
256,296,188564,2,0,L|336:296,2,70,8|2|8,0:0|0:0|0:0,0:0:0:0:
104,240,189209,5,2,0:0:0:0:
184,216,189371,2,0,L|192:144,1,70,8|2,0:0|0:0,0:0:0:0:
112,120,189693,1,2,0:0:0:0:
272,88,189855,2,0,L|424:88,1,140,8|8,0:0|0:0,0:0:0:0:
240,176,190338,6,0,B|136:176|136:176|120:280,1,210,6|2,0:0|0:0,0:0:0:0:
280,288,191145,1,8,0:0:0:0:
356,260,191306,2,0,L|360:188,1,70,0|2,0:0|0:0,0:0:0:0:
276,176,191629,5,2,0:0:0:0:
440,200,191790,2,0,L|448:128,1,70,8|2,0:0|0:0,0:0:0:0:
368,112,192113,2,0,L|288:112,1,70,8|2,0:0|0:0,0:0:0:0:
377,130,192435,2,0,L|453:130,1,70,8|2,0:0|0:0,0:0:0:0:
372,208,192758,1,8,0:0:0:0:
204,256,192919,6,0,B|132:256|132:256|220:256,1,140,6|0,0:0|0:0,0:0:0:0:
292,256,193403,1,2,0:0:0:0:
448,200,193725,2,0,L|440:128,1,70,8|2,0:0|0:0,0:0:0:0:
368,112,194048,1,8,0:0:0:0:
200,112,194209,6,0,B|128:112|128:112|204:112,1,140,6|2,0:0|0:0,0:0:0:0:
272,112,194692,2,0,L|352:112,1,70,8|0,0:0|0:0,0:0:0:0:
264,112,195015,1,2,0:0:0:0:
188,112,195176,1,2,0:0:0:0:
180,36,195337,1,8,0:0:0:0:
348,36,195499,6,0,B|420:36|420:36|420:108,1,140,2|2,0:0|0:0,0:0:0:0:
344,104,195982,2,0,L|340:192,1,70,8|0,0:0|0:0,0:0:0:0:
420,176,196305,2,0,L|504:176,1,70,2|2,0:0|0:0,0:0:0:0:
208,176,196789,6,0,L|60:176,1,140,2|2,0:0|0:0,0:0:0:0:
144,176,197273,1,8,0:0:0:0:
212,140,197434,1,0,0:0:0:0:
204,64,197595,1,2,0:0:0:0:
132,40,197757,1,2,0:0:0:0:
56,40,197918,2,0,L|52:136,1,70,8|0,0:0|0:0,0:0:0:0:
128,108,198240,6,0,L|204:108,2,70,2|2|8,0:0|0:0|0:0,0:0:0:0:
204,108,198724,2,0,P|240:168|200:216,1,140,2|2,0:0|0:0,0:0:0:0:
124,216,199208,1,8,0:0:0:0:
292,216,199370,6,0,L|432:192,1,140,6|2,0:0|0:0,0:0:0:0:
429,192,199853,1,8,0:0:0:0:
276,196,200176,2,0,L|272:288,1,70,2|2,0:0|0:0,0:0:0:0:
352,264,200499,2,0,L|276:264,1,70,8|2,0:0|0:0,0:0:0:0:
204,264,200821,5,2,0:0:0:0:
128,264,200982,1,2,0:0:0:0:
204,264,201144,1,8,0:0:0:0:
372,264,201305,2,0,P|412:228|368:168,1,140,2|2,0:0|0:0,0:0:0:0:
292,168,201789,1,8,0:0:0:0:
124,168,201950,6,0,P|88:132|128:60,1,140,2|2,0:0|0:0,0:0:0:0:
192,60,202434,1,8,0:0:0:0:
472,60,202757,2,0,L|480:140,1,70,2|2,0:0|0:0,0:0:0:0:
412,144,203079,1,8,0:0:0:0:
244,144,203240,6,0,L|104:144,1,140,2|2,0:0|0:0,0:0:0:0:
180,144,203724,2,0,L|272:144,1,70,8|2,0:0|0:0,0:0:0:0:
80,144,204047,1,0,0:0:0:0:
12,144,204208,2,0,P|4:196|68:244,1,140,6|2,0:0|0:0,0:0:0:0:
236,244,204692,6,0,L|328:244,1,70,2|2,0:0|0:0,0:0:0:0:
228,244,205015,2,0,L|224:192,2,35,8|0|2,0:0|0:0|0:0,0:0:0:0:
152,244,205337,2,0,L|224:244,1,70,2|2,0:0|0:0,0:0:0:0:
300,244,205660,1,8,0:0:0:0:
269,226,205740,1,2,0:0:0:0:
238,209,205821,1,2,0:0:0:0:
72,208,205982,6,0,L|64:108,1,70,2|2,0:0|0:0,0:0:0:0:
108,132,206224,1,0,0:0:0:0:
148,124,206305,1,8,0:0:0:0:
232,124,206466,1,2,0:0:0:0:
64,140,206628,1,2,0:0:0:0:
65,105,206708,1,2,0:0:0:0:
66,70,206789,1,2,0:0:0:0:
152,32,206950,1,10,0:0:0:0:
187,32,207031,1,2,0:0:0:0:
222,32,207111,1,2,0:0:0:0:
392,32,207273,6,0,L|396:132,1,70,2|2,0:0|0:0,0:0:0:0:
312,136,207595,2,0,L|268:136,2,35,8|2|2,0:0|0:0|0:0,0:0:0:0:
392,32,207918,2,0,L|476:32,1,70,2|2,0:0|0:0,0:0:0:0:
380,32,208240,2,0,L|376:120,1,70,8|2,0:0|0:0,0:0:0:0:
208,104,208563,6,0,L|136:104,1,70,2|2,0:0|0:0,0:0:0:0:
112,136,208805,1,0,0:0:0:0:
140,168,208886,2,0,L|216:168,1,70,8|2,0:0|0:0,0:0:0:0:
376,168,209208,2,0,L|384:256,1,70,8|6,0:0|0:0,0:0:0:0:
96,236,209692,6,0,P|40:208|92:132,1,175,2|2,0:0|0:0,0:0:0:0:
164,132,210176,1,8,0:0:0:0:
304,136,210499,2,0,L|308:60,1,70,2|2,0:0|0:0,0:0:0:0:
236,64,210821,1,8,0:0:0:0:
312,64,210982,6,0,B|384:64|384:64|384:136,1,140,2|2,0:0|0:0,0:0:0:0:
308,132,211466,2,0,L|224:132,1,70,8|2,0:0|0:0,0:0:0:0:
404,132,211789,1,8,0:0:0:0:
472,132,211950,2,0,L|476:208,1,70,2|8,0:0|0:0,0:0:0:0:
192,200,212434,6,0,B|120:200|120:200|196:200,1,140,6|8,0:0|0:0,0:0:0:0:
260,200,212918,1,2,0:0:0:0:
184,200,213079,1,8,0:0:0:0:
112,176,213240,1,2,0:0:0:0:
112,100,213402,1,8,0:0:0:0:
184,72,213563,1,2,0:0:0:0:
352,72,213724,6,0,L|428:72,2,70,8|2|8,0:0|0:0|0:0,0:0:0:0:
276,72,214208,1,2,0:0:0:0:
200,72,214369,1,8,0:0:0:0:
198,106,214450,1,8,0:0:0:0:
197,141,214531,1,8,0:0:0:0:
280,192,214692,1,2,0:0:0:0:
315,192,214773,1,2,0:0:0:0:
350,192,214853,1,2,0:0:0:0:
180,192,215015,5,6,0:0:0:0:
256,192,215337,12,0,217273,0:0:0:0:
216,316,217595,6,0,L|224:36,1,280,8|8,0:0|0:0,0:0:0:0:
392,36,218885,2,0,L|248:36,1,140,2|2,0:0|0:0,0:0:0:0:
124,36,219530,6,0,P|56:80|140:216,1,280,8|8,0:0|0:0,0:0:0:0:
268,216,220498,2,0,L|280:76,2,140,2|2|6,0:0|0:0|0:0,0:0:0:0:
148,216,221465,6,0,L|8:192,2,140,2|2|8,0:0|0:0|0:0,0:0:0:0:
276,216,222433,2,0,P|364:188|436:24,1,280,8|2,0:0|0:0,0:0:0:0:
312,28,223401,5,8,0:0:0:0:
101,28,224369,1,2,0:0:0:0:
284,28,225014,1,8,0:0:0:0:
144,28,225336,6,0,P|60:76|152:192,1,280,2|8,0:0|0:0,0:0:0:0:
368,192,226627,2,0,L|228:192,1,140,8|2,0:0|0:0,0:0:0:0:
88,192,227272,6,0,P|8:272|112:364,1,280,2|8,0:0|0:0,0:0:0:0:
248,364,228240,2,0,L|260:56,1,280,4|8,0:0|0:0,0:0:0:0:
132,192,229207,5,2,0:0:0:0:
48,100,229530,1,2,0:0:0:0:
152,24,229853,1,8,0:0:0:0:
292,24,230175,2,0,L|427:101,2,140,8|2|2,0:0|0:0|0:0,0:0:0:0:
152,24,231143,5,2,0:0:0:0:
128,192,234369,6,0,L|124:108,1,70,8|8,0:0|0:0,0:0:0:0:
360,104,235014,6,0,P|296:224|200:232,1,210,6|2,0:0|0:0,0:0:0:0:
312,256,235659,2,0,L|392:256,1,70,2|2,0:0|0:0,0:0:0:0:
208,168,235982,2,0,L|56:168,2,140,8|2|8,0:0|0:0|0:0,0:0:0:0:
368,128,236949,6,0,L|384:272,1,140,2|8,0:0|0:0,0:0:0:0:
288,168,237433,2,0,P|234:218|302:267,1,140,2|2,0:0|0:0,0:0:0:0:
344,312,237917,2,0,L|264:312,1,70,8|2,0:0|0:0,0:0:0:0:
104,256,238240,2,0,L|96:184,1,70,8|2,0:0|0:0,0:0:0:0:
168,168,238562,1,8,0:0:0:0:
424,112,238885,6,0,L|256:112,1,140,2|8,0:0|0:0,0:0:0:0:
440,168,239530,2,0,L|368:168,1,70,2|2,0:0|0:0,0:0:0:0:
200,184,239853,2,0,P|128:216|120:296,1,140,8|2,0:0|0:0,0:0:0:0:
192,280,240336,2,0,L|120:280,1,70,2|8,0:0|0:0,0:0:0:0:
400,240,240820,5,6,0:0:0:0:
392,176,240982,1,0,0:0:0:0:
344,128,241143,1,8,0:0:0:0:
272,112,241304,1,2,0:0:0:0:
104,152,241465,2,0,L|24:152,2,70,2|2|8,0:0|0:0|0:0,0:0:0:0:
272,256,241949,5,2,0:0:0:0:
344,232,242111,2,0,L|352:160,1,70,10|2,0:0|0:0,0:0:0:0:
272,144,242433,2,0,L|192:144,1,70,8|2,0:0|0:0,0:0:0:0:
368,80,242756,6,0,P|434:121|363:199,1,210,6|0,0:0|0:0,0:0:0:0:
192,224,243401,2,0,P|128:192|104:120,1,140,2|8,0:0|0:0,0:0:0:0:
272,144,244046,2,0,P|336:112|360:40,1,140,2|8,0:0|0:0,0:0:0:0:
88,256,244691,6,0,L|272:256,1,140,2|8,0:0|0:0,0:0:0:0:
160,232,245175,1,2,0:0:0:0:
88,208,245336,2,0,L|80:136,1,70,2|2,0:0|0:0,0:0:0:0:
248,96,245659,2,0,B|320:96|320:96|336:168,1,140,8|2,0:0|0:0,0:0:0:0:
256,200,246143,1,2,0:0:0:0:
336,248,246304,2,0,L|344:176,1,70,8|8,0:0|0:0,0:0:0:0:
176,296,246627,6,0,L|104:296,1,70,2|2,0:0|0:0,0:0:0:0:
192,248,246949,2,0,L|56:216,1,140,8|8,0:0|0:0,0:0:0:0:
336,296,247594,2,0,L|408:296,1,70,8|0,0:0|0:0,0:0:0:0:
320,248,247917,2,0,L|456:216,1,140,8|8,0:0|0:0,0:0:0:0:
192,88,248562,6,0,L|120:88,1,70,8|2,0:0|0:0,0:0:0:0:
208,136,248885,2,0,B|280:136|280:136|144:136,1,140,4|12,0:0|0:0,0:0:0:0:
128,144,249369,1,2,0:0:0:0:
296,232,249530,2,0,L|456:232,1,140,8|8,0:0|0:0,0:0:0:0:
360,200,250014,1,4,0:0:0:0:
360,136,250175,1,8,0:0:0:0:
432,112,250336,1,2,0:0:0:0:
264,72,250498,6,0,P|200:112|264:200,1,210,6|2,0:0|0:0,0:0:0:0:
344,200,251143,2,0,L|416:200,1,70,2|2,0:0|0:0,0:0:0:0:
248,272,251465,2,0,L|56:272,1,140,8|2,0:0|0:0,0:0:0:0:
264,208,252111,2,0,L|344:208,1,70,8|0,0:0|0:0,0:0:0:0:
168,240,252433,6,0,L|152:96,1,140,2|8,0:0|0:0,0:0:0:0:
232,112,252917,2,0,L|384:112,1,140,2|2,0:0|0:0,0:0:0:0:
296,152,253401,2,0,L|208:152,1,70,8|2,0:0|0:0,0:0:0:0:
392,208,253724,2,0,L|480:208,2,70,8|2|0,0:0|0:0|0:0,0:0:0:0:
136,224,254369,5,6,0:0:0:0:
392,208,254691,2,0,L|408:64,1,140,8|2,0:0|0:0,0:0:0:0:
328,72,255175,1,2,0:0:0:0:
160,120,255336,2,0,L|80:120,2,70,8|0|2,0:0|0:0|0:0,0:0:0:0:
328,120,255982,1,8,0:0:0:0:
72,192,256304,5,6,0:0:0:0:
80,248,256465,1,0,0:0:0:0:
128,288,256627,1,8,0:0:0:0:
200,296,256788,1,2,0:0:0:0:
368,264,256949,2,0,L|376:192,1,70,8|2,0:0|0:0,0:0:0:0:
208,104,257272,5,10,0:0:0:0:
136,128,257433,1,2,0:0:0:0:
136,192,257594,1,10,0:0:0:0:
208,216,257756,1,2,0:0:0:0:
280,240,257917,2,0,L|288:312,1,70,8|8,0:0|0:0,0:0:0:0:
120,312,258240,6,0,P|136:224|272:192,1,210,6|2,0:0|0:0,0:0:0:0:
160,160,258885,2,0,L|152:88,1,70,2|2,0:0|0:0,0:0:0:0:
320,64,259207,2,0,P|400:112|400:192,2,140,10|2|10,0:0|0:0|0:0,0:0:0:0:
248,64,260014,1,2,0:0:0:0:
80,104,260175,6,0,L|64:248,1,140,10|8,0:0|0:0,0:0:0:0:
144,256,260659,2,0,L|216:256,2,70,10|10|10,0:0|0:0|0:0,0:0:0:0:
312,312,261143,1,4,0:0:0:0:
376,288,261304,1,4,0:0:0:0:
424,240,261465,1,8,0:0:0:0:
440,176,261627,1,8,0:0:0:0:
424,112,261788,1,2,0:0:0:0:
376,72,261949,1,2,0:0:0:0:
208,192,262111,6,0,L|136:192,1,70,6|0,0:0|0:0,0:0:0:0:
64,192,262433,2,0,L|48:48,1,140,8|8,0:0|0:0,0:0:0:0:
304,192,263078,2,0,L|376:192,1,70,8|0,0:0|0:0,0:0:0:0:
448,192,263401,2,0,L|464:48,1,140,2|8,0:0|0:0,0:0:0:0:
208,64,264046,5,6,0:0:0:0:
136,96,264207,1,2,0:0:0:0:
136,168,264369,1,8,0:0:0:0:
208,200,264530,1,2,0:0:0:0:
120,232,264691,2,0,L|112:304,1,70,8|2,0:0|0:0,0:0:0:0:
288,272,265014,5,8,0:0:0:0:
360,240,265175,1,2,0:0:0:0:
360,176,265336,1,8,0:0:0:0:
288,152,265498,1,4,0:0:0:0:
216,128,265659,1,8,0:0:0:0:
288,104,265820,1,2,0:0:0:0:
456,80,265982,5,6,0:0:0:0:
56,80,266949,1,6,0:0:0:0:
268,48,267917,6,0,P|284:122|264:192,1,140,6|8,0:0|0:0,0:0:0:0:
108,184,268562,1,2,0:0:0:0:
176,184,268723,1,2,0:0:0:0:
228,228,268884,1,8,0:0:0:0:
232,296,269046,6,0,P|152:292|108:180,1,210,6|8,0:0|0:0,0:0:0:0:
268,192,269852,2,0,L|272:108,1,70,2|2,0:0|0:0,0:0:0:0:
196,120,270175,1,8,0:0:0:0:
120,120,270336,6,0,P|80:80|120:16,1,140,6|2,0:0|0:0,0:0:0:0:
196,16,270820,1,8,0:0:0:0:
352,16,271142,2,0,L|424:16,1,70,2|2,0:0|0:0,0:0:0:0:
140,16,271626,6,0,B|140:88|140:88|212:88,1,140,6|2,0:0|0:0,0:0:0:0:
284,88,272110,2,0,L|372:88,1,70,8|0,0:0|0:0,0:0:0:0:
432,88,272433,1,8,0:0:0:0:
452,88,272513,1,0,0:0:0:0:
432,88,272594,1,2,0:0:0:0:
356,88,272755,1,8,0:0:0:0:
188,88,272917,6,0,B|48:88|48:88|48:164,1,210,6|8,0:0|0:0,0:0:0:0:
204,160,273723,2,0,L|296:160,1,70,2|2,0:0|0:0,0:0:0:0:
196,160,274046,1,8,0:0:0:0:
364,160,274207,6,0,B|436:160|436:160|436:236,1,140,6|2,0:0|0:0,0:0:0:0:
360,228,274691,1,8,0:0:0:0:
80,228,275013,1,8,0:0:0:0:
20,128,275175,1,2,0:0:0:0:
56,128,275255,1,8,0:0:0:0:
92,128,275336,1,8,0:0:0:0:
260,128,275497,6,0,B|336:128|336:128|256:128,1,140,6|2,0:0|0:0,0:0:0:0:
196,128,275981,1,8,0:0:0:0:
124,128,276142,2,0,L|120:296,1,140,2|2,0:0|0:0,0:0:0:0:
408,268,276787,6,0,P|476:208|408:132,1,210,6|8,0:0|0:0,0:0:0:0:
328,132,277433,2,0,L|320:36,1,70,6|0,0:0|0:0,0:0:0:0:
408,64,277755,1,2,0:0:0:0:
268,64,278078,1,0,0:0:0:0:
228,64,278158,1,0,0:0:0:0:
188,64,278239,6,0,B|152:64|152:64|192:64,1,70,8|2,0:0|0:0,0:0:0:0:
344,68,278562,2,0,L|348:116,2,35,8|8|2,0:0|0:0|0:0,0:0:0:0:
184,160,278884,2,0,L|84:160,2,70,6|2|8,0:0|0:0|0:0,0:0:0:0:
356,160,279368,6,0,B|428:160|428:160|428:236,1,140,8|2,0:0|0:0,0:0:0:0:
344,228,279852,2,0,L|260:228,1,70,8|2,0:0|0:0,0:0:0:0:
448,228,280175,1,8,0:0:0:0:
480,196,280255,1,8,0:0:0:0:
484,144,280336,1,8,0:0:0:0:
452,108,280417,1,8,0:0:0:0:
409,95,280497,1,8,0:0:0:0:
236,96,280658,6,0,L|84:96,1,140,6|2,0:0|0:0,0:0:0:0:
180,96,281142,2,0,L|184:188,1,70,8|0,0:0|0:0,0:0:0:0:
96,168,281465,2,0,L|100:248,1,70,2|2,0:0|0:0,0:0:0:0:
180,96,281787,2,0,L|184:172,1,70,8|0,0:0|0:0,0:0:0:0:
360,168,282110,6,0,P|396:228|360:280,1,140,2|8,0:0|0:0,0:0:0:0:
276,284,282594,2,0,L|124:284,1,140,2|2,0:0|0:0,0:0:0:0:
220,284,283078,2,0,L|224:192,1,70,8|0,0:0|0:0,0:0:0:0:
52,192,283400,6,0,P|28:128|52:32,1,140,2|8,0:0|0:0,0:0:0:0:
192,60,284046,1,2,0:0:0:0:
268,60,284207,1,2,0:0:0:0:
184,60,284368,2,0,L|180:144,1,70,8|2,0:0|0:0,0:0:0:0:
352,128,284691,6,0,L|492:128,1,140,2|8,0:0|0:0,0:0:0:0:
232,240,285336,2,0,L|156:240,2,70,2|2|8,0:0|0:0|0:0,0:0:0:0:
404,240,285820,6,0,B|404:312|404:312|324:312,1,140,6|2,0:0|0:0,0:0:0:0:
252,312,286304,1,8,0:0:0:0:
100,312,286626,2,0,L|96:232,1,70,2|2,0:0|0:0,0:0:0:0:
184,232,286949,2,0,L|192:144,1,70,10|2,0:0|0:0,0:0:0:0:
20,160,287271,5,2,0:0:0:0:
24,84,287433,1,2,0:0:0:0:
80,32,287594,1,8,0:0:0:0:
156,32,287755,2,0,L|312:32,1,140,2|2,0:0|0:0,0:0:0:0:
212,32,288239,1,8,0:0:0:0:
492,32,288562,6,0,B|492:104|492:104|436:148,1,140,6|8,0:0|0:0,0:0:0:0:
360,148,289046,2,0,L|212:148,1,140,2|2,0:0|0:0,0:0:0:0:
304,148,289529,2,0,L|376:148,1,70,8|2,0:0|0:0,0:0:0:0:
204,240,289852,6,0,L|120:240,2,70,8|2|8,0:0|0:0|0:0,0:0:0:0:
288,240,290336,1,2,0:0:0:0:
116,240,290497,1,8,0:0:0:0:
92,208,290578,1,8,0:0:0:0:
96,168,290658,1,4,0:0:0:0:
132,144,290739,1,4,0:0:0:0:
172,140,290820,1,8,0:0:0:0:
344,140,290981,6,0,L|488:140,1,140,6|2,0:0|0:0,0:0:0:0:
316,140,291465,2,0,L|312:240,1,70,8|2,0:0|0:0,0:0:0:0:
356,212,291707,1,2,0:0:0:0:
396,212,291787,1,10,0:0:0:0:
468,212,291949,1,2,0:0:0:0:
308,140,292110,2,0,L|208:140,1,70,8|2,0:0|0:0,0:0:0:0:
400,52,292433,6,0,L|488:52,2,70,8|2|8,0:0|0:0|0:0,0:0:0:0:
330,140,292917,1,2,0:0:0:0:
290,140,292997,1,2,0:0:0:0:
246,140,293078,2,0,L|176:140,1,70,10|2,0:0|0:0,0:0:0:0:
260,224,293400,2,0,L|188:224,1,70,8|2,0:0|0:0,0:0:0:0:
20,224,293723,6,0,B|20:300|20:300|92:300,1,140,8|8,0:0|0:0,0:0:0:0:
168,300,294207,1,2,0:0:0:0:
336,300,294368,1,10,0:0:0:0:
412,300,294529,2,0,B|484:300|484:300|408:300,1,140,2|2,0:0|0:0,0:0:0:0:
244,300,295013,6,0,L|240:216,1,70,8|2,0:0|0:0,0:0:0:0:
332,192,295336,1,8,0:0:0:0:
292,192,295417,1,0,0:0:0:0:
252,192,295497,1,2,0:0:0:0:
92,192,295658,2,0,L|84:140,2,35,8|8|4,0:0|0:0|0:0,0:0:0:0:
160,192,295981,1,8,0:0:0:0:
332,192,296142,6,0,L|480:192,1,140,6|2,0:0|0:0,0:0:0:0:
304,104,296626,2,0,L|220:104,1,70,10|2,0:0|0:0,0:0:0:0:
196,104,296868,1,2,0:0:0:0:
156,104,296949,1,10,0:0:0:0:
234,104,297110,1,2,0:0:0:0:
396,104,297271,2,0,L|400:8,1,70,8|2,0:0|0:0,0:0:0:0:
238,20,297594,6,0,L|162:20,2,70,8|2|8,0:0|0:0|0:0,0:0:0:0:
312,20,298078,2,0,L|316:72,1,35,2|2,0:0|0:0,0:0:0:0:
280,80,298239,2,0,L|192:80,1,70,10|2,0:0|0:0,0:0:0:0:
44,80,298562,2,0,L|40:160,1,70,10|2,0:0|0:0,0:0:0:0:
212,192,298884,6,0,L|368:192,1,140,6|8,0:0|0:0,0:0:0:0:
204,292,299529,2,0,L|300:292,2,70,2|2|8,0:0|0:0|0:0,0:0:0:0:
36,288,300013,6,0,P|12:240|72:192,1,140,6|2,0:0|0:0,0:0:0:0:
148,192,300497,1,8,0:0:0:0:
416,192,300820,2,0,L|420:112,1,70,2|2,0:0|0:0,0:0:0:0:
344,120,301142,1,8,0:0:0:0:
176,120,301304,6,0,L|36:120,1,140,2|2,0:0|0:0,0:0:0:0:
204,120,301787,2,0,L|208:40,1,70,8|2,0:0|0:0,0:0:0:0:
300,52,302110,1,8,0:0:0:0:
301,86,302191,1,8,0:0:0:0:
303,121,302271,1,2,0:0:0:0:
204,120,302433,1,8,0:0:0:0:
372,236,302594,6,0,B|372:308|372:308|288:308,1,140,2|2,0:0|0:0,0:0:0:0:
136,232,303078,2,0,L|216:232,1,70,8|2,0:0|0:0,0:0:0:0:
280,308,303400,1,2,0:0:0:0:
245,308,303481,1,2,0:0:0:0:
210,308,303562,1,2,0:0:0:0:
124,308,303723,1,8,0:0:0:0:
220,308,303884,1,2,0:0:0:0:
80,192,304207,6,0,L|8:192,2,70,8|2|2,0:0|0:0|0:0,0:0:0:0:
248,192,304691,1,8,0:0:0:0:
324,192,304852,1,8,0:0:0:0:
324,116,305013,1,2,0:0:0:0:
248,116,305175,1,8,0:0:0:0:
172,116,305336,2,0,L|264:116,1,70,4|8,0:0|0:0,0:0:0:0:
76,116,305658,5,8,0:0:0:0:
64,48,305820,1,8,0:0:0:0:
116,0,305981,1,4,0:0:0:0:
184,0,306142,1,8,0:0:0:0:
256,0,306304,2,0,L|260:84,1,70,2|8,0:0|0:0,0:0:0:0:
92,120,306626,2,0,L|88:212,1,70,8|2,0:0|0:0,0:0:0:0:
264,192,306949,5,10,0:0:0:0:
348,192,307110,1,10,0:0:0:0:
256,192,307433,12,0,316304,0:0:0:0:
