osu file format v14

[General]
AudioFilename: audio.mp3
AudioLeadIn: 0
PreviewTime: 22099
Countdown: 0
SampleSet: Soft
StackLeniency: 0.5
Mode: 0
LetterboxInBreaks: 0
WidescreenStoryboard: 1

[Editor]
DistanceSpacing: 1.6
BeatDivisor: 2
GridSize: 32
TimelineZoom: 1.6

[Metadata]
Title:Cheia de Manias (Cut Ver.)
TitleUnicode:Cheia de Manias (Cut Ver.)
Artist:Raca Negra
ArtistUnicode:Raça Negra
Creator:Akaeboshi
Version:Dificil
Source:
Tags:Didididididiê Brasil Brazil Samba Pop Pagode Portuguese Então me ajude a segurar essa barra que é gostar de você
BeatmapID:2807406
BeatmapSetID:1356535

[Difficulty]
HPDrainRate:4
CircleSize:3.5
OverallDifficulty:6
ApproachRate:7
SliderMultiplier:1
SliderTickRate:1

[Events]
//Background and Video events
0,0,"samba do brasil.png",0,0
//Break Periods
2,9978,10793
//Storyboard Layer 0 (Background)
//Storyboard Layer 1 (Fail)
//Storyboard Layer 2 (Pass)
//Storyboard Layer 3 (Foreground)
//Storyboard Layer 4 (Overlay)
//Storyboard Sound Samples

[TimingPoints]
204,319.148936170213,4,2,1,80,1,0
13129,-100,4,2,1,65,0,0
16456,319.148936170213,4,2,1,65,1,8
16775,319.148936170213,4,2,1,5,1,8
16934,-100,4,2,1,65,0,8
18076,319.148936170213,4,2,1,65,1,8
20651,315.789473684211,4,2,1,65,1,8
21914,315.789473684211,4,2,1,80,1,0
77492,-86.9565217391304,4,2,1,80,0,1
87598,-86.9565217391304,4,2,1,80,0,0

[Colours]
Combo1 : 255,215,91
Combo2 : 0,210,0
Combo3 : 255,36,102
Combo4 : 98,197,255

[HitObjects]
110,51,204,6,0,L|159:47,1,50,4|2,3:2|0:0,0:0:0:0:
225,93,523,2,0,L|274:97,1,50,2|2,0:0|0:0,0:0:0:0:
353,111,842,2,0,P|359:134|354:159,1,50,2|2,0:1|0:0,0:0:0:0:
324,232,1161,2,0,P|316:256|322:281,1,50,2|2,0:0|0:0,0:0:0:0:
385,327,1480,6,0,L|434:323,2,50,2|2|2,2:3|0:0|0:0,0:0:0:0:
316,366,1959,1,2,0:0:0:0:
316,366,2118,2,0,L|266:356,1,50,2|2,0:1|0:0,0:0:0:0:
188,339,2438,1,0,0:0:0:0:
61,241,2757,6,0,P|36:235|12:218,1,50,4|2,3:2|0:0,0:0:0:0:
5,144,3076,2,0,P|9:119|27:95,1,50,2|2,0:0|0:0,0:0:0:0:
91,63,3395,2,0,L|156:74,1,50,2|2,0:1|0:0,0:0:0:0:
188,135,3714,2,0,L|237:134,1,50,2|2,0:0|0:0,0:0:0:0:
301,80,4033,6,0,L|287:23,2,50,2|2|2,2:3|0:0|0:0,0:0:0:0:
316,163,4512,1,2,0:0:0:0:
316,163,4672,2,0,P|338:160|359:142,1,50,2|2,0:1|0:0,0:0:0:0:
380,65,4991,1,0,0:0:0:0:
498,142,5310,6,0,P|510:162|512:187,1,50,4|2,3:2|0:0,0:0:0:0:
478,261,5629,2,0,P|459:278|437:286,1,50,4|2,3:2|0:0,0:0:0:0:
358,297,5948,2,0,L|363:345,2,50,2|2|2,2:3|0:0|0:0,0:0:0:0:
286,261,6427,1,2,0:0:0:0:
286,261,6586,6,0,P|295:238|295:213,1,50,4|2,3:2|0:0,0:0:0:0:
254,146,6905,2,0,P|234:129|210:124,1,50,4|2,3:2|0:0,0:0:0:0:
129,131,7225,2,0,L|106:84,1,50,2|2,2:3|0:0,0:0:0:0:
39,44,7544,1,2,0:0:0:0:
39,44,7703,1,2,0:0:0:0:
39,44,7863,6,0,P|26:63|25:88,3,50,2|2|2|2,2:3|0:0|0:0|0:0,0:0:0:0:
71,154,8501,2,0,P|82:175|80:200,3,50,2|2|2|2,2:3|0:0|0:0|0:0,0:0:0:0:
34,264,9140,2,0,P|20:284|18:309,3,50,2|2|2|0,2:3|0:0|0:0|0:0,0:0:0:0:
61,376,9778,1,2,0:0:0:0:
314,73,11693,5,4,3:2:0:0:
446,148,12012,1,4,3:2:0:0:
371,280,12331,1,4,3:2:0:0:
238,205,12650,1,4,3:2:0:0:
108,34,13130,6,0,L|98:83,1,50,2|2,2:3|2:3,0:0:0:0:
48,145,13449,2,0,L|60:205,1,50,2|2,2:3|2:3,0:0:0:0:
49,276,13768,1,2,2:3:0:0:
49,276,13927,1,2,2:3:0:0:
404,350,15682,6,0,L|414:301,1,50,2|2,2:3|2:3,0:0:0:0:
464,239,16001,2,0,L|452:179,1,50,2|2,2:3|2:3,0:0:0:0:
463,108,16321,1,2,2:3:0:0:
295,49,16615,5,2,2:3:0:0:
142,95,16934,1,2,2:3:0:0:
258,205,17253,1,2,2:3:0:0:
69,248,18235,6,0,P|60:225|61:201,1,50,2|2,2:3|2:3,0:0:0:0:
112,139,18554,2,0,P|121:115|120:91,1,50,2|2,2:3|2:3,0:0:0:0:
74,25,18873,1,2,2:3:0:0:
74,25,19033,1,2,2:3:0:0:
238,123,19512,6,0,L|325:137,2,50,2|2|2,2:3|2:3|2:3,0:0:0:0:
204,50,19991,2,0,L|145:44,1,50,2|2,2:1|2:3,0:0:0:0:
81,25,20310,1,2,2:3:0:0:
81,25,20469,1,2,2:1:0:0:
88,184,20808,6,0,L|76:232,2,50,2|2|2,2:3|2:1|2:3,0:0:0:0:
159,144,21282,1,2,2:3:0:0:
159,144,21440,1,2,2:1:0:0:
265,360,21914,5,4,3:2:0:0:
373,201,22229,6,0,P|397:195|421:199,1,50,2|2,2:3|0:0,0:0:0:0:
423,280,22545,2,0,P|398:286|374:282,1,50,2|2,0:0|0:0,0:0:0:0:
304,242,22861,1,2,2:3:0:0:
151,290,23177,6,0,P|126:296|102:292,1,50,2|2,2:3|0:0,0:0:0:0:
101,212,23493,2,0,P|125:205|149:209,1,50,2|2,0:0|0:0,0:0:0:0:
228,255,23809,1,2,2:3:0:0:
228,255,23966,1,2,0:0:0:0:
228,255,24124,1,2,3:3:0:0:
224,94,24440,6,0,P|248:95|273:89,1,50,4|2,3:2|0:0,0:0:0:0:
304,17,24756,1,2,2:3:0:0:
304,17,24914,2,0,L|241:11,1,50,0|2,3:0|1:3,0:0:0:0:
182,15,25229,1,2,0:0:0:0:
182,15,25387,1,2,2:3:0:0:
182,15,25545,1,0,3:0:0:0:
355,85,25861,5,2,0:0:0:0:
355,85,26019,2,0,P|361:135|351:157,1,50,2|0,2:3|3:0,0:0:0:0:
382,220,26335,1,2,1:3:0:0:
382,220,26492,1,2,0:0:0:0:
382,220,26650,2,0,L|375:301,1,50,2|0,2:3|3:0,0:0:0:0:
364,349,26966,1,4,3:2:0:0:
211,317,27282,6,0,L|161:318,1,50,2|0,2:3|3:0,0:0:0:0:
90,357,27598,2,0,L|40:358,1,50,2|2,1:3|0:0,0:0:0:0:
8,284,27914,1,2,2:3:0:0:
27,125,28229,6,0,L|76:121,1,50,2|2,3:3|0:0,0:0:0:0:
137,68,28545,2,0,L|186:64,1,50,2|0,2:3|3:0,0:0:0:0:
266,35,28861,1,2,1:3:0:0:
266,35,29019,1,0,3:0:0:0:
266,35,29177,2,0,L|315:40,1,50,2|0,2:3|3:0,0:0:0:0:
392,62,29492,6,0,P|401:84|398:109,2,50,4|2|2,3:2|0:0|2:3,0:0:0:0:
317,31,29966,1,0,3:0:0:0:
266,182,30282,5,2,0:0:0:0:
266,182,30440,2,0,P|256:204|259:229,2,50,2|0|2,2:3|3:0|3:3,0:0:0:0:
326,129,30914,1,2,0:0:0:0:
325,292,31229,5,0,3:0:0:0:
325,292,31387,2,0,L|260:306,1,50,2|2,1:3|0:0,0:0:0:0:
198,323,31703,2,0,L|149:312,1,50,2|0,2:3|3:0,0:0:0:0:
71,291,32019,1,4,3:2:0:0:
48,132,32335,6,0,P|65:113|89:105,1,50,2|0,2:3|3:0,0:0:0:0:
168,114,32650,2,0,P|191:105|208:87,1,50,2|2,1:3|0:0,0:0:0:0:
246,16,32966,1,2,2:3:0:0:
248,176,33282,6,0,P|264:194|288:202,1,50,2|2,3:3|0:0,0:0:0:0:
366,185,33598,2,0,L|379:136,2,50,2|0|2,2:3|3:0|1:3,0:0:0:0:
355,270,34071,1,2,0:0:0:0:
355,270,34229,1,2,0:0:0:0:
355,270,34387,6,0,P|306:299|248:269,1,100,2|2,3:0|0:0,0:0:0:0:
201,333,34861,1,2,2:3:0:0:
201,333,35019,2,0,L|151:329,1,50,0|2,3:0|1:3,0:0:0:0:
78,295,35335,1,2,0:0:0:0:
78,295,35492,1,2,2:3:0:0:
78,295,35650,2,0,L|70:227,1,50,0|2,3:0|3:3,0:0:0:0:
97,168,35966,5,2,0:0:0:0:
97,167,36124,2,0,P|119:157|144:154,1,50,2|0,2:3|3:0,0:0:0:0:
223,168,36440,2,0,L|272:162,1,50,2|2,1:3|0:0,0:0:0:0:
348,126,36756,1,2,2:3:0:0:
348,126,36914,1,2,0:0:0:0:
348,126,37071,1,4,3:2:0:0:
483,282,37387,6,0,L|433:283,1,50,2|0,2:3|3:0,0:0:0:0:
362,322,37703,2,0,L|312:323,1,50,2|2,1:3|0:0,0:0:0:0:
280,249,38019,1,2,2:3:0:0:
164,83,38335,6,0,L|114:89,1,50,2|2,3:3|0:0,0:0:0:0:
97,167,38650,2,0,L|146:172,1,50,2|0,2:3|3:0,0:0:0:0:
198,247,38966,1,2,1:3:0:0:
198,247,39124,1,2,0:3:0:0:
198,247,39282,2,0,L|203:296,1,50,2|2,2:3|3:0,0:0:0:0:
146,353,39598,6,0,P|122:361|97:359,2,50,4|2|2,3:2|0:0|2:3,0:0:0:0:
224,372,40071,1,0,3:0:0:0:
368,299,40387,5,2,0:0:0:0:
368,299,40545,2,0,P|377:276|374:251,2,50,2|0|2,2:3|3:0|3:3,0:0:0:0:
308,352,41019,1,2,0:0:0:0:
291,192,41335,5,0,3:0:0:0:
291,192,41492,2,0,L|297:142,1,50,2|2,1:3|0:0,0:0:0:0:
339,73,41808,1,2,2:3:0:0:
339,73,41966,1,0,3:0:0:0:
338,73,42124,6,0,P|388:66|435:80,1,100,4|8,3:2|0:0,0:0:0:0:
488,236,42756,1,2,1:3:0:0:
488,236,42914,2,0,L|485:361,2,100,2|0|2,0:0|3:0|0:0,0:0:0:0:
385,120,43861,5,0,3:0:0:0:
385,120,44019,2,0,L|311:111,2,50,2|2|8,1:3|0:0|0:0,0:0:0:0:
463,136,44492,1,0,3:0:0:0:
463,136,44650,1,0,3:0:0:0:
235,115,45124,5,0,3:0:0:0:
235,115,45282,1,2,1:3:0:0:
235,115,45440,1,0,3:0:0:0:
97,197,45756,1,0,3:0:0:0:
26,53,46071,6,0,L|18:3,2,50,0|8|0,0:0|0:0|3:0,0:0:0:0:
13,132,46545,1,2,1:3:0:0:
13,132,46703,1,2,0:0:0:0:
13,132,46861,2,0,L|9:181,1,50,8|0,0:0|3:0,0:0:0:0:
2,262,47177,2,0,P|37:296|85:306,1,100,2|8,3:0|0:0,0:0:0:0:
170,294,47650,5,0,3:0:0:0:
170,294,47808,1,2,1:3:0:0:
170,294,47966,1,0,0:0:0:0:
321,375,48282,1,0,3:0:0:0:
321,375,48440,2,0,P|370:381|416:363,1,100,2|8,3:3|0:0,0:0:0:0:
462,296,48914,1,0,3:0:0:0:
462,296,49071,2,0,P|467:272|461:248,1,50,2|2,1:3|0:0,0:0:0:0:
404,192,49387,2,0,L|354:189,2,50,8|0|0,0:0|3:0|1:2,0:0:0:0:
465,138,49861,6,0,P|473:115|471:90,1,50,0|8,0:0|0:0,0:0:0:0:
415,32,50177,1,0,3:0:0:0:
415,32,50335,1,2,1:3:0:0:
415,32,50492,1,0,0:0:0:0:
292,134,50808,1,0,3:0:0:0:
190,8,51124,6,0,P|150:7|128:21,2,50,2|8|0,0:0|0:0|3:0,0:0:0:0:
175,90,51598,1,2,1:3:0:0:
175,90,51756,2,0,L|180:163,1,50,2|8,0:0|0:0,0:0:0:0:
187,223,52071,1,0,3:0:0:0:
187,223,52229,1,0,3:2:0:0:
57,326,52703,5,0,3:0:0:0:
57,326,52861,2,0,B|108:330|108:330|114:334|114:334|155:337,1,100,2|8,1:3|0:0,0:0:0:0:
233,367,53335,1,0,3:0:0:0:
233,367,53492,1,2,3:3:0:0:
379,305,53808,6,0,P|394:285|397:260,1,50,8|0,0:0|3:0,0:0:0:0:
367,191,54124,1,2,1:3:0:0:
367,191,54282,2,0,L|317:199,1,50,2|0,0:0|0:0,0:0:0:0:
243,221,54598,1,0,3:0:0:0:
243,221,54756,1,0,1:2:0:0:
80,59,55229,5,0,3:0:0:0:
80,59,55387,1,2,1:3:0:0:
80,59,55545,2,0,P|128:71|177:65,1,100,2|0,0:0|3:0,0:0:0:0:
228,3,56019,2,0,P|257:41|254:90,1,100,2|8,3:3|0:0,0:0:0:0:
201,151,56492,2,0,L|152:161,1,50,0|2,3:0|1:3,0:0:0:0:
115,233,56808,2,0,L|163:243,1,50,2|8,0:0|0:0,0:0:0:0:
191,324,57124,1,0,3:0:0:0:
191,324,57282,1,4,3:2:0:0:
428,288,57756,5,0,3:0:0:0:
427,288,57914,2,0,P|435:264|436:239,1,50,2|2,1:3|0:0,0:0:0:0:
400,166,58229,1,8,0:0:0:0:
400,166,58387,1,0,3:0:0:0:
400,166,58545,2,0,P|383:120|392:72,1,100,2|0,3:3|0:0,0:0:0:0:
452,19,59019,2,0,L|384:27,1,50,0|2,3:0|1:3,0:0:0:0:
326,30,59334,1,2,0:0:0:0:
326,30,59492,2,0,L|276:27,1,50,8|0,0:0|3:0,0:0:0:0:
195,24,59808,1,0,1:2:0:0:
42,28,60124,5,8,0:0:0:0:
42,28,60282,1,0,3:0:0:0:
42,28,60440,2,0,L|49:87,1,50,2|2,1:3|0:0,0:0:0:0:
187,157,60914,2,0,L|180:216,1,50,0|2,3:0|3:3,0:0:0:0:
117,255,61229,6,0,P|119:303|153:339,1,100,2|0,0:0|3:0,0:0:0:0:
237,359,61703,1,2,0:3:0:0:
237,359,61861,2,0,L|306:362,1,50,2|2,0:3|0:3,0:0:0:0:
371,365,62177,1,2,0:3:0:0:
371,365,62335,1,4,3:2:0:0:
480,249,62650,1,8,0:0:0:0:
480,249,62808,1,0,3:0:0:0:
480,249,62966,1,2,1:3:0:0:
425,98,63282,5,8,0:0:0:0:
425,98,63440,2,0,P|374:83|356:90,1,50,2|0,3:1|3:1,0:0:0:0:
310,124,63756,2,0,P|285:121|264:108,1,50,2|8,0:1|0:0,0:0:0:0:
227,36,64071,2,0,P|205:22|181:20,1,50,2|0,3:1|1:1,0:0:0:0:
105,49,64387,5,2,0:0:0:0:
105,49,64545,2,0,L|97:98,1,50,8|0,0:0|3:0,0:0:0:0:
81,177,64861,1,4,3:2:0:0:
52,334,65177,1,0,0:0:0:0:
52,334,65335,1,0,3:0:0:0:
52,334,65492,2,0,L|101:343,2,50,2|2|8,3:0|0:0|0:0,0:0:0:0:
58,253,65966,2,0,L|107:257,1,50,0|2,3:0|3:3,0:0:0:0:
172,302,66282,6,0,P|217:324|266:318,2,100,2|0|2,0:0|3:0|0:0,0:0:0:0:
194,231,67071,1,0,0:0:0:0:
194,231,67229,1,0,3:0:0:0:
194,231,67387,2,0,L|208:110,1,100,4|2,3:2|2:1,0:0:0:0:
227,60,67861,1,0,3:0:0:0:
227,60,68019,1,2,1:3:0:0:
227,60,68177,2,0,L|344:56,1,100,2|2,2:1|2:1,0:0:0:0:
406,55,68650,6,0,L|411:104,1,50,2|2,3:3|0:0,0:0:0:0:
375,176,68966,1,8,0:0:0:0:
483,58,69281,1,2,1:3:0:0:
264,15,69597,5,8,0:0:0:0:
264,15,69755,1,0,3:0:0:0:
264,15,69913,2,0,L|214:16,1,50,4|2,3:2|0:0,0:0:0:0:
134,18,70228,1,2,2:1:0:0:
133,18,70387,2,0,P|125:41|130:65,1,50,0|2,3:0|1:3,0:0:0:0:
156,142,70702,1,2,2:1:0:0:
19,239,71018,1,2,2:1:0:0:
19,239,71176,5,2,3:3:0:0:
19,239,71334,2,0,L|137:247,2,100,0|0|2,0:0|3:0|0:0,0:0:0:0:
15,326,72123,1,8,0:0:0:0:
15,326,72282,1,0,3:0:0:0:
15,326,72440,2,0,L|116:332,1,100,4|2,3:2|2:1,0:0:0:0:
195,305,72913,1,0,3:0:0:0:
195,305,73070,1,2,1:3:0:0:
195,305,73229,2,0,L|253:309,1,50,2|8,2:1|0:0,0:0:0:0:
307,356,73545,2,0,P|416:307|435:218,1,200,2|0,2:1|3:0,0:0:0:0:
401,165,74334,2,0,L|393:96,1,50,0|0,1:3|0:0,0:0:0:0:
408,42,74650,5,8,0:0:0:0:
408,42,74808,1,0,3:0:0:0:
408,42,74966,2,0,L|343:48,1,50,0|2,3:2|0:0,0:0:0:0:
274,53,75281,1,2,2:1:0:0:
274,53,75440,2,0,L|224:57,1,50,0|0,3:0|3:0,0:0:0:0:
153,20,75756,2,0,P|141:41|141:66,1,50,2|2,2:1|0:0,0:0:0:0:
189,130,76071,1,2,3:1:0:0:
136,284,76388,5,8,2:3:0:0:
136,284,76546,2,0,L|71:296,2,50,2|2|8,0:0|0:0|2:3,0:0:0:0:
210,312,77019,1,2,1:3:0:0:
258,375,77177,1,2,2:3:0:0:
330,341,77335,1,2,2:3:0:0:
397,299,77493,6,0,L|401:220,1,57.5000010967255,4|2,3:2|0:0,0:0:0:0:
460,179,77809,1,2,2:3:0:0:
460,179,77967,1,0,3:0:0:0:
460,179,78125,2,0,L|465:111,1,57.5000010967255,2|2,1:3|0:0,0:0:0:0:
505,41,78440,2,0,L|413:48,1,57.5000010967255,2|0,2:3|3:0,0:0:0:0:
355,54,78756,5,2,3:2:0:0:
279,106,78914,1,2,0:2:0:0:
203,52,79072,1,2,2:2:0:0:
132,110,79230,1,2,3:2:0:0:
67,43,79388,1,2,1:2:0:0:
4,109,79545,2,0,L|15:165,1,57.5000010967255,2|2,0:2|2:3,0:0:0:0:
81,322,80018,5,4,3:2:0:0:
81,322,80177,2,0,L|161:327,1,57.5000010967255,2|2,0:0|2:3,0:0:0:0:
224,368,80493,1,0,3:0:0:0:
224,368,80651,2,0,L|347:375,1,115.000002193451,2|2,1:3|2:3,0:0:0:0:
414,325,81125,1,0,3:0:0:0:
370,251,81282,5,2,3:2:0:0:
420,180,81440,1,2,0:2:0:0:
368,110,81598,1,2,2:2:0:0:
281,114,81756,1,2,3:2:0:0:
210,163,81914,1,2,1:2:0:0:
129,132,82072,2,0,P|111:109|107:81,1,57.5000010967255,0|2,0:2|2:3,0:0:0:0:
28,43,82388,6,0,L|15:99,1,57.5000010967255,0|0,3:0|3:2,0:0:0:0:
38,183,82704,2,0,L|50:239,1,57.5000010967255,2|2,0:0|2:3,0:0:0:0:
84,317,83019,2,0,P|161:283|244:302,1,172.500003290176,0|2,3:0|2:3,0:0:0:0:
397,383,83809,5,2,3:2:0:0:
450,315,83967,1,2,0:2:0:0:
397,247,84125,1,2,2:2:0:0:
450,179,84282,1,2,3:2:0:0:
397,111,84440,1,2,1:2:0:0:
450,43,84598,2,0,L|411:-1,1,57.5000010967255,2|2,0:2|2:3,0:0:0:0:
216,61,85071,5,4,3:2:0:0:
216,61,85229,1,2,0:0:0:0:
216,61,85387,2,0,L|141:66,1,57.5000010967255,2|0,2:3|3:0,0:0:0:0:
71,69,85703,5,2,1:3:0:0:
71,69,85860,1,2,0:0:0:0:
70,69,86019,2,0,P|64:96|71:124,2,57.5000010967255,2|0|2,2:3|3:0|3:3,0:0:0:0:
154,107,86492,5,2,0:0:0:0:
154,107,86650,2,0,P|160:134|153:162,2,57.5000010967255,2|0|2,2:3|3:0|1:3,0:0:0:0:
72,149,87124,2,0,L|61:205,1,57.5000010967255,2|2,0:0|2:3,0:0:0:0:
46,296,87439,1,0,3:0:0:0:
120,350,87597,1,4,3:2:0:0:
301,276,87913,6,0,L|380:287,2,57.5000010967255,2|0|2,2:3|3:0|1:3,0:0:0:0:
238,215,88387,1,2,0:0:0:0:
238,215,88545,1,2,2:3:0:0:
346,82,88861,6,0,L|443:65,1,57.5000010967255,2|2,3:3|0:0,0:0:0:0:
492,51,89177,2,0,L|501:119,1,57.5000010967255,2|0,2:3|3:0,0:0:0:0:
428,167,89492,2,0,L|420:250,1,57.5000010967255,2|2,1:3|0:0,0:0:0:0:
478,314,89808,1,2,2:3:0:0:
478,314,89966,6,0,L|394:324,1,57.5000010967255,0|2,3:0|3:2,0:0:0:0:
351,378,90281,1,2,0:0:0:0:
351,378,90439,1,2,2:3:0:0:
351,378,90598,2,0,L|266:387,1,57.5000010967255,0|2,3:0|1:3,0:0:0:0:
262,308,90914,1,2,0:0:0:0:
262,308,91071,1,2,2:3:0:0:
262,308,91229,2,0,L|177:299,1,57.5000010967255,0|2,3:0|3:3,0:0:0:0:
117,287,91545,6,0,P|109:260|111:232,1,57.5000010967255,2|2,0:0|2:3,0:0:0:0:
158,159,91860,1,0,3:0:0:0:
158,159,92019,2,0,P|166:131|164:103,1,57.5000010967255,2|2,1:3|0:0,0:0:0:0:
129,23,92334,1,2,2:3:0:0:
129,23,92492,1,0,3:0:0:0:
129,23,92650,1,4,3:2:0:0:
21,208,92966,6,0,L|14:265,2,57.5000010967255,2|0|2,2:3|3:0|1:3,0:0:0:0:
84,149,93439,1,2,0:0:0:0:
84,149,93597,1,2,2:3:0:0:
199,277,93913,6,0,L|205:334,2,57.5000010967255,2|2|2,3:3|0:0|2:3,0:0:0:0:
227,194,94387,1,0,3:0:0:0:
227,194,94545,2,0,L|297:188,1,57.5000010967255,2|2,1:3|3:0,0:0:0:0:
363,222,94861,2,0,L|420:226,1,57.5000010967255,2|2,3:3|3:0,0:0:0:0:
455,140,95177,6,0,L|527:134,2,57.5000010967255,4|2|2,3:2|0:0|2:3,0:0:0:0:
362,141,95650,2,0,P|354:114|363:87,1,57.5000010967255,0|2,3:0|1:3,0:0:0:0:
408,7,95966,1,2,0:0:0:0:
408,7,96124,2,0,P|363:8|323:28,1,57.5000010967255,2|0,2:3|3:0,0:0:0:0:
287,77,96440,1,2,3:3:0:0:
287,77,96598,1,0,1:0:0:0:
145,20,96913,5,0,3:0:0:0:
94,90,97071,1,2,1:3:0:0:
144,160,97229,1,2,1:3:0:0:
93,230,97387,1,2,1:3:0:0:
138,303,97545,1,4,2:0:0:0:
