osu file format v14

[General]
AudioFilename: audio.mp3
AudioLeadIn: 0
PreviewTime: 20060
Countdown: 0
SampleSet: Soft
StackLeniency: 0.2
Mode: 0
LetterboxInBreaks: 0
WidescreenStoryboard: 1

[Editor]
Bookmarks: 13660,20060,32860,45660,54660,58460,69660,76060,85860,88860,95260,101660,104660,108060,112860
DistanceSpacing: 1.4
BeatDivisor: 4
GridSize: 8
TimelineZoom: 4.699998

[Metadata]
Title:Sacred
TitleUnicode:Sacred
Artist:Rabpit
ArtistUnicode:Rabpit
Creator:Matrix
Version:Insane
Source:Cytus
Tags:rayark chapter 2 disaster niva mithew
BeatmapID:2185350
BeatmapSetID:1044692

[Difficulty]
HPDrainRate:6
CircleSize:5
OverallDifficulty:8
ApproachRate:9
SliderMultiplier:1.6
SliderTickRate:1

[Events]
//Background and Video events
0,0,"adamqs nuked his account.jpg",0,0
//Break Periods
//Storyboard Layer 0 (Background)
//Storyboard Layer 1 (Fail)
//Storyboard Layer 2 (Pass)
//Storyboard Layer 3 (Foreground)
//Storyboard Layer 4 (Overlay)
//Storyboard Sound Samples

[TimingPoints]
860,400,4,2,2,40,1,0
1060,-100,4,2,1,40,0,0
5760,-100,4,2,1,40,0,0
13860,-100,4,2,1,40,0,0
16860,-100,4,2,1,40,0,0
20060,-83.3333333333333,4,2,1,60,0,0
69860,-83.3333333333333,4,2,1,30,0,0
72860,-83.3333333333333,4,2,1,35,0,0
73660,-83.3333333333333,4,2,1,40,0,0
74460,-83.3333333333333,4,2,1,50,0,0
75260,-83.3333333333333,4,2,1,55,0,0
76060,-83.3333333333333,4,2,1,60,0,0
95260,-83.3333333333333,4,2,1,60,0,0
101660,-83.3333333333333,4,2,1,60,0,1
112860,392.156862745098,4,2,10,40,1,0
115606,447.761194029851,4,2,10,40,1,0
116053,419.58041958042,4,2,10,40,1,0
116053,-166.666666666667,4,2,1,30,0,0
116157,-166.666666666667,4,2,1,15,0,0
116891,412.371134020619,4,2,10,40,1,0
117303,449.438202247191,4,2,10,40,1,0
117752,714.285714285714,4,2,10,40,1,0
117752,-100,4,2,1,15,0,0
118467,-100,4,2,1,5,0,0
118824,923.076923076923,4,2,10,40,1,0
119734,441.176470588235,4,2,10,40,1,0

[Colours]
Combo1 : 0,128,255
Combo2 : 0,128,192
Combo3 : 128,128,255
Combo4 : 0,0,160

[HitObjects]
41,260,860,5,4,0:0:0:0:
105,330,1060,1,0,0:0:0:0:
114,42,1660,5,2,0:0:0:0:
201,74,1860,1,0,0:0:0:0:
130,133,2060,1,0,0:0:0:0:
284,247,2460,1,2,0:0:0:0:
410,102,2860,5,0,0:0:0:0:
323,134,3060,1,0,0:0:0:0:
394,193,3260,1,2,0:0:0:0:
240,307,3660,1,0,0:0:0:0:
163,137,4060,5,2,0:0:0:0:
243,125,4260,1,0,0:0:0:0:
247,113,4360,1,0,0:0:0:0:
251,101,4460,1,0,0:0:0:0:
279,25,4660,1,2,0:0:0:0:
359,13,4860,1,0,0:0:0:0:
439,1,5060,1,0,0:0:0:0:
435,13,5160,1,0,0:0:0:0:
431,25,5260,1,0,0:0:0:0:
407,101,5460,1,0,0:0:0:0:
443,173,5660,1,0,0:0:0:0:
419,249,5860,1,0,0:0:0:0:
415,261,5960,1,0,0:0:0:0:
411,273,6060,5,2,0:0:0:0:
225,321,6460,1,2,0:0:0:0:
409,373,6860,1,2,0:0:0:0:
286,225,7260,1,4,0:0:0:0:
30,181,8460,5,2,0:0:0:0:
52,332,8860,1,2,0:0:0:0:
243,257,9260,2,0,B|203:261|203:261|168:244,1,80,0|0,0:0|0:0,0:0:0:0:
328,300,9660,1,2,0:0:0:0:
320,204,9860,1,0,0:0:0:0:
404,240,10060,1,2,0:0:0:0:
392,244,10160,1,0,0:0:0:0:
248,160,10360,1,0,0:0:0:0:
252,172,10460,1,2,0:0:0:0:
256,344,11060,1,2,0:0:0:0:
260,336,11660,5,2,0:0:0:0:
348,240,12060,1,0,0:0:0:0:
224,204,12460,1,2,0:0:0:0:
496,68,12860,5,2,0:0:0:0:
372,32,13060,1,0,0:0:0:0:
424,92,13260,1,2,0:0:0:0:
300,56,13460,1,0,0:0:0:0:
176,20,13660,2,0,B|200:32|200:32|224:112,1,80,4|0,0:0|0:0,0:0:0:0:
248,189,14060,5,0,0:0:0:0:
276,293,14260,1,0,0:0:0:0:
200,370,14460,1,0,0:0:0:0:
97,341,14660,1,0,0:0:0:0:
69,236,14860,1,0,0:0:0:0:
144,161,15060,1,0,0:0:0:0:
170,261,15260,5,2,0:0:0:0:
264,240,15460,1,0,0:0:0:0:
356,268,15660,1,0,0:0:0:0:
448,244,15860,1,0,0:0:0:0:
408,324,16060,5,2,0:0:0:0:
364,256,16260,1,0,0:0:0:0:
368,176,16460,1,0,0:0:0:0:
416,112,16660,1,0,0:0:0:0:
376,40,16860,5,0,0:0:0:0:
368,44,16960,1,0,0:0:0:0:
360,48,17060,1,0,0:0:0:0:
352,52,17160,1,0,0:0:0:0:
344,56,17260,1,0,0:0:0:0:
336,52,17360,1,0,0:0:0:0:
328,48,17460,1,0,0:0:0:0:
320,44,17560,1,0,0:0:0:0:
312,40,17660,1,2,0:0:0:0:
304,44,17760,1,0,0:0:0:0:
296,48,17860,1,0,0:0:0:0:
288,52,17960,1,0,0:0:0:0:
280,56,18060,1,0,0:0:0:0:
272,52,18160,1,0,0:0:0:0:
264,48,18260,1,0,0:0:0:0:
256,44,18360,1,0,0:0:0:0:
248,40,18460,5,2,0:0:0:0:
240,44,18560,1,0,0:0:0:0:
232,48,18660,1,0,0:0:0:0:
224,52,18760,1,0,0:0:0:0:
216,56,18860,1,2,0:0:0:0:
208,52,18960,1,0,0:0:0:0:
200,48,19060,1,0,0:0:0:0:
192,44,19160,1,0,0:0:0:0:
184,40,19260,5,2,0:0:0:0:
64,36,19460,1,0,0:0:0:0:
4,140,19660,1,2,0:0:0:0:
124,132,19860,1,0,0:0:0:0:
128,0,20060,5,6,0:1:0:0:
124,12,20160,1,0,0:0:0:0:
0,68,20360,1,0,0:0:0:0:
12,72,20460,1,8,0:0:0:0:
132,144,20660,1,0,0:0:0:0:
140,156,20760,1,0,0:0:0:0:
148,168,20860,6,0,B|169:192|169:192|252:184,1,95.9999970703126,2|0,0:1|0:0,0:0:0:0:
356,268,21260,1,8,0:0:0:0:
360,256,21360,1,0,0:0:0:0:
336,120,21560,1,0,0:0:0:0:
340,108,21660,2,0,B|328:76|328:76|364:8,1,95.9999970703126,2|0,0:1|0:0,0:0:0:0:
512,96,22060,2,0,B|468:116|420:80,1,95.9999970703126,8|0,0:0|0:0,0:0:0:0:
272,4,22460,1,2,0:1:0:0:
268,16,22560,1,0,0:0:0:0:
264,28,22660,1,0,0:0:0:0:
122,60,22860,1,8,0:0:0:0:
120,72,22960,2,0,L|108:176,1,95.9999970703126,0|0,0:0|0:0,0:0:0:0:
56,224,23260,1,2,0:1:0:0:
52,212,23360,1,0,0:0:0:0:
48,200,23460,1,0,0:0:0:0:
100,284,23660,6,0,B|120:340|212:344,1,95.9999970703126,10|0,0:0|0:0,0:0:0:0:
411,97,24060,2,0,B|391:41|299:37,1,95.9999970703126,2|2,0:1|0:0,0:0:0:0:
208,104,24460,1,8,0:0:0:0:
80,168,24660,5,2,0:0:0:0:
77,152,24760,1,0,0:0:0:0:
74,136,24860,1,2,0:1:0:0:
44,0,25060,1,0,0:0:0:0:
112,92,25260,2,0,B|132:192,1,95.9999970703126,10|0,0:0|0:0,0:0:0:0:
160,256,25560,1,0,0:0:0:0:
163,272,25660,1,2,0:1:0:0:
264,364,25860,1,2,0:0:0:0:
332,180,26060,2,0,B|296:208|296:208|304:244|304:244|340:256|340:256|348:288|348:288|300:336,1,191.999994140625,8|2,0:0|0:1,0:0:0:0:
172,304,26660,5,0,0:0:0:0:
216,228,26860,1,8,0:0:0:0:
208,220,26960,1,0,0:0:0:0:
112,228,27160,1,0,0:0:0:0:
120,236,27260,1,2,0:1:0:0:
156,148,27460,1,0,0:0:0:0:
192,72,27660,1,8,0:0:0:0:
184,64,27760,1,0,0:0:0:0:
28,356,28060,5,2,0:1:0:0:
32,344,28160,1,0,0:0:0:0:
168,292,28360,1,0,0:0:0:0:
164,280,28460,1,10,0:0:0:0:
36,208,28660,1,0,0:0:0:0:
40,196,28760,1,0,0:0:0:0:
44,184,28860,2,0,B|24:152|24:152|40:88,1,95.9999970703126,2|0,0:1|0:0,0:0:0:0:
164,32,29260,5,10,0:0:0:0:
144,184,29460,1,0,0:0:0:0:
148,196,29560,1,0,0:0:0:0:
152,208,29660,2,0,P|153:258|112:324,1,95.9999970703126,2|0,0:1|0:0,0:0:0:0:
55,236,30060,1,8,0:0:0:0:
266,362,30260,2,0,P|235:261|315:184,1,191.999994140625,2|0,0:0|0:0,0:0:0:0:
432,296,30860,6,0,L|324:284,1,95.9999970703126,10|0,0:0|0:0,0:0:0:0:
132,256,31260,2,0,L|188:178,1,95.9999970703126,2|0,0:0|0:0,0:0:0:0:
360,116,31660,2,0,L|321:28,1,95.9999970703126,10|0,0:0|0:0,0:0:0:0:
180,12,32060,5,2,0:1:0:0:
232,188,32260,1,2,0:1:0:0:
56,140,32460,1,2,0:1:0:0:
10,125,32560,1,2,0:1:0:0:
10,77,32660,1,2,0:1:0:0:
56,62,32760,1,2,0:1:0:0:
84,101,32860,6,0,B|116:120|116:120|200:100,1,95.9999970703126,4|0,0:0|0:0,0:0:0:0:
268,88,33260,1,8,0:0:0:0:
408,60,33560,1,0,0:0:0:0:
404,72,33660,1,2,0:1:0:0:
188,248,33960,1,0,0:0:0:0:
184,260,34060,1,8,0:0:0:0:
140,364,34260,1,0,0:0:0:0:
8,332,34460,6,0,B|36:288|36:288|112:280,1,95.9999970703126,2|0,0:1|0:0,0:0:0:0:
180,272,34860,1,8,0:0:0:0:
356,332,35160,1,0,0:0:0:0:
359,344,35260,1,2,0:1:0:0:
320,160,35560,1,0,0:0:0:0:
324,149,35660,1,8,0:0:0:0:
456,376,36060,5,2,0:1:0:0:
451,357,36160,1,2,0:0:0:0:
438,341,36260,1,2,0:0:0:0:
353,337,36460,1,8,0:0:0:0:
345,318,36560,1,2,0:0:0:0:
261,320,36760,1,2,0:0:0:0:
246,307,36860,1,2,0:1:0:0:
238,289,36960,1,2,0:0:0:0:
238,269,37060,1,2,0:0:0:0:
307,214,37260,1,8,0:0:0:0:
299,195,37360,1,2,0:0:0:0:
358,132,37560,1,2,0:0:0:0:
361,112,37660,1,2,0:1:0:0:
354,93,37760,1,2,0:0:0:0:
341,79,37860,1,2,0:0:0:0:
256,32,38060,5,8,0:0:0:0:
32,192,38460,1,2,0:1:0:0:
256,352,38860,1,8,0:0:0:0:
480,192,39260,1,2,0:1:0:0:
168,284,39560,5,2,0:0:0:0:
172,272,39660,1,8,0:0:0:0:
216,132,39860,1,2,0:0:0:0:
301,348,40060,1,2,0:1:0:0:
408,80,40260,1,2,0:0:0:0:
478,291,40460,5,8,0:0:0:0:
482,275,40560,1,0,0:0:0:0:
486,259,40660,1,0,0:0:0:0:
508,148,40860,2,0,L|439:160,1,47.9999985351563,2|0,0:1|0:0,0:0:0:0:
427,162,41060,1,0,0:0:0:0:
327,74,41260,2,0,L|414:81,1,47.9999985351563,8|0,0:0|0:0,0:0:0:0:
408,80,41460,1,0,0:0:0:0:
508,148,41660,1,2,0:1:0:0:
496,136,41760,1,0,0:0:0:0:
504,24,41960,1,0,0:0:0:0:
492,36,42060,1,8,0:0:0:0:
408,80,42260,5,0,0:0:0:0:
396,68,42360,1,0,0:0:0:0:
384,56,42460,2,0,B|280:40,1,95.9999970703126,2|0,0:1|0:0,0:0:0:0:
224,108,42760,1,0,0:0:0:0:
228,122,42860,2,0,B|248:170|312:174,1,95.9999970703126,10|0,0:0|0:0,0:0:0:0:
420,200,43160,1,0,0:0:0:0:
413,212,43260,2,0,B|360:235|351:288,1,95.9999970703126,2|0,0:1|0:0,0:0:0:0:
302,368,43560,1,0,0:0:0:0:
294,356,43660,2,0,L|239:278,1,95.9999970703126,10|0,0:0|0:0,0:0:0:0:
196,220,44060,5,0,0:0:0:0:
189,210,44460,1,2,0:0:0:0:
140,92,44860,1,0,0:0:0:0:
216,80,45060,1,2,0:0:0:0:
292,92,45260,1,0,0:0:0:0:
364,80,45460,1,2,0:0:0:0:
440,92,45660,5,6,0:1:0:0:
432,84,45760,1,0,0:0:0:0:
424,76,45860,2,0,L|324:36,1,95.9999970703126,0|8,0:0|0:0,0:0:0:0:
168,48,46260,2,0,L|268:88,1,95.9999970703126,0|2,0:0|0:1,0:0:0:0:
356,124,46660,1,0,0:0:0:0:
452,152,46860,5,8,0:0:0:0:
449,161,46960,1,0,0:0:0:0:
446,171,47060,1,0,0:0:0:0:
443,180,47160,1,0,0:0:0:0:
374,202,47260,5,2,0:1:0:0:
377,211,47360,1,0,0:0:0:0:
380,221,47460,1,0,0:0:0:0:
383,230,47560,1,0,0:0:0:0:
449,258,47660,5,8,0:0:0:0:
446,267,47760,1,0,0:0:0:0:
443,277,47860,1,0,0:0:0:0:
440,286,47960,1,0,0:0:0:0:
368,304,48060,5,2,0:1:0:0:
372,320,48160,1,0,0:0:0:0:
376,336,48260,1,0,0:0:0:0:
380,352,48360,1,0,0:0:0:0:
384,368,48460,2,0,B|356:384|356:384|272:352,1,95.9999970703126,8|0,0:0|0:0,0:0:0:0:
128,336,48860,5,2,0:1:0:0:
20,216,49060,1,2,0:0:0:0:
172,244,49260,1,8,0:0:0:0:
61,124,49460,1,2,0:0:0:0:
72,277,49660,5,2,0:1:0:0:
80,265,49760,1,0,0:0:0:0:
150,128,49960,1,0,0:0:0:0:
158,116,50060,1,10,0:0:0:0:
293,44,50260,1,0,0:0:0:0:
472,176,50460,6,0,B|460:224|460:224|384:256,1,95.9999970703126,2|0,0:1|0:0,0:0:0:0:
280,284,50860,1,8,0:0:0:0:
408,232,51060,2,0,B|364:180|288:204,1,95.9999970703126,0|2,0:0|0:1,0:0:0:0:
192,256,51460,5,0,0:0:0:0:
180,264,51560,1,0,0:0:0:0:
168,272,51660,1,8,0:0:0:0:
48,352,51860,1,0,0:0:0:0:
44,208,52060,5,2,0:1:0:0:
56,200,52160,1,0,0:0:0:0:
180,128,52360,1,0,0:0:0:0:
192,120,52460,1,8,0:0:0:0:
74,90,52660,1,0,0:0:0:0:
154,226,52860,1,2,0:1:0:0:
162,238,52960,1,0,0:0:0:0:
240,360,53160,1,0,0:0:0:0:
248,372,53260,2,0,B|285:379|285:379|351:320,1,95.9999970703126,8|0,0:0|0:0,0:0:0:0:
494,166,53660,6,0,L|428:236,1,95.9999970703126,2|0,0:1|0:0,0:0:0:0:
422,142,54060,2,0,L|356:212,1,95.9999970703126,8|0,0:0|0:0,0:0:0:0:
260,320,54460,1,2,0:1:0:0:
88,348,54660,5,2,0:0:0:0:
140,184,54860,1,8,0:0:0:0:
264,304,55060,1,2,0:0:0:0:
268,288,55160,1,0,0:0:0:0:
272,272,55260,1,2,0:1:0:0:
460,180,55460,1,0,0:0:0:0:
464,164,55560,1,0,0:0:0:0:
468,148,55660,2,0,B|436:152|436:152|364:96,1,95.9999970703126,10|0,0:0|0:0,0:0:0:0:
308,140,55960,1,0,0:0:0:0:
312,124,56060,2,0,L|224:56,1,95.9999970703126,2|0,0:1|0:0,0:0:0:0:
120,16,56460,5,10,0:0:0:0:
120,112,56660,1,0,0:0:0:0:
24,100,56860,1,2,0:1:0:0:
24,4,57060,1,0,0:0:0:0:
36,172,57260,5,2,0:1:0:0:
36,12,57460,1,0,0:0:0:0:
196,24,57660,1,2,0:1:0:0:
196,184,57860,1,2,0:1:0:0:
208,16,58060,2,0,L|224:68,2,47.9999985351563,2|2|2,0:1|0:1|0:1,0:0:0:0:
80,64,58460,5,6,0:1:0:0:
84,76,58560,1,0,0:0:0:0:
88,88,58660,1,0,0:0:0:0:
92,100,58760,1,0,0:0:0:0:
116,168,58860,5,8,0:0:0:0:
128,164,58960,1,0,0:0:0:0:
140,160,59060,1,0,0:0:0:0:
152,156,59160,1,0,0:0:0:0:
220,136,59260,5,2,0:1:0:0:
224,148,59360,1,0,0:0:0:0:
228,160,59460,1,0,0:0:0:0:
232,172,59560,1,0,0:0:0:0:
256,240,59660,5,8,0:0:0:0:
268,236,59760,1,0,0:0:0:0:
280,232,59860,1,0,0:0:0:0:
292,228,59960,1,0,0:0:0:0:
360,208,60060,5,2,0:1:0:0:
364,220,60160,1,0,0:0:0:0:
368,232,60260,2,0,L|440:256,1,47.9999985351563,0|0,0:0|0:0,0:0:0:0:
480,276,60460,1,8,0:0:0:0:
476,288,60560,1,0,0:0:0:0:
472,300,60660,2,0,L|400:324,1,47.9999985351563,0|0,0:0|0:0,0:0:0:0:
360,340,60860,1,2,0:1:0:0:
348,345,60960,1,0,0:0:0:0:
337,350,61060,2,0,L|269:316,1,47.9999985351563,0|0,0:0|0:0,0:0:0:0:
228,296,61260,1,8,0:0:0:0:
216,291,61360,1,0,0:0:0:0:
205,285,61460,2,0,L|137:318,1,47.9999985351563,0|0,0:0|0:0,0:0:0:0:
92,320,61660,5,2,0:1:0:0:
96,308,61760,1,0,0:0:0:0:
128,188,61960,1,0,0:0:0:0:
132,176,62060,1,8,0:0:0:0:
164,56,62260,1,0,0:0:0:0:
248,148,62460,1,2,0:1:0:0:
256,157,62560,1,0,0:0:0:0:
344,245,62760,1,0,0:0:0:0:
352,254,62860,1,8,0:0:0:0:
224,292,63060,1,0,0:0:0:0:
88,332,63260,5,2,0:1:0:0:
72,316,63360,1,0,0:0:0:0:
68,296,63460,1,0,0:0:0:0:
76,276,63560,1,0,0:0:0:0:
144,256,63660,5,8,0:0:0:0:
160,240,63760,1,0,0:0:0:0:
164,220,63860,1,0,0:0:0:0:
156,200,63960,1,0,0:0:0:0:
104,152,64060,5,2,0:1:0:0:
73,129,64160,1,0,0:0:0:0:
83,93,64260,1,0,0:0:0:0:
122,91,64360,1,0,0:0:0:0:
135,128,64460,1,8,0:0:0:0:
192,264,64660,2,0,B|164:281|164:281|149:362,1,95.9999970703126,0|2,0:0|0:1,0:0:0:0:
294,339,65060,5,2,0:0:0:0:
297,323,65160,1,0,0:0:0:0:
300,308,65260,1,8,0:0:0:0:
202,217,65460,1,2,0:0:0:0:
199,233,65560,1,0,0:0:0:0:
196,249,65660,1,2,0:1:0:0:
324,204,65860,1,2,0:0:0:0:
327,188,65960,1,0,0:0:0:0:
330,173,66060,1,8,0:0:0:0:
228,84,66260,1,2,0:0:0:0:
225,100,66360,1,0,0:0:0:0:
222,115,66460,1,2,0:1:0:0:
344,68,66660,5,2,0:0:0:0:
332,56,66760,1,0,0:0:0:0:
320,44,66860,1,8,0:0:0:0:
432,0,67060,1,2,0:0:0:0:
420,11,67160,1,0,0:0:0:0:
408,23,67260,1,2,0:1:0:0:
448,88,67460,1,2,0:0:0:0:
460,100,67560,1,0,0:0:0:0:
472,112,67660,1,8,0:0:0:0:
360,156,67860,1,2,0:0:0:0:
372,145,67960,1,0,0:0:0:0:
384,133,68060,1,2,0:1:0:0:
484,228,68260,5,2,0:0:0:0:
472,239,68360,1,0,0:0:0:0:
460,251,68460,1,8,0:0:0:0:
316,364,68660,2,0,P|296:308|312:256,1,95.9999970703126,2|2,0:0|0:1,0:0:0:0:
392,308,69060,1,2,0:1:0:0:
108,344,69260,1,2,0:1:0:0:
62,329,69360,1,2,0:1:0:0:
62,281,69460,1,2,0:1:0:0:
108,266,69560,1,2,0:1:0:0:
136,305,69660,6,0,B|192:300|204:248,1,95.9999970703126,6|0,0:1|0:0,0:0:0:0:
208,140,70060,5,0,0:0:0:0:
200,124,70260,1,0,0:0:0:0:
192,108,70460,1,0,0:0:0:0:
184,92,70660,1,0,0:0:0:0:
240,164,70860,5,0,0:0:0:0:
176,124,71060,1,0,0:0:0:0:
104,116,71260,1,0,0:0:0:0:
32,140,71460,1,0,0:0:0:0:
172,204,71660,5,0,0:0:0:0:
252,236,71860,1,0,0:0:0:0:
336,224,72060,1,0,0:0:0:0:
412,180,72260,1,0,0:0:0:0:
452,104,72460,1,0,0:0:0:0:
460,16,72660,1,0,0:0:0:0:
248,76,72860,5,0,0:0:0:0:
312,116,73060,1,0,0:0:0:0:
384,124,73260,1,0,0:0:0:0:
456,100,73460,1,0,0:0:0:0:
280,100,73660,5,0,0:0:0:0:
288,116,73860,1,0,0:0:0:0:
296,132,74060,1,0,0:0:0:0:
304,148,74260,1,0,0:0:0:0:
401,226,74435,5,2,0:0:0:0:
401,218,74535,2,0,L|401:162,1,47.9999985351563,0|0,0:0|0:0,0:0:0:0:
465,290,74835,1,2,0:0:0:0:
473,290,74935,1,0,0:0:0:0:
401,354,75135,1,2,0:0:0:0:
401,362,75235,1,0,0:0:0:0:
401,370,75335,1,0,0:0:0:0:
401,378,75435,1,0,0:0:0:0:
337,290,75635,2,0,L|289:290,1,47.9999985351563,2|0,0:0|0:0,0:0:0:0:
261,290,75860,5,2,0:1:0:0:
249,278,75960,1,2,0:1:0:0:
237,266,76060,1,2,0:1:0:0:
151,169,76260,1,0,0:0:0:0:
40,288,76460,2,0,B|52:256|52:256|16:188,1,95.9999970703126,8|0,0:0|0:0,0:0:0:0:
72,56,76860,1,2,0:1:0:0:
85,49,76960,1,0,0:0:0:0:
164,176,77160,1,0,0:0:0:0:
177,183,77260,1,8,0:0:0:0:
236,60,77460,1,0,0:0:0:0:
248,48,77560,1,0,0:0:0:0:
260,36,77660,6,0,B|311:18|361:46,1,95.9999970703126,2|0,0:1|0:0,0:0:0:0:
500,116,78060,1,8,0:0:0:0:
492,128,78160,1,0,0:0:0:0:
356,172,78360,1,0,0:0:0:0:
364,184,78460,2,0,L|376:284,1,95.9999970703126,2|0,0:1|0:0,0:0:0:0:
496,360,78760,1,0,0:0:0:0:
510,352,78860,2,0,P|497:305|451:270,1,95.9999970703126,8|0,0:0|0:0,0:0:0:0:
272,272,79160,1,0,0:0:0:0:
277,288,79260,2,0,B|258:316|258:316|181:326,1,95.9999970703126,2|0,0:1|0:0,0:0:0:0:
76,380,79660,1,8,0:0:0:0:
88,248,79860,1,0,0:0:0:0:
256,112,80060,6,0,L|272:224,1,95.9999970703126,2|0,0:1|0:0,0:0:0:0:
320,252,80360,1,0,0:0:0:0:
316,264,80460,1,8,0:0:0:0:
432,352,80660,1,0,0:0:0:0:
436,340,80760,1,0,0:0:0:0:
440,328,80860,2,0,B|456:272|404:212,1,95.9999970703126,2|0,0:1|0:0,0:0:0:0:
484,60,81260,6,0,B|465:88|465:88|388:98,1,95.9999970703126,10|0,0:0|0:0,0:0:0:0:
264,44,81660,2,0,P|256:90|272:135,1,95.9999970703126,2|2,0:1|0:0,0:0:0:0:
352,220,81960,1,0,0:0:0:0:
344,209,82060,2,0,P|351:153|316:96,1,95.9999970703126,8|2,0:0|0:0,0:0:0:0:
152,24,82460,5,2,0:1:0:0:
148,39,82560,1,0,0:0:0:0:
24,100,82760,1,0,0:0:0:0:
20,116,82860,2,0,L|44:228,1,95.9999970703126,8|0,0:0|0:0,0:0:0:0:
64,272,83160,1,0,0:1:0:0:
84,292,83260,1,2,0:1:0:0:
112,297,83360,1,0,0:0:0:0:
140,290,83460,1,0,0:0:0:0:
236,252,83660,1,8,0:0:0:0:
252,240,83760,1,0,0:0:0:0:
129,357,83960,1,0,0:0:0:0:
156,364,84060,1,2,0:1:0:0:
183,354,84160,1,0,0:0:0:0:
203,334,84260,1,0,0:0:0:0:
268,228,84460,6,0,B|316:188|396:208,1,95.9999970703126,8|0,0:0|0:0,0:0:0:0:
472,140,84860,1,2,0:1:0:0:
464,128,84960,1,0,0:0:0:0:
368,32,85160,1,0,0:0:0:0:
360,44,85260,1,8,0:0:0:0:
232,92,85460,2,0,B|208:52|124:48,1,95.9999970703126,0|2,0:1|0:1,0:0:0:0:
92,172,85860,5,2,0:0:0:0:
204,248,86060,1,8,0:0:0:0:
95,137,86260,5,2,0:0:0:0:
200,282,86460,1,2,0:1:0:0:
111,80,86660,5,2,0:0:0:0:
184,339,86860,1,8,0:0:0:0:
154,121,87060,5,0,0:0:0:0:
141,298,87260,1,2,0:1:0:0:
175,148,87460,5,0,0:0:0:0:
120,271,87660,1,8,0:0:0:0:
452,84,87860,5,2,0:0:0:0:
404,316,88060,1,2,0:1:0:0:
386,122,88260,5,2,0:1:0:0:
470,278,88460,1,2,0:1:0:0:
456,264,88560,1,2,0:1:0:0:
440,252,88660,1,2,0:1:0:0:
336,280,88860,5,6,0:1:0:0:
320,296,88960,1,0,0:0:0:0:
296,296,89060,1,0,0:0:0:0:
280,280,89160,1,0,0:0:0:0:
280,256,89260,1,0,0:0:0:0:
296,240,89360,1,0,0:0:0:0:
312,224,89460,1,0,0:0:0:0:
312,200,89560,1,0,0:0:0:0:
296,184,89660,1,0,0:0:0:0:
272,184,89760,1,0,0:0:0:0:
256,200,89860,1,0,0:0:0:0:
240,216,89960,1,0,0:0:0:0:
216,216,90060,1,0,0:0:0:0:
200,200,90160,1,0,0:0:0:0:
200,176,90260,1,0,0:0:0:0:
216,159,90360,1,0,0:0:0:0:
236,132,90460,5,2,0:1:0:0:
228,116,90560,1,0,0:0:0:0:
220,100,90660,1,0,0:0:0:0:
212,84,90760,1,0,0:0:0:0:
196,44,90860,5,0,0:0:0:0:
212,44,90960,1,0,0:0:0:0:
228,44,91060,1,0,0:0:0:0:
244,44,91160,1,0,0:0:0:0:
284,64,91260,5,0,0:0:0:0:
296,60,91360,1,0,0:0:0:0:
308,56,91460,1,0,0:0:0:0:
320,52,91560,1,0,0:0:0:0:
364,64,91660,5,0,0:0:0:0:
368,56,91760,1,0,0:0:0:0:
372,48,91860,1,0,0:0:0:0:
376,40,91960,1,0,0:0:0:0:
380,32,92060,5,0,0:0:0:0:
284,88,92260,1,0,0:0:0:0:
188,144,92460,1,0,0:0:0:0:
92,200,92660,1,0,0:0:0:0:
112,92,92860,5,0,0:0:0:0:
186,135,93060,1,0,0:0:0:0:
260,178,93260,1,0,0:0:0:0:
334,221,93460,1,0,0:0:0:0:
407,264,93660,5,0,0:0:0:0:
408,273,93760,1,0,0:0:0:0:
408,283,93860,1,0,0:0:0:0:
406,293,93960,1,0,0:0:0:0:
358,304,94060,5,0,0:0:0:0:
361,288,94160,1,0,0:0:0:0:
361,272,94260,1,0,0:0:0:0:
358,256,94360,1,0,0:0:0:0:
301,241,94460,5,0,0:0:0:0:
307,264,94560,1,0,0:0:0:0:
306,288,94660,1,0,0:0:0:0:
300,311,94760,1,0,0:0:0:0:
230,325,94860,5,0,0:0:0:0:
241,299,94960,1,0,0:0:0:0:
245,271,95060,1,0,0:0:0:0:
241,244,95160,1,0,0:0:0:0:
229,218,95260,6,0,L|133:162,1,95.9999970703126,2|0,0:1|0:0,0:0:0:0:
109,310,95660,2,0,L|25:357,1,95.9999970703126,2|0,0:1|0:0,0:0:0:0:
13,214,96060,2,0,L|13:118,1,95.9999970703126,2|0,0:1|0:0,0:0:0:0:
284,216,96460,6,0,B|345:209|353:112,1,95.9999970703126,2|0,0:1|0:0,0:0:0:0:
332,52,96860,2,0,B|271:59|263:156,1,95.9999970703126,2|0,0:1|0:0,0:0:0:0:
256,344,97260,1,2,0:1:0:0:
32,192,97660,1,2,0:1:0:0:
256,24,98060,1,2,0:1:0:0:
480,192,98460,1,2,0:1:0:0:
120,145,98760,5,0,0:0:0:0:
115,134,98860,2,0,B|144:76|80:19,1,95.9999970703126,2|0,0:1|0:0,0:0:0:0:
16,8,99160,1,0,0:0:0:0:
21,17,99260,2,0,B|-8:74|55:131,1,95.9999970703126,2|0,0:1|0:0,0:0:0:0:
96,208,99660,5,2,0:1:0:0:
192,112,99860,1,0,0:0:0:0:
288,208,100060,1,2,0:1:0:0:
416,208,100260,5,0,0:0:0:0:
320,112,100460,1,2,0:1:0:0:
224,208,100660,1,0,0:0:0:0:
352,208,100860,5,2,0:1:0:0:
160,208,101060,1,2,0:1:0:0:
256,32,101260,1,2,0:1:0:0:
256,368,101460,1,2,0:1:0:0:
444,336,101660,5,2,0:1:0:0:
424,339,101760,1,0,0:0:0:0:
405,332,101860,1,0,0:0:0:0:
391,319,101960,1,0,0:0:0:0:
379,252,102060,5,8,0:0:0:0:
365,239,102160,1,0,0:0:0:0:
346,232,102260,1,0,0:0:0:0:
326,235,102360,1,0,0:0:0:0:
297,295,102460,5,2,0:1:0:0:
277,298,102560,1,0,0:0:0:0:
258,291,102660,1,0,0:0:0:0:
244,278,102760,1,0,0:0:0:0:
232,211,102860,5,8,0:0:0:0:
218,198,102960,1,0,0:0:0:0:
199,191,103060,1,0,0:0:0:0:
179,194,103160,1,0,0:0:0:0:
114,213,103260,5,2,0:1:0:0:
110,209,103360,1,0,0:0:0:0:
105,205,103460,1,0,0:0:0:0:
101,201,103560,1,0,0:0:0:0:
72,123,103660,5,8,0:0:0:0:
71,129,103760,1,0,0:0:0:0:
70,135,103860,1,0,0:0:0:0:
69,141,103960,1,0,0:0:0:0:
10,205,104060,5,2,0:1:0:0:
16,203,104160,1,0,0:0:0:0:
22,201,104260,1,0,0:0:0:0:
27,199,104360,1,0,0:0:0:0:
33,197,104460,5,8,0:0:0:0:
118,106,104660,1,0,0:0:0:0:
215,198,104860,1,2,0:1:0:0:
226,193,104960,1,0,0:0:0:0:
265,64,105160,1,0,0:0:0:0:
276,59,105260,1,8,0:0:0:0:
408,38,105460,1,0,0:0:0:0:
471,156,105660,1,2,0:1:0:0:
472,168,105760,1,0,0:0:0:0:
380,266,105960,1,0,0:0:0:0:
381,278,106060,1,8,0:0:0:0:
469,378,106260,1,0,0:0:0:0:
457,244,106460,5,2,0:1:0:0:
426,217,106560,1,0,0:0:0:0:
389,203,106660,1,2,0:0:0:0:
350,200,106760,1,0,0:0:0:0:
312,210,106860,1,8,0:0:0:0:
221,318,107060,1,2,0:0:0:0:
22,201,107260,1,2,0:1:0:0:
53,228,107360,1,0,0:0:0:0:
90,242,107460,1,2,0:0:0:0:
129,245,107560,1,0,0:0:0:0:
167,235,107660,2,0,B|182:213|182:213|158:141,1,95.9999970703126,8|2,0:0|0:0,0:0:0:0:
111,11,108060,5,2,0:1:0:0:
79,160,108260,1,0,0:0:0:0:
83,172,108360,1,0,0:0:0:0:
87,184,108460,1,8,0:0:0:0:
184,308,108660,2,0,B|180:276|180:276|220:227,1,95.9999970703126,0|2,0:0|0:1,0:0:0:0:
236,211,108960,1,0,0:0:0:0:
244,187,109060,1,0,0:0:0:0:
236,163,109160,1,0,0:0:0:0:
220,147,109260,5,8,0:0:0:0:
64,32,109460,1,0,0:0:0:0:
32,224,109660,5,2,0:1:0:0:
88,72,109860,1,0,0:0:0:0:
264,88,110060,5,8,0:0:0:0:
112,32,110260,1,0,0:0:0:0:
152,168,110460,5,2,0:1:0:0:
160,176,110560,1,0,0:0:0:0:
168,184,110660,1,0,0:0:0:0:
160,280,110860,1,8,0:0:0:0:
168,288,110960,1,0,0:0:0:0:
176,296,111060,1,0,0:0:0:0:
256,368,111260,1,2,0:1:0:0:
408,328,111460,5,0,0:0:0:0:
416,312,111560,1,0,0:0:0:0:
424,296,111660,1,8,0:0:0:0:
344,240,111860,1,0,0:1:0:0:
336,224,111960,1,0,0:0:0:0:
328,208,112060,1,2,0:1:0:0:
456,184,112260,5,2,0:1:0:0:
248,120,112460,1,2,0:1:0:0:
496,72,112660,1,2,0:1:0:0:
216,8,112860,1,2,0:1:0:0:
101,332,115606,5,2,0:0:0:0:
71,235,116053,2,0,B|113:222|145:242|145:242|181:265|230:248,1,143.999995605469,2|2,0:0|0:0,0:0:0:0:
311,219,116891,1,2,0:0:0:0:
350,127,117303,1,2,0:0:0:0:
288,37,117752,2,0,B|249:63|241:102|241:102|233:139|193:166,1,160,2|2,0:0|0:0,0:0:0:0:
128,200,118823,1,2,0:0:0:0:
68,80,119734,6,0,L|76:48,2,20,2|0|2,0:0|0:0|0:0,0:0:0:0:
64,100,119954,1,2,0:0:0:0:
