osu file format v14

[General]
AudioFilename: audio.mp3
AudioLeadIn: 0
PreviewTime: 47619
Countdown: 1
SampleSet: Soft
StackLeniency: 0.5
Mode: 0
LetterboxInBreaks: 0
WidescreenStoryboard: 1

[Editor]
Bookmarks: 17142,32380,47619,62857,78095,93333,108571,123809
DistanceSpacing: 1.2
BeatDivisor: 2
GridSize: 16
TimelineZoom: 1

[Metadata]
Title:SAIKA II
TitleUnicode:SAIKA II
Artist:Rabpit
ArtistUnicode:Rabpit
Creator:110
Version:Normal
Source:Cytus
Tags:
BeatmapID:1469378
BeatmapSetID:673969

[Difficulty]
HPDrainRate:3
CircleSize:4
OverallDifficulty:3
ApproachRate:4
SliderMultiplier:1.2
SliderTickRate:1

[Events]
//Background and Video events
0,0,"314e251f95cad1c80078c5fd793e6709c83d512c.jpg",0,0
//Break Periods
2,93533,99632
//Storyboard Layer 0 (Background)
//Storyboard Layer 1 (Fail)
//Storyboard Layer 2 (Pass)
//Storyboard Layer 3 (Foreground)
//Storyboard Sound Samples

[TimingPoints]
0,476.190476190476,4,2,0,40,1,0

[Colours]
Combo1 : 241,162,141
Combo2 : 243,180,202
Combo3 : 185,132,251

[HitObjects]
267,324,1904,6,0,P|321:342|375:309,1,120
446,188,2857,2,0,P|449:124|458:68,1,120
317,37,3809,5,0,0:0:0:0:
297,179,4285,1,0,0:0:0:0:
172,107,4761,2,0,P|115:114|47:113,1,120
6,250,5714,5,0,0:0:0:0:
148,231,6190,1,0,0:0:0:0:
143,374,6666,1,0,0:0:0:0:
268,304,7142,1,0,0:0:0:0:
399,363,7619,6,0,P|441:313|444:255,1,120
418,193,8333,1,0,0:0:0:0:
424,121,8571,2,0,P|423:56|458:4,1,120
256,192,9523,12,0,11666,0:0:0:0:
256,192,12619,12,0,14285,0:0:0:0:
341,133,15238,6,0,P|337:167|344:196,1,60
375,255,15714,2,0,P|380:297|374:324,1,60
321,360,16190,2,0,L|256:355,1,60
206,308,16666,1,0,0:0:0:0:
206,308,17142,6,0,P|140:298|78:320,1,120
144,179,18095,2,0,P|146:137|143:115,1,60
129,48,18571,6,0,P|190:18|251:32,1,120
333,134,19523,1,0,0:0:0:0:
439,37,19999,5,0,0:0:0:0:
386,86,20238,1,0,0:0:0:0:
333,134,20476,1,0,0:0:0:0:
444,225,20952,6,0,P|456:145|453:94,1,120
367,221,21904,2,0,L|376:287,1,60
310,313,22380,6,0,P|260:346|203:341,1,120
77,268,23333,1,0,0:0:0:0:
91,197,23571,2,0,P|96:163|92:134,2,60
148,240,24285,6,0,B|182:236|208:253|208:253|232:230|263:217,1,120
380,290,25238,1,0,0:0:0:0:
458,169,25714,2,0,P|463:122|460:98,1,60
408,61,26190,6,0,P|342:66|273:57,1,120
148,29,27142,1,0,0:0:0:0:
28,109,27619,1,0,0:0:0:0:
69,167,27857,1,0,0:0:0:0:
110,227,28095,6,0,P|118:165|109:97,1,120
234,183,29047,1,0,0:0:0:0:
373,219,29523,2,0,P|416:224|445:220,1,60
476,165,29999,6,0,L|481:38,1,120
193,62,31428,2,0,P|158:64|127:59,1,60
61,62,31904,2,0,P|32:78|13:101,1,60
25,169,32380,6,0,P|39:233|33:296,1,120
64,352,33095,2,0,P|93:358|131:353,1,60
182,314,33571,1,0,0:0:0:0:
253,323,33809,2,0,P|276:359|286:382,1,60
352,356,34285,6,0,P|417:353|455:309,1,120
463,243,34999,1,0,0:0:0:0:
360,141,35476,2,0,P|361:79|366:62,1,60
351,10,35952,1,0,0:0:0:0:
323,77,36190,6,0,P|255:97|202:92,1,120
137,74,36904,2,0,P|99:62|79:47,1,60
23,91,37380,2,0,P|23:127|17:157,2,60
20,18,38095,6,0,P|78:9|147:26,1,120
203,49,38809,1,0,0:0:0:0:
271,70,39047,2,0,P|317:70|339:65,1,60
393,104,39523,2,0,P|403:78|397:40,1,60
469,26,39999,6,0,P|475:84|451:149,1,120
395,181,40714,1,0,0:0:0:0:
395,181,41190,2,0,L|401:254,1,60
370,306,41666,1,0,0:0:0:0:
307,341,41904,6,0,P|241:350|179:343,1,120
119,320,42619,1,0,0:0:0:0:
70,267,42857,2,0,P|63:229|65:200,1,60
124,169,43333,2,0,P|125:124|120:101,1,60
73,56,43809,6,0,P|136:37|188:74,1,120
242,97,44523,1,0,0:0:0:0:
384,115,44999,2,0,P|422:105|440:90,1,60
509,94,45476,1,0,0:0:0:0:
470,155,45714,6,0,P|465:202|467:226,1,60
413,264,46190,2,0,P|416:307|424:332,1,60
357,356,46666,2,0,P|322:366|287:363,1,60
234,332,47142,1,0,0:0:0:0:
171,367,47380,1,0,0:0:0:0:
102,344,47619,6,0,P|81:299|86:226,1,120
138,181,48333,1,0,0:0:0:0:
153,110,48571,2,0,P|158:59|119:2,1,120
180,45,49285,1,0,0:0:0:0:
180,45,49523,6,0,L|305:48,1,120
371,41,50238,1,0,0:0:0:0:
442,29,50476,2,0,B|456:95|456:95|445:152,1,120
393,196,51190,1,0,0:0:0:0:
418,263,51428,6,0,P|422:304|417:325,1,60
278,287,52142,1,0,0:0:0:0:
151,356,52619,1,0,0:0:0:0:
20,294,53095,1,0,0:0:0:0:
110,182,53571,6,0,P|115:137|110:117,1,60
79,59,54047,1,0,0:0:0:0:
79,59,54523,2,0,P|37:53|13:55,2,60
151,58,55238,6,0,P|229:44|293:52,1,120
339,60,55952,1,0,0:0:0:0:
409,47,56190,2,0,P|431:116|427:162,1,120
377,215,56904,6,0,P|366:284|392:326,1,120
333,280,57619,1,0,0:0:0:0:
322,351,57857,2,0,P|260:368|199:354,1,120
148,315,58571,2,0,P|106:315|79:323,1,60
35,271,59047,5,0,0:0:0:0:
88,61,59761,1,0,0:0:0:0:
35,271,60952,5,0,0:0:0:0:
55,202,61190,1,0,0:0:0:0:
88,61,61666,1,0,0:0:0:0:
88,61,62142,5,0,0:0:0:0:
156,84,62380,1,0,0:0:0:0:
226,66,62619,1,0,0:0:0:0:
296,79,62857,6,0,P|336:81|369:68,1,60
408,27,63333,1,0,0:0:0:0:
474,55,63571,2,0,P|484:96|478:118,1,60
453,179,64047,2,0,P|451:218|456:240,1,60
479,306,64523,6,0,P|451:365|382:363,1,120
339,335,65238,1,0,0:0:0:0:
271,311,65476,2,0,P|233:304|201:309,1,60
145,332,65952,2,0,P|104:338|75:335,1,60
30,290,66428,6,0,L|32:220,1,60
97,201,66904,2,0,L|92:130,1,60
26,113,67380,2,0,L|29:47,1,60
94,23,67857,1,0,0:0:0:0:
160,50,68095,1,0,0:0:0:0:
231,44,68333,6,0,P|269:42|300:37,1,60
311,106,68809,2,0,P|345:104|376:94,1,60
403,158,69285,2,0,P|433:149|456:129,1,60
475,61,69761,2,0,P|472:104|463:127,1,60
509,177,70238,1,0,0:0:0:0:
503,248,70476,6,0,P|494:318|481:372,1,120
338,370,71428,2,0,P|324:311|317:251,1,120
273,195,72142,1,0,0:0:0:0:
203,175,72380,1,0,0:0:0:0:
134,196,72619,1,0,0:0:0:0:
134,196,73095,6,0,P|99:230|86:253,1,60
72,308,73571,1,0,0:0:0:0:
59,164,74047,1,0,0:0:0:0:
76,94,74285,6,0,P|70:61|53:34,1,60
119,4,74761,2,0,P|153:7|183:3,1,60
242,38,75238,2,0,P|283:32|314:37,1,60
366,64,75714,2,0,P|409:69|434:64,1,60
496,76,76190,6,0,L|488:142,1,60
421,161,76666,2,0,L|432:224,1,60
500,238,77142,2,0,L|476:299,1,60
413,327,77619,2,0,P|383:334|351:337,1,60
286,361,78095,6,0,P|217:345|145:352,1,120
101,321,78809,2,0,P|66:318|39:325,1,60
5,262,79285,1,0,0:0:0:0:
48,204,79523,2,0,P|52:166|47:139,1,60
44,72,79999,6,0,P|48:39|60:14,1,60
130,2,80476,1,0,0:0:0:0:
200,32,80714,1,0,0:0:0:0:
200,32,81190,2,0,P|248:37|274:31,2,60
141,73,81904,6,0,P|155:109|164:198,1,120
136,255,82619,2,0,P|131:303|136:328,1,60
204,310,83095,2,0,P|209:262|204:237,1,60
238,187,83571,1,0,0:0:0:0:
238,187,83809,6,0,P|305:180|366:188,1,120
419,221,84523,1,0,0:0:0:0:
452,284,84761,2,0,P|460:323|452:350,1,60
388,316,85238,2,0,L|318:322,1,60
266,358,85714,6,0,L|143:349,1,120
76,368,86428,1,0,0:0:0:0:
76,368,86904,2,0,P|74:336|84:310,1,60
113,244,87380,1,0,0:0:0:0:
123,172,87619,6,0,P|125:113|121:48,1,120
179,9,88333,1,0,0:0:0:0:
247,31,88571,2,0,P|279:25|309:28,1,60
374,49,89047,2,0,P|403:51|437:47,1,60
502,26,89523,6,0,P|508:95|502:155,1,120
468,208,90238,1,0,0:0:0:0:
397,333,90714,1,0,0:0:0:0:
326,316,90952,2,0,P|292:317|265:324,1,60
203,357,91428,6,0,P|131:356|76:345,1,120
40,289,92142,1,0,0:0:0:0:
81,230,92380,1,0,0:0:0:0:
36,173,92619,1,0,0:0:0:0:
91,126,92857,6,0,P|97:77|95:5,1,120
116,137,100952,6,0,B|141:126|141:126|156:112|156:112|195:134|195:134|247:123|259:83|259:83|251:217|384:282|491:199|482:78|391:45|334:84|340:154|404:156,1,600
388,296,103809,6,0,B|314:299|209:325,1,180
147,359,104761,5,0,0:0:0:0:
77,339,104999,1,0,0:0:0:0:
36,279,105238,2,0,P|31:237|36:212,1,60
101,194,105714,1,0,0:0:0:0:
160,152,105952,1,0,0:0:0:0:
184,84,106190,2,0,P|191:50|180:18,1,60
117,53,106666,6,0,P|81:52|50:41,1,60
3,91,107142,2,0,P|9:125|10:157,1,60
33,219,107619,2,0,P|30:249|36:279,1,60
84,332,108095,1,0,0:0:0:0:
155,340,108333,1,0,0:0:0:0:
226,350,108571,6,0,P|297:339|357:351,1,120
412,323,109285,2,0,B|421:297|421:297|415:263,1,60
366,212,109761,2,0,B|360:180|360:180|369:154,1,60
439,137,110238,6,0,P|397:85|342:87,1,120
298,136,110952,1,0,0:0:0:0:
277,66,111190,2,0,P|267:35|253:7,1,60
183,5,111666,2,0,P|167:30|141:58,1,60
83,87,112142,6,0,P|50:88|22:86,1,60
7,156,112619,2,0,P|46:161|74:159,1,60
80,230,113095,2,0,P|47:232|20:230,1,60
0,301,113571,1,0,0:0:0:0:
0,301,113809,1,0,0:0:0:0:
53,349,114047,6,0,P|88:353|123:351,1,60
178,322,114523,2,0,P|213:318|237:318,1,60
302,349,114999,2,0,P|337:358|367:359,1,60
432,351,115476,2,0,P|468:343|494:325,1,60
503,260,115952,1,0,0:0:0:0:
469,196,116190,6,0,P|464:135|475:73,1,120
340,22,117142,2,0,P|329:78|331:147,1,120
298,205,117857,6,0,P|300:248|298:265,1,60
248,316,118333,2,0,P|221:328|196:311,1,60
146,262,118809,2,0,P|118:257|115:230,1,60
116,157,119285,2,0,P|116:128|143:120,1,60
212,102,119761,1,0,0:0:0:0:
281,121,119999,5,0,0:0:0:0:
281,121,120238,1,0,0:0:0:0:
351,133,120476,2,0,P|388:131|420:125,1,60
471,164,120952,2,0,P|472:196|477:230,1,60
448,290,121428,1,0,0:0:0:0:
386,326,121666,1,0,0:0:0:0:
321,294,121904,6,0,L|250:289,1,60
205,335,122380,2,0,L|133:342,1,60
81,374,122857,5,0,0:0:0:0:
83,302,123095,1,0,0:0:0:0:
86,230,123333,1,0,0:0:0:0:
89,158,123571,1,0,0:0:0:0:
