osu file format v14

[General]
AudioFilename: audio.mp3
AudioLeadIn: 0
PreviewTime: 47619
Countdown: 1
SampleSet: Soft
StackLeniency: 0.5
Mode: 0
LetterboxInBreaks: 0
WidescreenStoryboard: 1

[Editor]
Bookmarks: 17142,32380,47619,62857,78095,93333,108571,123809
DistanceSpacing: 0.6
BeatDivisor: 4
GridSize: 16
TimelineZoom: 1

[Metadata]
Title:SAIKA II
TitleUnicode:SAIKA II
Artist:Rabpit
ArtistUnicode:Rabpit
Creator:110
Version:Insane
Source:Cytus
Tags:
BeatmapID:1469377
BeatmapSetID:673969

[Difficulty]
HPDrainRate:6
CircleSize:4.2
OverallDifficulty:7
ApproachRate:8.3
SliderMultiplier:1.5
SliderTickRate:1

[Events]
//Background and Video events
0,0,"314e251f95cad1c80078c5fd793e6709c83d512c.jpg",0,0
//Break Periods
2,93533,95238
2,97342,98581
//Storyboard Layer 0 (Background)
//Storyboard Layer 1 (Fail)
//Storyboard Layer 2 (Pass)
//Storyboard Layer 3 (Foreground)
//Storyboard Sound Samples

[TimingPoints]
0,476.190476190476,4,2,0,40,1,0
4761,-133.333333333333,4,2,0,40,0,0
7619,-100,4,2,0,40,0,0
11428,-142.857142857143,4,2,0,40,0,0
11785,-142.857142857143,4,2,0,5,0,0
11904,-142.857142857143,4,2,0,40,0,0
13690,-142.857142857143,4,2,0,5,0,0
13809,-142.857142857143,4,2,0,40,0,0
15119,-142.857142857143,4,2,0,5,0,0
15238,-142.857142857143,4,2,0,40,0,0
16666,-90.9090909090909,4,2,0,40,0,0
48333,-133.333333333333,4,2,0,40,0,0
55238,-90.9090909090909,4,2,0,40,0,0
55952,-133.333333333333,4,2,0,40,0,0
78095,-90.9090909090909,4,2,0,40,0,0
81309,-90.9090909090909,4,2,0,5,0,0
81428,-90.9090909090909,4,2,0,40,0,0
81547,-90.9090909090909,4,2,0,5,0,0
81666,-90.9090909090909,4,2,0,40,0,0
81785,-90.9090909090909,4,2,0,5,0,0
81904,-90.9090909090909,4,2,0,40,0,0
100952,-133.333333333333,4,2,0,40,0,0
107857,-90.9090909090909,4,2,0,40,0,0
109285,-133.333333333333,4,2,0,40,0,0
119999,-90.9090909090909,4,2,0,40,0,0

[Colours]
Combo1 : 241,162,141
Combo2 : 243,180,202
Combo3 : 185,132,251

[HitObjects]
121,57,1904,5,0,0:0:0:0:
121,57,2142,1,0,0:0:0:0:
219,92,2380,2,0,P|262:94|303:84,1,75
368,37,2857,5,0,0:0:0:0:
368,37,3095,1,0,0:0:0:0:
237,172,3333,2,0,P|195:173|154:163,1,75
0,258,3809,5,0,0:0:0:0:
88,229,4047,1,0,0:0:0:0:
117,319,4285,1,0,0:0:0:0:
27,346,4523,1,0,0:0:0:0:
162,166,4761,6,0,P|217:157|270:182,1,112.5
267,179,5476,1,0,0:0:0:0:
376,238,5714,5,0,0:0:0:0:
512,179,5952,1,0,0:0:0:0:
395,89,6190,1,0,0:0:0:0:
426,169,6428,1,0,0:0:0:0:
451,24,6666,5,0,0:0:0:0:
312,73,6904,1,0,0:0:0:0:
426,169,7142,1,0,0:0:0:0:
395,89,7380,1,0,0:0:0:0:
238,62,7619,6,0,P|273:61|329:83,1,75
395,89,8095,1,0,0:0:0:0:
395,89,8333,1,0,0:0:0:0:
156,104,8571,1,0,0:0:0:0:
238,62,8809,6,0,P|273:61|329:83,1,75
156,104,9285,1,0,0:0:0:0:
156,104,9999,5,0,0:0:0:0:
65,217,10238,5,0,0:0:0:0:
65,217,11428,6,0,L|60:301,1,78.7499975967408
156,104,11904,1,0,0:0:0:0:
65,217,12143,5,0,0:0:0:0:
144,341,13333,6,0,P|185:349|226:335,1,78.7499975967408
156,104,13809,1,0,0:0:0:0:
65,217,14048,5,0,0:0:0:0:
65,217,14761,6,0,L|60:301,1,78.7499975967408
165,252,15238,5,0,0:0:0:0:
192,284,15476,1,0,0:0:0:0:
256,237,15714,5,0,0:0:0:0:
347,286,15952,1,0,0:0:0:0:
357,209,16190,5,0,0:0:0:0:
510,230,16428,1,0,0:0:0:0:
329,92,16666,6,0,P|399:76|451:93,1,123.75000377655
465,106,17142,5,0,0:0:0:0:
357,209,17380,1,0,0:0:0:0:
382,210,17499,1,0,0:0:0:0:
409,211,17619,1,0,0:0:0:0:
262,152,17857,2,0,L|219:151,1,41.2500012588501
178,221,18095,5,0,0:0:0:0:
96,146,18333,2,0,L|144:148,1,41.2500012588501
53,275,18571,1,0,0:0:0:0:
37,254,18690,2,0,P|23:223|24:173,1,82.5000025177003
35,96,19047,6,0,P|56:194|36:254,1,165.000005035401
3,350,19761,1,0,0:0:0:0:
3,350,19999,6,0,P|28:349|51:353,1,41.2500012588501
164,338,20238,2,0,P|186:342|209:340,1,41.2500012588501
323,330,20476,2,0,P|374:318|429:367,1,123.75000377655
432,339,20952,6,0,L|428:202,1,123.75000377655
440,133,21428,1,0,0:0:0:0:
401,220,21666,1,0,0:0:0:0:
379,226,21785,1,0,0:0:0:0:
326,322,22023,1,0,0:0:0:0:
297,328,22142,2,0,P|274:329|253:322,1,41.2500012588501
169,281,22380,1,0,0:0:0:0:
146,291,22499,2,0,P|125:321|128:369,1,82.5000025177003
246,230,22857,6,0,L|244:98,1,123.75000377655
242,25,23333,1,0,0:0:0:0:
254,189,23571,6,0,L|245:234,1,41.2500012588501
364,229,23809,2,0,L|355:274,1,41.2500012588501
473,270,24047,2,0,L|464:315,1,41.2500012588501
391,138,24285,5,0,0:0:0:0:
366,140,24404,1,0,0:0:0:0:
341,143,24523,1,0,0:0:0:0:
316,146,24642,1,0,0:0:0:0:
254,189,24761,6,0,P|184:175|157:123,1,123.75000377655
238,107,25238,1,0,0:0:0:0:
77,157,25476,1,0,0:0:0:0:
51,151,25595,1,0,0:0:0:0:
26,148,25714,1,0,0:0:0:0:
56,8,25952,1,0,0:0:0:0:
178,52,26190,1,0,0:0:0:0:
178,52,26309,2,0,L|261:52,1,82.5000025177003
343,76,26666,6,0,P|395:84|458:4,1,165.000005035401
379,5,27380,1,0,0:0:0:0:
276,142,27619,6,0,P|273:167|280:190,1,41.2500012588501
332,281,27857,2,0,P|335:260|332:240,1,41.2500012588501
138,326,28095,2,0,L|262:326,1,123.75000377655
251,315,28571,6,0,L|127:315,1,123.75000377655
51,366,29047,1,0,0:0:0:0:
251,315,29285,1,0,0:0:0:0:
260,294,29404,1,0,0:0:0:0:
201,216,29642,1,0,0:0:0:0:
204,186,29761,2,0,P|202:163|196:143,1,41.2500012588501
129,95,29999,1,0,0:0:0:0:
129,95,30119,2,0,P|114:131|117:176,1,82.5000025177003
205,69,30476,5,0,0:0:0:0:
205,69,31428,5,0,0:0:0:0:
229,66,31547,1,0,0:0:0:0:
293,101,31666,5,0,0:0:0:0:
317,99,31785,1,0,0:0:0:0:
367,48,31904,5,0,0:0:0:0:
391,45,32023,1,0,0:0:0:0:
455,82,32142,5,0,0:0:0:0:
499,189,32380,6,0,P|473:97|445:76,1,123.75000377655
367,48,32857,1,0,0:0:0:0:
279,174,33095,1,0,0:0:0:0:
304,172,33214,1,0,0:0:0:0:
176,99,33452,1,0,0:0:0:0:
151,96,33571,2,0,L|105:97,1,41.2500012588501
14,173,33809,1,0,0:0:0:0:
38,172,33928,2,0,L|89:170,2,41.2500012588501
11,272,34285,6,0,P|88:281|130:255,1,123.75000377655
197,199,34761,1,0,0:0:0:0:
14,245,34999,1,0,0:0:0:0:
11,272,35119,1,0,0:0:0:0:
202,372,35357,1,0,0:0:0:0:
215,375,35476,2,0,L|218:324,1,41.2500012588501
197,199,35714,6,0,L|194:240,1,41.2500012588501
226,379,35952,2,0,L|229:328,1,41.2500012588501
327,273,36190,6,0,L|459:278,1,123.75000377655
502,208,36666,1,0,0:0:0:0:
441,63,36904,1,0,0:0:0:0:
439,75,37023,1,0,0:0:0:0:
434,109,37142,6,0,L|427:157,1,41.2500012588501
450,277,37380,1,0,0:0:0:0:
321,367,37619,1,0,0:0:0:0:
202,265,37857,1,0,0:0:0:0:
95,305,38095,6,0,L|8:295,1,82.5000025177003
10,270,38452,1,0,0:0:0:0:
7,245,38571,2,0,L|54:249,1,41.2500012588501
202,265,38809,2,0,L|250:269,1,41.2500012588501
138,131,39047,1,0,0:0:0:0:
119,343,39285,1,0,0:0:0:0:
249,378,39523,1,0,0:0:0:0:
273,375,39642,1,0,0:0:0:0:
297,372,39761,1,0,0:0:0:0:
321,370,39880,1,0,0:0:0:0:
345,366,39999,6,0,L|351:233,1,123.75000377655
354,158,40476,1,0,0:0:0:0:
259,80,40714,1,0,0:0:0:0:
235,86,40833,1,0,0:0:0:0:
210,87,40952,2,0,P|175:84|162:80,1,41.2500012588501
109,4,41190,6,0,P|95:36|87:47,1,41.2500012588501
5,79,41428,2,0,P|31:101|39:112,1,41.2500012588501
40,201,41666,2,0,P|70:182|82:178,1,41.2500012588501
166,204,41904,2,0,P|158:169|157:156,1,41.2500012588501
210,87,42142,2,0,P|175:84|162:80,1,41.2500012588501
250,169,42380,6,0,L|342:164,1,82.5000025177003
416,16,42857,1,0,0:0:0:0:
391,17,42976,1,0,0:0:0:0:
366,19,43095,2,0,L|367:72,1,41.2500012588501
382,161,43333,1,0,0:0:0:0:
357,162,43452,1,0,0:0:0:0:
332,164,43571,2,0,L|333:217,1,41.2500012588501
370,348,43809,6,0,P|433:369|483:293,1,165.000005035401
295,294,44523,1,0,0:0:0:0:
291,318,44642,1,0,0:0:0:0:
281,340,44761,2,0,P|267:361|251:371,1,41.2500012588501
121,306,44999,2,0,L|209:306,1,82.5000025177003
51,368,45357,1,0,0:0:0:0:
37,347,45476,2,0,P|29:311|31:298,1,41.2500012588501
119,220,45714,6,0,P|124:189|121:171,1,41.2500012588501
68,36,45952,1,0,0:0:0:0:
159,11,46190,1,0,0:0:0:0:
218,196,46428,1,0,0:0:0:0:
313,173,46666,1,0,0:0:0:0:
218,196,46904,5,0,0:0:0:0:
313,173,47142,1,0,0:0:0:0:
317,74,47380,1,0,0:0:0:0:
469,19,47619,6,0,L|483:146,1,123.75000377655
349,305,48095,1,0,0:0:0:0:
488,289,48333,6,0,L|342:305,1,140.625005364418
132,327,49047,1,0,0:0:0:0:
272,312,49285,6,0,L|126:328,1,140.625005364418
488,289,49999,1,0,0:0:0:0:
348,304,50238,6,0,L|488:289,1,140.625005364418
473,147,50952,1,0,0:0:0:0:
441,218,51190,1,0,0:0:0:0:
304,15,51428,5,0,0:0:0:0:
319,114,51666,1,0,0:0:0:0:
123,88,52142,1,0,0:0:0:0:
392,54,52619,1,0,0:0:0:0:
304,15,53095,1,0,0:0:0:0:
319,114,53571,5,0,0:0:0:0:
311,64,53690,1,0,0:0:0:0:
304,15,53809,1,0,0:0:0:0:
392,54,54047,1,0,0:0:0:0:
392,54,54523,5,0,0:0:0:0:
319,114,54761,1,0,0:0:0:0:
407,149,54999,1,0,0:0:0:0:
512,300,55238,6,0,P|452:308|381:291,1,123.75000377655
388,291,55714,1,0,0:0:0:0:
162,329,55952,6,0,P|208:314|299:340,1,140.625005364418
294,336,56666,1,0,0:0:0:0:
276,107,56904,6,0,P|302:165|302:245,1,140.625005364418
302,241,57619,1,0,0:0:0:0:
32,384,57857,6,0,P|31:314|58:249,1,140.625005364418
147,102,58571,1,0,0:0:0:0:
52,78,58809,1,0,0:0:0:0:
52,78,59047,5,0,0:0:0:0:
240,123,59761,1,0,0:0:0:0:
52,78,60952,5,0,0:0:0:0:
240,123,61190,1,0,0:0:0:0:
403,23,61666,1,0,0:0:0:0:
403,23,62142,5,0,0:0:0:0:
393,274,62380,2,0,L|386:232,1,28.1250010728836
469,223,62619,2,0,L|474:187,1,28.1250010728836
419,360,62857,6,0,L|319:356,1,84.3750032186509
151,304,63333,1,0,0:0:0:0:
151,304,63571,2,0,L|144:371,1,56.2500021457673
221,249,64047,2,0,L|217:192,1,56.2500021457673
433,220,64523,6,0,L|417:371,1,140.625005364418
391,146,65238,1,0,0:0:0:0:
391,146,65476,2,0,P|426:134|452:137,1,56.2500021457673
328,82,65952,2,0,P|294:81|272:71,1,56.2500021457673
39,63,66428,6,0,L|157:52,2,112.500004291535
39,63,67857,1,0,0:0:0:0:
157,271,68095,1,0,0:0:0:0:
90,366,68333,6,0,L|70:310,1,56.2500021457673
164,326,68809,2,0,L|156:268,1,56.2500021457673
247,358,69285,2,0,L|251:298,1,56.2500021457673
348,348,69761,1,0,0:0:0:0:
348,348,69999,1,0,0:0:0:0:
365,348,70119,1,0,0:0:0:0:
381,348,70238,1,0,0:0:0:0:
397,348,70357,1,0,0:0:0:0:
430,344,70476,6,0,P|465:319|340:253,1,281.250010728836
324,233,71904,1,0,0:0:0:0:
435,244,72142,1,0,0:0:0:0:
413,349,72380,5,0,0:0:0:0:
406,326,72619,1,0,0:0:0:0:
253,381,72857,1,0,0:0:0:0:
177,335,73095,2,0,L|86:349,1,84.3750032186509
21,375,73571,1,0,0:0:0:0:
253,381,73809,1,0,0:0:0:0:
239,273,74047,1,0,0:0:0:0:
512,283,74285,5,0,0:0:0:0:
308,320,74523,1,0,0:0:0:0:
437,297,74761,2,0,L|371:308,1,56.2500021457673
35,236,75238,1,0,0:0:0:0:
239,273,75476,1,0,0:0:0:0:
110,250,75714,2,0,L|176:261,1,56.2500021457673
392,188,76190,6,0,P|399:150|395:123,1,56.2500021457673
312,165,76666,2,0,P|305:203|309:230,1,56.2500021457673
381,306,77142,5,0,0:0:0:0:
482,150,77380,1,0,0:0:0:0:
331,44,77619,1,0,0:0:0:0:
223,197,77857,1,0,0:0:0:0:
231,102,78095,6,0,P|174:113|133:161,1,123.75000377655
149,239,78571,1,0,0:0:0:0:
32,236,78809,1,0,0:0:0:0:
23,206,78928,1,0,0:0:0:0:
148,379,79166,1,0,0:0:0:0:
175,371,79285,2,0,L|166:314,1,41.2500012588501
149,239,79523,1,0,0:0:0:0:
141,202,79642,2,0,L|134:162,2,41.2500012588501
223,197,79999,6,0,P|312:191|359:200,1,123.75000377655
424,213,80476,2,0,P|447:214|466:218,1,41.2500012588501
322,349,80714,2,0,P|349:346|368:346,1,41.2500012588501
322,349,81190,6,0,P|349:346|368:346,1,41.2500012588501
368,275,81428,2,0,P|399:280|412:284,1,41.2500012588501
424,213,81666,2,0,P|447:214|466:218,1,41.2500012588501
223,197,81904,6,0,P|312:191|359:200,1,123.75000377655
400,135,82380,1,0,0:0:0:0:
324,16,82619,1,0,0:0:0:0:
299,18,82738,1,0,0:0:0:0:
141,73,82976,1,0,0:0:0:0:
154,91,83095,2,0,L|106:84,1,41.2500012588501
196,171,83333,1,0,0:0:0:0:
214,176,83452,1,0,0:0:0:0:
227,194,83571,2,0,L|179:187,1,41.2500012588501
141,311,83809,6,0,P|199:285|261:283,1,123.75000377655
306,362,84285,2,0,P|330:356|350:354,1,41.2500012588501
227,194,84523,2,0,P|249:192|268:187,1,41.2500012588501
377,353,84761,1,0,0:0:0:0:
401,353,84880,1,0,0:0:0:0:
425,355,84999,2,0,P|432:328|431:310,1,41.2500012588501
357,182,85238,1,0,0:0:0:0:
357,182,85476,5,0,0:0:0:0:
312,184,85595,1,0,0:0:0:0:
267,187,85714,6,0,P|240:159|252:77,1,123.75000377655
307,32,86190,1,0,0:0:0:0:
163,31,86428,1,0,0:0:0:0:
134,34,86547,1,0,0:0:0:0:
47,136,86785,1,0,0:0:0:0:
83,144,86904,2,0,L|124:141,1,41.2500012588501
21,249,87142,1,0,0:0:0:0:
22,273,87261,2,0,L|26:323,2,41.2500012588501
27,348,87619,6,0,P|70:326|156:345,1,123.75000377655
214,369,88095,1,0,0:0:0:0:
21,249,88333,1,0,0:0:0:0:
214,369,88571,2,0,L|217:318,1,41.2500012588501
217,303,88809,2,0,L|220:252,1,41.2500012588501
15,141,89047,2,0,L|17:182,1,41.2500012588501
18,207,89285,2,0,L|20:248,1,41.2500012588501
122,193,89523,6,0,L|136:61,1,123.75000377655
85,6,89999,1,0,0:0:0:0:
15,141,90238,2,0,L|17:182,1,41.2500012588501
22,277,90476,2,0,L|24:318,1,41.2500012588501
27,348,90714,1,0,0:0:0:0:
15,141,90952,6,0,L|17:182,1,41.2500012588501
27,348,91190,1,0,0:0:0:0:
191,350,91428,5,0,0:0:0:0:
177,259,91666,1,0,0:0:0:0:
385,300,91904,1,0,0:0:0:0:
352,384,92142,1,0,0:0:0:0:
510,339,92380,1,0,0:0:0:0:
486,200,92619,1,0,0:0:0:0:
332,105,92857,1,0,0:0:0:0:
415,68,93095,1,0,0:0:0:0:
497,30,93333,5,0,0:0:0:0:
414,157,95952,5,0,0:0:0:0:
406,180,96071,1,0,0:0:0:0:
400,204,96190,1,0,0:0:0:0:
309,221,96428,1,0,0:0:0:0:
245,146,96666,1,0,0:0:0:0:
291,62,96904,1,0,0:0:0:0:
209,17,97142,5,0,0:0:0:0:
209,17,99285,5,0,0:0:0:0:
118,36,99523,1,0,0:0:0:0:
60,194,99761,1,0,0:0:0:0:
242,196,99999,5,0,0:0:0:0:
206,116,100238,1,0,0:0:0:0:
226,353,100476,1,0,0:0:0:0:
190,273,100714,1,0,0:0:0:0:
136,365,100952,6,0,B|181:353|202:298|202:298|226:353|226:353|288:309|406:362,1,337.500012874604
467,311,102857,1,0,0:0:0:0:
467,311,103571,6,0,L|479:274,1,28.1250010728836
451,203,103809,2,0,B|454:163|454:163|474:128|474:128|461:89|461:89|465:34,1,168.750006437302
359,39,104761,5,0,0:0:0:0:
261,20,104999,1,0,0:0:0:0:
112,130,105238,1,0,0:0:0:0:
209,110,105476,1,0,0:0:0:0:
239,246,105714,5,0,0:0:0:0:
340,208,105952,1,0,0:0:0:0:
435,261,106190,1,0,0:0:0:0:
455,368,106428,1,0,0:0:0:0:
254,361,106666,5,0,0:0:0:0:
239,246,106904,1,0,0:0:0:0:
48,164,107142,1,0,0:0:0:0:
41,384,107380,1,0,0:0:0:0:
322,282,107619,1,0,0:0:0:0:
322,282,107857,6,0,P|327:260|327:237,1,41.2500012588501
153,212,108095,2,0,P|148:234|148:257,1,41.2500012588501
276,161,108333,2,0,P|254:156|231:156,1,41.2500012588501
206,330,108571,6,0,P|238:325|337:332,1,123.75000377655
403,364,109047,1,0,0:0:0:0:
496,182,109285,6,0,L|500:124,1,56.2500021457673
414,129,109761,2,0,L|406:68,1,56.2500021457673
175,93,110238,5,0,0:0:0:0:
489,32,110952,5,0,0:0:0:0:
406,73,111190,2,0,L|414:129,1,56.2500021457673
499,125,111666,2,0,L|496:182,1,56.2500021457673
175,93,112142,6,0,P|172:59|176:36,1,56.2500021457673
266,69,112619,2,0,P|296:83|314:98,1,56.2500021457673
242,153,113095,2,0,P|214:172|192:180,1,56.2500021457673
21,149,113571,5,0,0:0:0:0:
56,62,113809,1,0,0:0:0:0:
116,140,114047,2,0,L|106:201,1,56.2500021457673
93,277,114523,2,0,L|81:337,1,56.2500021457673
181,250,114999,2,0,P|211:245|247:249,1,56.2500021457673
324,280,115476,2,0,P|364:290|391:286,1,56.2500021457673
465,248,115952,1,0,0:0:0:0:
426,92,116190,5,0,0:0:0:0:
426,92,117857,6,0,P|385:89|340:65,1,84.3750032186509
281,9,118333,6,0,P|265:47|228:82,1,84.3750032186509
162,128,118809,6,0,P|193:154|215:200,1,84.3750032186509
237,276,119285,6,0,P|271:254|322:247,1,84.3750032186509
401,260,119761,5,0,0:0:0:0:
401,260,119999,6,0,P|391:220|402:170,1,82.5000025177003
467,336,120476,2,0,P|432:312|407:268,1,82.5000025177003
237,276,120952,6,0,B|238:275|231:231|203:198,1,82.5000025177003
233,380,121428,2,0,P|243:339|242:297,1,82.5000025177003
237,276,121785,1,0,0:0:0:0:
220,260,121904,5,0,0:0:0:0:
68,363,122142,1,0,0:0:0:0:
351,376,122380,1,0,0:0:0:0:
305,102,122619,1,0,0:0:0:0:
161,182,122857,5,0,0:0:0:0:
383,229,123095,1,0,0:0:0:0:
305,102,123333,1,0,0:0:0:0:
34,182,123571,1,0,0:0:0:0:
