osu file format v14

[General]
AudioFilename: audio.mp3
AudioLeadIn: 0
PreviewTime: 47619
Countdown: 1
SampleSet: Soft
StackLeniency: 0.5
Mode: 0
LetterboxInBreaks: 0
WidescreenStoryboard: 1

[Editor]
Bookmarks: 17142,32380,47619,62857,78095,93333,108571,123809
DistanceSpacing: 1.4
BeatDivisor: 4
GridSize: 16
TimelineZoom: 1

[Metadata]
Title:SAIKA II
TitleUnicode:SAIKA II
Artist:Rabpit
ArtistUnicode:Rabpit
Creator:110
Version:Hard
Source:Cytus
Tags:
BeatmapID:1469376
BeatmapSetID:673969

[Difficulty]
HPDrainRate:5
CircleSize:4
OverallDifficulty:5.5
ApproachRate:7
SliderMultiplier:1.4
SliderTickRate:1

[Events]
//Background and Video events
0,0,"314e251f95cad1c80078c5fd793e6709c83d512c.jpg",0,0
//Break Periods
2,93533,100052
//Storyboard Layer 0 (Background)
//Storyboard Layer 1 (Fail)
//Storyboard Layer 2 (Pass)
//Storyboard Layer 3 (Foreground)
//Storyboard Sound Samples

[TimingPoints]
0,476.190476190476,4,2,0,40,1,0

[Colours]
Combo1 : 241,162,141
Combo2 : 243,180,202
Combo3 : 185,132,251

[HitObjects]
112,102,1904,5,0,0:0:0:0:
112,102,2142,1,0,0:0:0:0:
112,102,2380,2,0,P|151:108|182:102,1,70
266,53,2857,1,0,0:0:0:0:
266,53,3095,1,0,0:0:0:0:
266,53,3333,2,0,P|316:55|342:70,1,70
415,115,3809,6,0,L|419:43,1,70
503,94,4285,2,0,L|498:172,1,70
447,247,4761,1,0,0:0:0:0:
447,247,5238,1,0,0:0:0:0:
511,320,5476,1,0,0:0:0:0:
414,338,5714,6,0,L|338:350,1,70
278,276,6190,2,0,L|208:307,1,70
129,353,6666,2,0,P|136:310|134:281,1,70
219,235,7142,2,0,P|212:278|214:307,1,70
278,377,7619,5,0,0:0:0:0:
278,377,8095,5,0,0:0:0:0:
278,377,8571,5,0,0:0:0:0:
373,354,8809,1,0,0:0:0:0:
373,354,9285,5,0,0:0:0:0:
467,326,9523,2,0,L|481:177,1,140
446,94,10238,1,0,0:0:0:0:
446,94,11428,6,0,P|376:112|304:84,1,140
252,167,12142,1,0,0:0:0:0:
252,167,13333,6,0,P|175:149|110:160,1,140
29,204,14047,1,0,0:0:0:0:
29,204,15238,5,0,0:0:0:0:
38,301,15476,1,0,0:0:0:0:
127,260,15714,1,0,0:0:0:0:
136,357,15952,1,0,0:0:0:0:
127,260,16190,5,0,0:0:0:0:
136,357,16428,1,0,0:0:0:0:
233,349,16666,1,0,0:0:0:0:
428,361,17142,5,0,0:0:0:0:
470,272,17380,1,0,0:0:0:0:
470,272,17499,1,0,0:0:0:0:
470,272,17619,2,0,P|471:232|467:202,1,70
396,134,18095,1,0,0:0:0:0:
481,86,18333,1,0,0:0:0:0:
397,34,18571,2,0,B|359:18|359:18|303:32|280:91,1,140
285,78,19523,5,0,0:0:0:0:
188,61,19761,1,0,0:0:0:0:
90,47,19999,5,0,0:0:0:0:
188,61,20238,1,0,0:0:0:0:
285,78,20476,2,0,P|295:118|296:150,1,70
378,94,20952,5,0,0:0:0:0:
378,94,21428,1,0,0:0:0:0:
459,149,21666,1,0,0:0:0:0:
459,149,21785,1,0,0:0:0:0:
459,149,21904,2,0,L|456:198,2,35
380,208,22380,2,0,B|392:253|392:253|377:302|321:319,1,140
328,316,23333,1,0,0:0:0:0:
238,356,23571,5,0,0:0:0:0:
238,356,23809,5,0,0:0:0:0:
238,356,24047,5,0,0:0:0:0:
142,335,24285,2,0,L|143:292,1,35
105,331,24523,2,0,L|106:288,1,35
71,330,24761,6,0,P|72:272|81:186,1,140
127,109,25476,1,0,0:0:0:0:
127,109,25595,1,0,0:0:0:0:
127,109,25714,1,0,0:0:0:0:
30,126,25952,1,0,0:0:0:0:
61,33,26190,2,0,B|76:1|76:1|192:19,1,140
179,17,27142,5,0,0:0:0:0:
265,62,27380,1,0,0:0:0:0:
353,105,27619,1,0,0:0:0:0:
384,12,27857,1,0,0:0:0:0:
467,63,28095,2,0,L|475:136,1,70
413,209,28571,6,0,P|415:285|426:359,1,140
329,373,29285,1,0,0:0:0:0:
329,373,29404,1,0,0:0:0:0:
329,373,29523,2,0,L|271:369,2,35
279,288,29999,2,0,B|237:307|237:307|185:302|151:264,1,140
154,267,31428,6,0,L|157:220,1,35
159,183,31666,2,0,L|161:138,1,35
106,82,31904,5,0,0:0:0:0:
106,82,32023,1,0,0:0:0:0:
106,82,32142,1,0,0:0:0:0:
202,67,32380,6,0,B|304:68|304:68|326:36,1,140
422,22,33095,1,0,0:0:0:0:
422,22,33214,1,0,0:0:0:0:
422,22,33333,2,0,L|424:61,2,35
504,74,33809,1,0,0:0:0:0:
504,74,33928,1,0,0:0:0:0:
504,74,34047,2,0,L|500:116,1,35
465,142,34285,6,0,B|448:202|469:243|469:243|509:264,1,140
496,357,34999,1,0,0:0:0:0:
496,357,35119,1,0,0:0:0:0:
496,357,35238,1,0,0:0:0:0:
398,355,35476,1,0,0:0:0:0:
300,354,35714,1,0,0:0:0:0:
300,354,35833,1,0,0:0:0:0:
300,354,35952,2,0,L|301:308,1,35
304,270,36190,6,0,B|196:263|196:263|217:297,1,140
212,377,36904,1,0,0:0:0:0:
212,377,37023,1,0,0:0:0:0:
212,377,37142,2,0,L|168:381,2,35
137,319,37619,1,0,0:0:0:0:
45,357,37857,1,0,0:0:0:0:
137,319,38095,6,0,P|129:256|133:208,1,105
140,164,38571,2,0,L|136:115,1,35
118,83,38809,2,0,L|122:43,1,35
156,13,39047,2,0,L|238:9,1,70
321,31,39523,1,0,0:0:0:0:
321,31,39642,1,0,0:0:0:0:
321,31,39761,1,0,0:0:0:0:
321,31,39880,1,0,0:0:0:0:
321,31,39999,6,0,B|358:34|394:52|394:52|412:78,1,105
422,27,40476,1,0,0:0:0:0:
509,89,40714,1,0,0:0:0:0:
509,89,40833,1,0,0:0:0:0:
509,89,40952,2,0,L|507:136,2,35
464,0,41428,1,0,0:0:0:0:
410,75,41666,1,0,0:0:0:0:
509,89,41904,5,0,0:0:0:0:
452,171,42142,2,0,P|452:209|460:246,1,70
499,329,42619,1,0,0:0:0:0:
499,329,42738,1,0,0:0:0:0:
499,329,42857,2,0,L|449:328,1,35
418,346,43095,2,0,L|368:345,1,35
336,361,43333,2,0,L|286:360,1,35
257,338,43571,2,0,L|207:337,1,35
182,308,43809,6,0,B|126:292|88:328|88:328|105:364,1,140
8,343,44523,1,0,0:0:0:0:
8,343,44642,1,0,0:0:0:0:
8,343,44761,2,0,L|10:300,2,35
83,279,45238,1,0,0:0:0:0:
83,279,45357,1,0,0:0:0:0:
83,279,45476,2,0,L|87:232,1,35
113,203,45714,6,0,P|122:155|116:126,1,70
39,76,46190,2,0,P|35:41|44:7,1,70
128,57,46666,1,0,0:0:0:0:
128,57,46904,2,0,L|205:47,1,70
295,42,47380,1,0,0:0:0:0:
295,42,47619,6,0,L|434:27,1,140
439,124,48333,1,0,0:0:0:0:
439,124,48571,6,0,L|454:263,1,140
356,270,49285,1,0,0:0:0:0:
356,270,49523,6,0,L|217:285,1,140
214,186,50238,1,0,0:0:0:0:
214,186,50476,6,0,L|199:47,1,140
102,27,51190,1,0,0:0:0:0:
19,79,51428,1,0,0:0:0:0:
26,176,51666,1,0,0:0:0:0:
26,176,52142,5,0,0:0:0:0:
66,368,52619,1,0,0:0:0:0:
26,176,53095,5,0,0:0:0:0:
66,368,53571,1,0,0:0:0:0:
66,368,53690,1,0,0:0:0:0:
66,368,53809,1,0,0:0:0:0:
44,272,54047,1,0,0:0:0:0:
44,272,54523,6,0,P|90:278|121:275,1,70
201,232,54999,1,0,0:0:0:0:
201,232,55238,6,0,P|215:302|202:377,1,140
296,334,55952,1,0,0:0:0:0:
296,334,56190,6,0,P|366:320|441:333,1,140
398,239,56904,1,0,0:0:0:0:
398,239,57142,6,0,P|384:169|397:94,1,140
303,137,57856,1,0,0:0:0:0:
303,137,58095,6,0,P|233:151|158:138,1,140
106,62,58809,1,0,0:0:0:0:
184,2,59047,1,0,0:0:0:0:
184,2,59761,5,0,0:0:0:0:
184,2,60952,5,0,0:0:0:0:
106,62,61190,1,0,0:0:0:0:
291,0,61666,1,0,0:0:0:0:
291,0,62142,6,0,L|334:2,1,35
370,22,62380,2,0,L|409:14,3,35
452,6,62857,6,0,P|465:84|463:157,1,140
418,231,63571,2,0,P|419:282|427:311,1,70
344,358,64047,2,0,P|343:307|335:278,1,70
251,243,64523,6,0,L|101:241,1,140
43,169,65238,1,0,0:0:0:0:
43,169,65476,2,0,P|38:111|42:84,1,70
132,128,65952,2,0,P|141:74|152:54,1,70
237,22,66428,6,0,P|291:41|370:22,2,140
413,107,67857,1,0,0:0:0:0:
465,24,68095,1,0,0:0:0:0:
369,22,68333,6,0,P|334:48|322:77,1,70
343,164,68809,2,0,P|372:192|413:195,1,70
490,234,69285,2,0,P|463:271|437:282,1,70
375,352,69761,2,0,L|225:340,1,140
157,280,70476,5,0,0:0:0:0:
157,280,72142,6,0,B|129:340|129:340|71:312|67:237|106:192|172:183|229:208|256:279|196:340,1,420
7,289,74047,1,0,0:0:0:0:
7,289,74523,5,0,0:0:0:0:
35,195,74761,2,0,L|28:109,1,70
127,112,75238,5,0,0:0:0:0:
96,18,75476,1,0,0:0:0:0:
191,40,75714,1,0,0:0:0:0:
225,131,75952,1,0,0:0:0:0:
293,201,76190,5,0,0:0:0:0:
327,110,76428,1,0,0:0:0:0:
422,88,76666,1,0,0:0:0:0:
391,182,76904,1,0,0:0:0:0:
454,256,77142,5,0,0:0:0:0:
428,350,77380,1,0,0:0:0:0:
330,366,77619,1,0,0:0:0:0:
264,292,77857,1,0,0:0:0:0:
264,292,78095,6,0,B|153:301|153:301|135:331,1,140
51,280,78809,1,0,0:0:0:0:
51,280,78928,1,0,0:0:0:0:
51,280,79047,2,0,L|56:230,2,35
86,371,79523,1,0,0:0:0:0:
86,371,79642,1,0,0:0:0:0:
86,371,79761,2,0,L|98:333,1,35
138,325,79999,6,0,B|146:213|146:213|168:196,1,140
113,113,80714,1,0,0:0:0:0:
113,113,81190,1,0,0:0:0:0:
167,196,81428,1,0,0:0:0:0:
251,146,81666,1,0,0:0:0:0:
334,95,81904,6,0,B|443:101|443:101|459:131,1,140
407,212,82619,1,0,0:0:0:0:
407,212,82738,1,0,0:0:0:0:
407,212,82857,2,0,L|410:258,2,35
492,258,83333,1,0,0:0:0:0:
492,258,83452,1,0,0:0:0:0:
492,258,83571,2,0,L|483:302,1,35
479,340,83809,6,0,B|409:352|367:332|367:332|359:349|351:359,1,140
270,304,84523,1,0,0:0:0:0:
203,376,84761,1,0,0:0:0:0:
203,376,84880,1,0,0:0:0:0:
203,376,84999,1,0,0:0:0:0:
126,313,85238,1,0,0:0:0:0:
192,241,85476,1,0,0:0:0:0:
192,241,85595,1,0,0:0:0:0:
192,241,85714,6,0,B|209:178|182:132|182:132|152:147,1,140
96,221,86428,1,0,0:0:0:0:
96,221,86547,1,0,0:0:0:0:
96,221,86666,2,0,L|50:214,2,35
58,130,87142,1,0,0:0:0:0:
58,130,87261,1,0,0:0:0:0:
58,130,87380,2,0,L|16:126,1,35
2,171,87619,6,0,B|31:230|23:281|23:281|1:295,1,140
50,379,88333,1,0,0:0:0:0:
142,347,88571,1,0,0:0:0:0:
142,347,88690,1,0,0:0:0:0:
142,347,88809,2,0,L|189:338,1,35
225,343,89047,2,0,L|260:334,1,35
219,363,89285,2,0,L|258:353,1,35
301,363,89523,5,0,0:0:0:0:
344,275,89761,1,0,0:0:0:0:
441,263,89999,1,0,0:0:0:0:
510,332,90238,1,0,0:0:0:0:
510,332,90476,5,0,0:0:0:0:
441,263,90714,1,0,0:0:0:0:
421,167,90952,1,0,0:0:0:0:
445,72,91190,1,0,0:0:0:0:
511,0,91428,6,0,P|478:25|454:59,1,70
365,23,91904,2,0,P|349:63|352:97,1,70
324,183,92380,1,0,0:0:0:0:
226,168,92619,1,0,0:0:0:0:
324,183,92857,6,0,L|236:182,1,70
159,207,93333,1,0,0:0:0:0:
129,130,100952,6,0,B|179:117|172:48|96:28|31:82|26:152|77:213|148:198|148:198|198:221|219:294|162:352|88:350|43:284,1,560
357,326,103571,5,0,0:0:0:0:
357,326,103690,1,0,0:0:0:0:
357,326,103809,2,0,P|396:227|350:137,1,210
273,81,104761,6,0,P|313:50|341:44,1,70
425,71,105238,1,0,0:0:0:0:
425,71,105476,1,0,0:0:0:0:
352,139,105714,2,0,P|385:164|421:169,1,70
504,203,106190,2,0,P|510:167|503:134,1,70
425,71,106666,5,0,0:0:0:0:
352,139,106904,1,0,0:0:0:0:
259,107,107142,1,0,0:0:0:0:
334,44,107380,1,0,0:0:0:0:
352,139,107619,5,0,0:0:0:0:
334,44,107857,1,0,0:0:0:0:
425,71,108095,2,0,P|448:108|453:139,1,70
409,221,108571,5,0,0:0:0:0:
269,359,109047,1,0,0:0:0:0:
172,344,109285,1,0,0:0:0:0:
147,155,109761,1,0,0:0:0:0:
348,103,110238,1,0,0:0:0:0:
269,359,110952,5,0,0:0:0:0:
172,344,111190,1,0,0:0:0:0:
365,373,111666,1,0,0:0:0:0:
470,207,112142,6,0,P|476:164|470:125,1,70
442,44,112619,2,0,P|460:83|465:117,1,70
384,165,113095,2,0,P|422:151|456:129,1,70
362,85,113571,1,0,0:0:0:0:
453,120,113809,1,0,0:0:0:0:
473,215,114047,6,0,P|479:260|474:291,1,70
487,186,114523,2,0,P|474:226|448:258,1,70
499,159,114999,2,0,P|471:185|443:201,1,70
364,259,115476,2,0,P|377:302|374:334,1,70
294,381,115952,1,0,0:0:0:0:
199,356,116190,6,0,P|135:376|212:262,1,350
375,326,117857,1,0,0:0:0:0:
431,246,118095,6,0,L|422:168,1,70
386,85,118571,2,0,L|395:163,1,70
491,143,119047,2,0,L|421:151,1,70
329,185,119523,2,0,L|398:176,1,70
300,176,119999,5,0,0:0:0:0:
205,202,120238,1,0,0:0:0:0:
138,273,120476,1,0,0:0:0:0:
113,367,120714,1,0,0:0:0:0:
42,298,120952,5,0,0:0:0:0:
138,273,121190,1,0,0:0:0:0:
233,293,121428,1,0,0:0:0:0:
311,351,121666,2,0,L|349:347,1,35
391,364,121904,5,0,0:0:0:0:
391,364,122142,1,0,0:0:0:0:
451,286,122380,1,0,0:0:0:0:
451,286,122619,1,0,0:0:0:0:
397,203,122857,5,0,0:0:0:0:
300,221,123095,1,0,0:0:0:0:
397,203,123333,1,0,0:0:0:0:
219,166,123571,5,0,0:0:0:0:
