osu file format v14

[General]
AudioFilename: audio.mp3
AudioLeadIn: 0
PreviewTime: 47619
Countdown: 1
SampleSet: Soft
StackLeniency: 0.3
Mode: 0
LetterboxInBreaks: 0
WidescreenStoryboard: 0

[Editor]
Bookmarks: 17142,32380,47619,62857,78095,93333,108571,123809
DistanceSpacing: 0.8
BeatDivisor: 8
GridSize: 16
TimelineZoom: 1.4

[Metadata]
Title:SAIKA II
TitleUnicode:SAIKA II
Artist:Rabpit
ArtistUnicode:Rabpit
Creator:110
Version:EX
Source:Cytus
Tags:
BeatmapID:1426197
BeatmapSetID:673969

[Difficulty]
HPDrainRate:6
CircleSize:4.5
OverallDifficulty:7
ApproachRate:9
SliderMultiplier:1.9
SliderTickRate:1

[Events]
//Background and Video events
0,0,"314e251f95cad1c80078c5fd793e6709c83d512c.jpg",0,0
//Break Periods
2,93533,95238
2,97342,98685
//Storyboard Layer 0 (Background)
//Storyboard Layer 1 (Fail)
//Storyboard Layer 2 (Pass)
//Storyboard Layer 3 (Foreground)
//Storyboard Sound Samples

[TimingPoints]
0,476.190476190476,4,2,0,40,1,0
4761,-142.857142857143,4,2,0,40,0,0
6666,-111.111111111111,4,2,0,40,0,0
9523,-200,4,2,0,40,0,0
12619,-181.818181818182,4,2,0,40,0,0
15952,-95.2380952380952,4,2,0,40,0,0
18690,-80,4,2,0,40,0,0
19047,-86.9565217391304,4,2,0,40,0,0
20476,-68.9655172413793,4,2,0,40,0,0
20952,-86.9565217391304,4,2,0,40,0,0
22142,-80,4,2,0,40,0,0
26309,-74.0740740740741,4,2,0,40,0,0
26666,-80,4,2,0,40,0,0
28095,-64.5161290322581,4,2,0,40,0,0
28571,-80,4,2,0,40,0,0
35714,-64.5161290322581,4,2,0,40,0,0
35952,-117.647058823529,4,2,0,40,0,0
36190,-80,4,2,0,40,0,0
39999,-60.6060606060606,4,2,0,40,0,0
40714,-68.9655172413793,4,2,0,40,0,0
43809,-80,4,2,0,40,0,0
47619,-166.666666666667,4,2,0,40,0,0
47976,-166.666666666667,4,2,0,5,0,0
48095,-277.777777777778,4,2,0,40,0,0
48928,-277.777777777778,4,2,0,5,0,0
49047,-277.777777777778,4,2,0,40,0,0
49880,-277.777777777778,4,2,0,5,0,0
49999,-277.777777777778,4,2,0,40,0,0
50833,-277.777777777778,4,2,0,5,0,0
50952,-277.777777777778,4,2,0,40,0,0
54523,-100,4,2,0,40,0,0
54642,-100,4,2,0,5,0,0
54761,-100,4,2,0,40,0,0
54880,-100,4,2,0,5,0,0
54999,-100,4,2,0,40,0,0
55119,-100,4,2,0,5,0,0
55238,-166.666666666667,4,2,0,40,0,0
55595,-166.666666666667,4,2,0,5,0,0
55714,-277.777777777778,4,2,0,40,0,0
56547,-277.777777777778,4,2,0,5,0,0
56666,-277.777777777778,4,2,0,40,0,0
57499,-277.777777777778,4,2,0,5,0,0
57619,-277.777777777778,4,2,0,40,0,0
58452,-277.777777777778,4,2,0,5,0,0
58571,-277.777777777778,4,2,0,40,0,0
62142,-76.9230769230769,4,2,0,40,0,0
62857,-133.333333333333,4,2,0,40,0,0
63214,-133.333333333333,4,2,0,5,0,0
63333,-133.333333333333,4,2,0,50,0,0
63928,-133.333333333333,4,2,0,5,0,0
64047,-133.333333333333,4,2,0,50,0,0
64404,-133.333333333333,4,2,0,5,0,0
64523,-185.185185185185,4,2,0,50,0,0
65119,-185.185185185185,4,2,0,5,0,0
65238,-133.333333333333,4,2,0,50,0,0
65833,-133.333333333333,4,2,0,5,0,0
65952,-133.333333333333,4,2,0,50,0,0
66309,-133.333333333333,4,2,0,5,0,0
66428,-133.333333333333,4,2,0,50,0,0
66785,-133.333333333333,4,2,0,5,0,0
66904,-133.333333333333,4,2,0,50,0,0
67261,-133.333333333333,4,2,0,5,0,0
67380,-133.333333333333,4,2,0,50,0,0
67738,-133.333333333333,4,2,0,5,0,0
67857,-133.333333333333,4,2,0,50,0,0
68690,-133.333333333333,4,2,0,5,0,0
68809,-133.333333333333,4,2,0,50,0,0
69166,-133.333333333333,4,2,0,5,0,0
69285,-133.333333333333,4,2,0,50,0,0
69642,-133.333333333333,4,2,0,5,0,0
69761,-133.333333333333,4,2,0,50,0,0
70476,-200,4,2,0,40,0,0
72142,-333.333333333333,4,2,0,40,0,0
78095,-80,4,2,0,40,0,0
81309,-80,4,2,0,5,0,0
81428,-80,4,2,0,40,0,0
81547,-80,4,2,0,5,0,0
81666,-80,4,2,0,40,0,0
81785,-80,4,2,0,5,0,0
81904,-80,4,2,0,40,0,0
84523,-64.5161290322581,4,2,0,40,0,0
84999,-86.9565217391304,4,2,0,40,0,0
85714,-86.9565217391304,4,2,0,40,0,0
86547,-74.0740740740741,4,2,0,40,0,0
89285,-133.333333333333,4,2,0,40,0,0
89523,-76.9230769230769,4,2,0,40,0,0
100952,-200,4,2,0,40,0,0
103809,-166.666666666667,4,2,0,40,0,0
107976,-166.666666666667,4,2,0,5,0,0
108095,-166.666666666667,4,2,0,40,0,0
108214,-166.666666666667,4,2,0,5,0,0
108333,-166.666666666667,4,2,0,40,0,0
108452,-166.666666666667,4,2,0,5,0,0
108571,-153.846153846154,4,2,0,50,0,0
108928,-153.846153846154,4,2,0,5,0,0
109047,-153.846153846154,4,2,0,50,0,0
109642,-153.846153846154,4,2,0,5,0,0
109761,-153.846153846154,4,2,0,50,0,0
110119,-153.846153846154,4,2,0,5,0,0
110238,-222.222222222223,4,2,0,50,0,0
110833,-153.846153846154,4,2,0,5,0,0
110952,-153.846153846154,4,2,0,50,0,0
111547,-153.846153846154,4,2,0,5,0,0
111666,-153.846153846154,4,2,0,50,0,0
112023,-153.846153846154,4,2,0,5,0,0
112142,-153.846153846154,4,2,0,50,0,0
112499,-153.846153846154,4,2,0,5,0,0
112619,-153.846153846154,4,2,0,50,0,0
112976,-153.846153846154,4,2,0,5,0,0
113095,-153.846153846154,4,2,0,50,0,0
113452,-153.846153846154,4,2,0,5,0,0
113571,-153.846153846154,4,2,0,50,0,0
114404,-153.846153846154,4,2,0,5,0,0
114523,-181.818181818182,4,2,0,50,0,0
114880,-181.818181818182,4,2,0,5,0,0
114999,-222.222222222222,4,2,0,50,0,0
115357,-222.222222222223,4,2,0,5,0,0
115476,-285.714285714287,4,2,0,50,0,0
115833,-153.846153846154,4,2,0,5,0,0
115952,-153.846153846154,4,2,0,50,0,0
116190,-1000,4,2,0,50,0,0
117619,-125,4,2,0,5,0,0
117857,-125,4,2,0,50,0,0
118214,-125,4,2,0,5,0,0
118333,-125,4,2,0,50,0,0
118690,-125,4,2,0,5,0,0
118809,-125,4,2,0,50,0,0
119166,-125,4,2,0,5,0,0
119285,-125,4,2,0,50,0,0
119642,-125,4,2,0,5,0,0
119761,-125,4,2,0,50,0,0

[Colours]
Combo1 : 241,162,141
Combo2 : 243,180,202
Combo3 : 185,132,251

[HitObjects]
136,52,1904,5,0,0:0:0:0:
136,52,2142,1,0,0:0:0:0:
178,123,2380,2,0,P|209:94|214:28,1,95
95,126,2857,2,0,P|106:174|145:204,1,95
178,123,3333,1,0,0:0:0:0:
136,52,3571,1,0,0:0:0:0:
178,123,3809,5,0,0:0:0:0:
257,149,4047,1,0,0:0:0:0:
334,119,4285,1,0,0:0:0:0:
368,45,4523,1,0,0:0:0:0:
417,112,4761,6,0,L|406:244,1,132.999995941162,2|0,0:0|0:0,0:0:0:0:
368,45,5476,1,0,0:0:0:0:
501,212,5714,1,0,0:0:0:0:
406,244,5952,1,0,0:0:0:0:
305,215,6190,1,0,0:0:0:0:
210,253,6428,1,0,0:0:0:0:
114,213,6666,6,0,L|104:126,1,85.4999973907472
95,25,7142,1,0,0:0:0:0:
185,161,7380,1,0,0:0:0:0:
47,272,7619,2,0,L|37:185,1,85.4999973907472
175,76,8095,2,0,L|185:161,1,85.4999973907472
23,110,8571,1,0,0:0:0:0:
273,320,8809,2,0,P|186:273|126:302,1,170.999994781494
200,252,9523,6,0,L|379:234,1,166.25,0|0,0:0|0:0,0:0:0:0:
365,235,12619,6,0,B|406:167|318:124|259:174|302:249|302:249|334:307|319:372|253:400|193:379|169:328|172:290|202:252,1,522.500015945435
215,168,15238,5,0,0:0:0:0:
215,168,15714,1,0,0:0:0:0:
110,113,15952,2,0,P|81:108|45:111,1,49.8749984779358
215,168,16190,2,0,P|244:161|264:152,1,49.8749984779358
82,38,16428,2,0,P|58:37|31:27,1,49.8749984779358
307,47,16666,2,0,L|146:54,1,149.624995433808
110,113,17142,5,0,0:0:0:0:
215,168,17380,1,0,0:0:0:0:
223,197,17499,1,0,0:0:0:0:
212,225,17619,2,0,P|206:263|211:286,1,49.8749984779358
171,338,17857,2,0,P|152:322|142:300,1,49.8749984779358
246,338,18095,1,0,0:0:0:0:
479,312,18333,2,0,L|468:360,1,49.8749984779358
246,338,18571,1,0,0:0:0:0:
282,273,18690,2,0,P|354:273|402:334,1,118.75
401,323,19047,6,0,L|391:153,1,163.875003125668
401,70,19523,1,0,0:0:0:0:
249,81,19761,1,0,0:0:0:0:
249,81,19999,2,0,L|245:24,1,54.6250010418892
401,70,20238,2,0,L|397:13,1,54.6250010418892
391,159,20476,2,0,B|374:144|348:134|320:136|298:152|298:152|274:169|243:173|210:164|199:147,1,206.625006305695
63,215,20952,6,0,P|151:219|184:286,1,163.875003125668
103,284,21428,1,0,0:0:0:0:
247,321,21666,5,0,0:0:0:0:
290,315,21785,1,0,0:0:0:0:
333,309,21904,1,0,0:0:0:0:
376,303,22023,1,0,0:0:0:0:
452,335,22142,2,0,P|479:328|508:311,1,59.375
376,303,22380,5,0,0:0:0:0:
452,335,22499,2,0,P|487:289|491:222,1,118.75
452,335,22857,6,0,P|471:252|440:165,1,178.125
389,100,23333,1,0,0:0:0:0:
225,138,23571,2,0,L|285:143,1,59.375
318,12,23809,2,0,L|313:72,1,59.375
356,231,24047,2,0,L|361:171,1,59.375
180,69,24285,5,0,0:0:0:0:
99,89,24404,1,0,0:0:0:0:
95,174,24523,1,0,0:0:0:0:
172,203,24642,1,0,0:0:0:0:
225,138,24761,6,0,P|224:102|116:12,1,178.125
99,89,25238,1,0,0:0:0:0:
172,203,25476,1,0,0:0:0:0:
160,228,25595,1,0,0:0:0:0:
150,254,25714,1,0,0:0:0:0:
150,254,25952,6,0,L|90:249,1,59.375
180,322,26190,1,0,0:0:0:0:
222,263,26309,2,0,L|360:274,1,128.250000489235
367,359,26666,6,0,P|352:263|393:183,1,178.125
302,196,27142,1,0,0:0:0:0:
508,362,27380,1,0,0:0:0:0:
384,191,27619,2,0,L|452:202,1,59.375
367,359,27857,2,0,L|431:370,1,59.375
349,273,28095,6,0,L|139:291,1,184.062501404285
81,202,28571,6,0,B|146:143|146:143|225:185,1,178.125
165,288,29047,1,0,0:0:0:0:
72,40,29285,5,0,0:0:0:0:
161,21,29404,1,0,0:0:0:0:
161,21,29642,1,0,0:0:0:0:
247,1,29761,2,0,L|303:35,1,59.375
221,82,29999,5,0,0:0:0:0:
322,42,30119,2,0,P|401:54|453:44,1,118.75
504,13,30476,5,0,0:0:0:0:
504,13,31428,5,0,0:0:0:0:
509,25,31587,5,0,0:0:0:0:
482,92,31666,1,0,0:0:0:0:
505,163,31825,5,0,0:0:0:0:
505,163,31904,1,0,0:0:0:0:
470,225,32063,5,0,0:0:0:0:
493,294,32142,1,0,0:0:0:0:
495,307,32301,5,0,0:0:0:0:
424,283,32380,2,0,P|344:253|256:270,1,178.125
125,244,32857,1,0,0:0:0:0:
172,44,33095,1,0,0:0:0:0:
200,56,33214,1,0,0:0:0:0:
225,67,33333,5,0,0:0:0:0:
291,46,33452,1,0,0:0:0:0:
364,55,33571,2,0,L|429:40,1,59.375
497,35,33809,1,0,0:0:0:0:
486,5,33928,1,0,0:0:0:0:
504,128,34047,5,0,0:0:0:0:
504,128,34285,2,0,P|494:184|488:249,1,118.75
428,302,34642,1,0,0:0:0:0:
362,336,34761,1,0,0:0:0:0:
362,336,34999,6,0,L|302:331,1,59.375
233,301,35238,1,0,0:0:0:0:
166,344,35357,1,0,0:0:0:0:
158,271,35476,6,0,P|156:241|162:208,1,59.375
202,154,35714,6,0,P|210:97|207:71,1,73.6250005617142
133,13,35952,6,0,P|135:37|149:56,1,40.375000770092
323,3,36190,6,0,L|201:10,1,118.75
265,42,36547,1,0,0:0:0:0:
335,71,36666,2,0,P|376:50|388:30,1,59.375
448,82,36904,1,0,0:0:0:0:
459,10,37023,1,0,0:0:0:0:
459,10,37380,6,0,B|468:36|458:69,1,59.375
450,158,37619,2,0,P|444:197|449:224,1,59.375
421,313,37857,2,0,P|457:344|474:352,1,59.375
335,368,38095,2,0,P|318:311|256:382,1,178.125
248,294,38571,5,0,0:0:0:0:
205,304,38690,1,0,0:0:0:0:
179,338,38809,1,0,0:0:0:0:
182,382,38928,1,0,0:0:0:0:
211,227,39047,6,0,L|218:162,1,59.375
105,127,39285,2,0,L|111:68,1,59.375
275,61,39523,5,0,0:0:0:0:
344,38,39642,1,0,0:0:0:0:
413,61,39761,1,0,0:0:0:0:
447,127,39880,1,0,0:0:0:0:
372,206,39999,6,0,B|367:163|420:136|420:136|487:186|441:266,1,235.125002242327
504,367,40476,1,0,0:0:0:0:
504,367,40714,6,0,L|434:356,1,68.8750021018983
363,317,40952,1,0,0:0:0:0:
363,317,41071,1,0,0:0:0:0:
387,205,41190,2,0,P|415:231|429:257,1,68.8750021018983
292,372,41428,2,0,P|257:384|212:375,1,68.8750021018983
243,213,41666,2,0,P|280:206|314:215,1,68.8750021018983
152,377,41904,2,0,P|123:353|107:310,1,68.8750021018983
172,167,42142,1,0,0:0:0:0:
202,300,42380,1,0,0:0:0:0:
358,271,42619,1,0,0:0:0:0:
289,194,42857,5,0,0:0:0:0:
294,209,42976,1,0,0:0:0:0:
397,176,43095,5,0,0:0:0:0:
395,195,43214,1,0,0:0:0:0:
280,287,43333,5,0,0:0:0:0:
285,304,43452,1,0,0:0:0:0:
437,267,43571,5,0,0:0:0:0:
434,283,43690,1,0,0:0:0:0:
361,345,43809,6,0,P|308:309|227:373,1,178.125
220,356,44285,1,0,0:0:0:0:
108,341,44523,1,0,0:0:0:0:
104,314,44642,1,0,0:0:0:0:
139,287,44761,5,0,0:0:0:0:
146,239,44880,1,0,0:0:0:0:
106,202,44999,5,0,0:0:0:0:
106,202,45238,5,0,0:0:0:0:
116,136,45357,1,0,0:0:0:0:
208,68,45476,5,0,0:0:0:0:
84,17,45714,5,0,0:0:0:0:
208,68,45952,1,0,0:0:0:0:
106,202,46190,5,0,0:0:0:0:
162,3,46428,1,0,0:0:0:0:
197,245,46666,1,0,0:0:0:0:
84,17,46904,5,0,0:0:0:0:
302,147,47142,1,0,0:0:0:0:
1,199,47380,1,0,0:0:0:0:
216,57,47619,6,0,P|213:99|192:137,1,85.4999973907472
381,98,48095,1,0,0:0:0:0:
47,125,48333,6,0,P|74:155|121:167,1,85.5000020874024
28,325,49047,1,0,0:0:0:0:
299,235,49285,6,0,P|257:234|221:211,1,85.5000020874024
379,195,49999,1,0,0:0:0:0:
102,314,50238,6,0,P|132:286|142:243,1,85.5000020874024
450,209,50952,1,0,0:0:0:0:
434,317,51190,1,0,0:0:0:0:
431,330,51428,5,0,0:0:0:0:
452,195,51666,1,0,0:0:0:0:
454,182,52142,5,0,0:0:0:0:
457,169,52619,5,0,0:0:0:0:
460,157,53095,5,0,0:0:0:0:
463,142,53571,5,0,0:0:0:0:
466,126,53690,1,0,0:0:0:0:
470,112,53809,1,0,0:0:0:0:
431,330,54047,1,0,0:0:0:0:
431,330,54523,6,0,P|459:322|484:307,1,47.5
489,230,54761,2,0,P|501:187|503:169,1,47.5
470,112,54999,2,0,P|465:79|457:62,1,47.5
300,102,55238,6,0,P|351:111|392:102,1,85.4999973907472
176,258,55714,1,0,0:0:0:0:
276,118,55952,6,0,P|285:67|276:26,1,85.4999973907472
378,327,56666,1,0,0:0:0:0:
296,138,56904,6,0,P|245:129|204:138,1,85.4999973907472
473,73,57619,1,0,0:0:0:0:
309,209,57857,6,0,P|318:167|312:125,1,85.4999973907472
116,27,58571,1,0,0:0:0:0:
18,81,58809,5,0,0:0:0:0:
74,173,59047,5,0,0:0:0:0:
64,190,59761,5,0,0:0:0:0:
55,203,60952,5,0,0:0:0:0:
45,220,61190,5,0,0:0:0:0:
35,238,61666,5,0,0:0:0:0:
26,258,62142,6,0,L|32:334,1,61.7499971733095
215,365,62380,5,0,0:0:0:0:
252,297,62499,1,0,0:0:0:0:
197,223,62619,5,0,0:0:0:0:
160,291,62738,1,0,0:0:0:0:
268,304,62857,6,0,L|380:296,1,106.875004076958
512,61,63333,5,0,0:0:0:0:
443,97,63571,2,0,P|397:101|339:71,1,106.875004076958
250,91,64047,2,0,P|316:79|343:44,1,106.875004076958
55,193,64523,6,0,B|122:181|122:181|177:231,1,128.250003131104
214,280,65238,1,0,0:0:0:0:
467,169,65476,6,0,B|475:211|475:211|465:234|465:234|472:276,1,106.875004076958
403,357,65952,2,0,B|396:318|396:318|406:295|406:295|398:253,1,106.875004076958
141,291,66428,6,0,P|101:335|40:346,1,106.875004076958
51,305,66904,2,0,P|96:332|168:318,1,106.875004076958
72,131,67380,2,0,L|89:254,1,106.875004076958
421,17,67857,5,0,0:0:0:0:
421,17,68095,1,0,0:0:0:0:
453,183,68333,2,0,B|453:152|453:152|470:120|470:120|473:80,1,106.875004076958
494,244,68809,2,0,P|462:289|480:346,1,106.875004076958
406,358,69285,2,0,P|365:334|309:349,1,106.875004076958
241,350,69761,2,0,P|261:347|277:338,1,35.625001358986
105,48,69999,5,0,0:0:0:0:
107,77,70119,1,0,0:0:0:0:
109,105,70238,1,0,0:0:0:0:
111,131,70357,1,0,0:0:0:0:
191,165,70476,2,0,L|179:16,1,142.5
199,241,71666,5,0,0:0:0:0:
199,241,71904,5,0,0:0:0:0:
179,22,72142,6,0,L|191:165,1,142.5
199,241,73571,1,0,0:0:0:0:
179,22,74047,1,0,0:0:0:0:
199,241,74286,5,0,0:0:0:0:
272,288,74524,1,0,0:0:0:0:
354,281,74762,1,0,0:0:0:0:
354,281,75000,1,0,0:0:0:0:
119,209,75238,5,0,0:0:0:0:
81,283,75477,1,0,0:0:0:0:
5,311,75715,1,0,0:0:0:0:
5,311,75953,1,0,0:0:0:0:
254,111,76191,5,0,0:0:0:0:
355,88,76428,1,0,0:0:0:0:
423,160,76666,1,0,0:0:0:0:
355,88,76905,1,0,0:0:0:0:
410,337,77143,5,0,0:0:0:0:
308,236,77381,1,0,0:0:0:0:
355,88,77619,1,0,0:0:0:0:
308,236,77857,2,0,L|312:261,1,14.2499995651245
423,160,78095,6,0,L|410:345,1,178.125
493,124,78571,1,0,0:0:0:0:
435,326,78809,1,0,0:0:0:0:
410,337,78928,2,0,L|351:332,1,59.375
274,353,79166,1,0,0:0:0:0:
201,365,79285,2,0,L|140:358,1,59.375
43,276,79523,5,0,0:0:0:0:
43,276,79642,1,0,0:0:0:0:
118,277,79761,2,0,L|176:283,1,59.375
43,276,79999,6,0,P|50:196|130:205,1,178.125
223,216,80476,1,0,0:0:0:0:
262,348,80714,2,0,P|256:303|262:279,1,59.375
258,289,81190,6,0,P|255:319|262:348,1,59.375
222,215,81428,2,0,P|199:198|171:189,1,59.375
297,220,81666,2,0,P|324:206|346:186,1,59.375
419,30,81904,6,0,P|397:86|410:143,1,118.75
418,214,82261,1,0,0:0:0:0:
480,264,82380,5,0,0:0:0:0:
482,322,82619,2,0,P|486:292|479:263,1,59.375
406,297,82857,1,0,0:0:0:0:
395,336,82976,1,0,0:0:0:0:
325,310,83096,2,0,P|295:311|264:307,1,59.375
242,236,83333,5,0,0:0:0:0:
266,308,83452,1,0,0:0:0:0:
185,352,83571,2,0,P|187:323|193:294,1,59.375
112,310,83809,6,0,B|83:287|48:285|48:285|71:221|55:175,1,178.125
24,111,84285,1,0,0:0:0:0:
75,58,84404,1,0,0:0:0:0:
147,89,84523,2,0,P|196:87|223:75,1,73.6250005617142
273,204,84761,5,0,0:0:0:0:
282,129,84880,1,0,0:0:0:0:
289,54,84999,2,0,L|295:0,1,54.6250010418892
429,68,85238,2,0,L|437:9,1,54.6250010418892
282,129,85476,5,0,0:0:0:0:
363,24,85595,1,0,0:0:0:0:
417,142,85714,6,0,P|345:173|281:128,1,163.875003125668
355,95,86190,1,0,0:0:0:0:
422,232,86428,1,0,0:0:0:0:
446,249,86547,2,0,L|436:312,1,64.1250002446175
383,380,86785,1,0,0:0:0:0:
356,362,86904,2,0,L|366:294,1,64.1250002446175
286,331,87142,5,0,0:0:0:0:
236,334,87261,1,0,0:0:0:0:
192,264,87380,2,0,L|267:260,1,64.1250002446175
94,340,87619,6,0,L|288:331,1,192.375000733852
329,266,88095,1,0,0:0:0:0:
244,148,88333,1,0,0:0:0:0:
192,249,88571,5,0,0:0:0:0:
191,234,88690,1,0,0:0:0:0:
299,87,88809,5,0,0:0:0:0:
300,71,88928,1,0,0:0:0:0:
191,220,89047,5,0,0:0:0:0:
191,207,89166,1,0,0:0:0:0:
300,54,89285,5,0,0:0:0:0:
301,40,89404,1,0,0:0:0:0:
226,27,89523,6,0,P|254:82|147:85,1,185.249991519928
301,40,89999,1,0,0:0:0:0:
153,45,90238,5,0,0:0:0:0:
226,27,90357,1,0,0:0:0:0:
301,40,90476,5,0,0:0:0:0:
336,59,90595,1,0,0:0:0:0:
353,91,90714,2,0,P|359:118|352:153,1,61.7499971733095
480,205,90952,1,0,0:0:0:0:
435,211,91071,1,0,0:0:0:0:
393,196,91190,2,0,P|368:177|352:150,1,61.7499971733095
372,335,91428,6,0,P|362:245|351:142,1,185.249991519928
275,193,91904,1,0,0:0:0:0:
143,266,92142,1,0,0:0:0:0:
131,145,92380,1,0,0:0:0:0:
210,236,92619,5,0,0:0:0:0:
204,162,92857,1,0,0:0:0:0:
93,209,93095,1,0,0:0:0:0:
0,131,93333,5,0,0:0:0:0:
0,131,95952,5,0,0:0:0:0:
77,116,96071,1,0,0:0:0:0:
0,141,96190,1,0,0:0:0:0:
65,26,96428,1,0,0:0:0:0:
181,66,96666,1,0,0:0:0:0:
76,234,96904,1,0,0:0:0:0:
186,190,97142,5,0,0:0:0:0:
186,190,99285,5,0,0:0:0:0:
173,101,99523,1,0,0:0:0:0:
265,266,99761,1,0,0:0:0:0:
230,357,99999,1,0,0:0:0:0:
461,296,100238,5,0,0:0:0:0:
406,279,100357,1,0,0:0:0:0:
377,228,100476,1,0,0:0:0:0:
407,102,100714,1,0,0:0:0:0:
140,235,100952,6,0,P|229:238|99:176,1,475
140,235,103571,5,0,0:0:0:0:
188,160,103690,1,0,0:0:0:0:
240,85,103809,6,0,P|143:80|97:163,1,199.499993911743
277,164,104761,5,0,0:0:0:0:
440,232,104999,2,0,L|439:277,1,28.4999991302491
321,358,105238,5,0,0:0:0:0:
342,109,105476,1,0,0:0:0:0:
440,261,105714,5,0,0:0:0:0:
280,289,105952,1,0,0:0:0:0:
418,90,106190,5,0,0:0:0:0:
396,364,106428,1,0,0:0:0:0:
339,79,106666,5,0,0:0:0:0:
469,331,106904,1,0,0:0:0:0:
269,121,107142,5,0,0:0:0:0:
454,217,107380,1,0,0:0:0:0:
231,214,107619,5,0,0:0:0:0:
484,143,107857,6,0,L|514:138,1,28.4999991302491
307,220,108095,2,0,L|335:223,1,28.4999991302491
145,99,108333,2,0,L|173:94,1,28.4999991302491
16,182,108571,6,0,L|115:178,1,92.6249957599642
295,0,109047,5,0,0:0:0:0:
231,369,109285,6,0,B|242:327|242:327|235:275,1,92.6249957599642
29,200,109761,6,0,B|18:242|18:242|25:294,1,92.6249957599642
224,115,110238,6,0,L|214:8,1,106.874996738434
496,122,110952,5,0,0:0:0:0:
441,63,111190,6,0,B|411:62|411:62|380:70|380:70|344:69,1,92.6249957599642
36,344,111666,6,0,B|66:345|66:345|97:337|97:337|133:338,1,92.6249957599642
496,213,112142,6,0,P|501:154|494:115,1,92.6249957599642
104,266,112619,6,0,P|99:209|103:174,1,92.6249957599642
467,384,113095,6,0,P|474:334|466:289,1,92.6249957599642
196,366,113571,5,0,0:0:0:0:
334,0,113809,5,0,0:0:0:0:
402,260,114047,6,0,P|471:267|498:260,1,92.6249957599642
262,38,114523,6,0,P|221:43|183:39,1,78.3750023918153
15,286,114999,6,0,P|52:292|78:288,1,64.1249980430604
386,74,115476,6,0,P|361:74|338:81,1,49.8749984779358
453,111,115952,5,0,0:0:0:0:
89,271,116190,6,0,P|85:302|89:329,1,57
453,111,117857,6,0,P|449:164|420:220,1,114
405,46,118333,6,0,P|439:87|454:146,1,114
327,34,118809,6,0,P|380:40|432:73,1,114
259,80,119285,6,0,P|300:47|362:34,1,114
258,86,119761,5,0,0:0:0:0:
328,157,119999,5,0,0:0:0:0:
422,132,120238,1,0,0:0:0:0:
430,45,120476,1,0,0:0:0:0:
341,1,120714,1,0,0:0:0:0:
445,213,120952,5,0,0:0:0:0:
351,238,121191,1,0,0:0:0:0:
343,325,121429,1,0,0:0:0:0:
432,369,121667,1,0,0:0:0:0:
467,350,121785,1,0,0:0:0:0:
503,333,121904,5,0,0:0:0:0:
343,325,122142,5,0,0:0:0:0:
506,253,122380,5,0,0:0:0:0:
249,343,122619,5,0,0:0:0:0:
431,151,122857,5,0,0:0:0:0:
159,356,123095,5,0,0:0:0:0:
311,32,123333,5,0,0:0:0:0:
503,333,123571,5,0,0:0:0:0:
