osu file format v14

[General]
AudioFilename: audio.mp3
AudioLeadIn: 0
PreviewTime: -1
Countdown: 0
SampleSet: None
StackLeniency: 0.7
Mode: 0
LetterboxInBreaks: 0
WidescreenStoryboard: 0

[Editor]
Bookmarks: 7500
DistanceSpacing: 1.4
BeatDivisor: 4
GridSize: 4
TimelineZoom: 4.200004

[Metadata]
Title:Dream
TitleUnicode:Dream
Artist:Rabpit
ArtistUnicode:Rabpit
Creator:T0mmy
Version:Insane
Source:Deemo
Tags:Deemo
BeatmapID:908618
BeatmapSetID:419914

[Difficulty]
HPDrainRate:7
CircleSize:5
OverallDifficulty:6
ApproachRate:9
SliderMultiplier:1.4
SliderTickRate:1

[Events]
//Background and Video events
0,0,"Dream.jpg",0,0
//Break Periods
//Storyboard Layer 0 (Background)
//Storyboard Layer 1 (Fail)
//Storyboard Layer 2 (Pass)
//Storyboard Layer 3 (Foreground)
//Storyboard Sound Samples

[TimingPoints]
2400,400,4,3,0,5,1,0
3200,-66.6666666666667,4,3,0,5,0,0
5600,-100,4,3,0,5,0,0
7000,-66.6666666666667,4,3,0,5,0,0
8200,-100,4,3,0,5,0,0
11600,-66.6666666666667,4,3,0,5,0,0
23800,-66.6666666666667,4,3,0,5,0,0
23900,-66.6666666666667,4,3,0,5,0,0
26400,-66.6666666666667,4,3,0,5,0,0
34800,-100,4,3,0,5,0,0
36000,-100,4,3,0,5,0,0
38200,-66.6666666666667,4,3,0,5,0,0
40800,-50,4,3,0,5,0,0
67600,-100,4,3,0,5,0,0
68800,-83.3333333333333,4,3,0,5,0,0
70000,-71.4285714285714,4,3,0,5,0,0
71200,-62.5,4,3,0,5,0,0
72400,-55.5555555555556,4,3,0,5,0,1
75400,-66.6666666666667,4,3,0,5,0,1
86400,-100,4,3,0,5,0,1
88000,-50,4,3,0,5,0,1
96000,-66.6666666666667,4,3,0,5,0,1
104400,-100,4,3,0,5,0,1
109200,-100,4,3,0,5,0,1
111600,-50,4,3,0,5,0,1
112800,-50,4,3,0,5,0,0

[HitObjects]
208,56,2400,5,0,0:0:0:0:
261,151,2600,1,0,0:0:0:0:
191,236,2800,1,0,0:0:0:0:
94,190,3000,1,0,0:0:0:0:
56,94,3200,2,0,P|79:49|128:32,1,105.000004005432
239,278,3800,5,0,0:0:0:0:
215,173,4000,1,0,0:0:0:0:
306,119,4200,1,0,0:0:0:0:
380,200,4400,2,0,P|371:249|324:281,1,105.000004005432
184,112,5000,5,0,0:0:0:0:
108,56,5200,1,0,0:0:0:0:
92,144,5400,1,0,0:0:0:0:
172,212,5600,2,0,P|214:238|264:228,2,70
152,88,6200,5,0,0:0:0:0:
236,188,6400,1,0,0:0:0:0:
100,212,6600,1,0,0:0:0:0:
176,320,6800,1,0,0:0:0:0:
308,296,7000,2,0,P|357:288|390:248,1,105.000004005432,0|0,3:3|3:3,3:3:0:0:
264,232,7400,5,0,0:0:0:0:
376,336,7600,1,0,0:0:0:0:
240,244,7800,1,0,0:0:0:0:
424,268,8000,1,0,0:0:0:0:
240,316,8200,2,0,B|185:266|150:378|97:290,1,140
304,164,8800,5,0,0:0:0:0:
288,304,9000,1,0,0:0:0:0:
404,252,9200,1,0,0:0:0:0:
240,228,9400,2,0,P|190:217|161:176,2,70
344,128,10000,5,0,0:0:0:0:
240,228,10200,1,0,0:0:0:0:
200,96,10400,1,0,0:0:0:0:
320,40,10600,2,0,P|368:52|396:94,2,70
312,172,11200,5,0,0:0:0:0:
408,252,11400,1,0,0:0:0:0:
280,300,11600,2,0,P|231:288|200:240,1,105.000004005432
172,100,12000,5,0,0:0:0:0:
152,264,12200,1,0,0:0:0:0:
172,100,12400,1,0,0:0:0:0:
292,200,12600,1,0,0:0:0:0:
112,180,12800,2,0,P|63:191|32:240,1,105.000004005432
152,312,13200,5,0,0:0:0:0:
248,232,13400,1,0,0:0:0:0:
344,148,13600,1,0,0:0:0:0:
216,108,13800,1,0,0:0:0:0:
344,236,14000,2,0,P|378:272|437:329,1,105.000004005432
320,216,14400,5,0,0:0:0:0:
280,312,14600,1,0,0:0:0:0:
176,324,14800,1,0,0:0:0:0:
96,252,15000,1,0,0:0:0:0:
200,264,15200,2,0,P|151:275|120:324,1,105.000004005432
252,336,15600,5,0,0:0:0:0:
316,228,15800,1,0,0:0:0:0:
180,192,16000,1,0,0:0:0:0:
116,312,16200,1,0,0:0:0:0:
240,264,16400,2,0,P|289:253|320:204,1,105.000004005432
300,168,16800,5,0,0:0:0:0:
280,328,17000,1,0,0:0:0:0:
292,156,17200,1,0,0:0:0:0:
272,336,17400,1,0,0:0:0:0:
308,156,17600,2,0,P|351:130|365:74,1,105.000004005432
248,52,18000,5,0,0:0:0:0:
296,164,18200,1,0,0:0:0:0:
380,64,18400,1,0,0:0:0:0:
256,116,18600,1,0,0:0:0:0:
376,192,18800,2,0,P|425:181|456:132,1,105.000004005432
324,124,19200,5,0,0:0:0:0:
388,272,19400,1,0,0:0:0:0:
324,124,19600,1,0,0:0:0:0:
224,248,19800,1,0,0:0:0:0:
224,248,20000,2,0,P|175:259|144:308,1,105.000004005432
292,324,20400,5,0,0:0:0:0:
388,220,20600,1,0,0:0:0:0:
252,320,20800,1,0,0:0:0:0:
360,160,21000,1,0,0:0:0:0:
216,324,21200,1,0,0:0:0:0:
336,100,21400,1,0,0:0:0:0:
116,152,21600,5,0,0:0:0:0:
320,288,22000,1,0,0:0:0:0:
320,288,22400,1,0,0:0:0:0:
116,152,22800,1,0,0:0:0:0:
368,160,23200,5,0,0:0:0:0:
256,196,23400,1,0,0:0:0:0:
152,128,23600,1,0,0:0:0:0:
272,88,23800,2,0,P|368:84|404:56,1,105.000004005432
284,324,24400,1,0,0:0:0:0:
72,128,24800,5,0,0:0:0:0:
176,212,25000,1,0,0:0:0:0:
224,336,25200,1,0,0:0:0:0:
300,76,25600,5,0,0:0:0:0:
356,204,25800,1,0,0:0:0:0:
248,296,26000,1,0,0:0:0:0:
136,232,26200,1,0,0:0:0:0:
144,112,26400,2,0,P|248:180|304:296,1,210.000008010865
300,112,27000,5,0,0:0:0:0:
324,272,27200,1,0,0:0:0:0:
424,176,27400,1,0,0:0:0:0:
208,212,27600,2,0,P|124:304|1:341,1,210.000008010865
204,316,28200,5,0,0:0:0:0:
340,256,28400,1,0,0:0:0:0:
404,132,28600,1,0,0:0:0:0:
264,112,28800,2,0,P|153:168|85:278,1,210.000008010865
304,232,29400,5,0,0:0:0:0:
96,252,29600,1,0,0:0:0:0:
320,284,29800,1,0,0:0:0:0:
88,268,30000,2,0,P|171:175|294:138,1,210.000008010865
288,264,30600,5,0,0:0:0:0:
271,167,30800,1,0,0:0:0:0:
364,204,31000,1,0,0:0:0:0:
184,116,31200,2,0,B|295:60|355:176|415:64,1,210.000008010865
240,188,31800,5,0,0:0:0:0:
360,140,32000,1,0,0:0:0:0:
380,268,32200,1,0,0:0:0:0:
252,324,32400,2,0,B|141:380|81:264|21:376,1,210.000008010865
152,208,33000,5,0,0:0:0:0:
232,96,33200,1,0,0:0:0:0:
296,212,33400,1,0,0:0:0:0:
152,208,33600,2,0,P|99:209|164:140,1,210.000008010865
280,224,34200,5,0,0:0:0:0:
296,84,34400,1,0,0:0:0:0:
156,52,34600,1,0,0:0:0:0:
92,188,34800,2,0,P|96:272|152:204,1,210.000008010865
148,88,35600,5,0,0:0:0:0:
36,160,35800,1,0,0:0:0:0:
156,214,36000,2,0,B|160:242|188:170|184:246|204:222|204:290|232:230|240:258|284:186|272:266|296:246|288:334|328:258|336:282,1,210
152,152,36800,5,0,0:0:0:0:
308,172,37000,1,0,0:0:0:0:
216,304,37200,1,0,0:0:0:0:
392,312,37400,1,0,0:0:0:0:
236,220,37600,1,0,0:0:0:0:
64,252,37800,5,0,0:0:0:0:
64,252,38000,1,0,0:0:0:0:
208,340,38200,2,0,P|304:336|340:308,1,105.000004005432
184,256,38600,5,0,0:0:0:0:
232,128,38800,1,0,0:0:0:0:
272,264,39000,2,0,P|348:322|393:324,1,105.000004005432
176,296,39400,5,0,0:0:0:0:
132,152,39600,1,0,0:0:0:0:
296,196,39800,1,0,0:0:0:0:
428,216,40000,1,0,0:0:0:0:
440,236,40200,1,0,0:0:0:0:
412,236,40400,1,0,0:0:0:0:
428,232,40600,1,0,0:0:0:0:
348,228,40800,2,0,B|328:268|300:196|304:272|284:248|284:316|268:252|248:284|204:180|260:396|192:272|188:340|120:268|84:360,1,280
116,88,41500,5,0,0:0:0:0:
120,160,41600,2,0,P|232:184|236:272,1,210
172,224,42000,2,0,P|60:200|56:112,1,210
56,52,42400,1,0,0:0:0:0:
396,296,42700,5,0,0:0:0:0:
392,224,42800,2,0,P|280:200|276:112,1,210
340,160,43200,2,0,P|452:184|456:272,1,210
456,332,43600,1,0,0:0:0:0:
236,136,43900,1,0,0:0:0:0:
284,88,44000,1,0,0:0:0:0:
384,244,44300,5,0,0:0:0:0:
372,184,44400,2,0,P|452:132|376:104,1,210
356,112,44800,2,0,P|244:136|240:224,1,210
252,184,45200,2,0,P|232:90|178:151,1,210
168,204,45600,1,0,0:0:0:0:
376,260,45900,5,0,0:0:0:0:
420,308,46000,1,0,0:0:0:0:
252,272,46300,1,0,0:0:0:0:
296,320,46400,1,0,0:0:0:0:
96,276,46700,1,0,0:0:0:0:
140,324,46800,1,0,0:0:0:0:
304,208,47100,5,0,0:0:0:0:
240,176,47200,2,0,P|159:257|203:333,1,210
244,316,47600,2,0,P|211:225|289:248,1,210
244,264,48000,1,0,0:0:0:0:
244,84,48300,5,0,0:0:0:0:
248,80,48400,1,0,0:0:0:0:
304,176,48700,5,0,0:0:0:0:
240,208,48800,2,0,P|159:127|203:51,1,210
244,68,49200,2,0,P|211:158|289:135,1,210
244,120,49600,1,0,0:0:0:0:
244,300,49900,5,0,0:0:0:0:
248,304,50000,1,0,0:0:0:0:
260,196,50300,1,0,0:0:0:0:
344,312,50400,1,0,0:0:0:0:
100,96,50800,5,0,0:0:0:0:
100,96,51200,1,0,0:0:0:0:
408,312,51600,1,0,0:0:0:0:
136,268,52000,1,0,0:0:0:0:
136,268,52400,1,0,0:0:0:0:
288,280,52800,5,0,0:0:0:0:
280,72,53200,1,0,0:0:0:0:
280,72,53600,1,0,0:0:0:0:
144,296,54000,1,0,0:0:0:0:
424,124,54400,1,0,0:0:0:0:
80,204,54800,1,0,0:0:0:0:
384,304,55000,1,0,0:0:0:0:
320,252,55200,1,0,0:0:0:0:
212,176,55600,5,0,0:0:0:0:
352,112,56000,1,0,0:0:0:0:
100,284,56400,1,0,0:0:0:0:
400,264,56800,1,0,0:0:0:0:
68,172,57200,1,0,0:0:0:0:
252,284,57500,1,0,0:0:0:0:
324,312,57600,1,0,0:0:0:0:
448,64,58000,1,0,0:0:0:0:
300,160,58300,5,0,0:0:0:0:
368,184,58400,2,0,P|326:290|235:329,1,210
184,264,58800,2,0,P|294:234|304:144,1,210
220,128,59200,2,0,P|223:223|156:177,1,210
116,144,59600,2,0,P|112:48|179:94,1,210
204,172,60000,1,0,0:0:0:0:
384,152,60400,5,0,0:0:0:0:
208,112,60600,1,0,0:0:0:0:
296,108,60800,1,0,0:0:0:0:
128,132,61000,1,0,0:0:0:0:
276,188,61200,1,0,0:0:0:0:
192,204,61400,1,0,0:0:0:0:
40,148,61600,1,0,0:0:0:0:
112,224,61800,1,0,0:0:0:0:
192,304,62000,1,0,0:0:0:0:
356,140,62400,5,0,0:0:0:0:
48,300,62800,1,0,0:0:0:0:
244,72,63200,1,0,0:0:0:0:
248,296,63500,1,0,0:0:0:0:
304,224,63600,2,0,P|410:266|449:357,1,210
436,352,64000,1,0,0:0:0:0:
180,280,64400,5,0,0:0:0:0:
384,112,64700,1,0,0:0:0:0:
432,132,64800,1,0,0:0:0:0:
104,320,65200,5,0,0:0:0:0:
272,296,65400,1,0,0:0:0:0:
392,196,65600,1,0,0:0:0:0:
212,232,65800,1,0,0:0:0:0:
344,348,66000,1,0,0:0:0:0:
296,164,66200,1,0,0:0:0:0:
192,328,66400,1,0,0:0:0:0:
376,256,66600,1,0,0:0:0:0:
204,164,66800,1,0,0:0:0:0:
456,336,67200,5,0,0:0:0:0:
256,184,67500,1,0,0:0:0:0:
248,232,67600,2,0,P|284:244|300:184,1,105
264,144,68000,2,0,P|228:132|212:192,1,105
260,184,68400,2,0,P|296:196|312:136,1,105
296,92,68800,6,0,P|260:80|176:96,1,125.999996154785
144,148,69200,6,0,P|156:208|232:272,1,125.999996154785
256,272,69600,6,0,P|316:260|380:184,1,125.999996154785
388,164,70000,6,0,P|364:107|264:72,1,146.999995513916
308,128,70400,6,0,P|308:188|208:180,1,146.999995513916
192,172,70800,6,0,P|191:111|292:120,1,146.999995513916
244,144,71200,6,0,P|244:204|140:196,1,168
128,168,71600,6,0,P|127:107|204:32,1,168
256,36,72000,6,0,P|312:64|252:168,1,168
260,100,72400,6,0,P|236:152|344:216,1,188.999994232178
364,176,72800,6,0,P|380:128|300:160,1,188.999994232178
236,152,73200,6,0,P|244:100|360:40,1,188.999994232178
412,68,73600,1,0,0:0:0:0:
236,328,73900,1,0,0:0:0:0:
264,304,74000,1,0,0:0:0:0:
100,104,74300,1,0,0:0:0:0:
56,64,74400,1,0,0:0:0:0:
64,192,74600,5,0,0:0:0:0:
140,284,74800,1,0,0:0:0:0:
260,280,75000,1,0,0:0:0:0:
336,188,75200,1,0,0:0:0:0:
216,176,75400,2,0,P|160:176|132:108,1,105
176,56,75800,5,0,0:0:0:0:
292,208,76000,1,0,0:0:0:0:
96,228,76200,1,0,0:0:0:0:
280,96,76400,1,0,0:0:0:0:
196,264,76600,2,0,P|176:316|103:319,1,105
44,172,77000,5,0,0:0:0:0:
168,72,77200,1,0,0:0:0:0:
272,200,77400,1,0,0:0:0:0:
136,296,77600,1,0,0:0:0:0:
196,124,77800,2,0,P|234:83|303:108,1,105
76,104,78200,5,0,0:0:0:0:
272,152,78400,1,0,0:0:0:0:
76,104,78600,1,0,0:0:0:0:
272,152,78800,1,0,0:0:0:0:
148,224,79000,2,0,P|186:264|255:239,1,105
124,160,79400,5,0,0:0:0:0:
156,320,79600,1,0,0:0:0:0:
292,216,79800,1,0,0:0:0:0:
344,352,80000,1,0,0:0:0:0:
292,216,80200,2,0,L|248:120,1,105.000004005432
292,204,80600,1,0,0:0:0:0:
388,176,80800,5,0,0:0:0:0:
276,264,81000,1,0,0:0:0:0:
416,316,81200,1,0,0:0:0:0:
388,176,81400,2,0,P|349:135|280:160,1,105
136,164,81800,5,0,0:0:0:0:
340,92,82000,1,0,0:0:0:0:
140,216,82200,1,0,0:0:0:0:
328,48,82400,1,0,0:0:0:0:
184,96,82600,6,0,L|276:176,1,105.000004005432
392,200,83000,1,0,0:0:0:0:
360,328,83200,1,0,0:0:0:0:
232,296,83400,1,0,0:0:0:0:
263,164,83600,1,0,0:0:0:0:
184,96,83800,6,0,L|276:176,1,105.000004005432
60,116,84200,1,0,0:0:0:0:
248,88,84400,1,0,0:0:0:0:
112,196,84600,1,0,0:0:0:0:
228,80,84800,1,0,0:0:0:0:
200,240,85000,2,0,P|253:259|312:216,1,105.000004005432
244,124,85400,5,0,0:0:0:0:
140,292,85600,1,0,0:0:0:0:
332,300,85800,1,0,0:0:0:0:
192,208,86000,1,0,0:0:0:0:
64,116,86200,1,0,0:0:0:0:
224,64,86400,2,0,B|168:64|272:220|184:84|148:92|156:172|136:192|204:168|220:196|160:220|176:244|68:204|160:268|132:328,1,280
192,104,87400,5,0,0:0:0:0:
336,232,87600,1,0,0:0:0:0:
144,200,87800,1,0,0:0:0:0:
144,200,88000,2,0,B|144:224|144:224|340:196|48:336|248:308|248:308|212:292|212:320,1,280
220,128,88800,2,0,P|299:54|200:79,1,280
44,48,89400,5,0,0:0:0:0:
44,212,89600,1,0,0:0:0:0:
152,332,89800,1,0,0:0:0:0:
156,176,90000,1,0,0:0:0:0:
448,216,90400,5,0,0:0:0:0:
312,128,90600,1,0,0:0:0:0:
304,288,90800,1,0,0:0:0:0:
172,200,91000,2,0,P|124:264|132:324,1,140
256,284,91400,5,0,0:0:0:0:
256,284,91600,1,0,0:0:0:0:
172,200,91800,1,0,0:0:0:0:
152,100,92000,1,0,0:0:0:0:
248,128,92200,2,0,P|296:200|348:204,1,140
360,60,92600,5,0,0:0:0:0:
218,46,92800,1,0,0:0:0:0:
279,296,93000,1,0,0:0:0:0:
407,208,93200,1,0,0:0:0:0:
286,168,93400,1,0,0:0:0:0:
157,195,93600,1,0,0:0:0:0:
272,296,93800,5,0,0:0:0:0:
152,196,94000,1,0,0:0:0:0:
356,64,94200,1,0,0:0:0:0:
152,196,94400,1,0,0:0:0:0:
356,64,94600,1,0,0:0:0:0:
152,196,94800,1,0,0:0:0:0:
232,304,95000,5,0,0:0:0:0:
376,296,95200,1,0,0:0:0:0:
464,208,95400,1,0,0:0:0:0:
460,60,95600,1,0,0:0:0:0:
328,140,95800,1,0,0:0:0:0:
216,60,96000,2,0,B|160:76|160:76|164:84|164:84|136:96|136:96|140:104|140:104|116:112|116:112|120:120|120:120|40:152,1,210.000008010865
168,236,96600,5,0,0:0:0:0:
64,252,96800,1,0,0:0:0:0:
184,144,97000,1,0,0:0:0:0:
248,304,97200,1,0,0:0:0:0:
376,184,97400,1,0,0:0:0:0:
176,232,97600,5,0,0:0:0:0:
348,292,97800,1,0,0:0:0:0:
300,108,98000,1,0,0:0:0:0:
252,296,98200,1,0,0:0:0:0:
372,184,98400,2,0,B|316:200|316:200|320:208|320:208|292:220|292:220|296:228|296:228|272:236|272:236|276:244|276:244|196:276,1,210.000008010865
112,160,99000,5,0,0:0:0:0:
176,40,99200,1,0,0:0:0:0:
276,144,99400,2,0,P|348:132|384:172,1,105.000004005432
296,312,99800,5,0,0:0:0:0:
200,176,100000,1,0,0:0:0:0:
424,232,100200,1,0,0:0:0:0:
324,88,100400,1,0,0:0:0:0:
200,52,100600,2,0,P|128:40|92:80,1,105.000004005432
176,204,101000,5,0,0:0:0:0:
340,184,101200,1,0,0:0:0:0:
176,204,101400,1,0,0:0:0:0:
105,56,101600,1,0,0:0:0:0:
292,72,101800,5,0,0:0:0:0:
264,224,102000,1,0,0:0:0:0:
136,116,102200,1,0,0:0:0:0:
200,272,102400,5,0,0:0:0:0:
64,324,102600,1,0,0:0:0:0:
80,168,102800,1,0,0:0:0:0:
272,292,103000,1,0,0:0:0:0:
68,96,103200,1,0,0:0:0:0:
256,336,103600,5,0,0:0:0:0:
268,212,103800,1,0,0:0:0:0:
184,120,104000,1,0,0:0:0:0:
68,120,104200,1,0,0:0:0:0:
48,268,104400,6,0,B|68:272|68:272|72:264|72:264|80:268|80:268|84:260|84:260|92:264|92:264|96:256|96:256|104:260|104:260|108:252|108:252|116:256|116:256|120:248|120:248|128:252|128:252|132:244|132:244|140:248|140:248|144:240|144:240|152:244|152:244|156:236|156:236,1,140
148,100,105000,1,0,0:0:0:0:
292,136,105200,1,0,0:0:0:0:
436,204,105400,1,0,0:0:0:0:
308,296,105600,6,0,B|296:300|296:300|292:308|292:308|284:304|284:304|280:312|280:312|272:308|272:308|268:316|268:316|260:312|260:312|256:320|256:320|248:316|248:316|244:324|244:324|236:320|236:320|232:328|232:328|224:324|224:324|220:332|220:332|212:328|212:328|208:336|208:336,1,140
148,168,106200,1,0,0:0:0:0:
348,152,106400,1,0,0:0:0:0:
272,332,106600,1,0,0:0:0:0:
244,108,106800,6,0,B|256:104|256:104|260:96|260:96|268:100|268:100|272:92|272:92|280:96|280:96|284:88|284:88|292:92|292:92|296:84|296:84|304:88|304:88|308:80|308:80|316:84|316:84|320:76|320:76|328:80|328:80|332:72|332:72|340:76|340:76|344:68|344:68,1,140
400,216,107400,1,0,0:0:0:0:
272,292,107600,1,0,0:0:0:0:
136,240,107800,1,0,0:0:0:0:
100,96,108000,2,0,B|130:101|130:101|135:78|135:78|149:95|149:95|153:72|153:72|167:87|167:87|172:65|172:65|186:79|186:79|188:58|188:58|204:70|204:70|206:49|206:49|220:65|220:65|222:44|222:44|236:61|236:61|238:39|238:39,1,280
412,72,109200,2,0,B|392:112|364:40|368:116|348:92|348:160|332:96|312:128|268:24|324:240|256:116|252:184|184:112|148:204,1,280
256,260,111600,6,0,P|340:284|276:324,1,140
148,88,112000,2,0,P|64:112|128:148,1,140
340,80,112400,2,0,P|416:100|348:136,1,140
168,96,112800,1,0,0:0:0:0:
344,104,113200,1,0,0:0:0:0:
368,272,113600,1,0,0:0:0:0:
172,152,113900,2,0,L|260:136,1,70
176,236,116000,5,0,0:0:0:0:
388,288,116300,2,0,L|480:260,1,70
172,80,116800,1,0,0:0:0:0:
324,60,117200,1,0,0:0:0:0:
128,220,117500,2,0,L|220:192,1,70
300,312,118000,1,0,0:0:0:0:
64,300,118400,1,0,0:0:0:0:
120,212,118700,2,0,L|240:176,1,70
316,168,121300,5,0,0:0:0:0:
428,204,121700,1,0,0:0:0:0:
188,108,122100,1,0,0:0:0:0:
260,264,122550,1,0,0:0:0:0:
92,248,123000,1,0,0:0:0:0:
252,56,123350,1,0,0:0:0:0:
252,56,123800,1,0,0:0:0:0:
128,208,125150,6,0,L|192:188,2,35
380,296,125600,1,0,0:0:0:0:
144,128,126100,1,0,0:0:0:0:
312,104,126500,2,0,L|388:88,1,70
