osu file format v14

[General]
AudioFilename: Happiness In Memory.mp3
AudioLeadIn: 0
PreviewTime: 60010
Countdown: 0
SampleSet: Soft
StackLeniency: 0.2
Mode: 0
LetterboxInBreaks: 0
WidescreenStoryboard: 1

[Editor]
DistanceSpacing: 2.3
BeatDivisor: 4
GridSize: 4
TimelineZoom: 2

[Metadata]
Title:Happiness In Memory
TitleUnicode:Happiness In Memory
Artist:Rabbit House
ArtistUnicode:Rabbit House
Creator:ExNeko
Version:Expert
Source:O2Jam U
Tags:O2jamu o2u momo GRAFOLIO
BeatmapID:1263389
BeatmapSetID:597637

[Difficulty]
HPDrainRate:7
CircleSize:4
OverallDifficulty:7
ApproachRate:9.2
SliderMultiplier:1.4
SliderTickRate:1

[Events]
//Background and Video events
0,0,"1996169.png",0,0
//Break Periods
2,21026,30052
2,60210,69236
//Storyboard Layer 0 (Background)
//Storyboard Layer 1 (Fail)
//Storyboard Layer 2 (Pass)
//Storyboard Layer 3 (Foreground)
//Storyboard Sound Samples

[TimingPoints]
1235,306.122448979592,4,2,1,70,1,0
40418,-100,4,2,1,70,0,1
49602,-200,4,2,1,70,0,1
50214,-100,4,2,1,70,0,1
60010,-100,4,2,1,70,0,0
69806,-200,4,2,1,70,0,0
79602,-100,4,2,1,70,0,0
89398,-100,4,2,1,70,0,1
108990,-100,4,2,1,70,0,0
110214,-100,4,2,1,70,0,1
118326,-50,4,2,1,70,0,1
118632,-100,4,2,1,70,0,1
128581,-100,4,2,1,70,0,0

[HitObjects]
104,184,1235,5,0,0:0:0:0:
376,136,1541,1,0,0:0:0:0:
240,160,1694,1,0,0:0:0:0:
256,296,1847,2,0,L|168:312,1,70
160,168,2153,1,0,0:0:0:0:
288,232,2306,1,0,0:0:0:0:
288,232,2459,5,0,0:0:0:0:
400,152,2612,1,0,0:0:0:0:
400,152,2765,1,0,0:0:0:0:
288,72,2918,2,0,L|216:96,1,70
152,216,3224,2,0,L|192:288,1,70
328,296,3530,1,0,0:0:0:0:
416,184,3683,5,0,0:0:0:0:
160,64,3990,1,0,0:0:0:0:
56,160,4143,1,0,0:0:0:0:
96,296,4296,2,0,P|128:336|168:352,1,70
280,344,4602,1,0,0:0:0:0:
376,240,4755,1,0,0:0:0:0:
376,240,4908,5,0,0:0:0:0:
304,120,5061,1,0,0:0:0:0:
304,120,5214,1,0,0:0:0:0:
168,136,5367,1,0,0:0:0:0:
168,136,5520,1,0,0:0:0:0:
192,272,5673,1,0,0:0:0:0:
192,272,5826,2,0,L|272:280,1,70
400,280,6132,5,0,0:0:0:0:
176,112,6438,1,0,0:0:0:0:
192,248,6591,1,0,0:0:0:0:
304,328,6744,2,0,L|392:312,1,70
360,176,7051,1,0,0:0:0:0:
224,152,7204,1,0,0:0:0:0:
224,152,7356,5,0,0:0:0:0:
112,232,7509,1,0,0:0:0:0:
112,232,7662,1,0,0:0:0:0:
224,312,7815,2,0,L|296:288,1,70
360,168,8121,2,0,L|320:96,1,70
184,88,8427,1,0,0:0:0:0:
96,200,8580,5,0,0:0:0:0:
352,320,8887,1,0,0:0:0:0:
456,224,9040,1,0,0:0:0:0:
416,88,9193,2,0,P|376:56|344:32,1,70
232,40,9499,1,0,0:0:0:0:
136,144,9652,1,0,0:0:0:0:
136,144,9805,5,0,0:0:0:0:
208,264,9958,1,0,0:0:0:0:
208,264,10111,1,0,0:0:0:0:
336,312,10264,1,0,0:0:0:0:
312,176,10418,2,0,L|232:120,1,70
136,64,10724,1,0,0:0:0:0:
64,184,10877,1,0,0:0:0:0:
104,184,10954,1,0,0:0:0:0:
144,184,11030,5,0,0:0:0:0:
248,40,11183,1,0,0:0:0:0:
144,184,11337,1,0,0:0:0:0:
312,128,11490,1,0,0:0:0:0:
144,184,11643,1,0,0:0:0:0:
312,240,11796,1,0,0:0:0:0:
144,184,11949,1,0,0:0:0:0:
248,320,12102,1,0,0:0:0:0:
384,208,12255,5,0,0:0:0:0:
328,40,12408,1,0,0:0:0:0:
384,208,12561,1,0,0:0:0:0:
256,88,12714,1,0,0:0:0:0:
384,208,12867,1,0,0:0:0:0:
216,168,13020,1,0,0:0:0:0:
384,208,13173,1,0,0:0:0:0:
216,256,13326,1,0,0:0:0:0:
144,96,13479,5,0,0:0:0:0:
320,96,13632,1,0,0:0:0:0:
160,168,13786,1,0,0:0:0:0:
336,168,13939,1,0,0:0:0:0:
176,240,14092,1,0,0:0:0:0:
352,240,14245,1,0,0:0:0:0:
192,312,14398,1,0,0:0:0:0:
368,312,14551,1,0,0:0:0:0:
320,144,14704,5,0,0:0:0:0:
279,314,14857,1,0,0:0:0:0:
245,143,15011,1,0,0:0:0:0:
206,314,15164,1,0,0:0:0:0:
171,142,15317,1,0,0:0:0:0:
132,314,15470,1,0,0:0:0:0:
98,142,15623,1,0,0:0:0:0:
58,313,15776,1,0,0:0:0:0:
88,280,15852,1,0,0:0:0:0:
120,240,15928,6,0,L|176:176,1,70
288,56,16235,2,0,L|224:128,1,70
240,280,16541,2,0,L|328:280,1,70
136,280,16847,2,0,L|48:280,1,70
64,240,17076,1,0,0:0:0:0:
56,192,17153,6,0,L|96:104,1,70
248,64,17459,2,0,L|216:152,1,70
400,128,17765,2,0,L|304:128,1,70
400,288,18071,2,0,L|304:288,1,70
280,288,18301,1,0,0:0:0:0:
232,288,18377,6,0,P|176:288|136:280,1,70
80,176,18683,2,0,P|128:168|176:176,1,70
160,304,18990,2,0,P|96:304|64:296,1,70
176,192,19296,2,0,P|232:192|272:200,1,70
376,248,19602,5,0,0:0:0:0:
382,213,19678,1,0,0:0:0:0:
386,178,19755,1,0,0:0:0:0:
384,144,19831,1,0,0:0:0:0:
373,110,19908,1,0,0:0:0:0:
352,82,19984,1,0,0:0:0:0:
325,60,20061,1,0,0:0:0:0:
295,42,20137,1,0,0:0:0:0:
256,40,20214,2,0,L|168:40,1,70
96,152,20520,2,0,L|184:152,1,70
256,256,20826,5,0,0:0:0:0:
120,96,30622,5,0,0:0:0:0:
136,96,30928,1,0,0:0:0:0:
152,96,31235,1,0,0:0:0:0:
168,96,31541,1,0,0:0:0:0:
256,208,31847,5,0,0:0:0:0:
240,208,32153,1,0,0:0:0:0:
224,208,32459,1,0,0:0:0:0:
208,208,32765,1,0,0:0:0:0:
312,112,33071,5,0,0:0:0:0:
312,128,33377,1,0,0:0:0:0:
312,144,33683,1,0,0:0:0:0:
312,160,33990,1,0,0:0:0:0:
384,280,34296,5,0,0:0:0:0:
368,280,34602,1,0,0:0:0:0:
352,280,34908,1,0,0:0:0:0:
336,280,35214,1,0,0:0:0:0:
200,248,35367,1,0,0:0:0:0:
240,216,35444,1,0,0:0:0:0:
280,176,35520,5,0,0:0:0:0:
272,168,35826,1,0,0:0:0:0:
264,160,36132,1,0,0:0:0:0:
256,152,36439,1,0,0:0:0:0:
136,80,36592,1,0,0:0:0:0:
104,112,36668,1,0,0:0:0:0:
72,144,36745,5,0,0:0:0:0:
80,152,37051,1,0,0:0:0:0:
88,160,37357,1,0,0:0:0:0:
160,160,37510,1,0,0:0:0:0:
232,160,37663,1,0,0:0:0:0:
304,160,37816,2,0,L|344:160,1,35
376,160,37969,5,0,0:0:0:0:
256,32,38122,1,0,0:0:0:0:
376,160,38275,1,0,0:0:0:0:
256,288,38428,1,0,0:0:0:0:
376,160,38581,1,0,0:0:0:0:
256,32,38734,1,0,0:0:0:0:
376,160,38887,1,0,0:0:0:0:
256,288,39040,1,0,0:0:0:0:
112,288,39194,5,0,0:0:0:0:
83,268,39270,1,0,0:0:0:0:
59,242,39347,1,0,0:0:0:0:
44,211,39423,1,0,0:0:0:0:
36,177,39500,1,0,0:0:0:0:
37,142,39576,1,0,0:0:0:0:
47,108,39653,1,0,0:0:0:0:
66,78,39729,1,0,0:0:0:0:
90,54,39806,1,0,0:0:0:0:
121,37,39882,1,0,0:0:0:0:
154,28,39959,1,0,0:0:0:0:
189,27,40035,1,0,0:0:0:0:
223,35,40112,1,0,0:0:0:0:
254,52,40188,1,0,0:0:0:0:
280,76,40265,1,0,0:0:0:0:
298,105,40341,1,0,0:0:0:0:
304,144,40418,6,0,P|304:208|296:240,1,70
200,248,40724,1,0,0:0:0:0:
96,216,40877,1,0,0:0:0:0:
112,320,41030,1,0,0:0:0:0:
112,320,41183,1,0,0:0:0:0:
216,328,41337,1,0,0:0:0:0:
216,328,41490,1,0,0:0:0:0:
320,336,41643,6,0,P|384:320|408:304,1,70
440,232,41949,1,0,0:0:0:0:
336,232,42102,1,0,0:0:0:0:
408,152,42255,1,0,0:0:0:0:
328,80,42408,1,0,0:0:0:0:
328,80,42561,2,0,P|272:48|248:40,2,70
256,152,43020,5,0,0:0:0:0:
168,96,43173,2,0,P|104:104|72:112,1,70
88,208,43479,1,0,0:0:0:0:
168,280,43632,1,0,0:0:0:0:
272,296,43786,2,0,P|328:288|368:272,1,70
384,152,44092,6,0,P|400:88|400:56,1,70
264,80,44398,2,0,P|256:136|248:168,1,70
392,152,44704,2,0,P|408:104|416:72,1,70
272,88,45010,2,0,P|264:136|248:176,1,70
168,96,45316,5,0,0:0:0:0:
96,176,45469,1,0,0:0:0:0:
160,96,45622,2,0,P|104:96|72:104,1,70
48,192,45928,1,0,0:0:0:0:
104,280,46081,1,0,0:0:0:0:
48,192,46235,2,0,P|104:176|144:176,1,70
216,208,46541,5,0,0:0:0:0:
312,160,46694,1,0,0:0:0:0:
408,208,46847,1,0,0:0:0:0:
504,160,47000,1,0,0:0:0:0:
416,104,47153,2,0,P|360:104|320:96,1,70
240,96,47459,2,0,L|152:120,1,70
160,256,47765,5,0,0:0:0:0:
160,256,47918,2,0,L|240:256,1,70
368,216,48224,2,0,P|368:152|360:120,1,70
280,32,48530,2,0,P|256:88|248:120,1,70
256,240,48837,1,0,0:0:0:0:
344,128,48990,5,0,0:0:0:0:
264,64,49143,2,0,L|192:64,2,70
392,232,49602,6,0,L|352:240,1,35
112,216,49908,2,0,L|160:208,1,35
288,328,50214,6,0,P|288:264|296:232,1,70
312,136,50520,1,0,0:0:0:0:
416,168,50673,1,0,0:0:0:0:
400,64,50826,1,0,0:0:0:0:
400,64,50979,1,0,0:0:0:0:
296,56,51133,1,0,0:0:0:0:
296,56,51286,1,0,0:0:0:0:
192,48,51439,6,0,P|128:64|104:80,1,70
72,152,51745,1,0,0:0:0:0:
176,152,51898,1,0,0:0:0:0:
104,232,52051,1,0,0:0:0:0:
184,304,52204,1,0,0:0:0:0:
184,304,52357,2,0,P|240:336|264:344,2,70
256,232,52816,5,0,0:0:0:0:
344,288,52969,2,0,P|408:280|440:272,1,70
424,176,53275,1,0,0:0:0:0:
344,104,53428,1,0,0:0:0:0:
240,88,53582,2,0,P|184:96|144:112,1,70
128,232,53888,6,0,P|112:296|112:328,1,70
248,304,54194,2,0,P|256:248|264:216,1,70
120,232,54500,2,0,P|104:280|96:312,1,70
240,296,54806,2,0,P|248:248|264:208,1,70
360,136,55112,5,0,0:0:0:0:
240,64,55265,1,0,0:0:0:0:
360,136,55418,1,0,0:0:0:0:
224,152,55571,1,0,0:0:0:0:
128,256,55724,1,0,0:0:0:0:
264,224,55877,1,0,0:0:0:0:
128,256,56030,1,0,0:0:0:0:
248,320,56183,1,0,0:0:0:0:
296,304,56260,1,0,0:0:0:0:
344,288,56337,5,0,0:0:0:0:
400,160,56490,1,0,0:0:0:0:
344,32,56643,1,0,0:0:0:0:
304,152,56796,1,0,0:0:0:0:
256,288,56949,1,0,0:0:0:0:
120,288,57102,1,0,0:0:0:0:
256,288,57255,1,0,0:0:0:0:
120,288,57408,1,0,0:0:0:0:
120,256,57485,1,0,0:0:0:0:
120,216,57560,5,0,0:0:0:0:
219,119,57713,1,0,0:0:0:0:
317,219,57866,1,0,0:0:0:0:
216,316,58019,1,0,0:0:0:0:
119,215,58172,1,0,0:0:0:0:
219,119,58325,1,0,0:0:0:0:
317,219,58478,1,0,0:0:0:0:
216,316,58632,1,0,0:0:0:0:
104,312,58786,5,0,0:0:0:0:
89,280,58862,1,0,0:0:0:0:
81,246,58939,1,0,0:0:0:0:
80,211,59015,1,0,0:0:0:0:
85,176,59092,1,0,0:0:0:0:
97,144,59168,1,0,0:0:0:0:
115,114,59245,1,0,0:0:0:0:
139,88,59321,1,0,0:0:0:0:
176,64,59398,2,0,L|216:40,5,35
248,40,59857,1,0,0:0:0:0:
296,48,59933,1,0,0:0:0:0:
344,64,60010,5,0,0:0:0:0:
136,128,69806,5,0,0:0:0:0:
200,104,70112,2,0,P|224:96|248:96,1,35
272,96,70418,1,0,0:0:0:0:
304,112,70571,1,0,0:0:0:0:
328,136,70724,2,0,P|344:160|352:176,1,35
120,328,71030,5,0,0:0:0:0:
120,328,71183,1,0,0:0:0:0:
152,312,71337,1,0,0:0:0:0:
184,296,71490,1,0,0:0:0:0:
216,288,71643,2,0,L|264:272,1,35
280,264,71949,2,0,L|320:232,1,35
456,40,72255,5,0,0:0:0:0:
384,40,72561,2,0,L|344:32,1,35
312,40,72867,1,0,0:0:0:0:
280,56,73020,1,0,0:0:0:0:
280,56,73173,1,0,0:0:0:0:
248,56,73326,1,0,0:0:0:0:
56,224,73479,5,0,0:0:0:0:
56,224,73632,1,0,0:0:0:0:
88,240,73786,1,0,0:0:0:0:
88,240,73939,1,0,0:0:0:0:
168,200,74092,1,0,0:0:0:0:
168,200,74245,1,0,0:0:0:0:
200,216,74398,1,0,0:0:0:0:
376,256,74704,5,0,0:0:0:0:
312,280,75010,2,0,P|288:288|264:288,1,35
240,288,75316,1,0,0:0:0:0:
208,272,75469,1,0,0:0:0:0:
184,248,75622,2,0,P|168:224|160:208,1,35
392,56,75928,5,0,0:0:0:0:
392,56,76081,1,0,0:0:0:0:
360,72,76235,1,0,0:0:0:0:
328,88,76388,1,0,0:0:0:0:
296,96,76541,2,0,L|248:112,1,35
232,120,76847,2,0,L|192:152,1,35
56,344,77153,5,0,0:0:0:0:
128,344,77459,2,0,L|168:352,1,35
200,344,77765,1,0,0:0:0:0:
232,328,77918,1,0,0:0:0:0:
232,328,78071,1,0,0:0:0:0:
264,328,78224,1,0,0:0:0:0:
456,160,78377,5,0,0:0:0:0:
456,160,78530,1,0,0:0:0:0:
424,176,78684,1,0,0:0:0:0:
424,176,78837,1,0,0:0:0:0:
392,192,78990,1,0,0:0:0:0:
392,192,79143,1,0,0:0:0:0:
360,208,79296,1,0,0:0:0:0:
256,48,79602,6,0,P|200:48|168:56,1,70
184,192,79908,2,0,P|240:192|272:184,1,70
320,112,80214,1,0,0:0:0:0:
288,88,80291,1,0,0:0:0:0:
256,64,80367,1,0,0:0:0:0:
136,96,80520,2,0,P|120:136|112:176,1,70
248,328,80826,6,0,P|312:312|344:296,1,70
400,200,81132,2,0,P|408:136|408:112,1,70
304,32,81439,2,0,B|256:24|256:24|208:40,1,70
152,80,81745,1,0,0:0:0:0:
120,112,81821,1,0,0:0:0:0:
96,152,81898,1,0,0:0:0:0:
88,200,81974,1,0,0:0:0:0:
88,248,82051,6,0,P|96:296|104:320,1,70
240,320,82357,2,0,P|248:264|248:224,1,70
232,112,82663,2,0,P|168:96|144:96,1,70
112,224,82969,2,0,P|160:240|208:240,1,70
336,168,83275,5,0,0:0:0:0:
160,144,83428,1,0,0:0:0:0:
336,168,83581,1,0,0:0:0:0:
160,144,83734,1,0,0:0:0:0:
336,168,83888,1,0,0:0:0:0:
160,144,84041,1,0,0:0:0:0:
336,168,84194,1,0,0:0:0:0:
160,144,84347,1,0,0:0:0:0:
320,72,84500,6,0,P|272:48|224:40,1,70
88,96,84806,2,0,P|56:152|48:176,1,70
112,264,85112,1,0,0:0:0:0:
144,280,85189,1,0,0:0:0:0:
176,296,85265,1,0,0:0:0:0:
288,264,85418,2,0,P|336:248|368:232,1,70
392,228,85648,1,0,0:0:0:0:
432,212,85724,6,0,P|480:188|504:172,1,70
424,44,86030,2,0,P|360:48|328:56,1,70
216,72,86337,1,0,0:0:0:0:
104,156,86490,2,0,P|56:164|56:164,2,35
244,168,86796,2,0,P|288:184|288:184,2,35
124,240,87102,5,0,0:0:0:0:
244,168,87255,1,0,0:0:0:0:
124,240,87408,1,0,0:0:0:0:
392,208,87561,1,0,0:0:0:0:
232,320,87714,1,0,0:0:0:0:
392,208,87867,1,0,0:0:0:0:
232,320,88020,1,0,0:0:0:0:
136,292,88173,5,0,0:0:0:0:
118,261,88249,1,0,0:0:0:0:
106,229,88326,1,0,0:0:0:0:
100,194,88402,1,0,0:0:0:0:
101,159,88479,1,0,0:0:0:0:
101,159,88632,2,0,P|104:116|104:104,5,35
224,80,89092,5,0,0:0:0:0:
400,96,89398,6,0,P|404:152|400:192,1,70
256,228,89704,1,0,0:0:0:0:
416,240,89857,1,0,0:0:0:0:
264,296,90010,1,0,0:0:0:0:
104,272,90163,1,0,0:0:0:0:
256,228,90316,1,0,0:0:0:0:
403,165,90469,1,0,0:0:0:0:
280,60,90622,6,0,P|220:52|180:52,1,70
80,144,90928,1,0,0:0:0:0:
148,292,91081,1,0,0:0:0:0:
308,288,91235,1,0,0:0:0:0:
248,140,91388,1,0,0:0:0:0:
80,144,91541,1,0,0:0:0:0:
210,51,91694,1,0,0:0:0:0:
176,208,91847,6,0,P|188:268|208:300,1,70
348,304,92153,1,0,0:0:0:0:
420,160,92306,1,0,0:0:0:0:
420,160,92459,2,0,P|416:96|412:64,1,70
256,96,92765,2,0,P|252:148|256:176,1,70
368,280,93071,6,0,P|320:324|288:336,1,70
156,312,93377,1,0,0:0:0:0:
76,172,93530,1,0,0:0:0:0:
76,172,93683,2,0,P|76:116|84:80,1,70
204,104,93990,1,0,0:0:0:0:
238,108,94066,1,0,0:0:0:0:
272,116,94143,1,0,0:0:0:0:
306,127,94219,1,0,0:0:0:0:
338,141,94296,5,0,0:0:0:0:
256,256,94449,1,0,0:0:0:0:
136,188,94602,1,0,0:0:0:0:
212,72,94755,1,0,0:0:0:0:
352,76,94908,1,0,0:0:0:0:
352,216,95061,1,0,0:0:0:0:
212,212,95214,1,0,0:0:0:0:
212,72,95367,1,0,0:0:0:0:
108,164,95520,5,0,0:0:0:0:
140,300,95673,1,0,0:0:0:0:
108,164,95826,1,0,0:0:0:0:
140,300,95979,1,0,0:0:0:0:
280,312,96132,1,0,0:0:0:0:
392,228,96286,1,0,0:0:0:0:
280,312,96439,1,0,0:0:0:0:
392,228,96592,1,0,0:0:0:0:
348,60,96745,6,0,P|284:48|260:48,1,70
244,220,97051,2,0,P|296:232|344:232,1,70
356,64,97357,2,0,P|312:52|272:52,1,70
264,224,97663,2,0,P|336:236|356:232,1,70
140,88,97969,5,0,0:0:0:0:
140,88,98275,1,0,0:0:0:0:
101,146,98428,2,0,L|153:66,1,70
252,108,98888,1,0,0:0:0:0:
242,141,98964,1,0,0:0:0:0:
237,176,99041,1,0,0:0:0:0:
233,211,99117,1,0,0:0:0:0:
228,244,99194,6,0,P|156:264|136:272,1,70
24,288,99500,1,0,0:0:0:0:
76,136,99653,1,0,0:0:0:0:
232,100,99806,1,0,0:0:0:0:
76,136,99959,1,0,0:0:0:0:
32,292,100112,1,0,0:0:0:0:
160,256,100265,1,0,0:0:0:0:
296,344,100418,6,0,P|356:352|396:352,1,70
460,220,100724,1,0,0:0:0:0:
364,92,100877,1,0,0:0:0:0:
204,124,101031,1,0,0:0:0:0:
300,252,101184,1,0,0:0:0:0:
460,220,101337,1,0,0:0:0:0:
365,352,101490,1,0,0:0:0:0:
336,196,101643,6,0,P|324:136|304:104,1,70
168,80,101949,1,0,0:0:0:0:
92,224,102102,1,0,0:0:0:0:
92,224,102255,2,0,P|96:288|100:320,1,70
256,288,102561,2,0,P|260:236|256:208,1,70
144,104,102867,6,0,P|192:60|224:48,1,70
356,72,103173,1,0,0:0:0:0:
436,212,103326,1,0,0:0:0:0:
436,212,103479,2,0,P|436:268|428:304,1,70
272,296,103786,1,0,0:0:0:0:
124,236,103939,1,0,0:0:0:0:
116,184,104015,1,0,0:0:0:0:
108,132,104092,5,0,0:0:0:0:
264,88,104245,1,0,0:0:0:0:
380,200,104398,1,0,0:0:0:0:
300,312,104551,1,0,0:0:0:0:
160,308,104704,1,0,0:0:0:0:
136,192,104857,1,0,0:0:0:0:
158,165,104933,1,0,0:0:0:0:
188,147,105010,1,0,0:0:0:0:
222,139,105086,1,0,0:0:0:0:
257,142,105163,1,0,0:0:0:0:
408,204,105316,5,0,0:0:0:0:
376,68,105469,1,0,0:0:0:0:
408,204,105622,1,0,0:0:0:0:
376,68,105775,1,0,0:0:0:0:
216,68,105928,1,0,0:0:0:0:
104,152,106082,1,0,0:0:0:0:
216,68,106235,1,0,0:0:0:0:
104,152,106388,1,0,0:0:0:0:
148,308,106541,6,0,P|212:320|236:320,1,70
272,168,106847,2,0,P|220:156|172:156,1,70
148,308,107153,2,0,P|208:320|232:320,1,70
272,168,107459,2,0,P|200:156|180:160,1,70
72,64,107765,5,0,0:0:0:0:
108,220,107918,1,0,0:0:0:0:
72,64,108071,1,0,0:0:0:0:
232,64,108224,1,0,0:0:0:0:
392,64,108377,1,0,0:0:0:0:
400,176,108530,1,0,0:0:0:0:
369,192,108606,1,0,0:0:0:0:
338,209,108683,1,0,0:0:0:0:
388,296,108837,1,0,0:0:0:0:
284,320,108990,5,0,0:0:0:0:
253,336,109066,1,0,0:0:0:0:
218,343,109143,1,0,0:0:0:0:
184,342,109219,1,0,0:0:0:0:
150,332,109296,1,0,0:0:0:0:
121,313,109372,1,0,0:0:0:0:
97,288,109449,1,0,0:0:0:0:
80,257,109525,1,0,0:0:0:0:
72,223,109602,1,0,0:0:0:0:
73,188,109678,1,0,0:0:0:0:
83,155,109755,1,0,0:0:0:0:
101,125,109831,1,0,0:0:0:0:
126,101,109908,1,0,0:0:0:0:
356,88,110214,5,0,0:0:0:0:
264,220,110367,1,0,0:0:0:0:
356,88,110520,1,0,0:0:0:0:
360,248,110673,1,0,0:0:0:0:
212,312,110826,1,0,0:0:0:0:
68,236,110979,1,0,0:0:0:0:
212,312,111132,1,0,0:0:0:0:
184,152,111286,1,0,0:0:0:0:
308,48,111439,6,0,P|328:108|332:136,1,70
328,276,111745,1,0,0:0:0:0:
176,324,111898,1,0,0:0:0:0:
176,324,112051,2,0,P|116:304|88:284,1,70
72,144,112357,1,0,0:0:0:0:
108,300,112510,1,0,0:0:0:0:
208,172,112663,6,0,P|264:144|304:136,1,70
428,184,112969,1,0,0:0:0:0:
348,44,113122,1,0,0:0:0:0:
348,44,113275,2,0,P|288:32|248:32,1,70
168,36,113581,1,0,0:0:0:0:
136,51,113657,1,0,0:0:0:0:
106,69,113734,1,0,0:0:0:0:
79,91,113810,1,0,0:0:0:0:
64,128,113888,5,0,0:0:0:0:
200,204,114041,1,0,0:0:0:0:
64,128,114194,1,0,0:0:0:0:
200,204,114347,1,0,0:0:0:0:
64,128,114500,1,0,0:0:0:0:
200,204,114653,1,0,0:0:0:0:
104,324,114806,1,0,0:0:0:0:
136,337,114882,1,0,0:0:0:0:
170,345,114959,1,0,0:0:0:0:
205,349,115035,1,0,0:0:0:0:
239,349,115112,5,0,0:0:0:0:
348,240,115265,1,0,0:0:0:0:
239,349,115418,1,0,0:0:0:0:
348,240,115571,1,0,0:0:0:0:
239,349,115724,1,0,0:0:0:0:
348,240,115877,1,0,0:0:0:0:
424,108,116030,2,0,P|452:132|452:132,3,35
388,80,116337,5,0,0:0:0:0:
360,58,116413,1,0,0:0:0:0:
329,42,116490,1,0,0:0:0:0:
296,30,116566,1,0,0:0:0:0:
262,23,116643,1,0,0:0:0:0:
227,22,116719,1,0,0:0:0:0:
192,26,116796,1,0,0:0:0:0:
158,35,116872,1,0,0:0:0:0:
126,49,116949,1,0,0:0:0:0:
97,68,117025,1,0,0:0:0:0:
71,91,117102,1,0,0:0:0:0:
48,118,117178,1,0,0:0:0:0:
30,148,117255,1,0,0:0:0:0:
17,180,117331,1,0,0:0:0:0:
8,214,117408,1,0,0:0:0:0:
5,249,117484,1,0,0:0:0:0:
7,284,117561,5,0,0:0:0:0:
356,284,117867,1,0,0:0:0:0:
256,100,118020,1,0,0:0:0:0:
156,284,118173,1,0,0:0:0:0:
256,100,118326,2,0,L|256:252,1,140
388,184,118632,1,0,0:0:0:0:
398,150,118708,1,0,0:0:0:0:
399,115,118785,5,0,0:0:0:0:
256,44,118939,1,0,0:0:0:0:
400,116,119092,1,0,0:0:0:0:
256,44,119245,1,0,0:0:0:0:
108,108,119398,1,0,0:0:0:0:
260,164,119551,1,0,0:0:0:0:
108,108,119704,1,0,0:0:0:0:
156,260,119857,1,0,0:0:0:0:
308,312,120010,5,0,0:0:0:0:
448,232,120163,1,0,0:0:0:0:
308,312,120316,1,0,0:0:0:0:
360,160,120469,1,0,0:0:0:0:
220,80,120622,1,0,0:0:0:0:
272,232,120775,1,0,0:0:0:0:
220,80,120928,1,0,0:0:0:0:
136,220,121081,1,0,0:0:0:0:
256,328,121235,6,0,P|320:304|344:288,1,70
420,176,121541,1,0,0:0:0:0:
304,64,121694,1,0,0:0:0:0:
304,64,121847,2,0,P|248:52|204:48,1,70
192,204,122153,2,0,P|248:224|292:228,1,70
388,132,122459,5,0,0:0:0:0:
252,48,122612,1,0,0:0:0:0:
124,132,122765,1,0,0:0:0:0:
258,225,122918,1,0,0:0:0:0:
404,292,123071,1,0,0:0:0:0:
256,356,123224,1,0,0:0:0:0:
108,292,123377,1,0,0:0:0:0:
258,225,123530,1,0,0:0:0:0:
300,200,123607,1,0,0:0:0:0:
340,176,123683,6,0,P|380:140|412:112,1,70
264,28,123990,2,0,P|208:56|184:72,1,70
88,172,124296,1,0,0:0:0:0:
152,264,124449,1,0,0:0:0:0:
178,287,124525,1,0,0:0:0:0:
208,303,124602,1,0,0:0:0:0:
242,312,124678,1,0,0:0:0:0:
277,313,124755,1,0,0:0:0:0:
408,216,124908,6,0,L|424:120,1,70
392,304,125214,1,0,0:0:0:0:
419,146,125367,1,0,0:0:0:0:
276,72,125520,2,0,L|176:80,1,70
368,68,125826,1,0,0:0:0:0:
206,77,125979,1,0,0:0:0:0:
152,80,126056,1,0,0:0:0:0:
104,84,126132,6,0,B|64:84|64:84|20:124,1,70
44,268,126439,2,0,B|92:268|92:268|120:248,1,70
236,156,126745,2,0,B|264:128|264:128|312:128,1,70
412,240,127051,2,0,B|384:272|384:272|340:272,1,70
252,320,127357,5,0,0:0:0:0:
217,313,127433,1,0,0:0:0:0:
184,302,127510,1,0,0:0:0:0:
152,287,127586,1,0,0:0:0:0:
123,268,127663,1,0,0:0:0:0:
96,245,127739,1,0,0:0:0:0:
73,220,127816,1,0,0:0:0:0:
53,191,127892,1,0,0:0:0:0:
32,160,127969,2,0,L|116:108,1,70
160,80,128199,2,0,L|244:52,1,70
304,40,128428,1,0,0:0:0:0:
464,44,128581,6,0,B|456:188|300:328|168:324,1,420
64,320,129653,2,0,P|84:240|428:44,1,490
