osu file format v14

[General]
AudioFilename: audio.mp3
AudioLeadIn: 0
PreviewTime: 80705
Countdown: 0
SampleSet: Soft
StackLeniency: 0.7
Mode: 0
LetterboxInBreaks: 0
EpilepsyWarning: 1
WidescreenStoryboard: 1

[Editor]
Bookmarks: 9761,22006,41598,61190,70986,80782,102823,112619,123639,135884,140782,143231
DistanceSpacing: 1
BeatDivisor: 4
GridSize: 4
TimelineZoom: 2.900002

[Metadata]
Title:Final Overtake
TitleUnicode:Final Overtake
Artist:Rabbit House
ArtistUnicode:Rabbit House
Creator:bbu
Version:Habi's Insane
Source:BMS
Tags:Down Habiholic RabbitHouse BGA BOFU2015 BOFU Kafuu Chino Kuro Usagi
BeatmapID:1624775
BeatmapSetID:770246

[Difficulty]
HPDrainRate:6
CircleSize:4
OverallDifficulty:7
ApproachRate:9
SliderMultiplier:1.6
SliderTickRate:1

[Events]
//Background and Video events
0,0,"bg.jpg",0,0
//Break Periods
2,61390,70386
//Storyboard Layer 0 (Background)
//Storyboard Layer 1 (Fail)
//Storyboard Layer 2 (Pass)
//Storyboard Layer 3 (Foreground)
Sprite,Foreground,Centre,"sb\L.png",320,240 M,1,123333,123486,128,142 F,1,123333,123486,1,0.5 S,1,123333,123486,0,0.7 R,0,123333,123486,0,3 C,0,123333,123486,128,255,255 P,0,123333,123486,A
Sprite,Foreground,Centre,"sb\L.png",320,240 M,1,123486,123639,128,142 F,1,123486,123639,0.5,0 S,1,123486,123639,0.7,0.75 R,0,123486,123639,0,3 C,0,123486,123639,128,255,255 P,0,123486,123639,A
//Storyboard Sound Samples

[TimingPoints]
-34,306.122448979592,4,2,1,50,1,0
9761,-125,4,2,2,50,0,0
22006,-100,4,2,1,80,0,0
48945,-100,4,2,2,80,0,0
49710,-100,4,2,1,80,0,0
61190,-90.9090909090909,4,2,2,80,0,0
70986,-90.9090909090909,4,2,2,70,0,0
80782,-83.3333333333333,4,2,2,90,0,1
100374,-100,4,2,1,90,0,0
102823,-166.666666666667,4,2,1,70,0,0
111394,-100,4,2,1,70,0,0
112619,-100,4,2,2,80,0,0
122414,-100,4,2,1,5,0,0
123333,-100,4,2,2,90,0,0
123639,-83.3333333333333,4,2,2,90,0,1
133511,-83.3333333333333,4,2,2,30,0,1
134047,-83.3333333333333,4,2,2,35,0,1
134200,-83.3333333333333,4,2,2,40,0,1
134353,-83.3333333333333,4,2,2,45,0,1
134506,-83.3333333333333,4,2,2,50,0,1
134659,-83.3333333333333,4,2,2,55,0,1
134812,-83.3333333333333,4,2,2,60,0,1
134966,-83.3333333333333,4,2,2,65,0,1
135119,-83.3333333333333,4,2,2,70,0,1
135272,-83.3333333333333,4,2,2,80,0,1
135425,-83.3333333333333,4,2,2,90,0,1
135884,-83.3333333333333,4,2,2,90,0,1
138409,-83.3333333333333,4,2,2,90,0,1
140782,-83.3333333333333,4,2,2,90,0,1
142006,-83.3333333333333,4,2,2,90,0,1
143231,-100,4,2,1,80,0,0
154098,-100,4,2,1,60,0,0
154251,-100,4,2,1,80,0,0
155323,-100,4,2,1,60,0,0
155476,-100,4,2,1,80,0,0
156547,-100,4,2,1,60,0,0
156700,-100,4,2,1,80,0,0
157772,-100,4,2,1,60,0,0
157925,-100,4,2,1,80,0,0
160374,-100,4,2,1,50,0,0
161904,-100,4,2,1,80,0,0
162899,-100,4,2,1,25,0,0
164966,-100,4,2,1,5,0,0

[Colours]
Combo1 : 132,227,255
Combo2 : 166,166,255
Combo3 : 72,162,251
Combo4 : 188,209,228

[HitObjects]
148,244,9761,6,0,P|209:248|243:300,1,128,4|0,0:1|0:0,0:0:0:0:
67,308,10221,2,0,L|51:180,1,128,2|0,0:0|0:0,0:0:0:0:
112,104,10680,2,0,B|176:92|172:136|240:120,1,128,2|0,0:0|0:0,0:0:0:0:
316,71,11139,2,0,P|376:57|422:98,1,128,2|0,0:0|0:0,0:0:0:0:
464,180,11598,2,0,L|456:244,1,64,2|0,0:0|0:0,0:0:0:0:
384,364,11904,2,0,L|376:300,1,64,2|0,0:0|0:0,0:0:0:0:
312,228,12210,6,0,B|276:248|276:248|184:232,1,128,2|0,0:0|0:0,0:0:0:0:
123,152,12670,2,0,P|87:203|89:266,1,128,2|0,0:0|0:0,0:0:0:0:
160,336,13129,1,2,0:0:0:0:
160,336,13435,6,0,L|288:320,1,128,2|0,0:0|0:0,0:0:0:0:
463,256,13894,2,0,P|402:266|350:231,1,128,2|0,0:0|0:0,0:0:0:0:
436,104,14353,2,0,L|424:172,1,64,2|0,0:0|0:0,0:0:0:0:
256,200,14659,6,0,L|240:64,1,128,2|0,0:0|0:0,0:0:0:0:
136,40,15119,2,0,L|150:167,1,128,2|0,0:0|0:0,0:0:0:0:
127,264,15578,2,0,P|65:268|19:226,1,128,2|0,0:0|0:0,0:0:0:0:
224,220,16037,2,0,L|208:348,1,128,2|0,0:0|0:0,0:0:0:0:
328,256,16496,2,0,L|320:192,1,64,2|0,0:0|0:0,0:0:0:0:
244,56,16802,2,0,L|236:120,1,64,2|0,0:0|0:0,0:0:0:0:
148,180,17108,6,0,B|84:168|84:208|20:188,1,128,2|0,0:0|0:0,0:0:0:0:
140,272,17568,2,0,P|201:260|238:210,1,128,2|0,0:0|0:0,0:0:0:0:
168,84,18027,1,2,0:0:0:0:
168,84,18333,6,0,B|220:104|220:104|304:84,1,128,2|0,0:0|0:0,0:0:0:0:
415,28,18792,2,0,P|382:81|381:144,1,128,2|0,0:0|0:0,0:0:0:0:
436,224,19251,1,2,0:0:0:0:
256,192,19404,12,0,20476,0:0:0:0:
144,180,22006,6,0,L|64:168,1,80,4|0,0:1|0:0,0:0:0:0:
64,168,22236,1,0,0:0:0:0:
64,168,22312,1,0,1:0:0:0:
196,103,22466,2,0,P|234:171|207:244,1,160,0|2,0:0|0:0,0:0:0:0:
120,288,22925,2,0,L|40:268,1,80,0|0,1:0|0:0,0:0:0:0:
228,360,23231,6,0,L|316:344,1,80,0|2,0:0|0:0,0:0:0:0:
480,252,23537,2,0,L|352:232,1,120,0|2,1:0|0:0,0:0:0:0:
324,228,23843,2,0,P|316:184|316:144,1,80,2|2,0:0|0:0,0:0:0:0:
380,68,24149,1,0,1:0:0:0:
224,140,24302,1,2,0:0:0:0:
224,140,24379,1,0,0:0:0:0:
223,140,24455,6,0,P|146:142|96:83,1,160,2|0,0:0|1:0,0:0:0:0:
188,56,24914,1,2,0:0:0:0:
48,196,25068,2,0,L|56:240,2,40,0|2|0,0:0|0:0|0:0,0:0:0:0:
160,232,25374,2,0,L|144:312,1,80,0|0,1:0|0:0,0:0:0:0:
220,368,25680,5,0,0:0:0:0:
148,200,25833,1,2,0:0:0:0:
324,292,25986,2,0,L|232:280,1,80,0|0,1:0|0:0,0:0:0:0:
208,116,26292,1,2,0:0:0:0:
56,196,26445,1,2,0:0:0:0:
56,196,26522,1,2,0:0:0:0:
56,196,26598,1,0,1:0:0:0:
148,44,26751,1,0,1:0:0:0:
116,272,26904,6,0,B|172:264|172:264|212:276|212:276|276:260,1,160,2|0,0:0|1:0,0:0:0:0:
320,176,27363,1,0,0:0:0:0:
276,356,27517,1,0,0:0:0:0:
300,148,27670,1,2,0:0:0:0:
440,288,27823,2,0,L|356:276,1,80,0|0,1:0|0:0,0:0:0:0:
208,256,28129,5,0,0:0:0:0:
256,64,28282,1,2,0:0:0:0:
256,64,28358,1,0,0:0:0:0:
256,64,28435,1,0,1:0:0:0:
160,180,28588,1,0,0:0:0:0:
180,16,28741,2,0,L|344:36,1,160,2|0,0:0|1:0,0:0:0:0:
375,40,29353,6,0,P|354:116|357:196,1,160,2|0,0:0|1:0,0:0:0:0:
424,272,29812,1,2,0:0:0:0:
256,340,29966,2,0,L|132:320,1,120
112,316,30272,1,0,1:0:0:0:
176,204,30425,1,0,0:0:0:0:
28,172,30578,6,0,L|39:251,1,80,0|2,0:0|0:0,0:0:0:0:
104,108,30884,2,0,L|92:24,1,80,0|0,1:0|0:0,0:0:0:0:
176,204,31190,2,0,P|235:204|284:172,1,120,2|2,0:0|0:0,0:0:0:0:
296,152,31496,2,0,L|384:164,1,80,0|0,1:0|1:0,0:0:0:0:
496,288,31802,6,0,B|436:280|436:280|396:296|396:296|332:284,1,160,4|0,0:1|1:0,0:0:0:0:
176,204,32261,1,0,0:0:0:0:
264,336,32414,1,0,0:0:0:0:
272,124,32568,2,0,L|260:208,1,80,2|0,0:0|1:0,0:0:0:0:
180,360,32874,1,0,0:0:0:0:
52,248,33027,5,0,0:0:0:0:
180,360,33180,2,0,L|188:320,2,40,2|0|0,0:0|0:0|1:0,0:0:0:0:
32,272,33486,1,0,0:0:0:0:
112,160,33639,2,0,P|166:215|244:215,1,160,2|0,0:0|1:0,0:0:0:0:
328,164,34098,1,2,0:0:0:0:
204,120,34251,6,0,L|176:284,1,160,2|0,0:0|1:0,0:0:0:0:
252,348,34710,2,0,B|328:332|328:380|416:360,1,160,2|0,0:0|0:0,0:0:0:0:
508,280,35170,2,0,L|416:260,1,80,0|0,1:0|0:0,0:0:0:0:
380,168,35476,5,0,0:0:0:0:
272,264,35629,1,2,0:0:0:0:
288,52,35782,2,0,L|300:136,1,80,0|0,1:0|0:0,0:0:0:0:
232,344,36088,1,2,0:0:0:0:
205,335,36164,1,2,0:0:0:0:
178,327,36241,1,2,0:0:0:0:
151,319,36317,1,2,0:0:0:0:
124,311,36394,2,0,L|36:324,1,80,0|0,1:0|1:0,0:0:0:0:
16,144,36700,6,0,L|176:188,1,160,4|0,0:0|1:0,0:0:0:0:
248,128,37159,1,0,0:0:0:0:
160,16,37312,1,0,0:0:0:0:
236,152,37466,1,2,0:0:0:0:
360,44,37619,2,0,L|268:28,1,80,0|0,1:0|0:0,0:0:0:0:
300,224,37925,6,0,B|360:216|360:216|392:228|392:228|464:216,1,160,6|0,0:0|1:0,0:0:0:0:
192,352,38384,2,0,B|168:308|168:308|184:196,1,160,0|2,0:0|0:0,0:0:0:0:
183,199,38767,1,0,0:0:0:0:
183,199,38843,1,0,1:0:0:0:
136,52,38996,1,2,0:0:0:0:
264,148,39149,6,0,B|336:136|336:180|420:168,1,160,4|0,0:0|1:0,0:0:0:0:
472,96,39608,2,0,L|456:260,1,160,2|0,0:0|0:0,0:0:0:0:
384,336,40068,1,0,1:0:0:0:
384,336,40144,1,2,0:0:0:0:
384,336,40221,1,0,0:0:0:0:
295,263,40374,6,0,P|256:263|219:278,1,80,0|2,0:0|0:0,0:0:0:0:
148,340,40680,1,0,1:0:0:0:
32,208,40833,1,0,0:0:0:0:
116,368,40986,2,0,L|136:204,1,160,2|0,0:0|1:0,0:0:0:0:
84,112,41445,1,0,1:0:0:0:
208,44,41598,6,0,P|271:89|350:86,1,160,6|0,0:0|1:0,0:0:0:0:
484,240,42057,2,0,P|420:194|341:197,1,160,2|2,0:0|0:0,0:0:0:0:
272,260,42517,2,0,L|288:352,1,80,0|0,1:0|0:0,0:0:0:0:
200,196,42823,5,0,0:0:0:0:
368,292,42976,1,2,0:0:0:0:
180,292,43129,2,0,L|92:276,1,80,0|0,1:0|0:0,0:0:0:0:
72,272,43358,1,2,0:0:0:0:
72,272,43435,1,2,0:0:0:0:
124,144,43588,1,0,0:0:0:0:
8,116,43741,2,0,L|16:204,1,80,0|2,1:0|0:0,0:0:0:0:
84,36,44047,6,0,B|136:56|136:56|248:40,1,160,2|0,0:0|1:0,0:0:0:0:
304,116,44506,2,0,B|288:192|328:192|304:280,1,160,2|2,0:0|0:0,0:0:0:0:
228,232,44966,1,0,1:0:0:0:
388,152,45119,1,0,0:0:0:0:
207,244,45272,6,0,P|131:254|80:197,1,160,2|0,0:0|1:0,0:0:0:0:
176,112,45731,1,2,0:0:0:0:
312,184,45884,2,0,L|396:168,1,80,2|2,0:0|0:0,0:0:0:0:
504,80,46190,2,0,L|420:64,1,80,0|0,1:0|1:0,0:0:0:0:
256,104,46496,6,0,B|240:188|276:176|256:264,1,160,6|0,0:0|1:0,0:0:0:0:
176,316,46955,1,2,0:0:0:0:
352,216,47108,1,0,0:0:0:0:
164,144,47261,1,2,0:0:0:0:
372,224,47414,2,0,L|356:144,1,80,0|0,1:0|0:0,0:0:0:0:
280,56,47721,5,0,0:0:0:0:
452,112,47874,1,2,0:0:0:0:
268,196,48027,2,0,L|184:180,1,80,0|0,1:0|0:0,0:0:0:0:
189,181,48256,1,0,0:0:0:0:
189,181,48332,1,2,0:0:0:0:
112,104,48486,1,2,0:0:0:0:
128,296,48639,2,0,L|212:280,1,80,0|2,1:0|0:0,0:0:0:0:
332,144,48945,5,2,0:0:0:0:
276,344,49098,1,0,0:0:0:0:
276,344,49175,1,0,0:0:0:0:
276,344,49252,1,0,1:0:0:0:
416,236,49404,2,0,L|440:72,1,160,2|2,0:0|0:0,0:0:0:0:
324,24,49863,1,0,1:0:0:0:
298,34,49939,1,2,0:0:0:0:
272,44,50016,1,0,0:0:0:0:
246,55,50092,1,0,0:0:0:0:
220,65,50170,6,0,L|96:48,1,120,0|0,0:0|0:0,0:0:0:0:
72,44,50476,1,0,1:0:0:0:
144,168,50629,1,0,0:0:0:0:
8,120,50782,2,0,L|24:244,1,120,0|0,1:0|0:0,0:0:0:0:
48,248,51088,2,0,L|36:328,1,80,0|0,1:0|1:0,0:0:0:0:
120,152,51394,6,0,B|172:144|172:144|224:156|224:156|276:144,1,160,6|0,0:0|1:0,0:0:0:0:
391,72,51853,2,0,P|371:149|378:228,1,160,0|2,0:0|0:0,0:0:0:0:
440,320,52312,1,0,1:0:0:0:
280,264,52466,1,2,0:0:0:0:
420,348,52619,6,0,L|340:336,1,80,2|2,0:0|0:0,0:0:0:0:
144,200,52925,2,0,L|224:188,1,80,0|0,1:0|0:0,0:0:0:0:
399,132,53231,2,0,P|323:131|287:64,1,160,2|0,0:0|1:0,0:0:0:0:
464,64,53690,1,2,0:0:0:0:
476,268,53843,6,0,B|416:256|416:256|376:268|376:268|312:248,1,160,2|0,0:0|1:0,0:0:0:0:
248,176,54302,1,2,0:0:0:0:
280,328,54455,1,0,0:0:0:0:
264,152,54608,1,2,0:0:0:0:
176,260,54761,2,0,L|84:244,1,80,0|0,1:0|0:0,0:0:0:0:
24,172,55068,5,0,0:0:0:0:
76,332,55221,1,2,0:0:0:0:
32,152,55374,1,0,1:0:0:0:
4,284,55527,1,0,0:0:0:0:
52,60,55680,2,0,B|100:88|100:88|116:128|116:128|172:164,1,160,2|0,0:0|1:0,0:0:0:0:
196,72,56139,1,0,1:0:0:0:
240,239,56292,6,0,P|301:193|377:210,1,160,2|0,0:0|1:0,0:0:0:0:
296,352,56751,2,0,L|140:320,1,160,2|2,0:0|0:0,0:0:0:0:
68,248,57210,1,0,1:0:0:0:
200,152,57363,1,0,0:0:0:0:
16,180,57517,6,0,B|40:124|12:60|12:60|48:96,1,160,0|0,0:0|1:0,0:0:0:0:
216,164,57976,2,0,P|292:169|335:106,1,160,2|2,0:0|0:0,0:0:0:0:
156,80,58435,1,0,1:0:0:0:
200,256,58588,1,0,0:0:0:0:
124,312,58741,6,0,L|288:292,1,160,2|0,0:0|1:0,0:0:0:0:
495,208,59200,2,0,P|419:220|363:167,1,160,2|2,0:0|0:0,0:0:0:0:
468,40,59659,2,0,L|448:128,1,80,0|0,1:0|0:0,0:0:0:0:
252,140,59966,5,0,0:0:0:0:
352,280,60118,1,2,0:0:0:0:
352,280,60195,1,0,0:0:0:0:
352,280,60271,1,0,1:0:0:0:
304,64,60425,1,0,0:0:0:0:
196,212,60578,2,0,L|208:256,2,40,0|2|2,1:0|0:0|0:0,0:0:0:0:
180,56,60884,5,0,1:0:0:0:
112,208,61037,1,0,1:0:0:0:
156,24,61190,1,4,0:0:0:0:
36,112,70986,5,4,0:1:0:0:
36,112,71062,1,0,0:0:0:0:
36,112,71139,1,0,0:0:0:0:
200,56,71292,2,0,L|108:44,1,88.000002685547,8|0,0:0|0:0,0:0:0:0:
92,204,71598,2,0,L|236:184,1,132.00000402832,8|0,0:0|0:0,0:0:0:0:
232,156,71904,1,8,0:0:0:0:
300,288,72057,5,0,3:0:0:0:
300,288,72134,1,0,3:0:0:0:
299,288,72210,2,0,P|362:273|412:312,1,132.00000402832,8|0,0:0|0:0,0:0:0:0:
428,336,72517,1,8,0:0:0:0:
384,176,72670,1,0,0:0:0:0:
232,224,72823,1,8,0:0:0:0:
232,224,72900,1,0,0:0:0:0:
232,224,72976,1,0,3:0:0:0:
352,80,73129,2,0,L|440:96,1,88.000002685547,8|0,0:0|3:0,0:0:0:0:
268,23,73435,6,0,P|219:66|154:69,1,132.00000402832,12|0,0:0|0:0,0:0:0:0:
132,64,73741,2,0,L|40:44,1,88.000002685547,8|0,0:0|0:0,0:0:0:0:
184,188,74047,2,0,L|272:172,1,88.000002685547,8|0,0:0|0:0,0:0:0:0:
296,164,74277,2,0,B|288:208|288:208|304:252,1,88.000002685547,0|0,0:0|0:0,0:0:0:0:
316,280,74506,1,0,3:0:0:0:
476,88,74659,5,8,0:0:0:0:
476,88,74735,1,0,0:0:0:0:
476,88,74812,1,0,0:0:0:0:
476,88,74888,1,0,0:0:0:0:
476,88,74966,2,0,L|380:96,1,88.000002685547,8|0,0:0|0:0,0:0:0:0:
352,64,75195,1,0,0:0:0:0:
352,64,75272,2,0,P|312:88|216:80,1,132.00000402832,8|0,0:0|0:0,0:0:0:0:
188,64,75578,1,8,0:0:0:0:
145,53,75654,1,0,0:0:0:0:
103,62,75731,1,8,0:0:0:0:
69,91,75807,1,8,0:0:0:0:
53,131,75884,6,0,L|60:180,2,44.0000013427735,4|0|8,0:1|0:0|0:0,0:0:0:0:
160,224,76190,1,8,0:0:0:0:
160,224,76267,1,0,0:0:0:0:
160,224,76343,1,8,0:0:0:0:
112,336,76496,2,0,L|244:316,1,132.00000402832,8|0,0:0|0:0,0:0:0:0:
280,340,76802,1,8,0:0:0:0:
224,160,76955,1,8,0:0:0:0:
404,240,77108,6,0,L|316:232,1,88.000002685547,12|8,0:0|0:0,0:0:0:0:
240,64,77414,1,8,0:0:0:0:
240,64,77491,1,0,0:0:0:0:
240,64,77568,1,8,0:0:0:0:
447,7,77721,2,0,P|469:69|451:131,1,132.00000402832,8|0,0:0|0:0,0:0:0:0:
432,152,78027,2,0,L|344:132,1,88.000002685547,8|8,0:0|0:0,0:0:0:0:
140,112,78333,6,0,L|148:164,3,44.0000013427735,12|0|2|2,0:1|0:0|0:0|0:0,0:0:0:0:
112,184,78639,2,0,L|120:236,3,44.0000013427735,0|0|2|0,0:0|0:0|0:0|0:0,0:0:0:0:
84,256,78945,1,12,0:1:0:0:
104,294,79021,1,0,0:0:0:0:
140,318,79098,1,2,0:0:0:0:
183,323,79174,1,2,0:0:0:0:
224,306,79251,5,0,0:0:0:0:
245,269,79327,1,0,0:0:0:0:
283,247,79404,1,2,0:0:0:0:
326,246,79480,1,0,0:0:0:0:
364,268,79557,6,0,L|372:216,3,44.0000013427735,2|0|12|2,0:0|0:0|0:1|0:0,0:0:0:0:
412,208,79863,2,0,L|404:155,3,44.0000013427735,0|0|12|0,0:0|0:0|0:1|0:0,0:0:0:0:
448,127,80170,2,0,P|383:133|325:103,1,132.00000402832,2|0,0:0|0:0,0:0:0:0:
296,72,80476,5,12,0:1:0:0:
268,85,80552,1,2,0:0:0:0:
240,99,80629,1,2,0:0:0:0:
213,113,80705,1,2,0:0:0:0:
185,127,80782,6,0,L|92:108,1,95.9999970703126,4|2,0:0|0:0,0:0:0:0:
12,260,81088,2,0,L|164:232,1,143.999995605469,8|0,0:0|0:0,0:0:0:0:
172,228,81394,2,0,P|220:279|290:289,1,143.999995605469,2|2,0:0|0:0,0:0:0:0:
316,288,81700,2,0,L|412:268,1,95.9999970703126,8|2,0:0|0:0,0:0:0:0:
432,168,82006,5,2,0:0:0:0:
488,320,82159,1,0,0:0:0:0:
488,320,82236,1,2,0:0:0:0:
488,320,82312,1,8,0:0:0:0:
448,144,82466,1,2,0:0:0:0:
288,216,82619,2,0,L|312:68,1,143.999995605469,0|0,0:0|0:0,0:0:0:0:
288,40,82925,1,10,0:0:0:0:
376,192,83078,1,0,0:0:0:0:
192,100,83231,6,0,L|96:88,1,95.9999970703126,2|0,0:1|0:0,0:0:0:0:
64,80,83460,2,0,P|71:127|64:174,1,95.9999970703126,2|0,0:1|0:0,0:0:0:0:
40,200,83690,1,2,0:1:0:0:
163,347,83843,2,0,P|142:280|162:211,2,143.999995605469,2|2|2,0:1|0:1|0:1,0:0:0:0:
256,276,84455,5,0,0:0:0:0:
287,287,84531,1,2,0:0:0:0:
319,298,84608,1,2,0:0:0:0:
351,309,84684,1,0,0:0:0:0:
382,320,84761,2,0,L|480:300,1,95.9999970703126,10|0,0:0|0:0,0:0:0:0:
496,152,85068,6,0,L|336:120,1,143.999995605469,2|0,0:0|0:0,0:0:0:0:
312,120,85374,1,10,0:0:0:0:
279,126,85450,1,0,0:0:0:0:
246,133,85527,1,0,0:0:0:0:
213,139,85603,1,0,0:0:0:0:
180,146,85680,6,0,L|188:92,2,47.9999985351563,4|2|2,0:0|0:0|0:0,0:0:0:0:
28,84,85986,2,0,L|56:232,1,143.999995605469,8|0,0:0|0:0,0:0:0:0:
60,255,86292,2,0,P|129:246|182:292,1,143.999995605469,2|2,0:0|0:0,0:0:0:0:
204,320,86598,2,0,L|304:304,1,95.9999970703126,8|2,0:0|0:0,0:0:0:0:
380,220,86904,6,0,B|432:236|432:236|456:264|456:264|508:280,2,143.999995605469,2|2|2,0:0|0:0|0:0,0:0:0:0:
275,195,87517,2,0,P|252:129|270:60,1,143.999995605469,0|0,0:0|0:0,0:0:0:0:
296,28,87823,2,0,L|392:40,1,95.9999970703126,10|0,0:0|0:0,0:0:0:0:
136,128,88129,6,0,L|-8:104,2,143.999995605469,2|2|2,0:1|0:1|0:1,0:0:0:0:
192,224,88741,2,0,L|292:204,1,95.9999970703126,2|0,0:1|0:0,0:0:0:0:
308,200,88971,2,0,P|308:248|332:292,1,95.9999970703126,2|0,0:1|0:0,0:0:0:0:
364,308,89200,1,2,0:1:0:0:
484,260,89353,6,0,L|472:208,3,47.9999985351563,0|2|2|0,0:0|0:0|0:0|0:0,0:0:0:0:
468,184,89659,2,0,L|480:88,1,95.9999970703126,10|0,0:0|0:0,0:0:0:0:
316,16,89966,2,0,L|340:164,1,143.999995605469,2|0,0:0|0:0,0:0:0:0:
343,187,90272,1,0,1:0:0:0:
310,187,90348,1,0,1:0:0:0:
278,196,90425,1,0,1:0:0:0:
250,215,90501,1,0,1:0:0:0:
230,242,90578,6,0,L|244:296,2,47.9999985351563,4|2|2,0:0|0:0|0:0,0:0:0:0:
104,376,90884,2,0,L|120:268,1,95.9999970703126,8|0,0:0|0:0,0:0:0:0:
124,248,91113,1,0,0:0:0:0:
123,248,91190,2,0,P|54:252|12:197,2,143.999995605469,2|2|2,0:0|0:0|0:0,0:0:0:0:
204,136,91802,6,0,L|356:156,1,143.999995605469,2|2,0:0|0:0,0:0:0:0:
368,156,92108,2,0,P|352:108|356:56,1,95.9999970703126,8|2,0:0|0:0,0:0:0:0:
488,124,92414,2,0,L|472:276,1,143.999995605469,0|0,0:0|0:0,0:0:0:0:
467,295,92721,2,0,P|423:279|376:286,1,95.9999970703126,10|0,0:0|0:0,0:0:0:0:
272,344,93027,6,0,L|116:324,1,143.999995605469,2|2,0:1|0:1,0:0:0:0:
104,348,93333,1,8,0:0:0:0:
8,252,93486,1,2,0:1:0:0:
152,216,93639,2,0,L|256:236,1,95.9999970703126,2|0,0:1|0:0,0:0:0:0:
288,236,93869,2,0,P|276:189|279:141,1,95.9999970703126,2|0,0:1|0:0,0:0:0:0:
288,108,94098,1,2,0:1:0:0:
440,16,94251,5,0,0:0:0:0:
447,48,94327,1,2,0:0:0:0:
454,81,94404,1,2,0:0:0:0:
461,114,94480,1,0,0:0:0:0:
469,147,94557,2,0,L|456:244,1,95.9999970703126,10|0,0:0|0:0,0:0:0:0:
339,295,94863,2,0,P|268:294|208:331,1,143.999995605469,2|0,0:0|0:0,0:0:0:0:
176,364,95170,1,10,0:0:0:0:
170,330,95246,1,0,0:0:0:0:
164,297,95323,1,0,0:0:0:0:
159,264,95399,1,0,0:0:0:0:
153,231,95476,6,0,L|104:216,2,47.9999985351563,4|2|2,0:0|0:0|0:0,0:0:0:0:
216,128,95782,2,0,P|271:171|342:172,1,143.999995605469,8|0,0:0|0:0,0:0:0:0:
380,152,96088,2,0,L|360:296,1,143.999995605469,2|2,0:0|0:0,0:0:0:0:
356,324,96394,2,0,L|452:304,1,95.9999970703126,8|2,0:0|0:0,0:0:0:0:
252,356,96700,6,0,L|108:328,1,143.999995605469,2|2,0:0|0:0,0:0:0:0:
72,319,97006,2,0,P|95:278|96:231,1,95.9999970703126,8|2,0:0|0:0,0:0:0:0:
40,120,97312,2,0,L|184:148,1,143.999995605469,0|0,0:0|0:0,0:0:0:0:
199,151,97619,2,0,P|187:106|205:62,1,95.9999970703126,10|0,0:0|0:0,0:0:0:0:
312,24,97925,6,0,L|460:48,2,143.999995605469,2|2|2,0:1|0:1|0:1,0:0:0:0:
192,176,98537,2,0,L|204:272,1,95.9999970703126,2|0,0:1|0:0,0:0:0:0:
212,299,98767,2,0,P|257:287|299:307,1,95.9999970703126,2|0,0:1|0:0,0:0:0:0:
328,336,98996,1,2,0:1:0:0:
492,192,99149,5,0,0:0:0:0:
492,192,99226,1,2,0:0:0:0:
492,192,99302,1,2,0:0:0:0:
492,192,99378,1,0,0:0:0:0:
492,192,99455,2,0,L|392:216,1,95.9999970703126,10|0,0:0|0:0,0:0:0:0:
303,80,99761,2,0,P|247:122|177:117,1,143.999995605469,2|0,0:0|0:0,0:0:0:0:
144,108,100068,6,0,L|88:88,4,47.9999985351563,0|0|0|0|4,1:0|1:0|1:0|1:0|0:0,0:0:0:0:
256,192,100450,12,0,102517,0:0:0:0:
155,128,102823,6,0,P|64:119|29:35,1,191.999994140625,2|8,0:0|0:0,0:0:0:0:
232,72,103741,1,0,0:0:0:0:
304,196,104047,6,0,L|296:296,1,95.9999970703126,2|2,0:0|0:0,0:0:0:0:
224,344,104506,1,2,0:0:0:0:
80,232,104659,1,0,1:0:0:0:
156,188,104812,1,4,3:0:0:0:
160,272,104966,1,2,3:0:0:0:
256,56,105272,6,0,P|316:125|408:118,1,191.999994140625,2|8,0:0|0:0,0:0:0:0:
495,255,106190,2,0,P|475:244|451:244,1,47.9999985351563,2|2,0:0|0:0,0:0:0:0:
368,284,106496,6,0,L|384:384,2,95.9999970703126,2|2|8,0:0|0:0|0:0,0:0:0:0:
216,208,107414,2,0,L|232:128,1,71.9999978027344,2|0,0:0|0:0,0:0:0:0:
239,104,107721,6,0,P|157:149|67:126,1,191.999994140625,2|8,0:0|0:0,0:0:0:0:
148,24,108639,1,0,0:0:0:0:
348,40,108945,6,0,L|368:136,1,95.9999970703126,2|2,0:0|0:0,0:0:0:0:
436,196,109404,1,2,0:0:0:0:
436,196,109557,2,0,L|428:244,1,47.9999985351563,0|0,1:0|1:0,0:0:0:0:
352,352,109863,2,0,L|344:304,1,47.9999985351563,0|0,1:0|1:0,0:0:0:0:
263,252,110170,6,0,P|171:256|116:182,1,191.999994140625,2|8,0:0|0:0,0:0:0:0:
316,184,111088,1,2,0:0:0:0:
280,104,111241,1,2,0:0:0:0:
396,152,111394,6,0,L|488:136,1,80,0|2,1:0|0:0,0:0:0:0:
352,272,111700,2,0,L|260:256,1,80,2|0,0:0|1:0,0:0:0:0:
156,212,112006,2,0,L|168:168,3,40,2|0|2|2,0:0|0:0|0:0|0:0,0:0:0:0:
128,144,112312,2,0,L|140:100,3,40,2|2|2|0,0:0|0:0|0:0|0:0,0:0:0:0:
128,56,112619,6,0,P|174:92|233:99,1,120,4|0,0:1|0:0,0:0:0:0:
264,92,112925,2,0,L|344:72,1,80,0|0,1:0|0:0,0:0:0:0:
488,208,113231,2,0,L|352:180,1,120,2|2,0:1|0:1,0:0:0:0:
344,176,113537,2,0,P|352:220|344:256,1,80,0|2,1:0|0:1,0:0:0:0:
264,308,113843,6,0,L|136:284,1,120,0|0,0:0|0:0,0:0:0:0:
112,312,114149,1,0,1:0:0:0:
180,184,114302,1,0,0:0:0:0:
32,240,114455,2,0,B|48:180|48:180|32:112,1,120,2|2,0:1|0:1,0:0:0:0:
24,88,114761,2,0,L|108:108,1,80,0|2,1:0|0:1,0:0:0:0:
256,159,115068,6,0,P|267:121|265:81,1,80,2|0,0:1|0:0,0:0:0:0:
252,56,115297,2,0,L|336:76,1,80,2|0,0:1|0:0,0:0:0:0:
356,56,115527,1,2,0:1:0:0:
468,112,115680,2,0,L|448:230,1,120,0|0,0:0|0:0,0:0:0:0:
428,248,115986,2,0,L|448:340,1,80,2|2,1:1|0:1,0:0:0:0:
324,240,116292,6,0,L|344:112,2,120,2|2|2,0:1|0:1|0:1,0:0:0:0:
263,316,116904,2,0,P|211:342|152:336,1,120,0|0,0:0|0:0,0:0:0:0:
120,328,117210,2,0,L|36:296,1,80,2|2,1:1|0:1,0:0:0:0:
4,144,117517,6,0,B|48:168|48:168|120:152,1,120,4|0,0:1|0:0,0:0:0:0:
148,144,117823,2,0,P|128:108|124:64,1,80,0|0,1:0|0:0,0:0:0:0:
272,20,118129,2,0,L|256:152,1,120,2|2,0:1|0:1,0:0:0:0:
252,172,118435,1,0,1:0:0:0:
384,120,118588,1,2,0:1:0:0:
304,256,118741,5,0,0:0:0:0:
304,256,118818,1,0,0:0:0:0:
304,256,118894,1,2,0:1:0:0:
408,88,119047,2,0,L|396:172,1,80,0|0,1:0|0:0,0:0:0:0:
472,360,119353,2,0,L|452:240,1,120,2|2,1:1|0:1,0:0:0:0:
472,220,119659,1,0,1:0:0:0:
364,332,119812,1,2,1:1:0:0:
256,172,119966,6,0,L|164:192,1,80,2|2,0:1|0:1,0:0:0:0:
156,192,120195,1,0,0:0:0:0:
156,191,120272,2,0,P|172:134|156:77,1,120,0|0,1:0|0:0,0:0:0:0:
132,48,120578,1,0,0:1:0:0:
132,48,120654,2,0,L|252:80,1,120,2|2,0:1|1:0,0:0:0:0:
344,32,121037,1,2,0:1:0:0:
420,160,121190,6,0,L|412:208,3,40,2|0|0|0,0:1|0:0|0:0|0:0,0:0:0:0:
360,216,121496,2,0,L|352:264,3,40,2|0|0|0,1:0|0:0|0:0|0:0,0:0:0:0:
296,264,121802,2,0,L|288:312,3,40,2|0|0|0,0:1|0:0|0:0|0:0,0:0:0:0:
244,328,122108,1,2,1:0:0:0:
244,328,122185,1,0,1:0:0:0:
244,328,122261,1,2,1:0:0:0:
60,80,123333,5,8,0:0:0:0:
60,80,123639,6,0,L|52:32,2,47.9999985351563,4|2|2,0:0|0:0|0:0,0:0:0:0:
80,228,123945,2,0,P|149:239|208:201,1,143.999995605469,0|0,1:0|0:0,0:0:0:0:
228,168,124251,2,0,L|328:184,1,95.9999970703126,2|0,0:0|0:0,0:0:0:0:
492,76,124557,2,0,L|392:60,1,95.9999970703126,0|2,1:0|0:0,0:0:0:0:
180,80,124863,5,0,0:0:0:0:
180,80,124940,1,2,0:0:0:0:
180,80,125017,1,2,0:0:0:0:
256,256,125170,1,0,1:0:0:0:
44,200,125323,1,0,0:0:0:0:
108,24,125476,2,0,L|256:52,1,143.999995605469,2|2,0:0|0:0,0:0:0:0:
288,36,125782,1,0,1:0:0:0:
196,176,125935,1,2,0:0:0:0:
368,108,126088,6,0,L|356:212,1,95.9999970703126,2|0,0:1|0:0,0:0:0:0:
352,231,126318,2,0,P|422:228|475:274,1,143.999995605469,2|2,0:1|0:1,0:0:0:0:
288,348,126700,1,0,0:0:0:0:
288,348,126777,2,0,L|140:328,1,143.999995605469,2|2,0:1|1:0,0:0:0:0:
36,256,127159,1,2,0:1:0:0:
140,88,127312,6,0,L|156:192,1,95.9999970703126,2|0,0:1|0:0,0:0:0:0:
160,215,127542,2,0,P|217:175|287:186,1,143.999995605469,2|2,0:1|0:1,0:0:0:0:
400,232,127925,1,0,0:0:0:0:
400,232,128001,2,0,L|416:88,1,143.999995605469,2|2,0:1|1:1,0:0:0:0:
336,20,128384,1,2,0:1:0:0:
216,152,128537,5,0,0:0:0:0:
216,152,128613,1,2,0:0:0:0:
216,152,128690,1,2,0:0:0:0:
156,48,128843,2,0,L|256:40,1,95.9999970703126,0|0,1:1|0:0,0:0:0:0:
176,248,129149,2,0,L|32:224,1,143.999995605469,2|2,0:0|0:0,0:0:0:0:
16,200,129455,1,0,1:0:0:0:
92,324,129608,1,2,0:0:0:0:
76,128,129761,5,0,0:0:0:0:
76,128,129838,1,2,0:0:0:0:
76,128,129914,1,2,0:0:0:0:
232,208,130068,2,0,L|216:112,1,95.9999970703126,0|0,1:0|0:0,0:0:0:0:
324,24,130374,2,0,L|352:168,1,143.999995605469,2|2,0:0|0:0,0:0:0:0:
356,191,130680,2,0,P|396:168|443:173,1,95.9999970703126,0|2,1:0|0:0,0:0:0:0:
300,328,130986,6,0,L|188:312,1,95.9999970703126,2|0,0:1|0:1,0:0:0:0:
156,308,131216,1,2,0:1:0:0:
108,304,131292,1,0,1:0:0:0:
68,268,131369,1,2,0:1:0:0:
60,220,131445,1,0,0:0:0:0:
184,48,131598,1,0,0:1:0:0:
184,48,131675,2,0,L|164:200,1,143.999995605469,2|2,0:1|1:1,0:0:0:0:
288,268,132057,1,2,0:1:0:0:
344,192,132210,6,0,L|320:48,2,143.999995605469,2|2|2,0:1|0:1|0:1,0:0:0:0:
475,303,132823,1,0,0:0:0:0:
475,303,132899,2,0,P|405:296|345:333,1,143.999995605469,2|2,0:1|1:0,0:0:0:0:
345,333,133205,1,2,0:0:0:0:
345,333,133281,1,2,0:1:0:0:
256,192,133435,12,4,135578,0:0:0:0:
39,167,135884,6,0,P|15:110|39:52,2,127.99999609375,4|4|4,0:0|0:0|0:0,0:0:0:0:
116,232,136496,2,0,P|140:289|116:347,2,127.99999609375,4|4|4,0:0|0:0|0:0,0:0:0:0:
208,124,137108,6,0,L|140:104,2,63.9999980468751,4|0|0,1:0|0:0|0:0,0:0:0:0:
276,184,137414,2,0,L|344:172,2,63.9999980468751,4|0|0,1:0|0:0|0:0,0:0:0:0:
204,240,137721,6,0,L|144:228,3,47.9999985351563,4|0|0|0,1:0|1:0|1:0|1:0,0:0:0:0:
124,248,138027,2,0,L|72:240,4,31.9999990234375,4|2|2|2|0,1:0|0:0|0:0|0:0|0:0,0:0:0:0:
8,256,138333,5,4,0:0:0:0:
8,256,138409,1,2,0:0:0:0:
8,256,138486,1,2,0:1:0:0:
8,84,138639,2,0,L|116:112,1,95.9999970703126,0|0,1:0|0:0,0:0:0:0:
252,187,138945,2,0,P|271:144|272:96,1,95.9999970703126,2|0,0:1|0:0,0:0:0:0:
268,60,139175,2,0,L|416:88,1,143.999995605469,2|2,0:1|0:1,0:0:0:0:
480,176,139557,5,0,0:0:0:0:
480,176,139634,1,2,0:0:0:0:
480,176,139710,1,2,0:1:0:0:
372,352,139863,1,0,1:0:0:0:
371,351,139940,2,0,P|349:284|369:216,1,143.999995605469,2|2,0:1|0:1,0:0:0:0:
276,124,140323,1,0,0:0:0:0:
276,124,140399,1,2,0:1:0:0:
276,124,140476,2,0,L|176:140,1,95.9999970703126,0|2,1:0|0:1,0:0:0:0:
95,207,140782,6,0,P|72:149|83:86,2,127.99999609375,4|4|4,1:0|1:0|1:0,0:0:0:0:
144,316,141394,2,0,L|8:288,2,127.99999609375,4|4|4,1:0|1:0|1:0,0:0:0:0:
256,192,142006,12,4,142925,0:0:0:0:
135,180,143231,6,0,P|59:175|23:108,1,160,6|0,0:0|1:0,0:0:0:0:
224,120,143690,2,0,L|208:284,1,160,2|2,0:0|0:0,0:0:0:0:
128,40,144149,1,0,1:0:0:0:
304,164,144302,1,0,0:0:0:0:
228,24,144456,6,0,L|316:40,1,80,0|0,0:0|0:0,0:0:0:0:
480,132,144762,2,0,L|352:152,1,120,0|2,1:0|0:0,0:0:0:0:
324,156,145068,2,0,P|316:200|316:240,1,80,2|2,0:0|0:0,0:0:0:0:
380,316,145374,1,0,1:0:0:0:
224,244,145527,1,2,0:0:0:0:
224,244,145604,1,0,0:0:0:0:
223,244,145680,6,0,P|146:242|96:301,1,160,2|0,0:0|1:0,0:0:0:0:
188,328,146139,1,2,0:0:0:0:
48,188,146293,2,0,L|40:232,2,40,0|0|2,0:0|0:0|0:0,0:0:0:0:
160,152,146599,2,0,L|144:72,1,80,0|0,1:0|0:0,0:0:0:0:
220,16,146905,5,0,0:0:0:0:
148,184,147058,1,2,0:0:0:0:
320,128,147211,2,0,L|228:108,1,80,0|0,1:0|0:0,0:0:0:0:
208,268,147517,1,2,0:0:0:0:
56,188,147670,1,2,0:0:0:0:
56,188,147747,1,0,0:0:0:0:
56,188,147823,1,0,1:0:0:0:
148,340,147976,1,0,1:0:0:0:
116,111,148129,6,0,P|190:92|251:139,1,160,6|0,0:0|1:0,0:0:0:0:
296,212,148588,1,2,0:0:0:0:
276,28,148742,1,0,0:0:0:0:
276,236,148895,1,2,0:0:0:0:
428,128,149048,2,0,L|344:116,1,80,0|0,1:0|0:0,0:0:0:0:
208,128,149354,5,0,0:0:0:0:
256,320,149507,1,2,0:0:0:0:
256,320,149583,1,0,0:0:0:0:
256,320,149660,1,0,1:0:0:0:
160,204,149813,1,0,0:0:0:0:
180,368,149966,2,0,L|344:348,1,160,2|0,0:0|1:0,0:0:0:0:
375,344,150578,6,0,P|354:268|357:188,1,160,2|0,0:0|1:0,0:0:0:0:
424,112,151037,1,2,0:0:0:0:
256,44,151191,2,0,L|132:64,1,120,0|0,0:0|0:0,0:0:0:0:
112,68,151497,1,0,1:0:0:0:
176,180,151650,1,0,0:0:0:0:
28,212,151803,6,0,L|40:128,1,80,0|0,0:0|0:0,0:0:0:0:
104,276,152109,2,0,L|92:360,1,80,0|0,1:0|0:0,0:0:0:0:
176,180,152415,2,0,P|235:180|284:212,1,120,0|2,1:0|0:0,0:0:0:0:
296,232,152721,2,0,L|384:220,1,80,0|0,1:0|1:0,0:0:0:0:
492,128,153027,6,0,P|440:144|352:80,1,160,6|0,0:0|1:0,0:0:0:0:
176,180,153486,1,2,0:0:0:0:
264,48,153639,1,0,0:0:0:0:
272,260,153793,2,0,L|260:176,1,80,2|0,0:0|0:0,0:0:0:0:
180,24,154099,1,0,0:0:0:0:
52,136,154252,5,0,0:0:0:0:
180,24,154405,2,0,L|188:64,2,40,2|0|0,0:0|0:0|0:0,0:0:0:0:
32,112,154711,1,0,0:0:0:0:
112,224,154864,2,0,P|166:169|244:169,1,160,2|0,0:0|1:0,0:0:0:0:
328,220,155323,1,2,0:0:0:0:
204,264,155476,6,0,L|176:100,1,160,0|0,0:0|1:0,0:0:0:0:
252,36,155935,2,0,B|328:52|328:4|416:24,1,160,2|2,0:0|0:0,0:0:0:0:
500,140,156395,2,0,L|416:124,1,80,0|0,1:0|0:0,0:0:0:0:
380,216,156701,5,0,0:0:0:0:
272,120,156854,1,2,0:0:0:0:
288,332,157007,2,0,L|300:248,1,80,0|0,1:0|0:0,0:0:0:0:
232,40,157313,1,2,0:0:0:0:
205,49,157389,1,0,0:0:0:0:
178,57,157466,1,2,0:0:0:0:
151,65,157542,1,0,0:0:0:0:
124,73,157619,2,0,L|36:60,1,80,0|0,1:0|1:0,0:0:0:0:
16,240,157925,6,0,L|176:196,1,160,6|0,0:0|1:0,0:0:0:0:
248,256,158384,1,2,0:0:0:0:
160,368,158537,1,0,0:0:0:0:
236,232,158691,1,2,0:0:0:0:
356,360,158844,2,0,L|264:348,1,80,0|0,1:0|0:0,0:0:0:0:
300,160,159150,6,0,P|377:166|433:112,1,160,4|0,0:0|0:0,0:0:0:0:
192,32,159609,2,0,B|168:76|168:76|184:188,1,160,0|0,0:0|0:0,0:0:0:0:
183,185,159992,1,0,0:0:0:0:
183,185,160068,1,0,1:0:0:0:
136,332,160221,1,0,1:0:0:0:
264,236,160374,6,0,B|352:244|336:204|420:216,1,160,4|0,3:2|3:0,0:0:0:0:
472,288,160833,2,0,L|456:124,1,160,4|0,3:2|3:0,0:0:0:0:
384,48,161293,1,4,3:2:0:0:
384,48,161369,1,0,3:0:0:0:
384,48,161446,1,0,3:0:0:0:
296,120,161599,6,0,P|256:120|216:104,1,80,0|0,3:0|0:0,0:0:0:0:
148,44,161905,1,4,1:2:0:0:
32,176,162058,1,0,3:0:0:0:
116,16,162211,2,0,L|136:180,1,160,0|0,1:0|1:0,0:0:0:0:
84,272,162670,1,0,1:0:0:0:
256,184,162823,5,0,0:0:0:0:
256,192,162899,12,0,164966,0:0:0:0:
