osu file format v14

[General]
AudioFilename: audio.mp3
AudioLeadIn: 0
PreviewTime: 80705
Countdown: 0
SampleSet: Soft
StackLeniency: 0.7
Mode: 0
LetterboxInBreaks: 0
EpilepsyWarning: 1
WidescreenStoryboard: 1

[Editor]
Bookmarks: 348,9761,22006,41598,61190,70986,80782,102823,112619,123639,135884,140782,143231
DistanceSpacing: 1.2
BeatDivisor: 6
GridSize: 4
TimelineZoom: 2.700001

[Metadata]
Title:Final Overtake
TitleUnicode:Final Overtake
Artist:Rabbit House
ArtistUnicode:Rabbit House
Creator:bbu
Version:Easy
Source:BMS
Tags:Down Habiholic RabbitHouse BGA BOFU2015 BOFU Kafuu Chino Kuro Usagi
BeatmapID:1627007
BeatmapSetID:770246

[Difficulty]
HPDrainRate:2
CircleSize:2.5
OverallDifficulty:2
ApproachRate:3
SliderMultiplier:0.899999999999999
SliderTickRate:1

[Events]
//Background and Video events
0,0,"bg.jpg",0,0
//Break Periods
2,61390,69546
2,100574,101383
//Storyboard Layer 0 (Background)
//Storyboard Layer 1 (Fail)
//Storyboard Layer 2 (Pass)
//Storyboard Layer 3 (Foreground)
//Storyboard Sound Samples

[TimingPoints]
-34,306.122448979592,4,2,1,50,1,0
9761,-125,4,2,2,50,0,0
22006,-100,4,2,1,80,0,0
48945,-100,4,2,2,80,0,0
49710,-100,4,2,1,80,0,0
61190,-90.9090909090909,4,2,2,80,0,0
70986,-90.9090909090909,4,2,2,70,0,0
80782,-90.9090909090909,4,2,2,90,0,1
100374,-100,4,2,1,90,0,0
102823,-166.666666666667,4,2,1,70,0,0
111394,-100,4,2,1,70,0,0
112619,-100,4,2,2,80,0,0
122414,-100,4,2,1,5,0,0
123333,-100,4,2,2,90,0,0
123639,-90.9090909090909,4,2,2,90,0,1
133511,-90.9090909090909,4,2,2,30,0,1
134047,-90.9090909090909,4,2,2,35,0,1
134200,-90.9090909090909,4,2,2,40,0,1
134353,-90.9090909090909,4,2,2,45,0,1
134506,-90.9090909090909,4,2,2,50,0,1
134659,-90.9090909090909,4,2,2,55,0,1
134812,-90.9090909090909,4,2,2,60,0,1
134966,-90.9090909090909,4,2,2,65,0,1
135119,-90.9090909090909,4,2,2,70,0,1
135272,-90.9090909090909,4,2,2,80,0,1
135425,-90.9090909090909,4,2,2,90,0,1
143231,-100,4,2,1,80,0,0
154098,-100,4,2,1,60,0,0
154251,-100,4,2,1,80,0,0
155323,-100,4,2,1,60,0,0
155476,-100,4,2,1,80,0,0
156547,-100,4,2,1,60,0,0
156700,-100,4,2,1,80,0,0
157772,-100,4,2,1,60,0,0
157925,-100,4,2,1,80,0,0
160374,-100,4,2,1,50,0,0
161904,-100,4,2,1,80,0,0
162899,-100,4,2,1,25,0,0
164966,-66.6666666666667,4,2,1,5,0,0

[Colours]
Combo1 : 132,227,255
Combo2 : 166,166,255
Combo3 : 72,162,251
Combo4 : 188,209,228

[HitObjects]
64,56,9761,6,0,L|60:152,1,71.9999999999999,4|0,0:1|0:0,0:0:0:0:
28,216,10374,2,0,L|32:304,1,71.9999999999999,0|2,0:0|0:0,0:0:0:0:
100,352,10986,2,0,L|192:348,1,71.9999999999999,0|0,0:0|0:0,0:0:0:0:
236,280,11598,2,0,L|284:280,2,36,2|0|2,0:0|0:0|0:0,0:0:0:0:
148,244,12210,6,0,P|144:204|156:160,1,71.9999999999999,2|0,0:0|0:0,0:0:0:0:
244,168,12823,2,0,P|248:132|241:97,1,71.9999999999999,0|2,0:0|0:0,0:0:0:0:
312,36,13435,2,0,L|408:40,2,71.9999999999999,2|0|0,0:0|0:0|0:0,0:0:0:0:
241,97,14353,1,2,0:0:0:0:
324,140,14659,6,0,L|320:224,1,71.9999999999999,2|0,0:0|0:0,0:0:0:0:
412,184,15272,2,0,L|408:268,1,71.9999999999999,0|2,0:0|0:0,0:0:0:0:
440,344,15884,2,0,P|392:344|340:328,1,71.9999999999999,0|0,0:0|0:0,0:0:0:0:
296,280,16496,2,0,L|300:228,2,36,2|0|2,0:0|0:0|0:0,0:0:0:0:
220,336,17108,6,0,L|128:340,1,71.9999999999999,2|0,0:0|0:0,0:0:0:0:
64,296,17721,2,0,P|60:256|80:200,1,71.9999999999999,0|2,0:0|0:0,0:0:0:0:
116,152,18333,2,0,P|121:116|114:81,2,71.9999999999999,2|0|0,0:0|0:0|0:0,0:0:0:0:
160,228,19251,1,2,0:0:0:0:
256,192,19404,12,0,20476,0:0:0:0:
64,72,22006,6,0,L|184:68,1,89.9999999999999,4|0,0:1|1:0,0:0:0:0:
252,24,22619,2,0,L|256:128,1,89.9999999999999,0|0,0:0|1:0,0:0:0:0:
172,184,23231,2,0,L|100:188,2,45,0|2|0,0:0|0:0|1:0,0:0:0:0:
264,236,23843,2,0,P|312:244|376:224,1,89.9999999999999,2|0,0:0|1:0,0:0:0:0:
384,132,24455,6,0,L|380:32,1,89.9999999999999,2|0,0:0|1:0,0:0:0:0:
476,92,25068,2,0,L|472:181,1,89.9999999999999,0|0,0:0|1:0,0:0:0:0:
384,244,25680,2,0,L|388:300,2,45,0|2|0,0:0|0:0|1:0,0:0:0:0:
288,192,26292,1,0,1:0:0:0:
128,276,26904,5,2,0:0:0:0:
40,212,27210,2,0,L|36:100,2,89.9999999999999,0|0|0,1:0|0:0|1:0,0:0:0:0:
128,276,28129,2,0,L|132:332,2,45,0|2|0,0:0|0:0|1:0,0:0:0:0:
176,180,28741,2,0,B|224:168|224:168|284:184,1,89.9999999999999,2|0,0:0|1:0,0:0:0:0:
352,236,29353,6,0,L|348:340,2,89.9999999999999,2|0|0,0:0|1:0|0:0,0:0:0:0:
406,149,30272,1,0,1:0:0:0:
352,52,30578,2,0,L|284:44,2,45,0|2|0,0:0|0:0|1:0,0:0:0:0:
406,149,31190,1,0,1:0:0:0:
228,136,31802,6,0,L|138:139,1,89.9999999999999,4|0,0:1|1:0,0:0:0:0:
84,232,32414,2,0,L|188:228,1,89.9999999999999,0|0,0:0|1:0,0:0:0:0:
216,328,33027,2,0,L|160:332,2,45,0|2|0,0:0|0:0|1:0,0:0:0:0:
288,248,33639,2,0,B|292:208|292:208|280:136,1,89.9999999999999,2|0,0:0|1:0,0:0:0:0:
276,52,34251,6,0,L|184:60,2,89.9999999999999,2|0|0,0:0|1:0|0:0,0:0:0:0:
364,116,35170,1,0,1:0:0:0:
472,96,35476,2,0,L|464:36,2,45,0|2|0,0:0|0:0|1:0,0:0:0:0:
428,196,36088,1,0,1:0:0:0:
328,344,36700,6,0,L|172:344,2,135,4|0|0,0:0|0:0|1:0,0:0:0:0:
288,252,37925,2,0,L|423:252,2,135,6|0|0,0:0|0:0|1:0,0:0:0:0:
340,160,39149,2,0,L|205:160,2,135,4|2|0,0:0|0:0|1:0,0:0:0:0:
284,68,40374,6,0,L|396:68,1,89.9999999999999,0|0,0:0|1:0,0:0:0:0:
472,20,40986,2,0,L|472:124,1,89.9999999999999,2|0,0:0|1:0,0:0:0:0:
408,196,41598,6,0,P|352:192|312:196,2,89.9999999999999,6|0|0,0:0|1:0|0:0,0:0:0:0:
408,304,42517,2,0,P|452:308|497:305,2,89.9999999999999,0|2|0,1:0|0:0|1:0,0:0:0:0:
308,344,43435,2,0,L|196:340,1,89.9999999999999,0|0,0:0|1:0,0:0:0:0:
124,288,44047,6,0,L|128:184,2,89.9999999999999,2|0|0,0:0|1:0|0:0,0:0:0:0:
24,248,44966,2,0,L|20:337,2,89.9999999999999,0|2|0,1:0|0:0|1:0,0:0:0:0:
28,140,45884,1,0,1:0:0:0:
176,36,46496,6,0,L|292:40,2,89.9999999999999,6|0|0,0:0|1:0|0:0,0:0:0:0:
116,128,47414,2,0,L|26:124,2,89.9999999999999,0|2|0,1:0|0:0|1:0,0:0:0:0:
188,208,48333,2,0,L|184:308,1,89.9999999999999,0|0,0:0|1:0,0:0:0:0:
280,348,48945,6,0,P|332:352|380:344,2,89.9999999999999,2|0|0,0:0|1:0|0:0,0:0:0:0:
184,297,49863,2,0,P|139:292|94:298,2,89.9999999999999,0|2|0,1:0|0:0|1:0,0:0:0:0:
284,252,50782,1,0,1:0:0:0:
384,60,51394,6,0,L|492:64,2,89.9999999999999,6|0|0,0:0|1:0|0:0,0:0:0:0:
292,116,52312,1,0,1:0:0:0:
292,116,52619,2,0,L|168:108,1,89.9999999999999,2|0,0:0|1:0,0:0:0:0:
112,52,53231,2,0,P|97:126|104:156,1,89.9999999999999,0|0,0:0|1:0,0:0:0:0:
148,236,53843,6,0,P|104:240|44:236,2,89.9999999999999,2|0|0,0:0|1:0|0:0,0:0:0:0:
232,304,54761,1,0,1:0:0:0:
232,304,55068,2,0,P|276:306|321:302,1,89.9999999999999,2|0,0:0|1:0,0:0:0:0:
416,252,55680,1,0,1:0:0:0:
460,76,56292,6,0,L|360:72,1,89.9999999999999,2|0,0:0|1:0,0:0:0:0:
268,36,56904,2,0,L|264:125,1,89.9999999999999,0|0,0:0|1:0,0:0:0:0:
176,60,57517,2,0,L|76:56,1,89.9999999999999,2|0,0:0|1:0,0:0:0:0:
48,156,58129,2,0,L|148:152,1,89.9999999999999,0|0,0:0|1:0,0:0:0:0:
164,256,58741,6,0,L|64:252,2,89.9999999999999,2|0|0,0:0|1:0|0:0,0:0:0:0:
264,300,59659,1,0,1:0:0:0:
356,244,59966,2,0,L|352:136,1,89.9999999999999,2|0,0:0|1:0,0:0:0:0:
448,108,60578,2,0,L|451:197,2,89.9999999999999,0|0|4,1:0|1:0|0:0,0:0:0:0:
224,72,70986,6,0,L|96:68,1,99.0000030212402,4|8,0:1|0:0,0:0:0:0:
72,164,71598,2,0,L|170:167,1,99.0000030212402,8|8,0:0|0:0,0:0:0:0:
252,240,72210,2,0,P|256:296|252:352,2,99.0000030212402,8|8|8,0:0|0:0|0:0,0:0:0:0:
156,292,73129,1,8,0:0:0:0:
56,336,73435,6,0,P|53:286|57:237,1,99.0000030212402,12|8,0:0|0:0,0:0:0:0:
116,144,74047,2,0,P|119:94|117:45,1,99.0000030212402,8|8,0:0|0:0,0:0:0:0:
212,96,74659,2,0,L|328:96,1,99.0000030212402,8|8,0:0|0:0,0:0:0:0:
408,44,75272,2,0,P|404:93|406:142,1,99.0000030212402,8|8,0:0|0:0,0:0:0:0:
456,240,75884,6,0,P|388:236|344:244,1,99.0000030212402,4|8,0:1|0:0,0:0:0:0:
280,316,76496,2,0,P|230:321|181:316,1,99.0000030212402,8|8,0:0|0:0,0:0:0:0:
96,252,77108,6,0,L|100:136,1,99.0000030212402,12|8,0:0|0:0,0:0:0:0:
196,104,77721,2,0,L|192:202,1,99.0000030212402,8|8,0:0|0:0,0:0:0:0:
288,252,78333,6,0,L|292:136,1,99.0000030212402,12|0,0:1|0:0,0:0:0:0:
340,56,78945,2,0,P|392:48|464:64,2,99.0000030212402,12|0|2,0:1|0:0|0:0,0:0:0:0:
236,24,79863,1,8,0:1:0:0:
160,104,80170,2,0,L|24:100,1,99.0000030212402,2|12,0:0|0:1,0:0:0:0:
32,204,80782,5,4,0:0:0:0:
100,292,81088,2,0,P|136:240|140:188,2,99.0000030212402,8|2|8,0:0|0:0|0:0,0:0:0:0:
196,340,82006,2,0,B|232:352|288:332|288:332|356:348,2,148.50000453186,2|2|10,0:0|0:0|0:0,0:0:0:0:
140,244,83231,6,0,L|148:132,1,99.0000030212402,2|8,0:1|0:0,0:0:0:0:
244,92,83843,2,0,L|251:190,1,99.0000030212402,2|8,0:1|0:0,0:0:0:0:
324,272,84455,2,0,B|364:236|356:168|356:168|380:132,2,148.50000453186,2|2|8,0:0|0:0|0:0,0:0:0:0:
252,352,85680,5,4,0:0:0:0:
156,300,85986,2,0,L|48:304,2,99.0000030212402,8|2|8,0:0|0:0|0:0,0:0:0:0:
180,192,86904,2,0,L|8:196,2,148.50000453186,2|2|10,0:0|0:0|0:0,0:0:0:0:
260,116,88129,6,0,P|264:68|256:12,1,99.0000030212402,2|8,0:1|0:0,0:0:0:0:
360,44,88741,2,0,P|356:93|362:142,1,99.0000030212402,2|8,0:1|0:0,0:0:0:0:
460,192,89353,2,0,P|380:248|316:240,2,148.50000453186,2|2|8,0:0|0:0|1:0,0:0:0:0:
362,142,90578,6,0,L|252:140,1,99.0000030212402,4|8,0:0|0:0,0:0:0:0:
168,84,91190,2,0,L|172:196,1,99.0000030212402,2|8,0:0|0:0,0:0:0:0:
240,268,91802,2,0,B|192:288|192:288|148:288|148:288|96:264,2,148.50000453186,2|2|10,0:0|0:0|0:0,0:0:0:0:
332,328,93027,6,0,P|380:336|448:324,1,99.0000030212402,2|8,0:1|0:0,0:0:0:0:
484,236,93639,2,0,P|435:227|386:233,1,99.0000030212402,2|8,0:1|0:0,0:0:0:0:
280,212,94251,2,0,B|288:168|336:136|336:136|336:72,2,148.50000453186,2|2|10,0:0|0:0|0:0,0:0:0:0:
280,320,95476,5,4,0:0:0:0:
180,272,95782,2,0,P|164:224|180:156,1,99.0000030212402,8|2,0:0|0:0,0:0:0:0:
232,88,96394,1,8,0:0:0:0:
128,52,96700,2,0,P|64:88|32:160,2,148.50000453186,2|2|10,0:0|0:0|0:0,0:0:0:0:
232,88,97925,6,0,L|348:80,1,99.0000030212402,2|8,0:1|0:0,0:0:0:0:
356,188,98537,2,0,L|257:194,1,99.0000030212402,2|8,0:1|0:0,0:0:0:0:
152,228,99149,2,0,B|124:244|124:244|124:340|124:340|100:372,2,148.50000453186,2|2|10,0:0|0:0|0:0,0:0:0:0:
152,128,100374,1,4,0:0:0:0:
52,56,102823,6,0,L|52:120,1,53.9999983520508,2|0,0:0|0:0,0:0:0:0:
132,152,103435,2,0,L|132:212,1,53.9999983520508,8|0,0:0|0:0,0:0:0:0:
56,260,104047,2,0,L|56:320,3,53.9999983520508,2|2|0|2,0:0|0:0|1:0|3:0,0:0:0:0:
140,352,105272,6,0,L|204:352,1,53.9999983520508,2|0,0:0|0:0,0:0:0:0:
260,288,105884,2,0,L|320:288,1,53.9999983520508,8|2,0:0|0:0,0:0:0:0:
404,312,106496,2,0,L|404:248,3,53.9999983520508,2|2|8|2,0:0|0:0|0:0|0:0,0:0:0:0:
376,172,107721,6,0,L|440:172,1,53.9999983520508,2|0,0:0|0:0,0:0:0:0:
400,84,108333,2,0,L|346:84,1,53.9999983520508,8|0,0:0|0:0,0:0:0:0:
280,148,108945,2,0,L|280:212,3,53.9999983520508,2|2|0|0,0:0|0:0|1:0|1:0,0:0:0:0:
256,192,110170,12,0,111394,1:0:0:0:
72,72,112619,6,0,L|180:80,1,89.9999999999999,4|0,0:1|1:0,0:0:0:0:
256,108,113231,2,0,L|260:56,2,45,2|0|0,0:1|0:0|1:0,0:0:0:0:
184,176,113843,2,0,L|180:280,1,89.9999999999999,0|0,0:0|1:0,0:0:0:0:
200,364,114455,2,0,L|136:360,2,45,2|0|0,0:1|0:0|1:0,0:0:0:0:
288,320,115068,6,0,P|332:312|392:328,1,89.9999999999999,2|0,0:1|1:0,0:0:0:0:
472,300,115680,2,0,L|468:356,2,45,0|0|2,0:0|0:0|1:1,0:0:0:0:
468,200,116292,2,0,P|423:192|380:200,1,89.9999999999999,2|0,0:1|1:0,0:0:0:0:
284,180,116904,2,0,L|287:224,2,45,0|0|2,0:0|0:0|1:1,0:0:0:0:
204,120,117517,6,0,L|200:24,1,89.9999999999999,4|0,0:1|1:0,0:0:0:0:
104,56,118129,2,0,L|48:60,2,45,2|0|0,0:1|0:0|1:0,0:0:0:0:
92,156,118741,2,0,L|95:245,1,89.9999999999999,0|0,0:0|1:0,0:0:0:0:
176,304,119353,2,0,L|172:352,2,45,2|0|0,2:1|0:0|1:0,0:0:0:0:
244,232,119966,6,0,P|288:228|344:244,1,89.9999999999999,2|0,0:1|1:0,0:0:0:0:
424,280,120578,2,0,L|416:328,2,45,0|0|2,0:1|0:0|1:0,0:0:0:0:
416,180,121190,6,0,L|432:72,3,89.9999999999999,2|2|2|2,0:1|1:0|0:1|1:0,0:0:0:0:
248,64,123639,6,0,P|200:60|136:64,1,99.0000030212402,4|0,0:0|1:0,0:0:0:0:
52,18,124251,2,0,P|48:67|56:116,1,99.0000030212402,2|0,0:0|1:0,0:0:0:0:
128,196,124863,2,0,P|177:200|226:197,2,99.0000030212402,0|0|2,0:0|1:0|0:0,0:0:0:0:
56,276,125782,1,0,1:0:0:0:
144,340,126088,6,0,B|212:368|264:340|264:340|276:308,2,148.50000453186,2|2|2,0:1|0:1|1:0,0:0:0:0:
56,276,127312,2,0,B|56:212|56:212|52:204|52:204|56:196|56:196|52:116,2,148.50000453186,2|2|2,0:1|0:1|1:1,0:0:0:0:
160,240,128537,6,0,P|200:236|268:244,1,99.0000030212402,0|0,0:0|1:1,0:0:0:0:
352,184,129149,2,0,P|368:244|352:300,2,99.0000030212402,2|0|0,0:0|1:0|0:0,0:0:0:0:
256,136,130068,2,0,P|248:96|260:24,2,99.0000030212402,0|2|0,1:0|0:0|1:0,0:0:0:0:
352,84,130986,6,0,B|392:68|392:68|472:80|496:120,2,148.50000453186,2|2|2,0:1|0:1|1:1,0:0:0:0:
256,136,132210,2,0,B|216:151|216:151|136:139|121:111,2,148.50000453186,2|2|2,0:1|0:1|1:0,0:0:0:0:
352,188,133435,6,0,L|352:296,3,99.0000030212402,4|0|0|0,1:0|3:0|3:0|3:0,0:0:0:0:
260,348,134659,2,0,L|260:249,3,99.0000030212402,0|0|0|4,3:0|3:0|3:0|0:0,0:0:0:0:
232,144,135884,6,0,P|168:128|48:192,2,198.00000604248,4|4|4,0:0|0:0|1:0,0:0:0:0:
260,248,137414,1,4,1:0:0:0:
336,168,137721,2,0,L|332:56,1,99.0000030212402,4|4,1:0|1:0,0:0:0:0:
440,44,138333,6,0,L|436:142,1,99.0000030212402,4|0,0:0|1:0,0:0:0:0:
496,232,138945,2,0,L|492:330,1,99.0000030212402,2|0,0:1|1:0,0:0:0:0:
392,292,139557,2,0,L|288:296,1,99.0000030212402,0|0,0:0|1:0,0:0:0:0:
192,340,140170,2,0,L|93:343,1,99.0000030212402,2|0,0:1|1:0,0:0:0:0:
36,252,140782,6,0,B|-16:156|72:156|24:60,2,198.00000604248,4|4|4,1:0|1:0|1:0,0:0:0:0:
128,196,142312,2,0,P|172:188|244:196,2,99.0000030212402,0|0|4,0:0|0:0|1:0,0:0:0:0:
36,252,143231,6,0,L|40:348,2,89.9999999999999,6|0|0,0:0|1:0|0:0,0:0:0:0:
128,196,144149,1,0,1:0:0:0:
184,288,144455,2,0,L|188:344,2,45,0|2|0,0:0|0:0|1:0,0:0:0:0:
292,308,145068,2,0,P|344:320|392:308,1,89.9999999999999,2|0,0:0|1:0,0:0:0:0:
448,228,145680,6,0,L|448:124,1,89.9999999999999,2|0,0:0|1:0,0:0:0:0:
384,48,146292,2,0,P|339:41|296:53,1,89.9999999999999,0|0,0:0|1:0,0:0:0:0:
256,156,146904,2,0,L|312:152,2,45,0|2|0,0:0|0:0|1:0,0:0:0:0:
148,136,147517,1,0,1:0:0:0:
52,292,148129,5,6,0:0:0:0:
148,344,148435,2,0,L|252:340,2,89.9999999999999,0|0|0,1:0|0:0|1:0,0:0:0:0:
52,292,149353,2,0,L|56:340,2,45,0|2|0,0:0|0:0|1:0,0:0:0:0:
152,248,149966,2,0,L|144:148,1,89.9999999999999,2|0,0:0|1:0,0:0:0:0:
180,56,150578,6,0,P|216:52|280:56,1,89.9999999999999,2|0,0:0|1:0,0:0:0:0:
368,100,151190,2,0,L|360:189,1,89.9999999999999,0|0,0:0|1:0,0:0:0:0:
260,224,151802,2,0,L|264:160,2,45,0|0|0,0:0|1:0|1:0,0:0:0:0:
348,284,152414,1,0,1:0:0:0:
180,344,153027,6,0,P|132:348|72:344,1,89.9999999999999,6|0,0:0|1:0,0:0:0:0:
44,248,153639,2,0,P|88:244|133:245,1,89.9999999999999,0|0,0:0|1:0,0:0:0:0:
236,216,154251,2,0,L|232:152,2,45,0|2|0,0:0|0:0|1:0,0:0:0:0:
336,252,154863,2,0,L|332:352,1,89.9999999999999,2|0,0:0|1:0,0:0:0:0:
436,312,155476,6,0,L|439:222,1,89.9999999999999,2|0,0:0|1:0,0:0:0:0:
496,132,156088,2,0,L|392:136,1,89.9999999999999,0|0,0:0|1:0,0:0:0:0:
308,92,156700,2,0,L|316:156,2,45,0|2|0,0:0|0:0|1:0,0:0:0:0:
400,36,157312,1,0,1:0:0:0:
220,56,157925,6,0,L|128:52,1,89.9999999999999,6|0,0:0|1:0,0:0:0:0:
84,152,158537,2,0,L|173:148,1,89.9999999999999,0|0,0:0|1:0,0:0:0:0:
276,184,159149,2,0,L|272:280,1,89.9999999999999,6|0,0:0|1:0,0:0:0:0:
368,324,159761,2,0,L|364:234,1,89.9999999999999,0|0,0:0|1:0,0:0:0:0:
396,132,160374,6,0,P|436:128|492:132,2,89.9999999999999,6|8|0,3:2|0:0|3:2,0:0:0:0:
320,56,161292,1,8,3:2:0:0:
252,140,161598,2,0,P|244:184|252:240,2,89.9999999999999,0|2|8,3:0|0:2|0:0,0:0:0:0:
172,64,162517,2,0,P|136:60|80:64,1,89.9999999999999,8|4,0:0|0:0,0:0:0:0:
256,192,162899,12,0,164966,0:0:0:0:
