osu file format v14

[General]
AudioFilename: audio.mp3
AudioLeadIn: 0
PreviewTime: 73658
Countdown: 0
SampleSet: None
StackLeniency: 0.7
Mode: 0
LetterboxInBreaks: 0
WidescreenStoryboard: 0

[Editor]
Bookmarks: 548,37158,73730,110301,146872,174301,210872,265730,293158,329730,357158
DistanceSpacing: 1
BeatDivisor: 4
GridSize: 32
TimelineZoom: 2.800002

[Metadata]
Title:ROLLING PANDEMONIUM (Ata Remix)
TitleUnicode:ROLLING PANDEMONIUM (Ata Remix)
Artist:RYUWAVE
ArtistUnicode:RYUWAVE
Creator:fayew
Version:ULTIMATE POWER
Source:
Tags:hardcore tech hardtek psychedelic trance psytrance electronic 爆速電子音楽紀行-CHAOTIC WORLDTOUR-
BeatmapID:2879432
BeatmapSetID:1394980

[Difficulty]
HPDrainRate:4.5
CircleSize:4
OverallDifficulty:9.6
ApproachRate:9.9
SliderMultiplier:1.5
SliderTickRate:1

[Events]
//Background and Video events
0,0,"Pandemonium_Fortress-RoS2 5 remap.jpg",0,0
//Break Periods
//Storyboard Layer 0 (Background)
//Storyboard Layer 1 (Fail)
//Storyboard Layer 2 (Pass)
//Storyboard Layer 3 (Foreground)
//Storyboard Layer 4 (Overlay)
//Storyboard Sound Samples

[TimingPoints]
531,287.514285714286,4,2,1,100,1,0
633,-100,4,2,1,5,0,0
9732,285.714285714286,4,2,1,100,1,0
9732,-133.333333333333,4,2,1,70,0,0
10306,-133.333333333333,4,2,1,30,0,0
10377,-133.333333333333,4,2,1,70,0,0
11449,-133.333333333333,4,2,1,30,0,0
11520,-133.333333333333,4,2,1,70,0,0
12592,-133.333333333333,4,2,1,30,0,0
12663,-133.333333333333,4,2,1,70,0,0
13735,-133.333333333333,4,2,1,30,0,0
13806,-133.333333333333,4,2,1,70,0,0
14877,-133.333333333333,4,2,1,30,0,0
14948,-133.333333333333,4,2,1,70,0,0
16020,-133.333333333333,4,2,1,30,0,0
16091,-133.333333333333,4,2,1,70,0,0
17163,-133.333333333333,4,2,1,30,0,0
17234,-133.333333333333,4,2,1,70,0,0
18306,-133.333333333333,4,2,1,30,0,0
18377,-133.333333333333,4,2,1,70,0,0
19449,-133.333333333333,4,2,1,30,0,0
19520,-133.333333333333,4,2,1,70,0,0
20592,-133.333333333333,4,2,1,30,0,0
20663,-133.333333333333,4,2,1,70,0,0
21735,-133.333333333333,4,2,1,30,0,0
21806,-133.333333333333,4,2,1,70,0,0
22877,-133.333333333333,4,2,1,30,0,0
22948,-133.333333333333,4,2,1,70,0,0
24020,-133.333333333333,4,2,1,30,0,0
24091,-133.333333333333,4,2,1,70,0,0
25163,-133.333333333333,4,2,1,30,0,0
25234,-133.333333333333,4,2,1,70,0,0
26306,-133.333333333333,4,2,1,30,0,0
26377,-133.333333333333,4,2,1,70,0,0
27449,-133.333333333333,4,2,1,30,0,0
27520,-133.333333333333,4,2,1,70,0,0
28592,-133.333333333333,4,2,1,30,0,0
28663,-133.333333333333,4,2,1,70,0,0
34874,-116.279069767442,4,2,1,70,0,0
36017,-113.636363636364,4,2,1,70,0,0
36303,-111.111111111111,4,2,1,70,0,0
36589,-105.263157894737,4,2,1,70,0,0
36874,-103.092783505155,4,2,1,70,0,0
37163,-100,4,2,1,70,0,0
54306,-100,4,2,1,60,0,0
54877,-100,4,2,1,30,0,0
55163,-100,4,2,1,80,0,0
55446,-100,4,2,1,80,0,1
55732,-100,4,2,1,80,0,0
73735,-80,4,2,1,80,0,0
89732,-80,4,2,1,80,0,1
90017,-80,4,2,1,80,0,0
110306,-200,4,2,1,50,0,0
128592,-100,4,2,1,90,0,0
146876,-83.3333333333333,4,2,1,90,0,0
156017,-66.6666666666667,4,2,1,75,0,1
174303,-80,4,2,1,75,0,0
210876,-200,4,2,1,60,0,0
220017,-200,4,2,1,75,0,0
229160,-100,4,2,1,75,0,0
274303,-40,4,2,1,75,0,0
274874,-100,4,2,1,75,0,0
288017,-50,4,2,1,75,0,0
288589,-100,4,2,1,75,0,0
289160,-111.111111111111,4,2,1,75,0,0
289732,-125,4,2,1,75,0,0
290303,-142.857142857143,4,2,1,75,0,0
290874,-125,4,2,1,75,0,0
291160,-111.111111111111,4,2,1,75,0,0
291446,-100,4,2,1,75,0,0
292017,-66.6666666666667,4,2,1,75,0,0
293160,-80,4,2,1,75,0,1
311446,-74.0740740740741,4,2,1,75,0,1
320589,-66.6666666666667,4,2,1,75,0,1
329732,-100,4,2,1,75,0,0
348017,-125,4,2,1,50,0,0
357160,-153.846153846154,4,2,3,45,0,0
357232,-153.846153846154,4,2,3,5,0,0
375446,292.682926829269,4,2,3,5,1,0
375446,-200,4,2,3,5,0,0
376623,300,4,2,3,5,1,0
376623,-200,4,2,3,5,0,0
377223,315.789473684211,4,2,3,5,1,0
377223,-200,4,2,3,5,0,0
377854,333.333333333333,4,2,3,5,1,0
377854,-200,4,2,3,5,0,0
379354,-1000,4,2,3,5,0,0

[Colours]
Combo1 : 177,95,152
Combo2 : 128,64,64
Combo3 : 128,0,0
Combo4 : 242,24,57
Combo5 : 157,0,0
Combo6 : 203,152,152
Combo7 : 173,93,93
Combo8 : 255,128,128

[HitObjects]
255,192,531,5,6,0:1:0:0:
256,192,602,12,0,5131,0:0:0:0:
256,192,5203,12,0,9443,0:0:0:0:
380,132,9733,6,0,L|305:128,1,56.2500021457673
159,71,10160,1,0,0:0:0:0:
159,71,10304,1,8,0:0:0:0:
368,33,10590,2,0,L|299:26,1,56.2500021457673
174,169,10875,6,0,L|160:101,1,56.2500021457673
81,295,11304,2,0,L|94:228,1,56.2500021457673,0|8,0:0|0:0,0:0:0:0:
256,224,11732,2,0,L|316:231,1,56.2500021457673
155,157,12018,6,0,L|231:149,1,56.2500021457673
422,90,12447,1,0,0:0:0:0:
365,89,12589,1,8,0:0:0:0:
178,51,12875,2,0,L|234:46,1,56.2500021457673
354,19,13161,6,0,L|339:98,1,56.2500021457673
306,180,13590,2,0,L|318:259,1,56.2500021457673,0|8,0:0|0:0,0:0:0:0:
280,343,14018,1,0,0:0:0:0:
174,302,14304,6,0,P|131:298|99:304,1,56.2500021457673
206,229,14732,2,0,L|282:221,1,56.2500021457673,0|8,0:0|0:0,0:0:0:0:
182,143,15161,1,0,0:0:0:0:
174,87,15304,1,0,0:0:0:0:
337,25,15447,6,0,L|272:37,1,56.2500021457673
76,91,15875,2,0,P|75:56|84:30,1,56.2500021457673,0|8,0:0|0:0,0:0:0:0:
182,143,16304,1,0,0:0:0:0:
338,302,16590,6,0,P|381:298|413:304,1,56.2500021457673
306,229,17018,2,0,L|230:221,1,56.2500021457673,0|8,0:0|0:0,0:0:0:0:
330,143,17447,1,0,0:0:0:0:
337,87,17589,1,0,0:0:0:0:
175,25,17732,6,0,L|240:37,1,56.2500021457673
436,91,18161,2,0,P|437:56|428:30,1,56.2500021457673,0|8,0:0|0:0,0:0:0:0:
330,143,18589,1,0,0:0:0:0:
156,232,18875,6,0,P|109:224|90:213,1,56.2500021457673
137,60,19161,1,0,0:0:0:0:
152,150,19304,1,0,0:0:0:0:
65,122,19447,6,0,P|42:143|28:189,1,56.2500021457673,8|0,0:0|0:0,0:0:0:0:
152,150,19732,2,0,P|197:157|217:154,1,56.2500021457673
314,58,20018,5,0,0:0:0:0:
325,113,20161,1,0,0:0:0:0:
178,93,20447,2,0,P|151:82|115:74,1,56.2500021457673,0|8,0:0|0:0,0:0:0:0:
186,236,20875,1,0,0:0:0:0:
306,203,21161,6,0,P|328:224|360:228,1,56.2500021457673
450,159,21590,2,0,P|404:148|388:151,1,56.2500021457673,0|8,0:0|0:0,0:0:0:0:
259,231,22018,2,0,P|281:210|321:203,1,56.2500021457673
301,38,22304,6,0,L|302:103,1,56.2500021457673
289,313,22732,1,0,0:0:0:0:
302,258,22875,1,8,0:0:0:0:
160,139,23161,1,0,0:0:0:0:
409,151,23447,6,0,L|335:146,1,56.2500021457673
175,60,23875,2,0,L|111:56,1,56.2500021457673,0|8,0:0|0:0,0:0:0:0:
334,49,24304,2,0,L|409:51,1,56.2500021457673
230,113,24590,6,0,L|158:117,1,56.2500021457673
70,256,25018,1,0,0:0:0:0:
266,202,25161,1,8,0:0:0:0:
172,26,25447,1,0,0:0:0:0:
327,57,25732,6,0,L|388:40,1,56.2500021457673
284,84,26161,2,0,L|345:67,1,56.2500021457673,0|8,0:0|0:0,0:0:0:0:
423,47,26447,1,0,0:0:0:0:
304,96,26590,2,0,L|242:112,1,56.2500021457673
340,169,26875,6,0,L|417:148,1,56.2500021457673
194,241,27304,2,0,L|271:220,1,56.2500021457673,0|8,0:0|0:0,0:0:0:0:
472,167,27732,1,0,0:0:0:0:
253,161,28018,6,0,P|237:135|238:101,1,56.2500021457673
356,85,28304,2,0,P|402:89|426:84,1,56.2500021457673
259,23,28589,1,8,0:0:0:0:
268,49,28732,1,0,0:0:0:0:
278,74,28875,1,0,0:0:0:0:
288,100,29018,1,0,0:0:0:0:
306,121,29161,6,0,B|100:70|100:70|197:95|191:170,1,337.500012874604
308,219,30304,6,0,B|454:238|454:238|398:218|376:151|450:106|488:156,1,337.500012874604
483,153,31304,1,0,0:0:0:0:
487,170,31447,6,0,B|446:111|471:29|471:29|445:76|383:56|387:50|323:38|299:72|299:72|252:58|219:65,1,393.750015020371
256,192,32589,12,0,34732,0:0:0:0:
58,178,34875,6,0,L|148:168,1,64.5000009841919,2|2,0:0|0:0,0:0:0:0:
330,196,35161,1,8,0:0:0:0:
43,178,35304,6,0,L|133:168,1,64.5000009841919,2|2,0:0|0:0,0:0:0:0:
345,196,35589,1,8,0:0:0:0:
28,178,35733,6,0,L|118:168,1,64.5000009841919,2|2,0:0|0:0,0:0:0:0:
397,125,36018,6,0,L|307:99,1,66.0000020141602,2|2,0:0|0:0,0:0:0:0:
454,109,36303,2,0,L|454:101,1,8.43749974250794
422,99,36374,2,0,L|422:91,1,8.43749974250794
389,90,36446,2,0,L|389:82,1,8.43749974250794
127,64,36590,6,0,L|118:153,1,71.2499980974198,2|2,0:0|0:0,0:0:0:0:
103,68,36874,2,0,L|101:79,12,9.09375021507741,0|2|0|0|0|0|0|0|0|0|0|0|0,0:0|0:0|0:0|0:0|0:0|0:0|0:0|0:0|0:0|0:0|0:0|0:0|0:0,0:0:0:0:
87,105,37161,5,6,0:1:0:0:
69,137,37232,1,0,0:0:0:0:
73,173,37304,1,0,0:0:0:0:
97,201,37375,1,0,0:0:0:0:
133,210,37447,1,2,0:0:0:0:
167,196,37518,1,0,0:0:0:0:
197,173,37589,1,0,0:0:0:0:
222,146,37661,1,0,0:0:0:0:
257,133,37732,5,2,0:0:0:0:
294,137,37804,1,0,0:0:0:0:
325,158,37875,1,0,0:0:0:0:
343,190,37947,1,0,0:0:0:0:
345,227,38018,1,2,0:0:0:0:
336,268,38089,1,0,0:0:0:0:
302,251,38161,1,0,0:0:0:0:
268,235,38232,1,0,0:0:0:0:
228,248,38304,5,2,0:0:0:0:
197,268,38375,1,0,0:0:0:0:
160,267,38447,1,0,0:0:0:0:
131,244,38518,1,0,0:0:0:0:
122,209,38589,1,2,0:0:0:0:
135,174,38661,1,0,0:0:0:0:
166,154,38732,1,0,0:0:0:0:
203,157,38804,1,0,0:0:0:0:
230,187,38875,5,2,0:0:0:0:
217,152,38947,1,0,0:0:0:0:
221,115,39018,1,0,0:0:0:0:
241,84,39089,1,0,0:0:0:0:
274,65,39161,1,2,0:0:0:0:
311,63,39232,1,0,0:0:0:0:
345,78,39304,1,0,0:0:0:0:
368,107,39375,1,0,0:0:0:0:
371,149,39447,5,2,0:0:0:0:
375,186,39518,1,0,0:0:0:0:
379,223,39589,1,0,0:0:0:0:
384,260,39661,1,0,0:0:0:0:
386,302,39732,1,2,0:0:0:0:
357,279,39804,1,0,0:0:0:0:
322,267,39875,1,0,0:0:0:0:
284,268,39947,1,0,0:0:0:0:
245,281,40018,5,2,0:0:0:0:
208,277,40089,1,0,0:0:0:0:
186,248,40161,1,0,0:0:0:0:
193,212,40232,1,0,0:0:0:0:
225,185,40304,1,2,0:0:0:0:
187,182,40375,1,0,0:0:0:0:
150,180,40447,1,0,0:0:0:0:
112,177,40518,1,0,0:0:0:0:
71,176,40589,5,2,0:0:0:0:
92,206,40661,1,0,0:0:0:0:
125,222,40732,1,0,0:0:0:0:
163,221,40804,1,0,0:0:0:0:
200,204,40875,1,2,0:0:0:0:
228,180,40947,1,0,0:0:0:0:
264,169,41018,1,0,0:0:0:0:
301,173,41089,1,0,0:0:0:0:
333,191,41161,5,2,0:0:0:0:
356,221,41232,1,0,0:0:0:0:
365,257,41304,1,0,0:0:0:0:
360,294,41375,1,0,0:0:0:0:
334,327,41447,1,2,0:0:0:0:
371,322,41518,1,0,0:0:0:0:
408,317,41589,1,0,0:0:0:0:
445,312,41661,1,0,0:0:0:0:
486,306,41732,5,2,0:0:0:0:
477,299,41804,1,0,0:0:0:0:
470,291,41875,1,0,0:0:0:0:
464,282,41947,1,0,0:0:0:0:
461,272,42018,1,2,0:0:0:0:
460,261,42089,1,0,0:0:0:0:
461,250,42161,1,0,0:0:0:0:
464,240,42232,1,0,0:0:0:0:
468,230,42304,5,2,0:0:0:0:
458,225,42375,1,0,0:0:0:0:
449,219,42447,1,0,0:0:0:0:
441,212,42518,1,0,0:0:0:0:
434,204,42589,1,2,0:0:0:0:
428,195,42661,1,0,0:0:0:0:
424,185,42732,1,0,0:0:0:0:
422,175,42804,1,0,0:0:0:0:
411,172,42875,5,2,0:0:0:0:
392,161,42947,1,0,0:0:0:0:
371,156,43018,1,0,0:0:0:0:
350,154,43089,1,0,0:0:0:0:
329,158,43161,1,2,0:0:0:0:
309,165,43232,1,0,0:0:0:0:
291,177,43304,1,0,0:0:0:0:
276,192,43375,1,0,0:0:0:0:
264,212,43447,5,2,0:0:0:0:
249,245,43518,1,0,0:0:0:0:
218,264,43589,1,0,0:0:0:0:
181,260,43661,1,0,0:0:0:0:
154,235,43732,1,2,0:0:0:0:
148,199,43804,1,0,0:0:0:0:
164,166,43875,1,0,0:0:0:0:
197,150,43947,1,0,0:0:0:0:
234,156,44018,5,2,0:0:0:0:
233,118,44089,1,0,0:0:0:0:
251,86,44161,1,0,0:0:0:0:
283,67,44232,1,0,0:0:0:0:
320,66,44304,1,2,0:0:0:0:
353,83,44375,1,0,0:0:0:0:
366,119,44447,1,0,0:0:0:0:
372,155,44518,1,0,0:0:0:0:
378,192,44589,5,2,0:0:0:0:
384,229,44661,1,0,0:0:0:0:
391,266,44732,1,0,0:0:0:0:
397,303,44804,1,0,0:0:0:0:
402,340,44875,1,2,0:0:0:0:
366,327,44947,1,0,0:0:0:0:
329,325,45018,1,0,0:0:0:0:
293,334,45089,1,0,0:0:0:0:
259,350,45161,5,2,0:0:0:0:
244,316,45232,1,0,0:0:0:0:
211,299,45304,1,0,0:0:0:0:
176,308,45375,1,0,0:0:0:0:
149,334,45447,1,2,0:0:0:0:
112,340,45518,1,0,0:0:0:0:
81,321,45589,1,0,0:0:0:0:
68,287,45661,1,0,0:0:0:0:
79,251,45732,5,2,0:0:0:0:
108,228,45804,1,0,0:0:0:0:
117,192,45875,1,0,0:0:0:0:
103,158,45947,1,0,0:0:0:0:
71,139,46018,1,2,0:0:0:0:
35,131,46089,1,0,0:0:0:0:
11,102,46161,1,0,0:0:0:0:
10,66,46232,1,0,0:0:0:0:
28,33,46304,5,2,0:0:0:0:
56,57,46375,1,0,0:0:0:0:
91,69,46447,1,0,0:0:0:0:
128,66,46518,1,0,0:0:0:0:
163,52,46589,1,2,0:0:0:0:
200,55,46661,1,0,0:0:0:0:
233,72,46732,1,0,0:0:0:0:
258,100,46804,1,0,0:0:0:0:
271,135,46875,5,2,0:0:0:0:
270,172,46947,1,0,0:0:0:0:
255,206,47018,1,0,0:0:0:0:
229,233,47089,1,0,0:0:0:0:
193,241,47161,1,2,0:0:0:0:
157,233,47232,1,0,0:0:0:0:
129,209,47304,1,0,0:0:0:0:
115,175,47375,1,0,0:0:0:0:
119,137,47447,5,2,0:0:0:0:
154,125,47518,1,0,0:0:0:0:
191,126,47589,1,0,0:0:0:0:
226,139,47661,1,0,0:0:0:0:
255,163,47732,1,2,0:0:0:0:
269,197,47804,1,0,0:0:0:0:
296,222,47875,1,0,0:0:0:0:
332,232,47947,1,0,0:0:0:0:
367,218,48018,5,2,0:0:0:0:
386,186,48089,1,0,0:0:0:0:
388,149,48161,1,0,0:0:0:0:
373,115,48232,1,0,0:0:0:0:
343,92,48304,1,2,0:0:0:0:
307,86,48375,1,0,0:0:0:0:
272,98,48447,1,0,0:0:0:0:
246,124,48518,1,0,0:0:0:0:
226,156,48589,5,2,0:0:0:0:
210,189,48661,1,0,0:0:0:0:
218,224,48732,1,0,0:0:0:0:
248,246,48804,1,0,0:0:0:0:
284,244,48875,1,2,0:0:0:0:
311,219,48947,1,0,0:0:0:0:
316,183,49018,1,0,0:0:0:0:
297,152,49089,1,0,0:0:0:0:
267,128,49161,5,2,0:0:0:0:
229,129,49232,1,0,0:0:0:0:
193,119,49304,1,0,0:0:0:0:
162,98,49375,1,0,0:0:0:0:
144,65,49447,1,2,0:0:0:0:
148,102,49518,1,0,0:0:0:0:
153,139,49589,1,0,0:0:0:0:
157,176,49661,1,0,0:0:0:0:
163,213,49732,5,2,0:0:0:0:
190,237,49804,1,0,0:0:0:0:
225,251,49875,1,0,0:0:0:0:
262,250,49947,1,0,0:0:0:0:
296,235,50018,1,2,0:0:0:0:
326,214,50089,1,0,0:0:0:0:
363,210,50161,1,0,0:0:0:0:
397,224,50232,1,0,0:0:0:0:
417,257,50304,5,2,0:0:0:0:
386,277,50375,1,0,0:0:0:0:
349,278,50447,1,0,0:0:0:0:
317,260,50518,1,0,0:0:0:0:
299,227,50589,1,2,0:0:0:0:
301,190,50661,1,0,0:0:0:0:
322,160,50732,1,0,0:0:0:0:
356,145,50804,1,0,0:0:0:0:
393,153,50875,5,2,0:0:0:0:
370,123,50947,1,0,0:0:0:0:
359,87,51018,1,0,0:0:0:0:
361,50,51089,1,0,0:0:0:0:
385,21,51161,1,2,0:0:0:0:
347,25,51232,1,0,0:0:0:0:
310,29,51304,1,0,0:0:0:0:
273,33,51375,1,0,0:0:0:0:
235,38,51447,5,2,0:0:0:0:
209,65,51518,1,0,0:0:0:0:
176,82,51589,1,0,0:0:0:0:
140,88,51661,1,0,0:0:0:0:
103,79,51732,1,2,0:0:0:0:
111,115,51804,1,0,0:0:0:0:
120,151,51875,1,0,0:0:0:0:
129,188,51947,1,0,0:0:0:0:
137,224,52018,5,2,0:0:0:0:
130,259,52089,1,0,0:0:0:0:
100,280,52161,1,0,0:0:0:0:
64,271,52232,1,0,0:0:0:0:
45,239,52304,1,2,0:0:0:0:
64,207,52375,1,0,0:0:0:0:
95,186,52447,1,0,0:0:0:0:
131,179,52518,1,0,0:0:0:0:
168,188,52589,5,2,0:0:0:0:
197,211,52661,1,0,0:0:0:0:
215,244,52732,1,0,0:0:0:0:
217,281,52804,1,0,0:0:0:0:
205,316,52875,1,2,0:0:0:0:
179,343,52947,1,0,0:0:0:0:
145,357,53018,1,0,0:0:0:0:
107,355,53089,1,0,0:0:0:0:
71,345,53161,5,2,0:0:0:0:
61,342,53232,1,0,0:0:0:0:
53,337,53304,1,0,0:0:0:0:
47,331,53375,1,0,0:0:0:0:
43,322,53447,1,2,0:0:0:0:
41,313,53518,1,0,0:0:0:0:
42,304,53589,1,0,0:0:0:0:
45,295,53661,1,0,0:0:0:0:
51,288,53732,5,2,0:0:0:0:
59,283,53804,1,0,0:0:0:0:
67,280,53875,1,0,0:0:0:0:
77,279,53947,1,0,0:0:0:0:
86,281,54018,1,2,0:0:0:0:
94,286,54089,1,0,0:0:0:0:
100,293,54161,1,0,0:0:0:0:
105,301,54232,1,0,0:0:0:0:
107,311,54304,6,0,L|157:313,7,37.5
211,286,54875,6,0,L|229:287,7,18.75
317,316,55161,5,6,0:0:0:0:
309,278,55232,1,6,0:0:0:0:
301,241,55304,1,6,0:0:0:0:
293,204,55375,1,6,0:0:0:0:
285,166,55447,5,6,0:1:0:0:
249,177,55518,1,0,0:0:0:0:
212,174,55589,1,4,0:0:0:0:
178,159,55661,1,0,0:0:0:0:
158,127,55732,1,2,0:0:0:0:
165,90,55804,1,0,0:0:0:0:
186,59,55875,1,4,0:0:0:0:
217,38,55947,1,0,0:0:0:0:
253,31,56018,5,2,0:0:0:0:
290,38,56089,1,0,0:0:0:0:
321,58,56161,1,4,0:0:0:0:
343,88,56232,1,0,0:0:0:0:
351,124,56304,1,2,0:0:0:0:
345,161,56375,1,0,0:0:0:0:
326,193,56447,1,4,0:0:0:0:
296,215,56518,1,0,0:0:0:0:
258,220,56589,5,2,0:0:0:0:
223,205,56661,1,0,0:0:0:0:
186,197,56732,1,4,0:0:0:0:
149,196,56804,1,0,0:0:0:0:
113,206,56875,1,2,0:0:0:0:
85,230,56947,1,0,0:0:0:0:
71,265,57018,1,4,0:0:0:0:
75,302,57089,1,0,0:0:0:0:
96,332,57161,5,2,0:0:0:0:
129,350,57232,1,0,0:0:0:0:
166,350,57304,1,4,0:0:0:0:
199,333,57375,1,0,0:0:0:0:
210,297,57447,1,2,0:0:0:0:
205,259,57518,1,0,0:0:0:0:
200,222,57589,1,4,0:0:0:0:
195,185,57661,1,0,0:0:0:0:
160,170,57732,5,2,0:0:0:0:
126,154,57804,1,0,0:0:0:0:
111,121,57875,1,4,0:0:0:0:
122,86,57947,1,0,0:0:0:0:
154,67,58018,1,2,0:0:0:0:
124,44,58089,1,0,0:0:0:0:
87,42,58161,1,4,0:0:0:0:
55,61,58232,1,0,0:0:0:0:
46,98,58304,5,2,0:0:0:0:
51,134,58375,1,0,0:0:0:0:
69,167,58447,1,4,0:0:0:0:
98,191,58518,1,0,0:0:0:0:
133,204,58589,1,2,0:0:0:0:
170,204,58661,1,0,0:0:0:0:
205,191,58732,1,4,0:0:0:0:
233,166,58804,1,0,0:0:0:0:
263,143,58875,5,2,0:0:0:0:
299,136,58947,1,0,0:0:0:0:
335,146,59018,1,4,0:0:0:0:
363,170,59089,1,0,0:0:0:0:
384,202,59161,2,0,P|410:221|434:227,3,37.5,2|0|4|0,0:0|0:0|0:0|0:0,0:0:0:0:
259,343,59447,5,2,0:0:0:0:
271,307,59518,1,0,0:0:0:0:
277,270,59589,1,4,0:0:0:0:
276,233,59661,1,0,0:0:0:0:
267,196,59732,2,0,L|218:189,3,37.5,2|0|4|0,0:0|0:0|0:0|0:0,0:0:0:0:
107,156,60018,5,2,0:0:0:0:
70,155,60089,1,0,0:0:0:0:
40,134,60161,1,4,0:0:0:0:
29,99,60232,1,0,0:0:0:0:
41,64,60304,1,2,0:0:0:0:
71,43,60375,1,0,0:0:0:0:
108,44,60447,1,4,0:0:0:0:
137,67,60518,1,0,0:0:0:0:
159,97,60589,5,2,0:0:0:0:
183,125,60661,1,0,0:0:0:0:
218,137,60732,1,4,0:0:0:0:
254,129,60804,1,0,0:0:0:0:
282,105,60875,1,2,0:0:0:0:
294,70,60947,1,0,0:0:0:0:
291,33,61018,2,0,L|359:47,1,37.5,4|0,0:0|0:0,0:0:0:0:
181,71,61161,5,2,0:0:0:0:
143,72,61232,1,0,0:0:0:0:
109,57,61304,1,4,0:0:0:0:
73,47,61375,1,0,0:0:0:0:
36,45,61447,1,2,0:0:0:0:
13,72,61518,1,0,0:0:0:0:
22,110,61589,2,0,L|72:118,1,37.5,4|0,0:0|0:0,0:0:0:0:
237,171,61732,5,2,0:0:0:0:
269,189,61804,1,0,0:0:0:0:
306,190,61875,1,4,0:0:0:0:
338,171,61947,1,0,0:0:0:0:
367,148,62018,2,0,L|420:159,3,37.5,2|0|4|0,0:0|0:0|0:0|0:0,0:0:0:0:
254,87,62304,5,2,0:0:0:0:
221,69,62375,1,0,0:0:0:0:
184,64,62447,1,4,0:0:0:0:
147,72,62518,1,0,0:0:0:0:
114,90,62589,2,0,L|121:153,1,37.5,2|0,0:0|0:0,0:0:0:0:
274,209,62732,2,0,L|266:201|263:198|259:194|255:190|252:187|248:183|244:179|241:176|237:172|233:168|230:209,1,37.5,4|0,0:0|0:0,0:0:0:0:
68,249,62875,6,0,L|133:260,1,37.5,2|0,0:0|0:0,0:0:0:0:
274,209,63018,2,0,L|344:218,1,37.5,4|0,0:0|0:0,0:0:0:0:
155,124,63161,2,0,L|101:128,1,37.5,2|0,0:0|0:0,0:0:0:0:
349,39,63304,2,0,L|351:99,1,37.5,4|0,0:0|0:0,0:0:0:0:
199,243,63447,6,0,L|173:241,6,18.75,2|0|0|0|4|0|0,0:0|0:0|0:0|0:0|0:0|0:0|0:0,0:0:0:0:
412,304,63732,2,0,L|419:336,6,18.75,2|0|0|0|4|0|0,0:0|0:0|0:0|0:0|0:0|0:0|0:0,0:0:0:0:
298,147,64018,5,2,0:0:0:0:
262,158,64089,1,0,0:0:0:0:
226,152,64161,1,4,0:0:0:0:
197,129,64232,1,0,0:0:0:0:
178,96,64304,1,2,0:0:0:0:
164,62,64375,1,0,0:0:0:0:
133,42,64447,1,4,0:0:0:0:
96,44,64518,1,0,0:0:0:0:
63,63,64589,5,6,0:1:0:0:
71,99,64661,1,0,0:0:0:0:
94,127,64732,1,4,0:0:0:0:
128,143,64804,1,0,0:0:0:0:
165,142,64875,1,2,0:0:0:0:
198,124,64947,1,0,0:0:0:0:
220,94,65018,1,4,0:0:0:0:
226,57,65089,1,0,0:0:0:0:
210,23,65161,5,2,0:0:0:0:
247,25,65232,1,0,0:0:0:0:
284,28,65304,1,4,0:0:0:0:
322,31,65375,1,0,0:0:0:0:
359,35,65447,2,0,L|355:89,3,37.5,2|0|4|0,0:0|0:0|0:0|0:0,0:0:0:0:
468,208,65732,5,2,0:0:0:0:
433,222,65804,1,0,0:0:0:0:
396,223,65875,1,4,0:0:0:0:
362,208,65947,1,0,0:0:0:0:
337,180,66018,1,2,0:0:0:0:
325,145,66089,1,0,0:0:0:0:
325,108,66161,2,0,L|390:107,1,37.5,4|0,0:0|0:0,0:0:0:0:
181,145,66304,5,2,0:0:0:0:
147,161,66375,1,0,0:0:0:0:
110,159,66447,1,4,0:0:0:0:
70,150,66518,1,0,0:0:0:0:
39,171,66589,1,2,0:0:0:0:
22,204,66661,1,0,0:0:0:0:
17,242,66732,2,0,L|81:248,1,37.5,4|0,0:0|0:0,0:0:0:0:
225,297,66875,6,0,L|279:293,3,37.5,2|0|4|0,0:0|0:0|0:0|0:0,0:0:0:0:
299,286,67161,1,2,0:0:0:0:
332,270,67232,1,0,0:0:0:0:
366,284,67304,1,4,0:0:0:0:
379,318,67375,1,0,0:0:0:0:
371,354,67447,5,2,0:0:0:0:
365,316,67518,1,0,0:0:0:0:
359,279,67589,1,4,0:0:0:0:
353,242,67661,1,0,0:0:0:0:
349,205,67732,2,0,L|400:203,3,37.5,2|0|4|0,0:0|0:0|0:0|0:0,0:0:0:0:
254,97,68018,5,2,0:0:0:0:
219,83,68089,1,0,0:0:0:0:
183,90,68161,1,4,0:0:0:0:
156,116,68232,1,0,0:0:0:0:
148,152,68304,1,2,0:0:0:0:
160,187,68375,1,0,0:0:0:0:
188,213,68447,2,0,L|176:277,1,37.5,4|0,0:0|0:0,0:0:0:0:
355,301,68589,5,2,0:0:0:0:
317,301,68661,1,0,0:0:0:0:
281,310,68732,1,4,0:0:0:0:
245,322,68804,1,0,0:0:0:0:
209,333,68875,1,2,0:0:0:0:
172,338,68947,1,0,0:0:0:0:
135,334,69018,2,0,L|75:334,1,37.5,4|0,0:0|0:0,0:0:0:0:
243,183,69161,6,0,L|307:176,1,37.5,2|0,0:0|0:0,0:0:0:0:
44,92,69304,2,0,L|89:100,1,37.5,4|0,0:0|0:0,0:0:0:0:
237,4,69447,1,2,0:0:0:0:
205,22,69518,1,0,0:0:0:0:
196,57,69589,1,4,0:0:0:0:
215,89,69661,1,0,0:0:0:0:
245,111,69732,6,0,L|303:109,1,37.5,2|0,0:0|0:0,0:0:0:0:
463,156,69875,2,0,L|411:157,1,37.5,4|0,0:0|0:0,0:0:0:0:
99,214,70018,2,0,L|167:217,1,37.5,2|0,0:0|0:0,0:0:0:0:
351,264,70161,2,0,L|282:266,1,37.5,4|0,0:0|0:0,0:0:0:0:
174,129,70304,5,2,0:0:0:0:
158,95,70375,1,0,0:0:0:0:
165,59,70447,1,4,0:0:0:0:
192,34,70518,1,0,0:0:0:0:
229,30,70589,1,2,0:0:0:0:
261,48,70661,1,0,0:0:0:0:
276,83,70732,2,0,P|290:66|316:57,1,37.5,4|0,0:0|0:0,0:0:0:0:
465,199,70875,6,0,P|433:206|414:206,1,37.5,2|0,0:0|0:0,0:0:0:0:
390,304,71018,2,0,P|368:280|358:263,1,37.5,4|0,0:0|0:0,0:0:0:0:
256,337,71161,2,0,P|266:306|275:289,1,37.5,2|0,0:0|0:0,0:0:0:0:
143,270,71304,2,0,P|175:264|195:263,1,37.5,4|0,0:0|0:0,0:0:0:0:
286,211,71447,5,2,1:0:0:0:
51,81,71732,5,2,0:0:0:0:
477,147,71875,1,2,1:0:0:0:
74,149,72304,6,2,L|156:170,2,75,2|2|2,1:0|1:0|1:0,1:0:0:0:
482,201,72875,5,2,1:0:0:0:
257,13,73161,6,0,L|250:86,2,65.625,0|0|8,0:0|0:0|0:0,0:0:0:0:
232,267,73572,1,8,0:0:0:0:
199,227,73732,5,6,0:1:0:0:
156,209,73804,1,0,0:0:0:0:
111,218,73875,1,0,0:0:0:0:
80,252,73947,1,0,0:0:0:0:
49,288,74018,1,8,0:0:0:0:
51,241,74089,1,0,0:0:0:0:
53,194,74161,1,0,0:0:0:0:
55,147,74232,1,0,0:0:0:0:
59,100,74304,5,2,0:1:0:0:
87,63,74375,1,0,0:0:0:0:
131,48,74447,1,0,0:0:0:0:
176,59,74518,1,0,0:0:0:0:
208,92,74589,1,8,0:0:0:0:
218,137,74661,1,0,0:0:0:0:
202,180,74732,1,0,0:0:0:0:
165,208,74804,1,0,0:0:0:0:
118,208,74875,6,0,L|47:213,1,46.875,2|0,0:1|0:0,0:0:0:0:
356,129,75018,2,0,L|399:132,2,23.4375
178,47,75161,1,8,0:0:0:0:
131,43,75232,1,0,0:0:0:0:
92,67,75304,1,0,0:0:0:0:
73,109,75375,1,0,0:0:0:0:
74,156,75447,6,0,L|137:159,1,46.875,2|0,0:1|0:0,0:0:0:0:
304,132,75589,2,0,L|367:135,1,46.875
28,227,75732,6,0,L|91:230,1,46.875,8|0,0:0|0:0,0:0:0:0:
258,203,75875,2,0,L|321:206,1,46.875
128,347,76018,6,0,P|114:328|114:297,1,46.875,2|0,0:1|0:0,0:0:0:0:
402,227,76161,2,0,B|403:217|403:217|406:208,3,15.625
382,253,76304,1,8,0:0:0:0:
344,278,76375,1,0,0:0:0:0:
299,270,76447,1,4,0:0:0:0:
273,233,76518,1,0,0:0:0:0:
240,199,76589,5,2,0:1:0:0:
198,179,76661,1,0,0:0:0:0:
152,185,76732,1,4,0:0:0:0:
116,214,76804,1,0,0:0:0:0:
96,256,76875,2,0,P|139:265|172:262,1,46.875,12|0,0:0|0:0,0:0:0:0:
211,72,77018,2,0,P|168:81|135:78,1,46.875,4|0,0:0|0:0,0:0:0:0:
217,72,77161,5,2,0:1:0:0:
223,71,77232,1,0,0:0:0:0:
230,72,77304,1,0,0:0:0:0:
236,74,77375,1,0,0:0:0:0:
242,77,77447,1,8,0:0:0:0:
246,82,77518,1,0,0:0:0:0:
250,88,77589,1,0,0:0:0:0:
252,94,77661,1,0,0:0:0:0:
251,99,77732,5,2,0:1:0:0:
235,112,77804,1,0,0:0:0:0:
225,129,77875,1,0,0:0:0:0:
221,148,77947,1,0,0:0:0:0:
224,171,78018,1,8,0:0:0:0:
249,209,78089,1,0,0:0:0:0:
291,229,78161,1,0,0:0:0:0:
337,222,78232,1,0,0:0:0:0:
380,204,78304,6,0,L|446:213,1,46.875,6|0,0:1|0:0,0:0:0:0:
299,114,78447,2,0,L|233:123,1,46.875
205,119,78589,1,8,0:0:0:0:
162,101,78661,1,0,0:0:0:0:
119,118,78732,1,0,0:0:0:0:
99,158,78804,1,0,0:0:0:0:
115,202,78875,5,2,0:1:0:0:
83,235,78947,1,0,0:0:0:0:
83,281,79018,1,0,0:0:0:0:
114,314,79089,1,0,0:0:0:0:
160,301,79161,1,8,0:0:0:0:
180,342,79232,1,0,0:0:0:0:
220,364,79304,1,0,0:0:0:0:
266,360,79375,1,0,0:0:0:0:
297,325,79447,5,6,0:1:0:0:
276,283,79518,1,0,0:0:0:0:
284,238,79589,1,0,0:0:0:0:
316,205,79661,1,0,0:0:0:0:
362,197,79732,1,8,0:0:0:0:
403,217,79804,1,0,0:0:0:0:
426,258,79875,1,0,0:0:0:0:
420,303,79947,1,0,0:0:0:0:
387,337,80018,6,0,L|317:328,1,46.875,6|0,0:1|0:0,0:0:0:0:
163,336,80161,2,0,L|118:348,1,46.875,4|0,0:0|0:0,0:0:0:0:
393,319,80304,6,0,L|323:310,1,46.875,8|0,0:0|0:0,0:0:0:0:
169,318,80447,2,0,L|124:330,1,46.875,4|0,0:0|0:0,0:0:0:0:
64,73,80589,5,2,0:1:0:0:
68,74,80661,1,0,0:0:0:0:
76,76,80732,1,0,0:0:0:0:
89,80,80804,1,0,0:0:0:0:
106,84,80875,1,0,0:0:0:0:
128,90,80947,1,0,0:0:0:0:
154,97,81018,1,0,0:0:0:0:
186,106,81089,1,0,0:0:0:0:
222,115,81161,6,0,L|203:185,1,46.875,2|0,0:1|0:0,0:0:0:0:
404,93,81304,2,0,L|389:149,1,46.875
266,285,81447,5,0,0:0:0:0:
243,279,81518,1,0,0:0:0:0:
217,272,81589,1,0,0:0:0:0:
185,264,81661,1,0,0:0:0:0:
153,256,81732,6,0,P|94:273|63:186,1,140.625,2|0,0:1|0:0,0:0:0:0:
122,183,82018,2,0,P|181:166|212:253,1,140.625,2|0,0:1|0:0,0:0:0:0:
229,315,82304,6,0,P|230:260|217:211,1,93.75,2|8,0:1|0:0,0:0:0:0:
45,123,82590,2,0,P|44:178|57:227,1,93.75,2|8,0:1|0:0,0:0:0:0:
139,181,82875,5,6,0:1:0:0:
145,181,82947,1,0,0:0:0:0:
152,181,83018,1,0,0:0:0:0:
159,182,83089,1,0,0:0:0:0:
165,183,83161,1,8,0:0:0:0:
172,184,83232,1,0,0:0:0:0:
178,186,83304,1,0,0:0:0:0:
184,188,83375,1,0,0:0:0:0:
188,191,83447,5,2,0:1:0:0:
221,222,83518,1,0,0:0:0:0:
266,219,83589,1,0,0:0:0:0:
295,183,83661,1,0,0:0:0:0:
288,138,83732,1,8,0:0:0:0:
250,112,83804,1,0,0:0:0:0:
205,123,83875,2,0,L|135:109,1,46.875
29,21,84018,5,2,0:1:0:0:
38,67,84089,1,0,0:0:0:0:
46,112,84161,2,0,L|97:100,1,46.875
200,129,84304,5,8,0:0:0:0:
191,175,84375,1,0,0:0:0:0:
183,220,84447,2,0,L|132:208,1,46.875
287,324,84589,5,2,0:1:0:0:
303,315,84661,1,0,0:0:0:0:
321,311,84732,1,0,0:0:0:0:
340,310,84804,1,0,0:0:0:0:
359,314,84875,1,8,0:0:0:0:
376,321,84947,1,0,0:0:0:0:
392,331,85018,2,0,L|457:338,1,46.875
385,141,85161,6,0,L|301:139,1,46.875,6|0,0:1|0:0,0:0:0:0:
111,118,85447,2,8,L|217:118,1,93.75,8|2,0:0|0:0,0:0:0:0:
385,141,85732,6,0,L|301:139,1,46.875,6|0,0:1|0:0,0:0:0:0:
157,212,85875,2,0,L|241:210,1,46.875,6|0,0:1|0:0,0:0:0:0:
324,266,86018,1,8,0:0:0:0:
331,275,86089,1,0,0:0:0:0:
337,285,86161,1,0,0:0:0:0:
341,296,86232,1,0,0:0:0:0:
338,310,86304,5,2,0:1:0:0:
300,337,86375,1,0,0:0:0:0:
254,336,86447,1,4,0:0:0:0:
218,307,86518,1,0,0:0:0:0:
207,263,86589,1,8,0:0:0:0:
225,220,86661,1,0,0:0:0:0:
265,198,86732,1,4,0:0:0:0:
311,204,86804,1,0,0:0:0:0:
345,237,86875,5,2,0:1:0:0:
301,252,86947,1,0,0:0:0:0:
254,246,87018,1,4,0:0:0:0:
215,221,87089,1,0,0:0:0:0:
191,181,87161,1,8,0:0:0:0:
184,227,87232,1,0,0:0:0:0:
159,266,87304,1,4,0:0:0:0:
121,291,87375,1,0,0:0:0:0:
74,299,87447,6,0,L|5:295,3,46.875,6|0|0|0,0:1|0:0|0:0|0:0,0:0:0:0:
195,344,87732,1,8,0:0:0:0:
166,307,87804,1,0,0:0:0:0:
169,262,87875,1,0,0:0:0:0:
202,230,87947,1,0,0:0:0:0:
228,191,88018,5,2,0:1:0:0:
234,145,88089,1,0,0:0:0:0:
209,108,88161,1,0,0:0:0:0:
164,98,88232,1,0,0:0:0:0:
125,122,88304,1,8,0:0:0:0:
113,166,88375,1,0,0:0:0:0:
134,206,88447,1,0,0:0:0:0:
177,221,88518,1,0,0:0:0:0:
221,202,88589,5,6,0:1:0:0:
265,187,88661,1,0,0:0:0:0:
309,200,88732,1,0,0:0:0:0:
337,236,88804,1,0,0:0:0:0:
341,282,88875,1,8,0:0:0:0:
363,241,88947,1,0,0:0:0:0:
401,214,89018,1,0,0:0:0:0:
447,206,89089,1,0,0:0:0:0:
493,214,89161,5,2,0:1:0:0:
459,182,89232,1,0,0:0:0:0:
446,137,89304,1,0,0:0:0:0:
458,93,89375,1,0,0:0:0:0:
488,57,89447,1,8,0:0:0:0:
441,55,89518,1,0,0:0:0:0:
394,53,89589,1,0,0:0:0:0:
347,51,89661,1,0,0:0:0:0:
300,52,89732,5,2,0:1:0:0:
290,61,89804,1,0,0:0:0:0:
279,69,89875,1,4,0:0:0:0:
267,75,89947,1,0,0:0:0:0:
254,79,90018,1,8,0:0:0:0:
241,81,90089,1,0,0:0:0:0:
228,81,90161,1,4,0:0:0:0:
215,78,90232,1,0,0:0:0:0:
192,70,90304,5,2,0:1:0:0:
148,54,90375,1,0,0:0:0:0:
105,69,90447,1,4,0:0:0:0:
81,108,90518,1,0,0:0:0:0:
87,153,90589,1,8,0:0:0:0:
121,185,90661,1,0,0:0:0:0:
167,188,90732,1,4,0:0:0:0:
204,161,90804,1,0,0:0:0:0:
216,115,90875,6,0,P|216:87|231:55,1,46.875,2|0,0:1|0:0,0:0:0:0:
419,113,91018,2,0,L|361:105,1,46.875,4|0,0:0|0:0,0:0:0:0:
304,226,91161,1,8,0:0:0:0:
299,240,91232,1,0,0:0:0:0:
297,256,91304,1,4,0:0:0:0:
300,271,91375,1,0,0:0:0:0:
305,285,91447,6,0,L|226:280,1,46.875,2|0,0:1|0:0,0:0:0:0:
83,319,91589,2,0,L|76:259,1,46.875,4|0,0:0|0:0,0:0:0:0:
205,173,91732,1,8,0:0:0:0:
189,170,91804,1,0,0:0:0:0:
174,168,91875,1,4,0:0:0:0:
158,166,91947,1,0,0:0:0:0:
144,162,92018,6,0,L|69:188,1,46.875,6|0,0:1|0:0,0:0:0:0:
273,343,92161,2,0,L|260:274,1,46.875,4|0,0:0|0:0,0:0:0:0:
407,142,92304,2,0,L|416:92,3,46.875,8|0|4|0,0:0|0:0|0:0|0:0,0:0:0:0:
286,154,92589,5,2,0:1:0:0:
239,157,92661,1,0,0:0:0:0:
200,133,92732,1,4,0:0:0:0:
181,91,92804,1,0,0:0:0:0:
187,45,92875,1,8,0:0:0:0:
229,62,92947,1,0,0:0:0:0:
253,101,93018,1,4,0:0:0:0:
249,147,93089,1,0,0:0:0:0:
218,181,93161,5,2,0:1:0:0:
172,189,93232,1,0,0:0:0:0:
131,169,93304,1,4,0:0:0:0:
110,128,93375,1,0,0:0:0:0:
123,82,93447,1,8,0:0:0:0:
104,125,93518,1,0,0:0:0:0:
85,168,93589,1,4,0:0:0:0:
67,211,93661,1,0,0:0:0:0:
47,253,93732,5,2,0:1:0:0:
47,298,93804,1,0,0:0:0:0:
61,338,93875,1,4,0:0:0:0:
103,356,93947,1,0,0:0:0:0:
147,344,94018,1,8,0:0:0:0:
175,308,94089,1,0,0:0:0:0:
175,262,94161,1,4,0:0:0:0:
146,225,94232,1,0,0:0:0:0:
98,226,94304,6,0,L|80:157,1,46.875,2|0,0:1|0:0,0:0:0:0:
235,125,94447,2,0,L|249:65,1,46.875,4|0,0:0|0:0,0:0:0:0:
94,26,94589,1,8,0:0:0:0:
109,24,94661,1,0,0:0:0:0:
125,22,94732,1,4,0:0:0:0:
140,21,94804,1,0,0:0:0:0:
154,22,94875,6,0,L|210:29,1,46.875,2|0,0:1|0:0,0:0:0:0:
396,114,95018,2,0,L|417:165,1,46.875,4|0,0:0|0:0,0:0:0:0:
460,320,95161,1,8,0:0:0:0:
456,335,95232,1,0,0:0:0:0:
448,348,95304,1,4,0:0:0:0:
437,359,95375,1,0,0:0:0:0:
422,357,95447,5,2,0:1:0:0:
384,328,95518,1,0,0:0:0:0:
340,314,95589,1,4,0:0:0:0:
293,315,95661,1,0,0:0:0:0:
248,329,95732,1,8,0:0:0:0:
203,322,95804,1,0,0:0:0:0:
181,282,95875,1,4,0:0:0:0:
200,241,95947,1,0,0:0:0:0:
242,223,96018,5,2,0:1:0:0:
280,248,96089,1,0,0:0:0:0:
326,247,96161,1,4,0:0:0:0:
362,219,96232,1,0,0:0:0:0:
374,174,96304,1,8,0:0:0:0:
358,131,96375,1,0,0:0:0:0:
319,106,96447,1,4,0:0:0:0:
273,109,96518,1,0,0:0:0:0:
231,132,96589,6,0,L|157:144,1,46.875,2|0,0:1|0:0,0:0:0:0:
71,97,96732,2,0,L|-3:109,1,46.875,4|0,0:0|0:0,0:0:0:0:
266,209,96875,6,0,L|192:221,1,46.875,8|0,0:0|0:0,0:0:0:0:
106,174,97018,2,0,L|32:186,1,46.875,4|0,0:0|0:0,0:0:0:0:
301,280,97161,5,2,0:1:0:0:
294,281,97232,1,0,0:0:0:0:
287,282,97304,1,4,0:0:0:0:
281,283,97375,1,0,0:0:0:0:
274,284,97447,1,8,0:0:0:0:
267,285,97518,1,0,0:0:0:0:
261,286,97589,1,4,0:0:0:0:
254,287,97661,1,0,0:0:0:0:
249,288,97732,5,2,0:1:0:0:
230,295,97804,1,0,0:0:0:0:
210,295,97875,1,4,0:0:0:0:
191,288,97947,1,0,0:0:0:0:
176,275,98018,1,8,0:0:0:0:
166,258,98089,1,0,0:0:0:0:
163,238,98161,1,4,0:0:0:0:
167,218,98232,1,0,0:0:0:0:
181,199,98304,5,2,0:1:0:0:
221,220,98375,1,0,0:0:0:0:
267,211,98447,1,4,0:0:0:0:
298,177,98518,1,0,0:0:0:0:
301,131,98589,1,8,0:0:0:0:
276,93,98661,1,0,0:0:0:0:
232,78,98732,1,4,0:0:0:0:
189,92,98804,1,0,0:0:0:0:
153,123,98875,5,2,0:1:0:0:
111,141,98947,1,0,0:0:0:0:
67,128,99018,1,4,0:0:0:0:
43,89,99089,1,0,0:0:0:0:
39,42,99161,1,8,0:0:0:0:
84,31,99232,1,0,0:0:0:0:
129,42,99304,1,4,0:0:0:0:
164,73,99375,1,0,0:0:0:0:
173,119,99447,5,2,0:1:0:0:
154,161,99518,1,0,0:0:0:0:
158,207,99589,1,4,0:0:0:0:
184,246,99661,1,0,0:0:0:0:
226,266,99732,1,8,0:0:0:0:
272,265,99804,1,0,0:0:0:0:
312,241,99875,1,4,0:0:0:0:
335,201,99947,1,0,0:0:0:0:
335,153,100018,5,2,0:1:0:0:
363,189,100089,1,0,0:0:0:0:
404,212,100161,1,4,0:0:0:0:
450,218,100232,1,0,0:0:0:0:
497,210,100304,1,8,0:0:0:0:
493,163,100375,1,0,0:0:0:0:
489,116,100447,1,4,0:0:0:0:
486,69,100518,1,0,0:0:0:0:
483,22,100590,6,0,L|414:16,3,46.875,2|0|4|0,0:1|0:0|0:0|0:0,0:0:0:0:
314,77,100875,2,0,L|383:71,3,46.875,8|0|4|0,0:0|0:0|0:0|0:0,0:0:0:0:
277,184,101161,5,6,0:1:0:0:
234,201,101232,1,0,0:0:0:0:
188,197,101304,1,4,0:0:0:0:
149,170,101375,1,0,0:0:0:0:
108,148,101447,1,8,0:0:0:0:
68,170,101518,1,0,0:0:0:0:
59,215,101589,1,4,0:0:0:0:
88,250,101661,1,0,0:0:0:0:
133,262,101732,5,2,0:1:0:0:
174,241,101804,1,0,0:0:0:0:
199,202,101875,1,4,0:0:0:0:
199,156,101947,1,0,0:0:0:0:
175,116,102018,1,8,0:0:0:0:
133,96,102089,1,0,0:0:0:0:
87,100,102161,1,4,0:0:0:0:
50,128,102232,1,0,0:0:0:0:
46,175,102304,5,2,0:1:0:0:
42,222,102375,1,0,0:0:0:0:
38,268,102447,1,4,0:0:0:0:
34,315,102518,1,0,0:0:0:0:
28,361,102589,1,8,0:0:0:0:
73,367,102661,1,0,0:0:0:0:
111,341,102732,1,4,0:0:0:0:
122,297,102804,1,0,0:0:0:0:
108,252,102875,5,2,0:1:0:0:
144,222,102947,1,0,0:0:0:0:
188,209,103018,1,4,0:0:0:0:
234,214,103089,1,0,0:0:0:0:
276,236,103161,1,8,0:0:0:0:
311,266,103232,1,0,0:0:0:0:
356,281,103304,1,4,0:0:0:0:
402,279,103375,1,0,0:0:0:0:
442,254,103447,5,2,0:1:0:0:
455,209,103518,1,0,0:0:0:0:
439,166,103589,1,4,0:0:0:0:
401,140,103661,1,0,0:0:0:0:
355,142,103732,1,8,0:0:0:0:
319,171,103804,1,0,0:0:0:0:
307,216,103875,1,4,0:0:0:0:
324,258,103947,1,0,0:0:0:0:
361,287,104018,5,2,0:1:0:0:
316,301,104089,1,0,0:0:0:0:
270,297,104161,1,4,0:0:0:0:
228,276,104232,1,0,0:0:0:0:
186,254,104304,1,8,0:0:0:0:
142,237,104375,1,0,0:0:0:0:
95,235,104447,1,4,0:0:0:0:
50,247,104518,1,0,0:0:0:0:
17,281,104589,6,0,L|36:202,1,46.875,2|0,0:1|0:0,0:0:0:0:
60,116,104732,2,0,L|72:70,1,46.875,4|0,0:0|0:0,0:0:0:0:
207,361,104875,6,0,L|185:283,1,46.875,8|0,0:0|0:0,0:0:0:0:
161,196,105018,2,0,L|149:150,1,46.875,4|0,0:0|0:0,0:0:0:0:
285,55,105161,5,2,0:1:0:0:
291,100,105232,1,0,0:0:0:0:
323,133,105304,1,4,0:0:0:0:
369,140,105375,1,0,0:0:0:0:
412,122,105447,1,8,0:0:0:0:
446,152,105518,1,0,0:0:0:0:
456,197,105589,1,4,0:0:0:0:
436,238,105661,1,0,0:0:0:0:
392,257,105732,5,2,0:1:0:0:
348,241,105804,1,0,0:0:0:0:
302,247,105875,1,4,0:0:0:0:
263,273,105947,1,0,0:0:0:0:
223,297,106018,1,8,0:0:0:0:
179,281,106089,1,0,0:0:0:0:
145,249,106161,1,4,0:0:0:0:
127,206,106232,1,0,0:0:0:0:
134,159,106304,5,2,0:1:0:0:
160,121,106375,1,0,0:0:0:0:
203,103,106447,1,4,0:0:0:0:
249,111,106518,1,0,0:0:0:0:
283,143,106589,1,8,0:0:0:0:
295,187,106661,1,0,0:0:0:0:
282,231,106732,1,4,0:0:0:0:
247,262,106804,1,0,0:0:0:0:
201,272,106875,5,2,0:1:0:0:
156,257,106947,1,0,0:0:0:0:
111,267,107018,1,4,0:0:0:0:
78,299,107089,1,0,0:0:0:0:
59,342,107161,1,8,0:0:0:0:
68,296,107232,1,0,0:0:0:0:
60,250,107304,1,4,0:0:0:0:
35,210,107375,1,0,0:0:0:0:
0,179,107447,6,0,L|56:175,1,46.875,2|0,0:1|0:0,0:0:0:0:
193,152,107589,2,0,L|249:148,1,46.875,4|0,0:0|0:0,0:0:0:0:
114,234,107732,6,0,L|170:230,1,46.875,8|0,0:0|0:0,0:0:0:0:
307,207,107875,2,0,L|363:203,1,46.875,4|0,0:0|0:0,0:0:0:0:
499,185,108018,5,2,0:1:0:0:
461,158,108089,1,0,0:0:0:0:
446,114,108161,1,4,0:0:0:0:
460,70,108232,1,0,0:0:0:0:
495,38,108304,1,8,0:0:0:0:
448,34,108375,1,0,0:0:0:0:
401,30,108447,1,4,0:0:0:0:
354,27,108518,1,0,0:0:0:0:
307,24,108589,5,2,0:1:0:0:
262,9,108661,1,0,0:0:0:0:
217,17,108732,1,4,0:0:0:0:
180,45,108804,1,0,0:0:0:0:
161,87,108875,1,8,0:0:0:0:
163,133,108947,1,0,0:0:0:0:
187,173,109018,1,4,0:0:0:0:
227,197,109089,1,0,0:0:0:0:
274,199,109161,5,2,0:1:0:0:
287,145,109232,1,0,0:0:0:0:
322,103,109304,1,4,0:0:0:0:
372,81,109375,1,0,0:0:0:0:
427,83,109447,1,8,0:0:0:0:
475,109,109518,1,0,0:0:0:0:
508,153,109589,1,4,0:0:0:0:
512,207,109661,1,0,0:0:0:0:
501,260,109732,5,2,0:1:0:0:
464,300,109804,1,0,0:0:0:0:
413,321,109875,1,4,0:0:0:0:
359,316,109947,1,0,0:0:0:0:
302,320,110018,2,0,L|213:327,1,46.875,8|0,0:0|0:0,0:0:0:0:
93,347,110161,2,0,L|4:354,1,46.875,4|0,0:0|0:0,0:0:0:0:
180,333,110304,5,2,0:1:0:0:
182,326,110375,1,0,0:0:0:0:
184,318,110447,1,0,0:0:0:0:
186,311,110518,1,0,0:0:0:0:
268,136,110590,2,0,L|301:139,11,18.75,8|0|0|0|2|0|0|0|8|0|0|0,0:0|0:0|0:0|0:0|0:0|0:0|0:0|0:0|0:0|0:0|0:0|0:0,0:0:0:0:
106,62,111447,5,2,0:0:0:0:
97,62,111518,1,0,0:0:0:0:
88,64,111589,1,0,0:0:0:0:
81,69,111661,1,0,0:0:0:0:
75,75,111732,1,8,0:0:0:0:
71,83,111804,1,0,0:0:0:0:
69,91,111875,1,0,0:0:0:0:
69,100,111947,1,0,0:0:0:0:
72,108,112018,5,2,0:0:0:0:
76,115,112089,1,0,0:0:0:0:
83,121,112161,1,0,0:0:0:0:
90,125,112232,1,0,0:0:0:0:
99,127,112304,1,8,0:0:0:0:
108,127,112375,1,0,0:0:0:0:
116,124,112447,1,0,0:0:0:0:
123,119,112518,1,0,0:0:0:0:
123,119,112589,5,2,0:0:0:0:
129,113,112661,1,0,0:0:0:0:
137,108,112732,1,0,0:0:0:0:
145,105,112804,1,0,0:0:0:0:
153,104,112875,1,8,0:0:0:0:
162,104,112947,1,0,0:0:0:0:
171,105,113018,1,0,0:0:0:0:
179,108,113089,1,0,0:0:0:0:
187,113,113161,5,2,0:0:0:0:
193,118,113232,1,0,0:0:0:0:
199,125,113304,1,0,0:0:0:0:
203,132,113375,1,0,0:0:0:0:
206,141,113447,1,8,0:0:0:0:
208,149,113518,1,0,0:0:0:0:
207,158,113589,1,0,0:0:0:0:
206,167,113661,1,0,0:0:0:0:
202,175,113732,5,2,0:0:0:0:
205,193,113804,1,0,0:0:0:0:
212,210,113875,1,0,0:0:0:0:
224,224,113947,1,0,0:0:0:0:
239,235,114018,1,8,0:0:0:0:
257,242,114089,1,0,0:0:0:0:
275,244,114161,1,0,0:0:0:0:
294,241,114232,1,0,0:0:0:0:
312,236,114304,5,2,0:0:0:0:
329,230,114375,1,0,0:0:0:0:
348,230,114447,1,0,0:0:0:0:
366,234,114518,1,0,0:0:0:0:
383,243,114589,1,8,0:0:0:0:
397,256,114661,1,0,0:0:0:0:
407,271,114732,1,0,0:0:0:0:
412,289,114804,1,0,0:0:0:0:
409,308,114875,5,2,0:0:0:0:
408,304,114947,1,0,0:0:0:0:
408,300,115018,1,0,0:0:0:0:
407,296,115089,1,0,0:0:0:0:
407,293,115161,1,8,0:0:0:0:
406,289,115232,1,0,0:0:0:0:
406,285,115304,1,0,0:0:0:0:
406,281,115375,1,0,0:0:0:0:
405,278,115447,5,2,0:0:0:0:
405,274,115518,1,0,0:0:0:0:
404,270,115589,1,0,0:0:0:0:
404,267,115661,1,0,0:0:0:0:
403,263,115732,1,8,0:0:0:0:
403,259,115804,1,0,0:0:0:0:
403,255,115875,1,0,0:0:0:0:
402,252,115947,1,0,0:0:0:0:
401,248,116018,5,2,0:0:0:0:
396,243,116089,1,0,0:0:0:0:
392,239,116161,1,0,0:0:0:0:
388,234,116232,1,0,0:0:0:0:
385,228,116304,1,8,0:0:0:0:
382,223,116375,1,0,0:0:0:0:
379,217,116447,1,0,0:0:0:0:
377,211,116518,1,0,0:0:0:0:
376,205,116589,5,2,0:0:0:0:
375,199,116661,1,0,0:0:0:0:
375,193,116732,1,0,0:0:0:0:
375,186,116804,1,0,0:0:0:0:
375,180,116875,1,8,0:0:0:0:
377,174,116947,1,0,0:0:0:0:
378,168,117018,1,0,0:0:0:0:
381,162,117089,1,0,0:0:0:0:
385,159,117161,5,2,0:0:0:0:
377,164,117232,1,0,0:0:0:0:
370,168,117304,1,0,0:0:0:0:
362,172,117375,1,0,0:0:0:0:
354,175,117447,1,8,0:0:0:0:
346,178,117518,1,0,0:0:0:0:
337,179,117589,1,0,0:0:0:0:
328,180,117661,1,0,0:0:0:0:
320,180,117732,5,2,0:0:0:0:
311,180,117804,1,0,0:0:0:0:
302,178,117875,1,0,0:0:0:0:
294,176,117947,1,0,0:0:0:0:
285,173,118018,1,8,0:0:0:0:
277,170,118089,1,0,0:0:0:0:
270,166,118161,1,0,0:0:0:0:
263,161,118232,1,0,0:0:0:0:
257,153,118304,5,2,0:0:0:0:
252,134,118375,1,0,0:0:0:0:
241,119,118447,1,0,0:0:0:0:
227,107,118518,1,0,0:0:0:0:
209,101,118589,1,8,0:0:0:0:
190,101,118661,1,0,0:0:0:0:
173,107,118732,1,0,0:0:0:0:
158,118,118804,1,0,0:0:0:0:
147,134,118875,5,2,0:0:0:0:
142,152,118947,1,0,0:0:0:0:
143,170,119018,1,0,0:0:0:0:
150,188,119089,1,0,0:0:0:0:
162,202,119161,1,8,0:0:0:0:
178,211,119232,1,0,0:0:0:0:
197,215,119304,1,0,0:0:0:0:
215,213,119375,1,0,0:0:0:0:
233,208,119447,6,0,L|266:210,7,18.75,2|0|0|0|8|0|0|0,0:0|0:0|0:0|0:0|0:0|0:0|0:0|0:0,0:0:0:0:
373,155,120018,2,0,L|340:157,7,18.75,2|0|0|0|10|0|0|0,0:0|0:0|0:0|0:0|0:0|0:0|0:0|0:0,0:0:0:0:
201,36,120590,6,0,L|206:61,3,18.75,2|0|0|0,0:0|0:0|0:0|0:0,0:0:0:0:
363,66,120875,2,0,L|344:83,3,18.75,8|0|0|0,0:0|0:0|0:0|0:0,0:0:0:0:
418,222,121161,2,0,L|394:214,3,18.75,2|0|0|0,0:0|0:0|0:0|0:0,0:0:0:0:
311,348,121447,2,0,L|306:323,3,18.75,8|0|0|0,0:0|0:0|0:0|0:0,0:0:0:0:
148,317,121732,6,0,L|167:300,3,18.75,2|0|0|0,0:0|0:0|0:0|0:0,0:0:0:0:
93,161,122018,2,0,L|117:169,3,18.75,8|0|0|0,0:0|0:0|0:0|0:0,0:0:0:0:
201,35,122304,2,0,L|206:60,3,18.75,2|0|0|0,0:0|0:0|0:0|0:0,0:0:0:0:
363,66,122590,2,0,L|344:83,3,18.75,8|0|0|0,0:0|0:0|0:0|0:0,0:0:0:0:
418,222,122875,6,0,L|394:214,7,18.75,2|0|0|0|8|0|0|0,0:0|0:0|0:0|0:0|0:0|0:0|0:0|0:0,0:0:0:0:
174,165,123447,2,0,L|198:156,7,18.75,2|0|0|0|8|0|0|0,0:0|0:0|0:0|0:0|0:0|0:0|0:0|0:0,0:0:0:0:
466,114,124017,6,0,L|445:113,15,18.75,2|0|0|0|8|0|0|0|2|0|0|0|8|0|0|0,0:0|0:0|0:0|0:0|0:0|0:0|0:0|0:0|0:0|0:0|0:0|0:0|0:0|0:0|0:0|0:0,0:0:0:0:
238,41,125161,2,0,L|184:44,7,37.5,2|0|8|0|2|0|8|0,0:0|0:0|0:0|0:0|0:0|0:0|0:0|0:0,0:0:0:0:
121,119,126304,6,0,L|44:111,3,75,2|8|2|8,0:0|0:0|0:0|0:0,0:0:0:0:
263,55,127447,5,2,0:0:0:0:
263,55,127518,1,0,0:0:0:0:
263,55,127589,1,0,0:0:0:0:
263,55,127661,1,0,0:0:0:0:
263,55,127732,1,2,0:0:0:0:
263,55,127804,1,0,0:0:0:0:
263,55,127875,1,0,0:0:0:0:
263,55,127947,1,0,0:0:0:0:
263,55,128018,5,6,0:0:0:0:
263,55,128089,1,0,0:0:0:0:
263,55,128161,1,0,0:0:0:0:
263,55,128232,1,0,0:0:0:0:
263,55,128304,1,6,0:0:0:0:
263,55,128375,1,0,0:0:0:0:
263,55,128447,1,0,0:0:0:0:
263,55,128518,1,0,0:0:0:0:
263,55,128589,5,6,0:1:0:0:
300,58,128661,1,0,0:0:0:0:
332,76,128732,1,0,0:0:0:0:
353,107,128804,1,0,0:0:0:0:
350,144,128875,1,8,0:0:0:0:
324,170,128947,1,0,0:0:0:0:
316,206,129018,1,0,0:0:0:0:
328,241,129089,1,0,0:0:0:0:
360,261,129161,5,2,0:0:0:0:
322,255,129232,1,0,0:0:0:0:
285,250,129304,1,0,0:0:0:0:
248,244,129375,1,0,0:0:0:0:
211,241,129447,1,8,0:0:0:0:
174,242,129518,1,0,0:0:0:0:
151,270,129589,1,0,0:0:0:0:
157,305,129661,1,0,0:0:0:0:
183,330,129732,5,2,0:0:0:0:
218,338,129804,1,0,0:0:0:0:
254,327,129875,1,0,0:0:0:0:
277,298,129947,1,0,0:0:0:0:
283,262,130018,1,8,0:0:0:0:
268,228,130089,1,0,0:0:0:0:
237,207,130161,1,0,0:0:0:0:
201,205,130232,1,0,0:0:0:0:
166,221,130304,5,2,0:0:0:0:
134,240,130375,1,0,0:0:0:0:
97,243,130447,1,0,0:0:0:0:
62,228,130518,1,0,0:0:0:0:
34,203,130589,1,8,0:0:0:0:
67,187,130661,1,0,0:0:0:0:
103,194,130732,1,0,0:0:0:0:
129,220,130804,1,0,0:0:0:0:
142,254,130875,5,2,0:0:0:0:
169,278,130947,1,0,0:0:0:0:
205,290,131018,1,0,0:0:0:0:
242,287,131089,1,0,0:0:0:0:
276,272,131161,1,8,0:0:0:0:
313,272,131232,1,0,0:0:0:0:
349,283,131304,1,0,0:0:0:0:
379,304,131375,1,0,0:0:0:0:
396,338,131447,5,2,0:0:0:0:
427,319,131518,1,0,0:0:0:0:
443,285,131589,1,0,0:0:0:0:
438,249,131661,1,0,0:0:0:0:
413,222,131732,1,8,0:0:0:0:
377,213,131804,1,0,0:0:0:0:
342,226,131875,1,0,0:0:0:0:
321,256,131947,1,0,0:0:0:0:
292,279,132018,5,2,0:0:0:0:
255,283,132089,1,0,0:0:0:0:
221,268,132161,1,0,0:0:0:0:
199,238,132232,1,0,0:0:0:0:
195,201,132304,1,8,0:0:0:0:
210,168,132375,1,0,0:0:0:0:
241,146,132447,1,0,0:0:0:0:
278,143,132518,1,0,0:0:0:0:
314,152,132589,5,2,0:0:0:0:
348,165,132661,1,0,0:0:0:0:
385,170,132732,1,0,0:0:0:0:
422,164,132804,1,0,0:0:0:0:
454,144,132875,1,8,0:0:0:0:
421,129,132947,1,0,0:0:0:0:
390,147,133018,1,0,0:0:0:0:
389,183,133089,1,0,0:0:0:0:
412,213,133161,5,2,0:0:0:0:
380,232,133232,1,0,0:0:0:0:
343,240,133304,1,0,0:0:0:0:
306,235,133375,1,0,0:0:0:0:
273,218,133447,1,8,0:0:0:0:
248,190,133518,1,0,0:0:0:0:
234,156,133589,1,0,0:0:0:0:
233,118,133661,1,0,0:0:0:0:
244,83,133732,5,2,0:0:0:0:
267,53,133804,1,0,0:0:0:0:
298,33,133875,1,0,0:0:0:0:
335,25,133947,1,0,0:0:0:0:
372,30,134018,1,8,0:0:0:0:
405,47,134089,1,0,0:0:0:0:
430,74,134161,1,0,0:0:0:0:
444,109,134232,1,0,0:0:0:0:
450,146,134304,5,2,0:0:0:0:
419,167,134375,1,0,0:0:0:0:
383,176,134447,1,0,0:0:0:0:
346,171,134518,1,0,0:0:0:0:
314,152,134589,1,8,0:0:0:0:
291,122,134661,1,0,0:0:0:0:
282,86,134732,1,0,0:0:0:0:
286,49,134804,1,0,0:0:0:0:
308,19,134875,5,2,0:0:0:0:
276,38,134947,1,0,0:0:0:0:
240,47,135018,1,0,0:0:0:0:
202,45,135089,1,0,0:0:0:0:
165,40,135161,1,8,0:0:0:0:
131,25,135232,1,0,0:0:0:0:
94,28,135304,1,0,0:0:0:0:
63,49,135375,1,0,0:0:0:0:
43,81,135447,6,0,L|35:137,7,37.5,2|0|0|0|8|0|0|0,0:0|0:0|0:0|0:0|0:0|0:0|0:0|0:0,0:0:0:0:
176,179,136018,2,0,L|184:235,7,37.5,2|0|0|0|8|0|0|0,0:0|0:0|0:0|0:0|0:0|0:0|0:0|0:0,0:0:0:0:
393,286,136590,6,0,L|310:280,1,75,6|0,0:0|0:0,0:0:0:0:
96,301,136875,1,12,0:0:0:0:
132,308,136947,1,0,0:0:0:0:
166,295,137018,1,6,0:0:0:0:
189,266,137089,1,0,0:0:0:0:
193,229,137161,5,2,0:0:0:0:
228,239,137232,1,0,0:0:0:0:
260,258,137304,1,6,0:0:0:0:
285,287,137375,1,0,0:0:0:0:
309,315,137447,1,8,0:0:0:0:
340,335,137518,1,0,0:0:0:0:
377,338,137589,1,4,0:0:0:0:
410,322,137661,1,0,0:0:0:0:
432,291,137732,5,6,0:1:0:0:
396,283,137804,1,0,0:0:0:0:
373,255,137875,1,0,0:0:0:0:
374,218,137947,1,0,0:0:0:0:
399,191,138018,1,8,0:0:0:0:
435,186,138089,1,0,0:0:0:0:
466,206,138161,1,0,0:0:0:0:
476,242,138232,1,0,0:0:0:0:
468,278,138304,5,2,0:0:0:0:
435,295,138375,1,0,0:0:0:0:
398,298,138447,1,0,0:0:0:0:
363,286,138518,1,0,0:0:0:0:
335,261,138589,1,8,0:0:0:0:
320,228,138661,1,0,0:0:0:0:
319,190,138732,1,0,0:0:0:0:
333,156,138804,1,0,0:0:0:0:
363,134,138875,5,2,0:0:0:0:
327,144,138947,1,0,0:0:0:0:
289,149,139018,1,0,0:0:0:0:
252,149,139089,1,0,0:0:0:0:
215,142,139161,1,8,0:0:0:0:
178,136,139232,1,0,0:0:0:0:
147,155,139304,1,0,0:0:0:0:
134,190,139375,1,0,0:0:0:0:
143,226,139447,5,2,0:0:0:0:
116,251,139518,1,0,0:0:0:0:
113,288,139589,1,0,0:0:0:0:
135,317,139661,1,0,0:0:0:0:
171,325,139732,1,8,0:0:0:0:
203,307,139804,1,0,0:0:0:0:
216,273,139875,1,0,0:0:0:0:
203,239,139947,1,0,0:0:0:0:
168,225,140018,5,2,0:0:0:0:
130,226,140089,1,0,0:0:0:0:
98,208,140161,1,0,0:0:0:0:
79,176,140232,1,0,0:0:0:0:
68,140,140304,1,8,0:0:0:0:
69,102,140375,1,0,0:0:0:0:
88,71,140447,1,0,0:0:0:0:
121,53,140518,1,0,0:0:0:0:
158,56,140589,5,2,0:0:0:0:
183,82,140661,1,0,0:0:0:0:
218,96,140732,1,0,0:0:0:0:
255,94,140804,1,0,0:0:0:0:
292,88,140875,1,8,0:0:0:0:
329,90,140947,1,0,0:0:0:0:
362,108,141018,1,0,0:0:0:0:
386,137,141089,1,0,0:0:0:0:
399,172,141161,6,0,P|425:185|450:189,3,37.5,2|0|0|0,0:0|0:0|0:0|0:0,0:0:0:0:
273,140,141447,1,8,0:0:0:0:
236,136,141518,1,0,0:0:0:0:
206,157,141589,1,0,0:0:0:0:
198,193,141661,1,0,0:0:0:0:
209,229,141732,2,0,P|178:220|139:217,7,37.5,2|0|0|0|8|0|0|0,0:0|0:0|0:0|0:0|0:0|0:0|0:0|0:0,0:0:0:0:
139,236,142304,5,2,0:0:0:0:
110,259,142375,1,0,0:0:0:0:
73,263,142447,1,0,0:0:0:0:
40,246,142518,1,0,0:0:0:0:
22,214,142589,1,8,0:0:0:0:
24,177,142661,1,0,0:0:0:0:
47,147,142732,1,0,0:0:0:0:
81,135,142804,1,0,0:0:0:0:
119,137,142875,5,2,0:0:0:0:
146,162,142947,1,0,0:0:0:0:
182,167,143018,1,0,0:0:0:0:
215,150,143089,1,0,0:0:0:0:
232,117,143161,1,8,0:0:0:0:
227,80,143232,1,0,0:0:0:0:
208,48,143304,2,0,L|278:57,1,37.5
384,64,143447,5,2,0:0:0:0:
418,51,143518,1,0,0:0:0:0:
454,60,143589,1,0,0:0:0:0:
477,89,143661,1,0,0:0:0:0:
480,126,143732,1,8,0:0:0:0:
461,157,143804,1,0,0:0:0:0:
427,172,143875,1,0,0:0:0:0:
391,164,143947,1,0,0:0:0:0:
355,154,144018,5,2,0:0:0:0:
321,137,144089,1,0,0:0:0:0:
284,137,144161,1,0,0:0:0:0:
250,153,144232,1,0,0:0:0:0:
227,182,144304,1,8,0:0:0:0:
218,218,144375,1,0,0:0:0:0:
222,255,144447,2,0,L|159:253,1,37.5
61,319,144590,6,0,P|43:284|47:233,1,75,6|0,0:0|0:0,0:0:0:0:
312,190,144875,1,2,0:0:0:0:
115,129,145018,1,2,0:0:0:0:
383,21,145161,6,0,P|397:53|397:125,1,75,0|2,0:0|0:0,0:0:0:0:
190,263,145447,1,2,0:0:0:0:
260,51,145589,1,2,0:0:0:0:
380,137,145732,5,2,0:0:0:0:
380,144,145804,1,0,0:0:0:0:
380,151,145875,1,0,0:0:0:0:
381,159,145947,1,0,0:0:0:0:
381,166,146018,1,2,0:0:0:0:
381,174,146089,1,0,0:0:0:0:
382,181,146161,1,0,0:0:0:0:
382,189,146232,1,0,0:0:0:0:
382,196,146304,1,2,0:0:0:0:
383,204,146375,1,0,0:0:0:0:
383,211,146447,1,2,0:0:0:0:
383,219,146518,1,0,0:0:0:0:
384,226,146589,1,6,0:0:0:0:
384,234,146661,1,6,0:0:0:0:
384,241,146732,1,6,0:0:0:0:
385,249,146804,1,6,0:0:0:0:
385,256,146875,5,2,0:1:0:0:
362,294,146947,1,0,0:0:0:0:
323,314,147018,1,0,0:0:0:0:
278,309,147089,1,0,0:0:0:0:
244,282,147161,1,8,0:0:0:0:
230,240,147232,1,0,0:0:0:0:
241,197,147304,1,0,0:0:0:0:
273,166,147375,1,0,0:0:0:0:
318,158,147447,5,2,0:1:0:0:
274,150,147518,1,0,0:0:0:0:
239,121,147589,1,0,0:0:0:0:
224,80,147661,1,0,0:0:0:0:
200,41,147732,1,8,0:0:0:0:
160,21,147804,1,0,0:0:0:0:
120,39,147875,1,0,0:0:0:0:
107,80,147947,1,0,0:0:0:0:
117,124,148018,5,2,0:1:0:0:
156,145,148089,1,0,0:0:0:0:
179,183,148161,1,0,0:0:0:0:
180,227,148232,1,0,0:0:0:0:
160,266,148304,1,8,0:0:0:0:
122,290,148375,1,0,0:0:0:0:
77,292,148447,1,0,0:0:0:0:
38,271,148518,1,0,0:0:0:0:
13,233,148589,5,2,0:1:0:0:
50,208,148661,1,0,0:0:0:0:
94,207,148732,1,0,0:0:0:0:
133,229,148804,1,0,0:0:0:0:
154,268,148875,1,8,0:0:0:0:
153,312,148947,1,0,0:0:0:0:
128,349,149018,1,0,0:0:0:0:
88,368,149089,1,0,0:0:0:0:
44,358,149161,5,2,0:1:0:0:
65,319,149232,1,0,0:0:0:0:
106,301,149304,1,0,0:0:0:0:
149,311,149375,1,0,0:0:0:0:
187,336,149447,1,8,0:0:0:0:
227,354,149518,1,0,0:0:0:0:
272,353,149589,1,0,0:0:0:0:
312,333,149661,1,0,0:0:0:0:
328,290,149732,5,2,0:1:0:0:
310,249,149804,1,0,0:0:0:0:
318,205,149875,1,0,0:0:0:0:
349,174,149947,1,0,0:0:0:0:
389,153,150018,1,8,0:0:0:0:
355,125,150089,1,0,0:0:0:0:
354,82,150161,1,0,0:0:0:0:
387,53,150232,1,0,0:0:0:0:
431,47,150304,5,2,0:1:0:0:
386,42,150375,1,0,0:0:0:0:
341,37,150447,1,0,0:0:0:0:
296,32,150518,1,0,0:0:0:0:
261,61,150589,1,8,0:0:0:0:
217,56,150661,1,0,0:0:0:0:
172,51,150732,1,0,0:0:0:0:
127,46,150804,1,0,0:0:0:0:
83,37,150875,5,2,0:1:0:0:
40,44,150947,1,0,0:0:0:0:
18,82,151018,1,0,0:0:0:0:
33,123,151089,1,0,0:0:0:0:
75,141,151161,1,8,0:0:0:0:
113,163,151232,1,0,0:0:0:0:
137,200,151304,1,0,0:0:0:0:
139,245,151375,1,0,0:0:0:0:
118,285,151447,5,2,0:1:0:0:
103,243,151518,1,0,0:0:0:0:
64,223,151589,1,0,0:0:0:0:
21,234,151661,1,0,0:0:0:0:
0,271,151732,1,8,0:0:0:0:
3,314,151804,1,0,0:0:0:0:
36,343,151875,1,0,0:0:0:0:
80,342,151947,1,0,0:0:0:0:
121,325,152018,5,2,0:1:0:0:
162,308,152089,1,0,0:0:0:0:
205,317,152161,1,0,0:0:0:0:
236,348,152232,1,0,0:0:0:0:
274,373,152304,2,0,P|300:376|334:367,3,44.999998626709,8|0|0|0,0:0|0:0|0:0|0:0,0:0:0:0:
411,267,152589,5,2,0:1:0:0:
395,245,152661,1,0,0:0:0:0:
388,219,152732,1,0,0:0:0:0:
391,192,152804,1,0,0:0:0:0:
403,168,152875,1,8,0:0:0:0:
423,150,152947,1,0,0:0:0:0:
448,140,153018,2,0,L|461:86,1,44.999998626709
270,54,153161,5,2,0:1:0:0:
252,58,153232,1,0,0:0:0:0:
234,62,153304,1,0,0:0:0:0:
217,64,153375,1,0,0:0:0:0:
199,65,153447,1,8,0:0:0:0:
181,66,153518,1,0,0:0:0:0:
163,66,153589,2,0,L|133:113,2,44.999998626709,0|0|2,0:0|0:0|0:0,0:0:0:0:
256,192,153804,12,2,154875,0:0:0:0:
256,192,154947,12,2,155732,0:1:0:0:
162,276,156018,5,6,1:1:0:0:
114,247,156089,1,0,0:0:0:0:
92,196,156161,1,6,0:0:0:0:
103,142,156232,1,0,0:0:0:0:
143,104,156304,1,8,1:2:0:0:
198,96,156375,1,0,0:0:0:0:
247,122,156447,1,6,0:0:0:0:
273,171,156518,1,0,0:0:0:0:
310,214,156589,1,2,1:0:0:0:
359,238,156661,1,0,0:0:0:0:
414,231,156732,1,6,0:0:0:0:
455,194,156804,1,0,0:0:0:0:
463,139,156875,1,8,1:2:0:0:
427,96,156947,1,0,0:0:0:0:
374,80,157018,1,6,0:0:0:0:
320,96,157089,1,0,0:0:0:0:
273,128,157161,6,0,P|239:107|185:104,3,56.2500021457673,2|0|6|0,1:0|0:0|0:0|0:0,0:0:0:0:
101,260,157447,2,0,P|100:220|108:196,3,56.2500021457673,8|0|6|0,1:2|0:0|0:0|0:0,0:0:0:0:
223,279,157732,1,2,1:0:0:0:
267,313,157804,1,0,0:0:0:0:
322,321,157875,1,6,0:0:0:0:
374,303,157947,1,0,0:0:0:0:
424,277,158018,2,0,P|456:270|490:270,3,56.2500021457673,8|0|6|0,1:2|0:0|0:0|0:0,0:0:0:0:
348,143,158304,6,0,L|284:131,1,56.2500021457673,2|0,1:0|0:0,0:0:0:0:
157,108,158447,2,0,L|93:96,1,56.2500021457673,6|0,0:0|0:0,0:0:0:0:
360,161,158589,6,0,L|296:149,1,56.2500021457673,8|0,1:2|0:0,0:0:0:0:
145,91,158732,2,0,L|81:79,1,56.2500021457673,6|0,0:0|0:0,0:0:0:0:
373,180,158875,6,0,L|309:168,1,56.2500021457673,2|0,1:0|0:0,0:0:0:0:
132,72,159018,2,0,L|68:60,1,56.2500021457673,6|0,0:0|0:0,0:0:0:0:
386,198,159161,6,0,L|322:186,1,56.2500021457673,8|0,1:2|0:0,0:0:0:0:
119,54,159304,2,0,L|55:42,1,56.2500021457673,6|0,0:0|0:0,0:0:0:0:
313,33,159447,6,0,L|301:96,1,56.2500021457673,2|0,1:0|0:0,0:0:0:0:
258,250,159589,2,0,L|246:313,1,56.2500021457673,6|0,0:0|0:0,0:0:0:0:
328,35,159732,6,0,L|316:98,1,56.2500021457673,8|0,1:2|0:0,0:0:0:0:
242,248,159875,2,0,L|230:311,1,56.2500021457673,6|0,0:0|0:0,0:0:0:0:
344,38,160018,6,0,L|332:101,1,56.2500021457673,2|0,1:0|0:0,0:0:0:0:
226,245,160161,2,0,L|214:308,1,56.2500021457673,6|0,0:0|0:0,0:0:0:0:
360,41,160304,6,0,L|348:104,1,56.2500021457673,8|0,1:2|0:0,0:0:0:0:
211,242,160447,2,0,L|199:305,1,56.2500021457673,6|0,0:0|0:0,0:0:0:0:
99,118,160589,5,6,1:0:0:0:
50,144,160661,1,0,0:0:0:0:
35,196,160732,1,6,0:0:0:0:
61,245,160804,1,0,0:0:0:0:
111,269,160875,1,8,1:2:0:0:
160,244,160947,1,0,0:0:0:0:
215,253,161018,1,6,0:0:0:0:
255,292,161089,1,0,0:0:0:0:
276,344,161161,1,2,1:0:0:0:
331,343,161232,1,0,0:0:0:0:
377,312,161304,1,6,0:0:0:0:
398,260,161375,1,0,0:0:0:0:
389,206,161447,1,8,1:2:0:0:
350,166,161518,1,0,0:0:0:0:
296,153,161589,1,6,0:0:0:0:
244,171,161661,1,0,0:0:0:0:
215,220,161732,6,0,L|111:235,1,75.000002861023,2|0,1:0|0:0,0:0:0:0:
338,273,161923,1,2,0:0:0:0:
344,149,162018,6,0,L|240:164,1,75.000002861023,8|0,1:2|0:0,0:0:0:0:
338,273,162209,1,2,0:0:0:0:
476,87,162304,6,0,L|372:102,1,75.000002861023,2|0,1:0|0:0,0:0:0:0:
338,273,162494,1,2,0:0:0:0:
402,98,162590,2,0,L|411:33,3,56.2500021457673,8|0|6|0,1:2|0:0|0:0|0:0,0:0:0:0:
303,133,162875,5,2,1:1:0:0:
265,173,162947,1,0,0:0:0:0:
211,186,163018,1,6,0:0:0:0:
160,165,163089,1,0,0:0:0:0:
140,112,163161,1,8,1:2:0:0:
86,97,163232,1,0,0:0:0:0:
37,121,163304,1,6,0:0:0:0:
14,171,163375,1,0,0:0:0:0:
33,225,163447,1,2,1:0:0:0:
89,226,163518,1,0,0:0:0:0:
142,243,163589,1,6,0:0:0:0:
188,275,163661,1,0,0:0:0:0:
227,316,163732,1,8,1:2:0:0:
277,337,163804,1,0,0:0:0:0:
324,309,163875,1,6,0:0:0:0:
330,255,163947,1,0,0:0:0:0:
288,217,164018,5,2,1:1:0:0:
232,213,164089,1,0,0:0:0:0:
192,176,164161,1,6,0:0:0:0:
185,121,164232,1,0,0:0:0:0:
221,77,164304,1,8,1:2:0:0:
230,130,164375,1,0,0:0:0:0:
191,167,164447,1,6,0:0:0:0:
138,155,164518,1,0,0:0:0:0:
82,148,164589,1,2,1:1:0:0:
38,181,164661,1,0,0:0:0:0:
27,235,164732,1,6,0:0:0:0:
55,283,164804,1,0,0:0:0:0:
108,301,164875,1,8,1:2:0:0:
164,295,164947,1,0,0:0:0:0:
220,289,165018,1,6,0:0:0:0:
276,283,165089,1,0,0:0:0:0:
332,277,165161,5,2,1:0:0:0:
288,245,165232,1,0,0:0:0:0:
299,193,165304,1,6,0:0:0:0:
350,180,165375,1,0,0:0:0:0:
397,213,165447,1,8,1:2:0:0:
449,214,165518,1,0,0:0:0:0:
463,164,165589,1,6,0:0:0:0:
418,137,165661,1,0,0:0:0:0:
363,153,165732,1,2,1:0:0:0:
312,173,165804,1,0,0:0:0:0:
262,150,165875,1,6,0:0:0:0:
246,98,165947,1,0,0:0:0:0:
260,44,166018,1,8,1:2:0:0:
225,87,166089,1,0,0:0:0:0:
173,105,166161,1,6,0:0:0:0:
119,92,166232,1,0,0:0:0:0:
74,57,166304,6,0,L|98:164,1,56.2500021457673,2|0,1:0|0:0,0:0:0:0:
247,220,166447,2,0,L|267:319,1,56.2500021457673,6|0,0:0|0:0,0:0:0:0:
94,57,166589,6,0,L|118:164,1,56.2500021457673,8|0,1:2|0:0,0:0:0:0:
267,220,166732,2,0,L|287:319,1,56.2500021457673,6|0,0:0|0:0,0:0:0:0:
114,57,166875,6,0,L|138:164,1,56.2500021457673,2|0,1:0|0:0,0:0:0:0:
287,220,167018,2,0,L|307:319,1,56.2500021457673,6|0,0:0|0:0,0:0:0:0:
134,57,167161,6,0,L|158:164,1,56.2500021457673,8|0,1:2|0:0,0:0:0:0:
307,220,167304,2,0,L|327:319,1,56.2500021457673,6|0,0:0|0:0,0:0:0:0:
84,340,167447,6,0,L|27:341,1,56.2500021457673,2|0,1:1|0:0,0:0:0:0:
374,273,167589,2,0,L|317:274,1,56.2500021457673,6|0,0:0|0:0,0:0:0:0:
104,330,167733,6,0,L|47:331,1,56.2500021457673,8|0,1:2|0:0,0:0:0:0:
394,263,167875,2,0,L|337:264,1,56.2500021457673,6|0,0:0|0:0,0:0:0:0:
124,320,168017,6,0,L|67:321,1,56.2500021457673,2|0,1:1|0:0,0:0:0:0:
414,253,168160,2,0,L|357:254,1,56.2500021457673,6|0,0:0|0:0,0:0:0:0:
144,310,168303,6,0,L|87:311,1,56.2500021457673,8|0,1:2|0:0,0:0:0:0:
434,243,168447,2,0,L|377:244,1,56.2500021457673,6|0,0:0|0:0,0:0:0:0:
39,68,168589,6,0,P|42:103|68:131,1,56.2500021457673,2|0,1:1|0:0,0:0:0:0:
443,179,168733,2,0,P|440:144|414:116,1,56.2500021457673,6|0,0:0|0:0,0:0:0:0:
121,174,168874,6,0,P|155:181|189:163,1,56.2500021457673,8|0,1:2|0:0,0:0:0:0:
361,73,169018,2,0,P|327:66|293:84,1,56.2500021457673,6|0,0:0|0:0,0:0:0:0:
240,98,169161,5,2,1:0:0:0:
242,154,169232,1,0,0:0:0:0:
245,210,169304,1,6,0:0:0:0:
248,266,169375,1,0,0:0:0:0:
250,323,169447,1,8,1:2:0:0:
195,333,169518,1,0,0:0:0:0:
146,309,169589,1,6,0:0:0:0:
121,259,169661,1,0,0:0:0:0:
118,203,169732,5,2,1:0:0:0:
153,160,169804,1,0,0:0:0:0:
207,151,169875,1,6,0:0:0:0:
254,179,169947,1,0,0:0:0:0:
263,235,170018,1,8,1:2:0:0:
208,222,170089,1,0,0:0:0:0:
153,210,170161,1,6,0:0:0:0:
98,198,170232,1,0,0:0:0:0:
54,162,170304,5,2,1:0:0:0:
102,134,170375,1,0,0:0:0:0:
158,131,170447,1,6,0:0:0:0:
210,151,170518,1,0,0:0:0:0:
247,192,170589,1,8,1:2:0:0:
264,246,170661,1,0,0:0:0:0:
255,301,170732,1,6,0:0:0:0:
224,347,170804,1,0,0:0:0:0:
170,363,170875,6,0,L|72:349,1,56.2500021457673,2|0,1:0|0:0,0:0:0:0:
15,297,171018,2,0,L|113:311,1,56.2500021457673,6|0,0:0|0:0,0:0:0:0:
175,368,171161,6,0,L|77:354,1,56.2500021457673,8|0,1:2|0:0,0:0:0:0:
10,292,171304,2,0,L|108:306,1,56.2500021457673,6|0,0:0|0:0,0:0:0:0:
180,373,171447,6,0,L|82:359,1,56.2500021457673,2|0,1:0|0:0,0:0:0:0:
5,287,171590,2,0,L|103:301,1,56.2500021457673,6|0,0:0|0:0,0:0:0:0:
185,378,171732,6,0,L|87:364,1,56.2500021457673,8|0,1:2|0:0,0:0:0:0:
0,282,171875,2,0,L|98:296,1,56.2500021457673,6|0,0:0|0:0,0:0:0:0:
189,227,172018,5,2,1:0:0:0:
210,237,172089,1,0,0:0:0:0:
234,241,172161,1,6,0:0:0:0:
258,239,172232,1,0,0:0:0:0:
280,230,172304,1,8,1:2:0:0:
299,215,172375,1,0,0:0:0:0:
313,196,172447,1,6,0:0:0:0:
321,173,172518,1,0,0:0:0:0:
320,145,172589,1,2,1:0:0:0:
338,130,172661,1,0,0:0:0:0:
362,126,172732,1,6,0:0:0:0:
384,134,172804,1,0,0:0:0:0:
400,152,172875,1,8,1:2:0:0:
405,175,172947,1,0,0:0:0:0:
399,198,173018,1,6,0:0:0:0:
382,214,173089,1,0,0:0:0:0:
354,219,173161,5,2,1:0:0:0:
298,211,173232,1,0,0:0:0:0:
242,203,173304,1,6,0:0:0:0:
186,195,173375,1,0,0:0:0:0:
130,186,173447,1,8,1:2:0:0:
82,159,173518,1,0,0:0:0:0:
75,106,173589,1,6,0:0:0:0:
114,68,173661,1,0,0:0:0:0:
170,66,173732,5,2,0:1:0:0:
211,103,173804,1,0,0:0:0:0:
265,116,173875,1,6,0:0:0:0:
319,103,173947,1,0,0:0:0:0:
355,60,174018,1,8,0:0:0:0:
360,115,174090,1,0,0:0:0:0:
365,171,174161,1,6,0:0:0:0:
371,227,174232,1,0,0:0:0:0:
374,284,174304,5,6,0:1:0:0:
332,305,174375,1,0,0:0:0:0:
285,313,174447,1,0,0:0:0:0:
239,302,174518,1,0,0:0:0:0:
197,279,174590,2,0,L|143:270,3,46.875,8|0|0|0,0:0|0:0|0:0|0:0,0:0:0:0:
349,175,174875,5,2,0:0:0:0:
379,140,174947,1,0,0:0:0:0:
380,95,175018,1,0,0:0:0:0:
351,59,175089,1,0,0:0:0:0:
305,51,175161,2,0,L|228:42,3,46.875,8|0|0|0,0:0|0:0|0:0|0:0,0:0:0:0:
111,126,175447,5,2,0:0:0:0:
95,136,175518,1,0,0:0:0:0:
83,151,175589,1,0,0:0:0:0:
74,167,175661,1,0,0:0:0:0:
70,185,175732,1,8,0:0:0:0:
70,204,175804,1,0,0:0:0:0:
76,222,175875,2,0,L|18:227,1,46.875
238,185,176018,5,2,0:0:0:0:
256,183,176089,1,0,0:0:0:0:
275,182,176161,1,0,0:0:0:0:
294,181,176232,1,0,0:0:0:0:
312,180,176304,1,8,0:0:0:0:
331,179,176375,1,0,0:0:0:0:
350,178,176447,2,0,L|334:124,1,46.875
201,70,176589,5,2,0:0:0:0:
178,86,176661,1,0,0:0:0:0:
161,108,176732,1,0,0:0:0:0:
150,134,176804,1,0,0:0:0:0:
148,162,176875,1,8,0:0:0:0:
153,189,176947,1,0,0:0:0:0:
162,216,177018,2,0,P|150:241|153:278,1,46.875
280,151,177161,5,0,0:0:0:0:
304,165,177232,1,0,0:0:0:0:
330,175,177304,1,0,0:0:0:0:
357,181,177375,1,0,0:0:0:0:
385,183,177447,1,8,0:0:0:0:
413,180,177518,1,0,0:0:0:0:
442,179,177589,2,0,P|445:145|456:126,1,46.875
308,68,177733,5,2,0:0:0:0:
296,67,177804,1,0,0:0:0:0:
285,67,177875,2,0,P|292:90|294:120,1,46.875
199,218,178018,5,8,0:0:0:0:
183,216,178089,1,0,0:0:0:0:
167,215,178161,2,0,P|137:204|112:175,1,46.875
294,112,178304,6,0,L|371:104,1,46.875,2|0,0:0|0:0,0:0:0:0:
175,66,178447,2,0,L|252:58,1,46.875
428,99,178590,5,8,0:0:0:0:
424,110,178661,1,0,0:0:0:0:
422,121,178732,1,0,0:0:0:0:
421,133,178804,1,0,0:0:0:0:
421,145,178875,5,2,0:0:0:0:
425,158,178947,1,0,0:0:0:0:
430,175,179018,1,0,0:0:0:0:
434,198,179090,1,0,0:0:0:0:
433,221,179161,1,8,0:0:0:0:
432,240,179232,1,0,0:0:0:0:
423,258,179303,1,0,0:0:0:0:
407,270,179375,1,0,0:0:0:0:
387,274,179446,5,2,0:0:0:0:
368,269,179518,1,0,0:0:0:0:
353,256,179589,1,0,0:0:0:0:
344,238,179661,1,0,0:0:0:0:
332,218,179733,1,8,0:0:0:0:
305,202,179804,1,0,0:0:0:0:
274,200,179875,1,0,0:0:0:0:
245,213,179947,1,0,0:0:0:0:
225,224,180018,5,2,0:0:0:0:
188,252,180089,1,0,0:0:0:0:
142,253,180160,1,0,0:0:0:0:
104,227,180232,1,0,0:0:0:0:
89,183,180303,1,8,0:0:0:0:
102,139,180375,1,0,0:0:0:0:
138,111,180446,1,0,0:0:0:0:
184,110,180518,1,0,0:0:0:0:
224,136,180590,5,2,0:0:0:0:
249,174,180661,1,0,0:0:0:0:
291,194,180732,1,0,0:0:0:0:
337,190,180804,1,0,0:0:0:0:
375,164,180875,1,8,0:0:0:0:
394,122,180947,1,0,0:0:0:0:
389,76,181018,1,0,0:0:0:0:
361,38,181090,1,0,0:0:0:0:
315,33,181161,5,2,0:0:0:0:
311,79,181232,1,0,0:0:0:0:
290,121,181303,1,0,0:0:0:0:
255,151,181375,1,0,0:0:0:0:
211,165,181446,1,8,0:0:0:0:
164,161,181518,1,0,0:0:0:0:
123,139,181589,1,0,0:0:0:0:
94,103,181661,1,0,0:0:0:0:
77,59,181733,5,2,0:0:0:0:
37,83,181804,1,0,0:0:0:0:
13,123,181875,1,0,0:0:0:0:
10,169,181947,1,0,0:0:0:0:
29,211,182018,1,8,0:0:0:0:
66,240,182090,1,0,0:0:0:0:
111,249,182161,1,0,0:0:0:0:
156,235,182233,1,0,0:0:0:0:
198,216,182304,6,0,L|269:193,1,46.875,2|0,0:0|0:0,0:0:0:0:
354,245,182447,2,0,L|420:234,1,46.875
244,100,182590,6,0,L|324:137,1,46.875,8|0,0:0|0:0,0:0:0:0:
465,131,182733,2,0,L|447:188,1,46.875
332,278,182875,5,2,0:0:0:0:
273,291,182946,1,0,0:0:0:0:
229,250,183017,1,0,0:0:0:0:
239,191,183089,1,0,0:0:0:0:
293,159,183161,1,8,0:0:0:0:
351,172,183232,1,0,0:0:0:0:
395,131,183303,1,0,0:0:0:0:
385,72,183375,1,0,0:0:0:0:
324,60,183447,5,2,0:0:0:0:
278,50,183518,1,0,0:0:0:0:
235,66,183589,1,0,0:0:0:0:
207,103,183661,1,0,0:0:0:0:
204,149,183733,1,8,0:0:0:0:
227,189,183804,1,0,0:0:0:0:
267,211,183875,1,0,0:0:0:0:
313,208,183947,1,0,0:0:0:0:
358,222,184018,5,2,0:0:0:0:
391,255,184089,1,0,0:0:0:0:
401,300,184160,1,0,0:0:0:0:
386,343,184232,1,0,0:0:0:0:
350,372,184303,1,8,0:0:0:0:
304,378,184375,1,0,0:0:0:0:
262,358,184446,1,0,0:0:0:0:
237,320,184518,1,0,0:0:0:0:
243,273,184590,5,2,0:0:0:0:
271,237,184661,1,0,0:0:0:0:
272,191,184732,1,0,0:0:0:0:
245,153,184804,1,0,0:0:0:0:
202,139,184875,1,8,0:0:0:0:
158,153,184947,1,0,0:0:0:0:
131,191,185018,1,0,0:0:0:0:
133,237,185090,1,0,0:0:0:0:
164,271,185161,5,2,0:0:0:0:
210,276,185232,1,0,0:0:0:0:
252,258,185303,1,0,0:0:0:0:
279,220,185375,1,0,0:0:0:0:
284,174,185446,1,8,0:0:0:0:
265,132,185518,1,0,0:0:0:0:
228,105,185589,1,0,0:0:0:0:
181,101,185661,1,0,0:0:0:0:
136,113,185733,5,2,0:0:0:0:
101,143,185804,1,0,0:0:0:0:
55,141,185875,1,0,0:0:0:0:
23,109,185947,1,0,0:0:0:0:
21,63,186018,1,8,0:0:0:0:
52,29,186090,1,0,0:0:0:0:
97,24,186161,1,0,0:0:0:0:
133,52,186233,1,0,0:0:0:0:
146,97,186304,5,2,0:0:0:0:
123,137,186375,1,0,0:0:0:0:
125,183,186446,1,0,0:0:0:0:
152,221,186518,1,0,0:0:0:0:
194,239,186589,1,8,0:0:0:0:
240,231,186661,1,0,0:0:0:0:
274,201,186732,1,0,0:0:0:0:
287,156,186804,1,0,0:0:0:0:
273,112,186875,5,2,0:0:0:0:
276,93,186946,1,0,0:0:0:0:
287,78,187017,1,0,0:0:0:0:
303,68,187089,1,0,0:0:0:0:
321,65,187160,1,8,0:0:0:0:
339,69,187232,1,0,0:0:0:0:
356,78,187304,2,0,L|421:62,1,46.875
325,142,187447,5,2,0:0:0:0:
308,151,187518,1,0,0:0:0:0:
290,155,187589,1,0,0:0:0:0:
271,154,187661,1,0,0:0:0:0:
254,148,187732,1,8,0:0:0:0:
238,138,187804,1,0,0:0:0:0:
225,124,187875,2,0,L|228:186,1,46.875
154,262,188018,5,2,0:0:0:0:
111,279,188089,1,0,0:0:0:0:
66,268,188160,1,0,0:0:0:0:
37,233,188232,1,0,0:0:0:0:
34,187,188303,1,8,0:0:0:0:
59,148,188375,1,0,0:0:0:0:
102,132,188446,1,0,0:0:0:0:
146,144,188518,1,0,0:0:0:0:
184,173,188590,5,2,0:0:0:0:
205,213,188661,1,0,0:0:0:0:
246,234,188732,1,0,0:0:0:0:
291,225,188804,1,0,0:0:0:0:
323,192,188875,1,8,0:0:0:0:
327,146,188947,1,0,0:0:0:0:
304,106,189018,1,0,0:0:0:0:
261,88,189090,1,0,0:0:0:0:
218,105,189161,5,2,0:0:0:0:
202,148,189232,1,0,0:0:0:0:
163,172,189303,1,0,0:0:0:0:
117,166,189375,1,0,0:0:0:0:
85,133,189446,1,8,0:0:0:0:
81,87,189518,1,0,0:0:0:0:
107,49,189589,1,0,0:0:0:0:
151,35,189661,1,0,0:0:0:0:
194,54,189733,5,2,0:0:0:0:
171,94,189804,1,0,0:0:0:0:
174,140,189875,1,0,0:0:0:0:
202,177,189947,1,0,0:0:0:0:
245,193,190018,1,8,0:0:0:0:
290,182,190090,1,0,0:0:0:0:
322,149,190161,1,0,0:0:0:0:
330,103,190233,1,0,0:0:0:0:
315,59,190304,5,2,0:0:0:0:
360,62,190375,1,0,0:0:0:0:
395,92,190446,1,0,0:0:0:0:
406,137,190518,1,0,0:0:0:0:
389,180,190589,1,8,0:0:0:0:
349,204,190661,1,0,0:0:0:0:
303,201,190732,1,0,0:0:0:0:
268,171,190804,1,0,0:0:0:0:
229,145,190875,5,2,0:0:0:0:
186,125,190946,1,0,0:0:0:0:
140,129,191017,1,0,0:0:0:0:
102,155,191089,1,0,0:0:0:0:
82,196,191160,1,8,0:0:0:0:
85,243,191232,1,0,0:0:0:0:
110,281,191303,1,0,0:0:0:0:
152,302,191375,1,0,0:0:0:0:
199,299,191447,5,2,0:0:0:0:
202,253,191518,1,0,0:0:0:0:
233,218,191589,1,0,0:0:0:0:
278,210,191661,1,0,0:0:0:0:
318,232,191732,1,8,0:0:0:0:
337,274,191804,1,0,0:0:0:0:
326,319,191875,1,0,0:0:0:0:
289,347,191947,1,0,0:0:0:0:
244,337,192018,5,2,0:0:0:0:
273,300,192089,1,0,0:0:0:0:
302,263,192160,1,0,0:0:0:0:
331,226,192232,1,0,0:0:0:0:
360,190,192303,1,8,0:0:0:0:
389,153,192375,1,0,0:0:0:0:
418,116,192446,1,0,0:0:0:0:
448,80,192518,1,0,0:0:0:0:
476,42,192590,5,6,0:1:0:0:
438,70,192661,1,0,0:0:0:0:
394,84,192732,1,0,0:0:0:0:
347,81,192804,1,0,0:0:0:0:
303,66,192875,1,8,0:0:0:0:
261,45,192946,1,0,0:0:0:0:
216,54,193017,1,0,0:0:0:0:
185,88,193089,1,0,0:0:0:0:
181,134,193160,5,2,0:1:0:0:
205,173,193232,1,0,0:0:0:0:
248,189,193303,1,0,0:0:0:0:
293,177,193375,1,0,0:0:0:0:
328,146,193447,1,8,0:0:0:0:
369,167,193518,1,0,0:0:0:0:
384,210,193589,1,0,0:0:0:0:
366,252,193661,1,0,0:0:0:0:
320,263,193733,6,0,P|335:286|335:332,7,46.875,2|0|0|0|8|0|0|0,0:1|0:0|0:0|0:0|0:0|0:0|0:0|0:0,0:0:0:0:
228,244,194304,5,2,0:1:0:0:
184,259,194375,1,0,0:0:0:0:
141,245,194446,1,0,0:0:0:0:
116,206,194518,1,0,0:0:0:0:
120,160,194589,1,8,0:0:0:0:
152,127,194661,1,0,0:0:0:0:
197,121,194732,1,0,0:0:0:0:
237,145,194804,1,0,0:0:0:0:
274,172,194875,5,2,0:1:0:0:
319,180,194946,1,0,0:0:0:0:
360,160,195017,1,0,0:0:0:0:
380,118,195089,1,0,0:0:0:0:
370,73,195160,1,8,0:0:0:0:
334,44,195232,1,0,0:0:0:0:
288,42,195303,1,0,0:0:0:0:
251,69,195375,1,0,0:0:0:0:
237,115,195447,5,2,0:1:0:0:
229,160,195518,1,0,0:0:0:0:
242,205,195589,1,0,0:0:0:0:
272,241,195661,1,0,0:0:0:0:
314,261,195733,1,8,0:0:0:0:
360,261,195804,1,0,0:0:0:0:
403,242,195875,1,0,0:0:0:0:
433,207,195947,1,0,0:0:0:0:
440,161,196018,5,2,0:1:0:0:
394,160,196089,1,0,0:0:0:0:
358,188,196160,1,0,0:0:0:0:
349,233,196232,1,0,0:0:0:0:
371,274,196303,1,8,0:0:0:0:
413,291,196375,1,0,0:0:0:0:
457,276,196446,1,0,0:0:0:0:
481,237,196518,1,0,0:0:0:0:
477,190,196590,5,2,0:1:0:0:
434,208,196661,1,0,0:0:0:0:
388,203,196732,1,0,0:0:0:0:
350,177,196804,1,0,0:0:0:0:
330,135,196875,1,8,0:0:0:0:
333,89,196947,1,0,0:0:0:0:
359,50,197018,1,0,0:0:0:0:
400,29,197090,1,0,0:0:0:0:
445,39,197161,5,2,0:1:0:0:
398,36,197232,1,0,0:0:0:0:
351,34,197303,1,0,0:0:0:0:
304,31,197375,1,0,0:0:0:0:
257,29,197447,1,8,0:0:0:0:
217,51,197518,1,0,0:0:0:0:
210,95,197589,1,0,0:0:0:0:
242,128,197661,1,0,0:0:0:0:
287,141,197733,5,2,0:1:0:0:
320,173,197804,1,0,0:0:0:0:
330,218,197875,1,0,0:0:0:0:
315,261,197947,1,0,0:0:0:0:
279,290,198018,1,8,0:0:0:0:
233,294,198090,1,0,0:0:0:0:
192,272,198161,1,0,0:0:0:0:
169,232,198233,1,0,0:0:0:0:
177,186,198304,5,2,0:1:0:0:
172,140,198375,1,0,0:0:0:0:
141,106,198446,1,0,0:0:0:0:
96,98,198518,1,0,0:0:0:0:
55,119,198589,1,8,0:0:0:0:
36,160,198661,1,0,0:0:0:0:
45,205,198732,1,0,0:0:0:0:
80,235,198804,1,0,0:0:0:0:
127,230,198875,5,2,0:1:0:0:
153,192,198946,1,0,0:0:0:0:
194,169,199017,1,0,0:0:0:0:
241,167,199089,1,0,0:0:0:0:
283,185,199160,1,8,0:0:0:0:
314,220,199232,1,0,0:0:0:0:
327,265,199303,1,0,0:0:0:0:
318,310,199375,1,0,0:0:0:0:
275,330,199447,5,2,0:1:0:0:
321,332,199518,1,0,0:0:0:0:
368,335,199589,1,0,0:0:0:0:
415,338,199661,1,0,0:0:0:0:
462,345,199733,1,8,0:0:0:0:
472,300,199804,1,0,0:0:0:0:
451,260,199875,1,0,0:0:0:0:
408,244,199947,1,0,0:0:0:0:
361,249,200018,5,2,0:1:0:0:
319,269,200089,1,0,0:0:0:0:
273,265,200160,1,0,0:0:0:0:
236,237,200232,1,0,0:0:0:0:
220,194,200303,1,8,0:0:0:0:
229,149,200375,1,0,0:0:0:0:
261,115,200446,1,0,0:0:0:0:
305,103,200518,1,0,0:0:0:0:
351,110,200590,5,2,0:1:0:0:
344,155,200661,1,0,0:0:0:0:
312,188,200732,1,0,0:0:0:0:
266,195,200804,1,0,0:0:0:0:
226,173,200875,1,8,0:0:0:0:
206,131,200947,1,0,0:0:0:0:
216,86,201018,1,0,0:0:0:0:
250,56,201090,1,0,0:0:0:0:
297,57,201161,5,2,0:1:0:0:
277,54,201232,1,0,0:0:0:0:
257,52,201303,1,0,0:0:0:0:
237,50,201375,1,0,0:0:0:0:
217,48,201446,1,8,0:0:0:0:
197,46,201518,1,0,0:0:0:0:
177,44,201589,1,0,0:0:0:0:
157,41,201661,1,0,0:0:0:0:
133,38,201733,5,2,0:1:0:0:
113,36,201804,1,0,0:0:0:0:
93,39,201875,1,0,0:0:0:0:
76,49,201947,1,0,0:0:0:0:
62,64,202018,1,8,0:0:0:0:
53,82,202090,1,0,0:0:0:0:
50,102,202161,1,0,0:0:0:0:
53,121,202233,1,0,0:0:0:0:
67,140,202304,5,2,0:1:0:0:
85,148,202375,1,0,0:0:0:0:
100,161,202446,1,0,0:0:0:0:
110,179,202518,1,0,0:0:0:0:
114,198,202589,1,8,0:0:0:0:
112,218,202661,1,0,0:0:0:0:
105,236,202732,1,0,0:0:0:0:
92,252,202804,1,0,0:0:0:0:
72,264,202875,5,2,0:1:0:0:
118,261,202946,1,0,0:0:0:0:
165,258,203017,1,0,0:0:0:0:
212,256,203089,1,0,0:0:0:0:
259,253,203161,1,8,0:0:0:0:
213,242,203232,1,0,0:0:0:0:
167,231,203303,1,0,0:0:0:0:
122,220,203375,1,0,0:0:0:0:
167,208,203447,5,2,0:1:0:0:
213,199,203518,1,0,0:0:0:0:
259,190,203589,1,0,0:0:0:0:
306,181,203661,1,0,0:0:0:0:
352,174,203733,1,0,0:0:0:0:
396,186,203804,1,0,0:0:0:0:
420,225,203875,1,0,0:0:0:0:
412,270,203947,1,0,0:0:0:0:
384,301,204018,5,2,0:1:0:0:
347,330,204089,1,0,0:0:0:0:
301,337,204160,1,0,0:0:0:0:
258,322,204232,1,0,0:0:0:0:
227,288,204303,1,8,0:0:0:0:
216,242,204375,1,0,0:0:0:0:
229,198,204446,1,0,0:0:0:0:
261,165,204518,1,0,0:0:0:0:
307,155,204590,5,2,0:1:0:0:
264,172,204661,1,0,0:0:0:0:
219,162,204732,1,0,0:0:0:0:
188,128,204804,1,0,0:0:0:0:
182,82,204875,1,8,0:0:0:0:
204,41,204947,1,0,0:0:0:0:
245,25,205018,1,0,0:0:0:0:
291,27,205090,1,0,0:0:0:0:
325,59,205161,5,2,0:1:0:0:
319,105,205232,1,0,0:0:0:0:
294,144,205303,1,0,0:0:0:0:
256,170,205375,1,0,0:0:0:0:
210,177,205446,1,8,0:0:0:0:
165,164,205518,1,0,0:0:0:0:
130,134,205589,1,0,0:0:0:0:
110,92,205661,1,0,0:0:0:0:
118,45,205733,5,2,0:1:0:0:
72,53,205804,1,0,0:0:0:0:
44,89,205875,1,0,0:0:0:0:
47,135,205947,1,0,0:0:0:0:
78,168,206018,1,8,0:0:0:0:
124,172,206090,1,0,0:0:0:0:
161,145,206161,1,0,0:0:0:0:
172,101,206233,1,0,0:0:0:0:
152,58,206304,5,2,0:1:0:0:
197,50,206375,1,0,0:0:0:0:
235,75,206446,1,0,0:0:0:0:
247,120,206518,1,0,0:0:0:0:
227,161,206589,1,8,0:0:0:0:
184,177,206661,1,0,0:0:0:0:
141,161,206732,1,0,0:0:0:0:
120,120,206804,1,0,0:0:0:0:
130,75,206875,5,2,0:1:0:0:
86,89,206946,1,0,0:0:0:0:
57,125,207017,1,0,0:0:0:0:
54,172,207089,1,0,0:0:0:0:
78,211,207160,1,8,0:0:0:0:
120,231,207232,1,0,0:0:0:0:
165,224,207303,1,0,0:0:0:0:
199,193,207375,1,0,0:0:0:0:
199,145,207447,5,2,0:1:0:0:
241,161,207518,1,0,0:0:0:0:
265,200,207589,1,0,0:0:0:0:
258,246,207661,1,0,0:0:0:0:
225,277,207732,1,8,0:0:0:0:
179,281,207804,1,0,0:0:0:0:
141,255,207875,1,0,0:0:0:0:
128,211,207947,1,0,0:0:0:0:
150,170,208018,5,2,0:1:0:0:
169,173,208089,1,0,0:0:0:0:
189,168,208160,1,0,0:0:0:0:
205,156,208232,1,0,0:0:0:0:
215,139,208303,1,8,0:0:0:0:
217,119,208375,1,0,0:0:0:0:
212,100,208446,1,0,0:0:0:0:
200,84,208518,1,0,0:0:0:0:
178,75,208590,5,2,0:0:0:0:
198,73,208661,1,0,0:0:0:0:
218,71,208732,1,0,0:0:0:0:
238,69,208804,1,0,0:0:0:0:
258,67,208875,1,8,0:0:0:0:
278,66,208947,1,0,0:0:0:0:
298,64,209018,1,0,0:0:0:0:
318,62,209090,1,0,0:0:0:0:
341,60,209161,1,2,0:0:0:0:
360,62,209232,1,0,0:0:0:0:
378,70,209303,1,0,0:0:0:0:
392,85,209375,1,0,0:0:0:0:
399,103,209446,1,8,0:0:0:0:
400,123,209518,1,0,0:0:0:0:
393,142,209589,1,0,0:0:0:0:
380,157,209661,1,0,0:0:0:0:
359,167,209733,5,2,0:0:0:0:
355,166,209804,1,0,0:0:0:0:
352,166,209875,1,0,0:0:0:0:
349,166,209947,1,0,0:0:0:0:
346,165,210018,1,2,0:0:0:0:
343,165,210090,1,0,0:0:0:0:
340,165,210161,1,0,0:0:0:0:
337,164,210233,1,0,0:0:0:0:
334,164,210304,1,2,0:0:0:0:
331,164,210375,1,0,0:0:0:0:
327,163,210447,1,0,0:0:0:0:
324,163,210518,1,0,0:0:0:0:
321,163,210590,1,2,0:0:0:0:
318,162,210661,1,0,0:0:0:0:
315,162,210733,1,0,0:0:0:0:
312,162,210804,1,0,0:0:0:0:
307,161,210875,5,4,0:1:0:0:
37,226,211447,1,8,0:0:0:0:
481,281,212018,5,2,0:0:0:0:
16,150,212590,1,8,0:0:0:0:
485,114,213161,6,0,L|400:120,1,75,2|8,0:0|0:0,0:0:0:0:
31,90,213733,2,0,L|104:102,1,75,2|8,0:0|0:0,0:0:0:0:
361,320,214304,2,0,L|347:277,1,37.5,2|2,0:0|0:0,0:0:0:0:
317,107,214590,1,8,0:0:0:0:
200,287,214733,1,2,0:0:0:0:
62,161,214875,2,0,L|115:158,1,37.5,2|2,0:0|0:0,0:0:0:0:
317,107,215161,2,0,L|265:103,1,37.5,8|2,0:0|0:0,0:0:0:0:
86,43,215447,6,0,L|114:43,7,18.75,2|0|0|0|0|0|0|0,0:0|0:0|0:0|0:0|0:0|0:0|0:0|0:0,0:0:0:0:
478,30,216018,2,0,L|443:26,7,18.75,8|0|0|0|0|0|0|0,0:0|0:0|0:0|0:0|0:0|0:0|0:0|0:0,0:0:0:0:
387,320,216590,6,0,L|369:289,7,18.75,2|0|0|0|0|0|0|0,0:0|0:0|0:0|0:0|0:0|0:0|0:0|0:0,0:0:0:0:
32,91,217161,2,0,L|0:84,7,18.75,8|0|0|0|0|0|0|0,0:0|0:0|0:0|0:0|0:0|0:0|0:0|0:0,0:0:0:0:
407,142,217733,6,0,L|363:146,1,37.5,2|0,0:0|0:0,0:0:0:0:
150,171,218018,2,0,L|103:157,1,37.5,8|0,0:0|0:0,0:0:0:0:
377,27,218304,1,2,0:0:0:0:
141,82,218447,1,0,0:0:0:0:
359,301,218590,2,0,L|365:252,1,37.5,8|0,0:0|0:0,0:0:0:0:
225,217,218875,6,0,L|210:189,1,18.75,2|0,0:0|0:0,0:0:0:0:
397,117,219018,2,0,L|404:97,1,18.75,2|0,0:0|0:0,0:0:0:0:
110,33,219161,6,0,L|143:35,1,18.75,8|0,0:0|0:0,0:0:0:0:
316,58,219304,2,0,L|345:61,1,18.75,2|0,0:0|0:0,0:0:0:0:
83,203,219447,6,0,L|52:206,1,18.75,2|0,0:0|0:0,0:0:0:0:
287,149,219590,2,0,L|255:143,1,18.75,2|0,0:0|0:0,0:0:0:0:
473,249,219733,6,0,L|442:250,1,18.75,8|0,0:0|0:0,0:0:0:0:
179,224,219875,2,0,L|210:223,1,18.75,2|0,0:0|0:0,0:0:0:0:
424,362,220018,6,0,L|422:340,7,18.75,2|0|0|0|0|0|0|0,0:0|0:0|0:0|0:0|0:0|0:0|0:0|0:0,0:0:0:0:
219,194,220590,2,0,L|221:172,7,18.75,8|0|0|0|0|0|0|0,0:0|0:0|0:0|0:0|0:0|0:0|0:0|0:0,0:0:0:0:
48,252,221161,6,0,L|70:250,7,18.75,2|0|0|0|0|0|0|0,0:0|0:0|0:0|0:0|0:0|0:0|0:0|0:0,0:0:0:0:
216,47,221733,2,0,L|238:49,7,18.75,8|0|0|0|0|0|0|0,0:0|0:0|0:0|0:0|0:0|0:0|0:0|0:0,0:0:0:0:
426,114,222304,5,2,0:0:0:0:
429,121,222375,1,0,0:0:0:0:
432,128,222446,1,0,0:0:0:0:
434,136,222518,1,0,0:0:0:0:
435,144,222589,1,0,0:0:0:0:
436,152,222661,1,0,0:0:0:0:
437,160,222733,1,0,0:0:0:0:
436,168,222804,1,0,0:0:0:0:
434,175,222875,1,8,0:0:0:0:
422,189,222946,1,0,0:0:0:0:
415,207,223017,1,0,0:0:0:0:
413,225,223089,1,0,0:0:0:0:
415,244,223160,1,0,0:0:0:0:
422,261,223232,1,0,0:0:0:0:
434,276,223303,1,0,0:0:0:0:
449,287,223375,1,0,0:0:0:0:
466,295,223447,5,2,0:0:0:0:
447,297,223518,1,0,0:0:0:0:
428,299,223589,1,0,0:0:0:0:
410,301,223661,1,0,0:0:0:0:
391,306,223733,1,0,0:0:0:0:
372,303,223804,1,0,0:0:0:0:
353,300,223875,1,0,0:0:0:0:
335,297,223947,1,0,0:0:0:0:
317,293,224018,1,8,0:0:0:0:
302,304,224089,1,0,0:0:0:0:
284,310,224160,1,0,0:0:0:0:
266,307,224232,1,0,0:0:0:0:
250,297,224303,1,0,0:0:0:0:
240,281,224375,1,0,0:0:0:0:
238,263,224446,1,0,0:0:0:0:
242,245,224518,1,0,0:0:0:0:
255,231,224590,5,2,0:0:0:0:
239,241,224661,1,0,0:0:0:0:
222,247,224732,1,0,0:0:0:0:
203,248,224804,1,0,0:0:0:0:
185,244,224875,1,0,0:0:0:0:
169,234,224947,1,0,0:0:0:0:
156,220,225018,1,0,0:0:0:0:
148,203,225090,1,0,0:0:0:0:
151,185,225161,1,8,0:0:0:0:
132,184,225232,1,0,0:0:0:0:
114,189,225303,1,0,0:0:0:0:
98,198,225375,1,0,0:0:0:0:
85,212,225446,1,0,0:0:0:0:
77,229,225518,1,0,0:0:0:0:
74,248,225589,1,0,0:0:0:0:
77,266,225661,1,0,0:0:0:0:
90,280,225733,6,0,L|125:284,7,18.75,2|0|0|0|0|0|0|0,0:0|0:0|0:0|0:0|0:0|0:0|0:0|0:0,0:0:0:0:
348,153,226304,2,0,L|317:155,7,18.75,8|0|0|0|0|0|0|0,0:0|0:0|0:0|0:0|0:0|0:0|0:0|0:0,0:0:0:0:
145,199,226875,5,2,0:0:0:0:
137,194,226946,1,0,0:0:0:0:
130,189,227017,1,0,0:0:0:0:
125,182,227089,1,0,0:0:0:0:
121,174,227160,1,0,0:0:0:0:
119,166,227232,1,0,0:0:0:0:
118,157,227303,1,0,0:0:0:0:
119,148,227375,1,0,0:0:0:0:
122,140,227446,1,8,0:0:0:0:
127,133,227517,1,0,0:0:0:0:
133,126,227589,1,0,0:0:0:0:
140,121,227660,1,0,0:0:0:0:
148,118,227732,1,0,0:0:0:0:
157,116,227803,1,0,0:0:0:0:
165,116,227875,1,0,0:0:0:0:
174,118,227946,1,0,0:0:0:0:
182,124,228017,5,2,0:0:0:0:
187,130,228089,1,0,0:0:0:0:
194,136,228160,1,0,0:0:0:0:
201,141,228232,1,0,0:0:0:0:
208,146,228303,1,0,0:0:0:0:
216,150,228375,1,0,0:0:0:0:
224,153,228446,1,0,0:0:0:0:
232,156,228518,1,0,0:0:0:0:
241,157,228589,1,8,0:0:0:0:
250,158,228660,1,0,0:0:0:0:
258,159,228732,1,0,0:0:0:0:
267,158,228803,1,0,0:0:0:0:
276,156,228875,1,0,0:0:0:0:
284,154,228946,1,0,0:0:0:0:
292,151,229018,1,0,0:0:0:0:
300,147,229089,1,0,0:0:0:0:
307,142,229161,6,0,L|418:134,1,75,6|0,0:1|0:0,0:0:0:0:
170,27,229447,1,8,0:0:0:0:
380,60,229590,1,0,0:0:0:0:
317,296,229733,6,0,L|309:204,1,75,2|0,0:0|0:0,0:0:0:0:
170,27,230018,2,0,L|156:111,1,75,8|0,0:0|0:0,0:0:0:0:
109,305,230304,5,2,0:0:0:0:
18,184,230447,1,0,0:0:0:0:
157,100,230590,1,8,0:0:0:0:
108,222,230733,1,0,0:0:0:0:
252,303,230875,6,0,L|236:217,1,75,2|0,0:0|0:0,0:0:0:0:
373,107,231161,1,8,0:0:0:0:
332,242,231304,1,0,0:0:0:0:
196,150,231447,5,2,0:0:0:0:
373,107,231590,2,0,L|271:96,1,75,0|8,0:0|0:0,0:0:0:0:
160,79,231875,1,0,0:0:0:0:
69,171,232018,5,2,0:0:0:0:
15,12,232161,1,0,0:0:0:0:
160,79,232304,2,0,L|259:93,1,75,8|0,0:0|0:0,0:0:0:0:
407,157,232590,6,0,L|312:177,1,75,2|0,0:0|0:0,0:0:0:0:
195,319,232875,2,0,L|100:273,1,75,8|0,0:0|0:0,0:0:0:0:
256,218,233161,5,2,0:0:0:0:
477,263,233304,1,0,0:0:0:0:
267,131,233447,1,8,0:0:0:0:
417,337,233590,1,8,0:0:0:0:
441,91,233733,6,0,L|432:185,1,75,2|0,0:0|0:0,0:0:0:0:
286,329,234018,2,0,L|271:222,1,75,8|0,0:0|0:0,0:0:0:0:
106,199,234304,5,2,0:0:0:0:
256,62,234447,1,0,0:0:0:0:
206,334,234590,1,8,0:0:0:0:
182,198,234733,1,0,0:0:0:0:
331,122,234875,6,0,L|422:120,1,75,2|0,0:0|0:0,0:0:0:0:
232,44,235161,2,0,L|144:42,1,75,8|0,0:0|0:0,0:0:0:0:
366,21,235447,5,2,0:0:0:0:
209,125,235590,1,0,0:0:0:0:
406,197,235733,1,8,0:0:0:0:
255,251,235875,1,0,0:0:0:0:
381,342,236018,6,0,P|411:302|419:262,1,75,2|0,0:0|0:0,0:0:0:0:
255,251,236304,2,0,P|226:215|213:166,1,75,8|0,0:0|0:0,0:0:0:0:
433,138,236590,5,2,0:0:0:0:
297,96,236733,1,0,0:0:0:0:
451,37,236875,1,8,0:0:0:0:
229,24,237018,1,0,0:0:0:0:
54,118,237161,6,0,L|146:98,1,75,2|0,0:0|0:0,0:0:0:0:
269,114,237447,2,0,L|352:133,1,75
54,118,237733,6,0,L|146:98,1,75,2|0,0:0|0:0,0:0:0:0:
254,273,238018,1,8,0:0:0:0:
231,165,238161,1,0,0:0:0:0:
325,55,238304,5,0,0:0:0:0:
441,124,238447,1,0,0:0:0:0:
455,258,238590,1,8,0:0:0:0:
351,345,238733,1,0,0:0:0:0:
219,318,238875,5,2,0:0:0:0:
119,226,239018,1,0,0:0:0:0:
176,103,239161,1,8,0:0:0:0:
295,39,239304,1,0,0:0:0:0:
317,172,239447,5,2,0:0:0:0:
420,84,239590,1,0,0:0:0:0:
454,214,239733,1,8,0:0:0:0:
419,343,239875,1,0,0:0:0:0:
289,305,240018,5,2,0:0:0:0:
158,268,240161,1,0,0:0:0:0:
221,148,240304,1,8,0:0:0:0:
122,55,240447,1,0,0:0:0:0:
255,34,240590,5,2,0:0:0:0:
390,30,240733,1,0,0:0:0:0:
510,90,240875,1,8,0:0:0:0:
383,137,241018,1,0,0:0:0:0:
248,127,241161,5,2,0:0:0:0:
113,110,241304,1,0,0:0:0:0:
18,206,241447,1,8,0:0:0:0:
92,318,241590,1,0,0:0:0:0:
200,237,241733,5,2,0:0:0:0:
283,131,241875,1,0,0:0:0:0:
392,210,242018,1,8,0:0:0:0:
413,76,242161,1,0,0:0:0:0:
505,158,242304,5,2,0:0:0:0:
417,261,242447,1,0,0:0:0:0:
283,284,242590,1,8,0:0:0:0:
148,271,242733,1,0,0:0:0:0:
263,203,242875,5,2,0:0:0:0:
373,125,243018,1,0,0:0:0:0:
450,14,243161,1,8,0:0:0:0:
316,36,243304,1,0,0:0:0:0:
180,34,243447,5,2,0:0:0:0:
51,76,243590,1,0,0:0:0:0:
112,196,243733,1,8,0:0:0:0:
242,228,243875,1,0,0:0:0:0:
346,141,244018,6,0,L|368:52,1,75,2|0,0:0|0:0,0:0:0:0:
399,199,244304,1,8,0:0:0:0:
432,329,244447,1,0,0:0:0:0:
314,263,244590,5,2,0:0:0:0:
179,274,244733,2,0,L|82:283,1,75,0|8,0:0|0:0,0:0:0:0:
48,158,245018,1,0,0:0:0:0:
173,108,245161,5,2,0:0:0:0:
302,70,245304,1,0,0:0:0:0:
436,76,245447,2,0,L|458:170,1,75,8|0,0:0|0:0,0:0:0:0:
350,238,245733,5,2,0:0:0:0:
221,276,245875,1,0,0:0:0:0:
87,256,246018,1,8,0:0:0:0:
34,131,246161,1,0,0:0:0:0:
159,80,246304,5,2,0:0:0:0:
439,33,246875,1,6,0:0:0:0:
349,288,247161,1,6,0:0:0:0:
231,260,247447,5,2,0:0:0:0:
215,263,247518,1,0,0:0:0:0:
199,263,247589,1,0,0:0:0:0:
183,259,247661,1,0,0:0:0:0:
170,251,247732,1,8,0:0:0:0:
158,240,247804,1,0,0:0:0:0:
150,226,247875,1,0,0:0:0:0:
145,211,247947,1,0,0:0:0:0:
147,196,248018,1,2,0:0:0:0:
156,183,248089,1,0,0:0:0:0:
162,168,248160,1,0,0:0:0:0:
161,152,248232,1,0,0:0:0:0:
155,137,248303,1,8,0:0:0:0:
144,125,248375,1,0,0:0:0:0:
130,118,248446,1,0,0:0:0:0:
114,116,248518,1,0,0:0:0:0:
100,120,248590,5,2,0:0:0:0:
63,126,248661,1,0,0:0:0:0:
35,151,248732,1,0,0:0:0:0:
25,186,248804,1,0,0:0:0:0:
34,222,248875,1,8,0:0:0:0:
60,248,248947,1,0,0:0:0:0:
96,257,249018,1,0,0:0:0:0:
131,245,249090,1,0,0:0:0:0:
163,225,249161,1,2,0:0:0:0:
190,200,249232,1,0,0:0:0:0:
227,195,249303,1,0,0:0:0:0:
260,212,249375,1,0,0:0:0:0:
279,244,249446,1,8,0:0:0:0:
276,280,249518,1,0,0:0:0:0:
254,310,249589,1,0,0:0:0:0:
219,322,249661,1,0,0:0:0:0:
181,322,249733,5,2,0:0:0:0:
165,320,249804,1,0,0:0:0:0:
149,318,249875,1,0,0:0:0:0:
133,317,249947,1,0,0:0:0:0:
117,315,250018,1,8,0:0:0:0:
101,313,250090,1,0,0:0:0:0:
85,312,250161,1,0,0:0:0:0:
69,310,250233,1,0,0:0:0:0:
54,310,250304,1,2,0:0:0:0:
38,307,250375,1,0,0:0:0:0:
24,299,250446,1,0,0:0:0:0:
13,287,250518,1,0,0:0:0:0:
7,272,250589,1,8,0:0:0:0:
7,256,250661,1,0,0:0:0:0:
11,241,250732,1,0,0:0:0:0:
21,228,250804,1,0,0:0:0:0:
32,218,250875,5,2,0:0:0:0:
69,212,250946,1,0,0:0:0:0:
106,207,251017,1,0,0:0:0:0:
143,202,251089,1,0,0:0:0:0:
180,197,251160,1,8,0:0:0:0:
217,192,251232,1,0,0:0:0:0:
254,187,251303,1,0,0:0:0:0:
292,182,251375,1,0,0:0:0:0:
329,176,251447,1,2,0:0:0:0:
362,192,251518,1,0,0:0:0:0:
386,220,251589,1,0,0:0:0:0:
398,255,251661,1,0,0:0:0:0:
400,293,251733,1,8,0:0:0:0:
362,289,251804,1,0,0:0:0:0:
325,286,251875,1,0,0:0:0:0:
287,283,251947,1,0,0:0:0:0:
250,282,252018,5,2,0:0:0:0:
235,288,252089,1,0,0:0:0:0:
220,294,252160,1,0,0:0:0:0:
205,298,252232,1,0,0:0:0:0:
189,302,252303,1,8,0:0:0:0:
173,303,252375,1,0,0:0:0:0:
157,304,252446,1,0,0:0:0:0:
141,303,252518,1,0,0:0:0:0:
126,299,252590,1,2,0:0:0:0:
110,303,252661,1,0,0:0:0:0:
94,303,252732,1,0,0:0:0:0:
80,297,252804,1,0,0:0:0:0:
68,286,252875,1,8,0:0:0:0:
61,272,252947,1,0,0:0:0:0:
59,256,253018,1,0,0:0:0:0:
62,240,253090,1,0,0:0:0:0:
70,227,253161,5,2,0:0:0:0:
76,212,253232,1,0,0:0:0:0:
85,198,253303,1,0,0:0:0:0:
95,186,253375,1,0,0:0:0:0:
107,175,253446,1,8,0:0:0:0:
120,166,253518,1,0,0:0:0:0:
135,159,253589,1,0,0:0:0:0:
150,154,253661,1,0,0:0:0:0:
165,153,253733,1,2,0:0:0:0:
180,168,253804,1,0,0:0:0:0:
197,181,253875,1,0,0:0:0:0:
215,191,253947,1,0,0:0:0:0:
235,199,254018,1,8,0:0:0:0:
256,203,254090,1,0,0:0:0:0:
278,205,254161,1,0,0:0:0:0:
299,203,254233,1,0,0:0:0:0:
319,194,254304,5,2,0:0:0:0:
336,214,254375,1,0,0:0:0:0:
360,224,254446,1,0,0:0:0:0:
387,224,254518,1,0,0:0:0:0:
410,211,254589,1,8,0:0:0:0:
426,190,254661,1,0,0:0:0:0:
432,164,254732,1,0,0:0:0:0:
426,139,254804,1,0,0:0:0:0:
417,114,254875,1,2,0:0:0:0:
400,88,254946,1,0,0:0:0:0:
372,73,255017,1,0,0:0:0:0:
340,75,255089,1,0,0:0:0:0:
314,94,255160,1,8,0:0:0:0:
302,123,255232,1,0,0:0:0:0:
305,154,255303,1,0,0:0:0:0:
325,179,255375,1,0,0:0:0:0:
355,193,255447,5,2,0:0:0:0:
385,214,255518,1,0,0:0:0:0:
400,248,255589,1,0,0:0:0:0:
397,285,255661,1,0,0:0:0:0:
376,315,255732,1,8,0:0:0:0:
343,332,255804,1,0,0:0:0:0:
306,330,255875,1,0,0:0:0:0:
275,309,255947,1,0,0:0:0:0:
257,281,256018,1,2,0:0:0:0:
249,244,256089,1,0,0:0:0:0:
223,218,256160,1,0,0:0:0:0:
186,212,256232,1,0,0:0:0:0:
152,226,256303,1,8,0:0:0:0:
132,257,256375,1,0,0:0:0:0:
133,294,256446,1,0,0:0:0:0:
154,324,256518,1,0,0:0:0:0:
182,343,256590,6,0,L|280:337,1,75,2|0,0:0|0:0,0:0:0:0:
374,275,256875,1,8,0:0:0:0:
351,160,257018,1,0,0:0:0:0:
198,42,257161,6,0,L|223:127,1,75,2|0,0:0|0:0,0:0:0:0:
411,4,257447,2,0,L|392:77,1,75,8|0,0:0|0:0,0:0:0:0:
276,277,257733,6,0,L|303:185,1,75,2|0,0:0|0:0,0:0:0:0:
296,171,257947,1,0,0:0:0:0:
279,141,258018,1,8,0:0:0:0:
74,69,258161,2,0,L|185:64,1,75,0|2,0:0|0:0,0:0:0:0:
350,28,258447,1,0,0:0:0:0:
131,213,258590,1,8,0:0:0:0:
242,26,258733,1,0,0:0:0:0:
365,117,258875,6,0,L|386:221,1,75,2|0,0:0|0:0,0:0:0:0:
293,361,259161,1,8,0:0:0:0:
173,215,259304,1,0,0:0:0:0:
135,217,259375,1,0,0:0:0:0:
98,220,259446,1,2,0:0:0:0:
307,93,259590,1,0,0:0:0:0:
18,30,259733,1,8,0:0:0:0:
51,29,259804,1,0,0:0:0:0:
84,28,259875,1,0,0:0:0:0:
291,48,260018,6,0,L|391:54,1,75,2|0,0:0|0:0,0:0:0:0:
104,166,260304,1,8,0:0:0:0:
393,306,260447,1,0,0:0:0:0:
263,25,260590,1,2,0:0:0:0:
202,345,260733,1,0,0:0:0:0:
436,97,260875,1,8,0:0:0:0:
408,103,260946,1,0,0:0:0:0:
381,110,261017,1,0,0:0:0:0:
353,116,261089,1,0,0:0:0:0:
326,123,261160,5,2,0:0:0:0:
103,42,261304,1,0,0:0:0:0:
120,70,261375,1,0,0:0:0:0:
137,99,261447,1,8,0:0:0:0:
245,273,261590,1,0,0:0:0:0:
262,245,261661,1,0,0:0:0:0:
279,216,261733,1,2,0:0:0:0:
481,56,261875,2,0,L|421:51,2,37.5,0|0|8,0:0|0:0|0:0,0:0:0:0:
288,93,262161,1,0,0:0:0:0:
153,171,262304,6,0,P|90:186|56:181,1,75,2|0,0:0|0:0,0:0:0:0:
265,76,262590,2,0,P|304:62|343:65,1,75,8|0,0:0|0:0,0:0:0:0:
266,318,262875,2,0,L|257:233,1,75,2|0,0:0|0:0,0:0:0:0:
252,217,263090,1,0,0:0:0:0:
284,210,263161,1,8,0:0:0:0:
314,189,263232,1,0,0:0:0:0:
327,155,263303,1,0,0:0:0:0:
75,76,263447,5,2,0:0:0:0:
329,29,263590,1,0,0:0:0:0:
124,279,263733,1,8,0:0:0:0:
188,30,263875,1,0,0:0:0:0:
265,352,264018,5,2,0:0:0:0:
350,147,264161,1,0,0:0:0:0:
86,189,264304,1,8,0:0:0:0:
407,33,264447,1,0,0:0:0:0:
96,339,264590,5,2,0:0:0:0:
239,23,264733,1,0,0:0:0:0:
239,23,264804,1,0,0:0:0:0:
239,23,264875,1,8,0:0:0:0:
333,263,265018,1,0,0:0:0:0:
333,263,265090,1,0,0:0:0:0:
333,263,265161,1,2,0:0:0:0:
67,191,265304,1,0,0:0:0:0:
464,79,265447,1,10,0:0:0:0:
0,36,265590,1,0,0:0:0:0:
235,317,265733,5,6,0:1:0:0:
210,288,265804,1,0,0:0:0:0:
203,252,265875,1,0,0:0:0:0:
215,217,265947,1,0,0:0:0:0:
243,192,266018,1,8,0:0:0:0:
279,184,266090,1,0,0:0:0:0:
314,195,266161,1,0,0:0:0:0:
339,222,266233,1,0,0:0:0:0:
351,258,266304,1,2,0:1:0:0:
372,288,266375,1,0,0:0:0:0:
406,301,266446,1,0,0:0:0:0:
442,292,266518,1,0,0:0:0:0:
467,265,266589,1,8,0:0:0:0:
473,229,266661,1,0,0:0:0:0:
457,195,266732,1,0,0:0:0:0:
425,177,266804,1,0,0:0:0:0:
387,178,266875,5,2,0:1:0:0:
356,199,266946,1,0,0:0:0:0:
320,207,267017,1,0,0:0:0:0:
284,198,267089,1,0,0:0:0:0:
254,175,267160,1,8,0:0:0:0:
237,142,267232,1,0,0:0:0:0:
236,105,267303,1,0,0:0:0:0:
250,71,267375,1,0,0:0:0:0:
279,46,267447,1,2,0:1:0:0:
314,36,267518,1,0,0:0:0:0:
351,44,267589,1,0,0:0:0:0:
380,67,267661,1,0,0:0:0:0:
396,101,267732,1,8,0:0:0:0:
394,138,267804,1,0,0:0:0:0:
377,170,267875,1,0,0:0:0:0:
346,192,267947,1,0,0:0:0:0:
309,194,268018,5,2,0:1:0:0:
272,171,268089,1,0,0:0:0:0:
230,165,268160,1,0,0:0:0:0:
189,175,268232,1,0,0:0:0:0:
155,201,268303,1,8,0:0:0:0:
133,238,268375,1,0,0:0:0:0:
128,280,268446,1,0,0:0:0:0:
139,321,268518,1,0,0:0:0:0:
162,353,268590,1,2,0:1:0:0:
207,336,268661,1,0,0:0:0:0:
252,320,268732,1,0,0:0:0:0:
298,304,268804,1,0,0:0:0:0:
343,288,268875,1,8,0:0:0:0:
389,272,268947,1,0,0:0:0:0:
434,256,269018,1,0,0:0:0:0:
480,240,269090,1,0,0:0:0:0:
502,193,269161,5,2,0:1:0:0:
503,134,269232,1,0,0:0:0:0:
472,85,269303,1,0,0:0:0:0:
420,59,269375,1,0,0:0:0:0:
362,66,269446,1,8,0:0:0:0:
317,103,269518,1,0,0:0:0:0:
299,158,269589,1,0,0:0:0:0:
314,215,269661,1,0,0:0:0:0:
357,257,269733,1,2,0:1:0:0:
351,320,269804,1,0,0:0:0:0:
306,363,269875,1,0,0:0:0:0:
243,366,269947,1,0,0:0:0:0:
193,328,270018,1,8,0:0:0:0:
181,266,270090,1,0,0:0:0:0:
212,211,270161,1,0,0:0:0:0:
271,190,270233,1,0,0:0:0:0:
329,203,270304,5,2,0:1:0:0:
399,223,270375,1,0,0:0:0:0:
467,195,270446,1,0,0:0:0:0:
500,129,270518,1,0,0:0:0:0:
485,58,270589,1,8,0:0:0:0:
427,12,270661,1,0,0:0:0:0:
353,14,270732,1,0,0:0:0:0:
298,63,270804,1,0,0:0:0:0:
260,127,270875,1,2,0:1:0:0:
227,192,270946,1,0,0:0:0:0:
158,217,271017,1,0,0:0:0:0:
91,187,271089,1,0,0:0:0:0:
63,119,271160,1,8,0:0:0:0:
90,51,271232,1,0,0:0:0:0:
156,20,271303,1,0,0:0:0:0:
226,44,271375,1,0,0:0:0:0:
263,110,271447,5,2,0:1:0:0:
197,144,271518,1,0,0:0:0:0:
163,209,271589,1,0,0:0:0:0:
173,282,271661,1,0,0:0:0:0:
224,336,271732,1,8,0:0:0:0:
296,351,271804,1,0,0:0:0:0:
364,321,271875,1,0,0:0:0:0:
402,258,271947,1,0,0:0:0:0:
459,210,272018,1,2,0:1:0:0:
439,139,272089,1,0,0:0:0:0:
382,92,272160,1,0,0:0:0:0:
309,87,272232,1,0,0:0:0:0:
246,126,272303,1,8,0:0:0:0:
218,194,272375,1,0,0:0:0:0:
234,266,272446,1,0,0:0:0:0:
290,314,272518,1,0,0:0:0:0:
364,326,272590,5,2,0:1:0:0:
435,281,272661,1,0,0:0:0:0:
471,204,272732,1,0,0:0:0:0:
458,121,272804,1,0,0:0:0:0:
401,58,272875,1,8,0:0:0:0:
320,37,272947,1,0,0:0:0:0:
240,65,273018,1,0,0:0:0:0:
189,132,273090,1,0,0:0:0:0:
182,213,273161,1,2,0:1:0:0:
198,296,273232,1,0,0:0:0:0:
265,345,273303,1,0,0:0:0:0:
349,335,273375,1,0,0:0:0:0:
402,271,273446,1,8,0:0:0:0:
398,187,273518,1,0,0:0:0:0:
338,129,273589,1,0,0:0:0:0:
255,127,273661,1,0,0:0:0:0:
178,159,273733,5,2,0:1:0:0:
102,196,273804,1,0,0:0:0:0:
27,156,273875,1,2,0:1:0:0:
15,73,273947,1,0,0:0:0:0:
93,100,274018,1,8,0:0:0:0:
169,137,274089,1,0,0:0:0:0:
244,98,274160,1,2,0:1:0:0:
256,15,274232,1,0,0:0:0:0:
324,62,274304,6,8,B|393:136|265:160|330:235,2,187.5,10|10|10,0:0|0:0|0:0,0:0:0:0:
189,124,274875,5,6,0:1:0:0:
123,174,274947,1,0,0:0:0:0:
144,253,275017,1,0,0:0:0:0:
226,264,275089,1,0,0:0:0:0:
297,220,275161,2,0,P|295:195|309:156,1,37.5,8|0,0:0|0:0,0:0:0:0:
299,100,275304,2,0,L|315:42,1,37.5
381,24,275447,1,2,0:1:0:0:
462,46,275518,1,0,0:0:0:0:
490,126,275589,1,0,0:0:0:0:
441,194,275661,1,0,0:0:0:0:
362,221,275733,1,8,0:0:0:0:
279,224,275804,1,0,0:0:0:0:
251,301,275875,1,0,0:0:0:0:
313,356,275947,1,0,0:0:0:0:
394,367,276018,5,2,0:1:0:0:
470,337,276089,1,0,0:0:0:0:
470,255,276160,1,0,0:0:0:0:
394,225,276232,1,0,0:0:0:0:
310,229,276304,2,0,P|285:237|256:236,1,37.5,8|0,0:0|0:0,0:0:0:0:
180,218,276447,2,0,P|143:213|124:203,1,37.5
114,134,276590,1,2,0:1:0:0:
153,60,276661,1,0,0:0:0:0:
231,28,276732,1,0,0:0:0:0:
312,52,276804,1,0,0:0:0:0:
358,122,276875,1,8,0:0:0:0:
350,206,276947,1,0,0:0:0:0:
290,265,277018,1,0,0:0:0:0:
207,274,277090,1,0,0:0:0:0:
129,247,277161,5,2,0:1:0:0:
61,190,277232,1,0,0:0:0:0:
58,103,277303,1,0,0:0:0:0:
120,42,277375,1,0,0:0:0:0:
207,46,277446,1,8,0:0:0:0:
263,114,277518,1,0,0:0:0:0:
278,196,277590,2,0,P|284:219|283:264,1,37.5
250,310,277733,1,2,0:1:0:0:
322,358,277804,1,0,0:0:0:0:
408,340,277875,1,0,0:0:0:0:
455,266,277947,1,0,0:0:0:0:
434,181,278018,1,8,0:0:0:0:
359,137,278090,1,0,0:0:0:0:
277,147,278161,2,0,P|243:149|216:143,1,37.5
43,127,278304,5,2,0:1:0:0:
65,122,278375,1,0,0:0:0:0:
87,117,278446,1,0,0:0:0:0:
109,113,278518,1,0,0:0:0:0:
131,108,278589,1,8,0:0:0:0:
153,103,278661,1,0,0:0:0:0:
175,98,278733,2,0,L|230:109,1,37.5
410,60,278875,5,2,0:1:0:0:
405,97,278946,1,0,0:0:0:0:
401,134,279017,1,0,0:0:0:0:
396,171,279089,1,0,0:0:0:0:
392,208,279160,1,8,0:0:0:0:
387,246,279232,1,0,0:0:0:0:
380,283,279304,2,0,L|438:283,1,37.5
292,341,279447,5,6,0:1:0:0:
235,355,279518,1,0,0:0:0:0:
178,341,279589,1,0,0:0:0:0:
135,302,279661,1,0,0:0:0:0:
116,247,279732,1,8,0:0:0:0:
125,189,279804,1,0,0:0:0:0:
161,143,279875,1,0,0:0:0:0:
214,119,279947,1,0,0:0:0:0:
270,117,280018,1,2,0:1:0:0:
263,179,280089,1,0,0:0:0:0:
299,231,280160,1,4,0:0:0:0:
359,248,280232,1,0,0:0:0:0:
416,222,280303,1,12,0:0:0:0:
443,165,280375,1,0,0:0:0:0:
427,104,280446,1,4,0:0:0:0:
376,68,280518,1,0,0:0:0:0:
319,62,280590,5,6,0:1:0:0:
245,53,280661,1,0,0:0:0:0:
181,90,280732,1,0,0:0:0:0:
151,158,280804,1,0,0:0:0:0:
167,230,280875,1,12,0:0:0:0:
222,279,280947,1,0,0:0:0:0:
296,285,281018,1,0,0:0:0:0:
359,248,281090,1,0,0:0:0:0:
387,179,281161,1,6,0:1:0:0:
358,99,281232,1,0,0:0:0:0:
287,54,281303,1,4,0:0:0:0:
203,60,281375,1,0,0:0:0:0:
141,117,281446,1,8,0:0:0:0:
126,200,281518,1,0,0:0:0:0:
164,275,281589,1,4,0:0:0:0:
240,311,281661,1,0,0:0:0:0:
322,300,281733,5,2,0:1:0:0:
359,303,281804,1,0,0:0:0:0:
395,295,281875,1,0,0:0:0:0:
429,278,281947,1,0,0:0:0:0:
456,252,282018,1,2,0:1:0:0:
474,220,282090,1,0,0:0:0:0:
484,184,282161,1,0,0:0:0:0:
482,147,282233,1,0,0:0:0:0:
471,111,282304,1,2,0:1:0:0:
450,80,282375,1,0,0:0:0:0:
421,56,282447,1,0,0:0:0:0:
386,42,282518,1,0,0:0:0:0:
349,37,282590,1,2,0:1:0:0:
312,43,282661,1,0,0:0:0:0:
279,58,282733,1,0,0:0:0:0:
250,83,282804,1,0,0:0:0:0:
240,119,282875,5,2,0:0:0:0:
223,123,282946,1,0,0:0:0:0:
207,131,283017,1,0,0:0:0:0:
195,143,283089,1,0,0:0:0:0:
186,159,283160,1,2,0:0:0:0:
182,175,283232,1,0,0:0:0:0:
183,193,283303,1,0,0:0:0:0:
188,209,283375,1,0,0:0:0:0:
198,224,283446,1,2,0:0:0:0:
212,235,283517,1,0,0:0:0:0:
227,242,283589,1,0,0:0:0:0:
245,245,283660,1,0,0:0:0:0:
277,257,283732,1,2,0:0:0:0:
277,257,283803,1,2,0:0:0:0:
277,257,283875,1,2,0:0:0:0:
277,257,283946,1,2,0:0:0:0:
277,257,284018,6,0,L|332:269,1,37.5,6|0,0:1|0:0,0:0:0:0:
468,188,284161,2,0,L|420:195,1,37.5
270,118,284304,1,8,0:0:0:0:
232,121,284375,1,0,0:0:0:0:
195,124,284446,1,0,0:0:0:0:
157,127,284518,1,0,0:0:0:0:
120,130,284590,6,0,L|99:198,1,37.5,2|0,0:0|0:0,0:0:0:0:
235,284,284733,2,0,L|245:330,1,37.5
360,120,284874,2,0,L|350:166,1,37.5,8|0,0:0|0:0,0:0:0:0:
181,204,285018,2,0,L|194:163,1,37.5
363,47,285161,5,2,0:0:0:0:
397,59,285232,1,0,0:0:0:0:
422,87,285303,1,0,0:0:0:0:
428,123,285375,1,0,0:0:0:0:
415,158,285446,1,8,0:0:0:0:
386,181,285518,1,0,0:0:0:0:
349,187,285589,1,0,0:0:0:0:
315,173,285661,1,0,0:0:0:0:
287,148,285733,5,2,0:0:0:0:
254,130,285804,1,0,0:0:0:0:
217,130,285875,1,0,0:0:0:0:
184,149,285947,1,0,0:0:0:0:
165,180,286018,1,8,0:0:0:0:
163,217,286090,1,0,0:0:0:0:
180,251,286161,1,0,0:0:0:0:
210,272,286233,1,0,0:0:0:0:
246,279,286304,5,6,0:0:0:0:
276,257,286375,1,0,0:0:0:0:
312,249,286446,1,0,0:0:0:0:
349,255,286518,1,0,0:0:0:0:
381,275,286589,1,8,0:0:0:0:
403,305,286661,1,0,0:0:0:0:
412,341,286732,1,0,0:0:0:0:
406,378,286804,1,0,0:0:0:0:
371,365,286875,5,2,0:0:0:0:
338,347,286946,1,0,0:0:0:0:
315,318,287017,1,0,0:0:0:0:
304,282,287089,1,0,0:0:0:0:
309,245,287160,1,8,0:0:0:0:
326,213,287232,1,0,0:0:0:0:
356,189,287303,1,0,0:0:0:0:
391,179,287375,1,0,0:0:0:0:
428,176,287447,6,0,L|506:179,1,75,2|0,0:0|0:0,0:0:0:0:
373,101,287733,2,0,L|451:104,1,75,2|0,0:0|0:0,0:0:0:0:
305,24,288018,2,0,L|383:27,1,75,2|0,0:0|0:0,0:0:0:0:
207,24,288161,2,0,L|129:27,1,75,2|0,0:0|0:0,0:0:0:0:
63,59,288304,5,10,0:0:0:0:
36,125,288375,1,8,0:0:0:0:
79,182,288446,1,8,0:0:0:0:
150,173,288518,1,8,0:0:0:0:
224,176,288590,6,0,L|327:188,1,75,2|0,0:0|0:0,0:0:0:0:
447,118,288875,2,0,L|344:130,1,75,2|0,0:0|0:0,0:0:0:0:
224,176,289161,6,0,L|294:184,1,67.4999979400635,2|0,0:0|0:0,0:0:0:0:
447,118,289447,2,0,L|373:126,1,67.4999979400635,2|2,0:0|0:0,0:0:0:0:
224,176,289733,6,0,L|294:184,1,60,2|0,0:0|0:0,0:0:0:0:
447,118,290018,2,0,L|373:126,1,60,2|0,0:0|0:0,0:0:0:0:
224,176,290304,6,0,L|294:184,1,52.4999983978272,2|0,0:0|0:0,0:0:0:0:
447,118,290590,2,0,L|376:126,1,52.4999983978272,2|0,0:0|0:0,0:0:0:0:
106,181,290875,6,0,L|27:183,1,60,2|0,0:0|0:0,0:0:0:0:
164,107,291161,2,0,L|85:109,1,67.4999979400635,2|0,0:0|0:0,0:0:0:0:
171,35,291447,2,0,L|278:43,1,75,2|0,0:0|0:0,0:0:0:0:
283,43,291661,1,0,0:0:0:0:
439,107,291733,2,0,L|449:181,1,75,2|0,0:0|0:0,0:0:0:0:
264,331,292018,6,8,P|190:338|108:306,1,112.500004291535
415,269,292304,1,2,0:0:0:0:
415,269,292375,1,2,0:0:0:0:
415,269,292447,1,2,0:0:0:0:
415,269,292518,1,2,0:0:0:0:
209,264,292590,6,0,B|201:249|201:249|211:231,6,28.1250010728836,2|2|2|2|2|2|2,0:0|0:0|0:0|0:0|0:0|0:0|0:0,0:0:0:0:
369,168,292875,2,0,B|373:164|373:164|385:169,12,14.0625005364418,2|2|2|2|2|2|2|2|2|2|2|2|2,0:0|0:0|0:0|0:0|0:0|0:0|0:0|0:0|0:0|0:0|0:0|0:0|0:0,0:0:0:0:
158,237,293161,5,6,0:1:0:0:
117,213,293232,1,0,0:0:0:0:
94,173,293303,1,0,0:0:0:0:
92,127,293375,1,0,0:0:0:0:
113,86,293446,1,8,0:0:0:0:
151,59,293518,1,0,0:0:0:0:
197,55,293589,1,0,0:0:0:0:
240,73,293661,1,0,0:0:0:0:
275,104,293733,1,2,0:0:0:0:
312,131,293804,1,0,0:0:0:0:
358,135,293875,1,0,0:0:0:0:
400,116,293947,1,0,0:0:0:0:
426,78,294018,1,8,0:0:0:0:
430,31,294090,1,0,0:0:0:0:
416,75,294161,1,0,0:0:0:0:
427,120,294232,1,0,0:0:0:0:
453,159,294304,5,2,0:0:0:0:
466,203,294375,1,0,0:0:0:0:
462,249,294446,1,0,0:0:0:0:
441,291,294518,1,0,0:0:0:0:
406,322,294589,1,8,0:0:0:0:
362,337,294661,1,0,0:0:0:0:
316,336,294732,1,0,0:0:0:0:
273,316,294804,1,0,0:0:0:0:
229,302,294875,1,2,0:0:0:0:
182,300,294946,1,0,0:0:0:0:
136,310,295017,1,0,0:0:0:0:
94,331,295089,1,0,0:0:0:0:
58,362,295161,1,8,0:0:0:0:
104,359,295232,1,0,0:0:0:0:
143,335,295303,1,0,0:0:0:0:
166,294,295375,1,0,0:0:0:0:
151,249,295447,5,2,0:0:0:0:
127,208,295518,1,0,0:0:0:0:
119,162,295589,1,0,0:0:0:0:
127,117,295661,1,0,0:0:0:0:
151,76,295732,1,8,0:0:0:0:
187,47,295804,1,0,0:0:0:0:
231,32,295875,1,0,0:0:0:0:
278,32,295947,1,0,0:0:0:0:
322,44,296018,1,2,0:0:0:0:
290,78,296089,1,0,0:0:0:0:
251,103,296160,1,0,0:0:0:0:
206,117,296232,1,0,0:0:0:0:
159,118,296303,1,8,0:0:0:0:
114,107,296375,1,0,0:0:0:0:
73,84,296446,1,0,0:0:0:0:
39,52,296518,1,0,0:0:0:0:
86,61,296590,5,2,0:0:0:0:
114,97,296661,1,0,0:0:0:0:
122,143,296732,1,0,0:0:0:0:
105,186,296804,1,0,0:0:0:0:
75,221,296875,1,8,0:0:0:0:
72,174,296946,1,0,0:0:0:0:
94,133,297017,1,0,0:0:0:0:
134,109,297089,1,0,0:0:0:0:
180,109,297160,1,2,0:0:0:0:
220,132,297232,1,0,0:0:0:0:
263,153,297304,1,0,0:0:0:0:
308,163,297375,1,0,0:0:0:0:
354,159,297446,1,8,0:0:0:0:
397,141,297518,1,0,0:0:0:0:
432,109,297589,1,0,0:0:0:0:
454,68,297661,1,0,0:0:0:0:
453,20,297733,5,2,0:0:0:0:
408,34,297804,1,0,0:0:0:0:
374,65,297875,1,0,0:0:0:0:
354,107,297947,1,0,0:0:0:0:
352,154,298018,1,8,0:0:0:0:
369,197,298090,1,0,0:0:0:0:
402,230,298161,1,0,0:0:0:0:
445,248,298233,1,0,0:0:0:0:
490,260,298304,1,2,0:0:0:0:
511,300,298375,1,0,0:0:0:0:
492,341,298446,1,0,0:0:0:0:
448,351,298518,1,0,0:0:0:0:
406,327,298590,1,8,0:0:0:0:
366,303,298661,1,0,0:0:0:0:
319,296,298732,1,0,0:0:0:0:
274,307,298804,1,0,0:0:0:0:
236,334,298875,5,2,0:0:0:0:
193,353,298946,1,0,0:0:0:0:
147,348,299017,1,0,0:0:0:0:
111,319,299089,1,0,0:0:0:0:
94,276,299160,1,8,0:0:0:0:
102,231,299232,1,0,0:0:0:0:
132,196,299303,1,0,0:0:0:0:
176,181,299375,1,0,0:0:0:0:
221,192,299447,1,2,0:0:0:0:
263,214,299518,1,0,0:0:0:0:
303,235,299589,1,0,0:0:0:0:
350,236,299660,1,0,0:0:0:0:
391,214,299732,1,8,0:0:0:0:
418,176,299803,1,0,0:0:0:0:
424,130,299875,1,0,0:0:0:0:
407,87,299946,1,0,0:0:0:0:
378,49,300018,5,2,0:0:0:0:
333,63,300089,1,0,0:0:0:0:
295,91,300160,1,0,0:0:0:0:
267,128,300232,1,0,0:0:0:0:
252,172,300303,1,8,0:0:0:0:
250,219,300375,1,0,0:0:0:0:
263,264,300446,1,0,0:0:0:0:
297,296,300518,1,0,0:0:0:0:
294,249,300589,1,2,0:0:0:0:
273,207,300660,1,0,0:0:0:0:
238,177,300732,1,0,0:0:0:0:
194,162,300803,1,0,0:0:0:0:
148,166,300875,1,8,0:0:0:0:
106,187,300946,1,0,0:0:0:0:
77,223,301018,1,0,0:0:0:0:
63,267,301089,1,0,0:0:0:0:
54,314,301161,6,0,L|192:295,1,93.75,6|0,0:0|0:0,0:0:0:0:
348,331,301375,1,0,0:0:0:0:
394,321,301447,1,12,0:0:0:0:
427,290,301518,1,0,0:0:0:0:
423,246,301589,1,4,0:0:0:0:
385,222,301661,1,0,0:0:0:0:
337,220,301733,6,0,L|278:224,1,46.875,6|0,0:0|0:0,0:0:0:0:
90,165,301875,2,0,L|31:169,1,46.875,6|0,0:0|0:0,0:0:0:0:
419,134,302018,2,0,L|478:138,1,46.875,14|0,0:0|0:0,0:0:0:0:
161,53,302161,2,0,L|220:57,1,46.875,6|0,0:0|0:0,0:0:0:0:
415,68,302304,5,6,0:1:0:0:
458,83,302375,1,0,0:0:0:0:
488,118,302446,1,0,0:0:0:0:
497,164,302518,1,0,0:0:0:0:
482,208,302589,1,8,0:0:0:0:
447,238,302661,1,0,0:0:0:0:
402,248,302732,1,0,0:0:0:0:
358,233,302804,1,0,0:0:0:0:
316,213,302875,1,2,0:1:0:0:
276,187,302946,1,0,0:0:0:0:
230,181,303017,1,0,0:0:0:0:
186,195,303089,1,0,0:0:0:0:
151,225,303160,1,8,0:0:0:0:
132,268,303232,1,0,0:0:0:0:
133,314,303303,1,0,0:0:0:0:
153,356,303375,1,0,0:0:0:0:
186,322,303447,5,2,0:1:0:0:
203,279,303518,1,0,0:0:0:0:
206,232,303589,1,0,0:0:0:0:
195,187,303661,1,0,0:0:0:0:
170,147,303732,1,8,0:0:0:0:
135,117,303804,1,0,0:0:0:0:
91,99,303875,1,0,0:0:0:0:
45,96,303947,1,0,0:0:0:0:
63,138,304018,1,2,0:1:0:0:
96,170,304089,1,0,0:0:0:0:
140,185,304160,1,0,0:0:0:0:
186,182,304232,1,0,0:0:0:0:
228,161,304303,1,8,0:0:0:0:
257,125,304375,1,0,0:0:0:0:
269,80,304446,1,0,0:0:0:0:
262,34,304518,1,0,0:0:0:0:
229,67,304590,5,2,0:1:0:0:
207,108,304661,1,0,0:0:0:0:
201,154,304732,1,0,0:0:0:0:
211,200,304804,1,0,0:0:0:0:
236,239,304875,1,8,0:0:0:0:
273,268,304947,1,0,0:0:0:0:
318,282,305018,1,0,0:0:0:0:
364,280,305090,1,0,0:0:0:0:
410,268,305161,1,2,0:1:0:0:
406,221,305232,1,0,0:0:0:0:
384,180,305303,1,0,0:0:0:0:
347,152,305375,1,0,0:0:0:0:
302,141,305446,1,8,0:0:0:0:
256,150,305518,1,0,0:0:0:0:
218,176,305589,1,0,0:0:0:0:
194,216,305661,1,0,0:0:0:0:
165,254,305733,5,2,0:1:0:0:
122,270,305804,1,0,0:0:0:0:
77,262,305875,1,0,0:0:0:0:
43,230,305947,1,0,0:0:0:0:
30,186,306018,1,8,0:0:0:0:
42,141,306090,1,0,0:0:0:0:
77,110,306161,1,0,0:0:0:0:
122,101,306233,1,0,0:0:0:0:
166,113,306304,1,2,0:1:0:0:
197,146,306375,1,0,0:0:0:0:
241,163,306446,1,0,0:0:0:0:
287,160,306518,1,0,0:0:0:0:
328,137,306589,1,8,0:0:0:0:
355,100,306661,1,0,0:0:0:0:
363,54,306732,1,0,0:0:0:0:
351,9,306804,1,0,0:0:0:0:
313,36,306875,5,2,0:1:0:0:
280,69,306946,1,0,0:0:0:0:
259,111,307017,1,0,0:0:0:0:
252,157,307089,1,0,0:0:0:0:
261,203,307161,1,8,0:0:0:0:
284,243,307232,1,0,0:0:0:0:
319,274,307303,1,0,0:0:0:0:
362,293,307375,1,0,0:0:0:0:
408,299,307447,1,2,0:1:0:0:
427,339,307518,1,0,0:0:0:0:
402,375,307589,1,0,0:0:0:0:
357,371,307661,1,0,0:0:0:0:
316,348,307733,1,8,0:0:0:0:
274,326,307804,1,0,0:0:0:0:
228,322,307875,1,0,0:0:0:0:
183,337,307947,1,0,0:0:0:0:
143,360,308018,5,2,0:1:0:0:
109,327,308089,1,0,0:0:0:0:
97,282,308160,1,0,0:0:0:0:
109,238,308232,1,0,0:0:0:0:
142,205,308303,1,8,0:0:0:0:
187,193,308375,1,0,0:0:0:0:
234,197,308447,1,0,0:0:0:0:
195,171,308518,1,0,0:0:0:0:
178,128,308589,1,2,0:0:0:0:
187,83,308661,1,0,0:0:0:0:
221,51,308732,1,0,0:0:0:0:
266,44,308804,1,0,0:0:0:0:
313,44,308875,1,8,0:0:0:0:
277,73,308946,1,0,0:0:0:0:
232,84,309017,1,0,0:0:0:0:
187,72,309089,1,0,0:0:0:0:
145,50,309161,5,2,0:0:0:0:
125,92,309232,1,0,0:0:0:0:
123,139,309303,1,0,0:0:0:0:
139,182,309375,1,0,0:0:0:0:
170,217,309446,1,8,0:0:0:0:
212,237,309518,1,0,0:0:0:0:
259,239,309589,1,0,0:0:0:0:
303,224,309661,1,0,0:0:0:0:
349,216,309733,1,2,0:0:0:0:
391,234,309804,1,0,0:0:0:0:
418,272,309875,1,0,0:0:0:0:
422,318,309947,1,0,0:0:0:0:
401,359,310018,1,8,0:0:0:0:
361,383,310090,1,0,0:0:0:0:
315,382,310161,1,0,0:0:0:0:
276,358,310233,1,0,0:0:0:0:
231,343,310304,5,2,0:0:0:0:
188,323,310375,1,0,0:0:0:0:
142,323,310446,1,0,0:0:0:0:
100,343,310518,1,0,0:0:0:0:
59,367,310590,1,8,0:0:0:0:
19,342,310661,1,0,0:0:0:0:
0,302,310732,1,0,0:0:0:0:
0,256,310804,1,0,0:0:0:0:
8,212,310875,1,2,0:1:0:0:
42,181,310947,1,0,0:0:0:0:
87,168,311018,1,0,0:0:0:0:
133,177,311090,1,0,0:0:0:0:
175,196,311161,1,8,0:0:0:0:
214,221,311232,1,0,0:0:0:0:
260,228,311303,1,0,0:0:0:0:
304,215,311375,1,0,0:0:0:0:
349,190,311447,5,6,0:1:0:0:
395,172,311518,1,0,0:0:0:0:
444,184,311589,1,4,0:0:0:0:
477,222,311661,1,0,0:0:0:0:
483,271,311733,1,8,0:0:0:0:
460,315,311804,1,0,0:0:0:0:
416,339,311875,1,4,0:0:0:0:
366,333,311947,1,0,0:0:0:0:
322,310,312018,1,2,0:1:0:0:
284,278,312089,1,0,0:0:0:0:
268,230,312160,1,4,0:0:0:0:
281,182,312232,1,0,0:0:0:0:
317,147,312303,1,8,0:0:0:0:
366,137,312375,1,0,0:0:0:0:
413,155,312446,1,4,0:0:0:0:
443,194,312518,1,0,0:0:0:0:
392,196,312590,5,2,0:1:0:0:
345,180,312661,1,0,0:0:0:0:
312,142,312732,1,4,0:0:0:0:
303,93,312804,1,0,0:0:0:0:
320,46,312875,1,8,0:0:0:0:
359,15,312947,1,0,0:0:0:0:
408,7,313018,1,4,0:0:0:0:
455,27,313090,1,0,0:0:0:0:
491,62,313161,1,2,0:1:0:0:
444,81,313232,1,0,0:0:0:0:
394,92,313303,1,4,0:0:0:0:
344,96,313375,1,0,0:0:0:0:
294,92,313446,1,8,0:0:0:0:
244,80,313518,1,0,0:0:0:0:
198,61,313589,1,4,0:0:0:0:
154,34,313661,1,0,0:0:0:0:
114,65,313733,5,2,0:1:0:0:
77,99,313804,1,0,0:0:0:0:
59,146,313875,1,4,0:0:0:0:
63,196,313947,1,0,0:0:0:0:
88,239,314018,1,8,0:0:0:0:
130,267,314090,1,0,0:0:0:0:
180,273,314161,1,4,0:0:0:0:
227,258,314233,1,0,0:0:0:0:
276,245,314304,1,2,0:1:0:0:
324,248,314375,1,0,0:0:0:0:
350,290,314446,1,4,0:0:0:0:
334,335,314518,1,0,0:0:0:0:
283,341,314590,1,8,0:0:0:0:
238,320,314661,1,0,0:0:0:0:
225,273,314732,1,4,0:0:0:0:
253,233,314804,1,0,0:0:0:0:
297,209,314875,5,2,0:1:0:0:
335,177,314946,1,0,0:0:0:0:
354,130,315018,1,4,0:0:0:0:
351,80,315089,1,0,0:0:0:0:
325,37,315160,1,8,0:0:0:0:
284,10,315232,1,0,0:0:0:0:
234,4,315303,1,4,0:0:0:0:
187,21,315375,1,0,0:0:0:0:
153,59,315447,1,2,0:1:0:0:
141,107,315518,1,0,0:0:0:0:
149,157,315589,1,4,0:0:0:0:
176,199,315661,1,0,0:0:0:0:
219,225,315732,1,8,0:0:0:0:
269,232,315804,1,0,0:0:0:0:
317,218,315875,1,4,0:0:0:0:
355,186,315947,1,0,0:0:0:0:
365,235,316018,5,2,0:1:0:0:
383,280,316089,1,0,0:0:0:0:
430,293,316160,1,4,0:0:0:0:
470,264,316232,1,0,0:0:0:0:
463,214,316304,1,8,0:0:0:0:
427,178,316375,1,0,0:0:0:0:
379,162,316447,1,4,0:0:0:0:
329,167,316518,1,0,0:0:0:0:
290,200,316590,1,2,0:1:0:0:
255,236,316661,1,0,0:0:0:0:
206,248,316732,1,4,0:0:0:0:
159,232,316804,1,0,0:0:0:0:
127,193,316875,1,8,0:0:0:0:
121,143,316947,1,0,0:0:0:0:
142,98,317018,1,4,0:0:0:0:
184,71,317090,1,0,0:0:0:0:
231,53,317161,5,2,0:1:0:0:
297,57,317232,1,0,0:0:0:0:
351,96,317303,1,4,0:0:0:0:
377,157,317375,1,0,0:0:0:0:
364,220,317447,1,8,0:0:0:0:
337,261,317518,1,0,0:0:0:0:
350,309,317589,1,4,0:0:0:0:
393,331,317661,1,0,0:0:0:0:
444,330,317733,1,2,0:1:0:0:
438,309,317804,1,0,0:0:0:0:
427,290,317875,1,4,0:0:0:0:
413,273,317947,1,0,0:0:0:0:
396,261,318018,1,8,0:0:0:0:
376,252,318090,1,0,0:0:0:0:
354,248,318161,1,4,0:0:0:0:
333,249,318233,1,0,0:0:0:0:
309,257,318304,5,2,0:1:0:0:
260,271,318375,1,0,0:0:0:0:
211,261,318446,1,4,0:0:0:0:
171,231,318518,1,0,0:0:0:0:
150,185,318589,1,8,0:0:0:0:
152,135,318661,1,0,0:0:0:0:
176,91,318732,1,4,0:0:0:0:
217,63,318804,1,0,0:0:0:0:
272,56,318875,1,2,0:1:0:0:
325,68,318946,1,0,0:0:0:0:
368,103,319017,1,4,0:0:0:0:
392,152,319089,1,0,0:0:0:0:
392,208,319160,1,8,0:0:0:0:
367,257,319232,1,0,0:0:0:0:
324,291,319303,1,4,0:0:0:0:
270,303,319375,1,0,0:0:0:0:
214,309,319447,5,2,0:1:0:0:
188,254,319518,1,0,0:0:0:0:
183,193,319589,1,4,0:0:0:0:
199,135,319661,1,0,0:0:0:0:
234,86,319732,1,8,0:0:0:0:
284,52,319804,1,0,0:0:0:0:
342,37,319875,1,4,0:0:0:0:
402,42,319947,1,0,0:0:0:0:
457,69,320018,6,0,P|425:69|383:78,1,50.6250001931191,2|0,0:1|0:0,0:0:0:0:
273,108,320161,2,0,P|252:132|232:170,1,50.6250001931191,4|0,0:0|0:0,0:0:0:0:
61,39,320304,6,0,P|66:70|82:110,1,50.6250001931191,8|0,0:0|0:0,0:0:0:0:
131,213,320447,2,0,P|158:229|199:242,1,50.6250001931191,4|0,0:0|0:0,0:0:0:0:
400,154,320590,5,6,0:1:0:0:
426,179,320661,1,0,0:0:0:0:
435,215,320732,1,4,0:0:0:0:
423,250,320804,1,0,0:0:0:0:
399,273,320875,1,8,0:0:0:0:
358,234,320946,1,0,0:0:0:0:
343,181,321017,1,4,0:0:0:0:
357,127,321089,1,0,0:0:0:0:
401,91,321161,2,0,P|368:100|315:100,1,56.2500021457673,2|0,0:1|0:0,0:0:0:0:
143,152,321304,2,0,P|115:148|88:140,1,56.2500021457673,4|0,0:0|0:0,0:0:0:0:
285,200,321447,2,0,P|300:273|287:294,1,56.2500021457673,8|0,0:0|0:0,0:0:0:0:
114,63,321590,2,0,P|99:-10|112:-31,1,56.2500021457673,4|0,0:0|0:0,0:0:0:0:
310,47,321733,5,2,0:1:0:0:
379,63,321804,1,0,0:0:0:0:
416,123,321875,1,4,0:0:0:0:
399,193,321947,1,0,0:0:0:0:
333,222,322018,1,8,0:0:0:0:
281,240,322089,1,0,0:0:0:0:
263,292,322160,1,4,0:0:0:0:
290,339,322232,1,0,0:0:0:0:
342,361,322304,1,2,0:1:0:0:
350,289,322375,1,0,0:0:0:0:
312,229,322446,1,4,0:0:0:0:
243,207,322518,1,0,0:0:0:0:
170,216,322590,1,8,0:0:0:0:
92,197,322660,1,0,0:0:0:0:
47,131,322732,1,4,0:0:0:0:
58,52,322804,1,0,0:0:0:0:
130,82,322875,5,2,0:1:0:0:
166,124,322946,1,0,0:0:0:0:
181,177,323017,1,4,0:0:0:0:
171,232,323089,1,0,0:0:0:0:
132,273,323161,1,8,0:0:0:0:
122,218,323232,1,0,0:0:0:0:
149,170,323303,1,4,0:0:0:0:
200,150,323375,1,0,0:0:0:0:
257,152,323447,1,2,0:1:0:0:
305,178,323518,1,0,0:0:0:0:
332,227,323589,1,4,0:0:0:0:
327,282,323661,1,0,0:0:0:0:
284,244,323733,1,8,0:0:0:0:
271,167,323804,1,0,0:0:0:0:
311,101,323875,1,4,0:0:0:0:
383,74,323947,1,0,0:0:0:0:
460,65,324018,5,2,0:1:0:0:
465,120,324089,1,0,0:0:0:0:
442,170,324160,1,4,0:0:0:0:
396,202,324232,1,0,0:0:0:0:
340,195,324304,1,8,0:0:0:0:
269,190,324375,1,0,0:0:0:0:
207,227,324446,1,4,0:0:0:0:
175,292,324518,1,0,0:0:0:0:
166,365,324590,2,0,P|200:371|242:365,1,56.2500021457673,2|0,0:1|0:0,0:0:0:0:
393,289,324733,2,0,P|427:283|469:289,1,56.2500021457673,4|0,0:0|0:0,0:0:0:0:
91,209,324875,2,0,P|122:223|164:228,1,56.2500021457673,8|0,0:0|0:0,0:0:0:0:
329,194,325018,2,0,P|363:197|402:213,1,56.2500021457673,4|0,0:0|0:0,0:0:0:0:
183,129,325161,5,2,0:1:0:0:
132,164,325233,1,0,0:0:0:0:
104,218,325304,1,4,0:0:0:0:
105,280,325375,1,0,0:0:0:0:
133,334,325446,1,8,0:0:0:0:
183,369,325518,1,0,0:0:0:0:
244,377,325589,1,4,0:0:0:0:
302,356,325661,1,0,0:0:0:0:
359,332,325733,1,2,0:1:0:0:
395,325,325804,1,0,0:0:0:0:
432,330,325875,1,4,0:0:0:0:
465,348,325947,1,0,0:0:0:0:
431,349,326018,1,8,0:0:0:0:
384,322,326089,1,0,0:0:0:0:
366,270,326160,1,4,0:0:0:0:
388,219,326232,1,0,0:0:0:0:
438,192,326304,5,2,0:1:0:0:
463,142,326375,1,0,0:0:0:0:
461,86,326446,1,4,0:0:0:0:
434,38,326518,1,0,0:0:0:0:
387,8,326589,1,8,0:0:0:0:
332,3,326661,1,0,0:0:0:0:
281,26,326732,1,4,0:0:0:0:
246,69,326804,1,0,0:0:0:0:
242,125,326875,1,2,0:1:0:0:
247,191,326946,1,0,0:0:0:0:
218,251,327017,1,4,0:0:0:0:
162,287,327089,1,0,0:0:0:0:
95,290,327160,1,8,0:0:0:0:
36,259,327232,1,0,0:0:0:0:
2,202,327303,1,4,0:0:0:0:
1,135,327375,1,0,0:0:0:0:
38,78,327447,5,2,0:1:0:0:
103,47,327518,1,0,0:0:0:0:
176,44,327589,1,6,0:0:0:0:
244,70,327661,1,0,0:0:0:0:
296,120,327732,1,8,0:0:0:0:
325,186,327804,1,0,0:0:0:0:
326,259,327875,1,6,0:0:0:0:
298,326,327947,1,0,0:0:0:0:
245,277,328018,1,2,0:1:0:0:
218,209,328089,1,0,0:0:0:0:
229,137,328161,1,6,0:0:0:0:
273,80,328232,1,0,0:0:0:0:
339,51,328303,1,8,0:0:0:0:
411,58,328375,1,0,0:0:0:0:
470,100,328446,1,6,0:0:0:0:
502,165,328518,1,0,0:0:0:0:
486,237,328590,6,0,P|452:254|413:254,1,56.2500021457673,4|0,0:1|0:0,0:0:0:0:
213,279,328733,2,0,P|247:296|286:296,1,56.2500021457673,6|0,0:0|0:0,0:0:0:0:
383,145,328875,2,0,P|349:128|310:128,1,56.2500021457673,12|0,0:0|0:0,0:0:0:0:
110,103,329018,2,0,P|144:86|183:86,1,56.2500021457673,4|0,0:0|0:0,0:0:0:0:
375,275,329161,2,0,P|392:241|392:202,1,56.2500021457673,6|0,0:1|0:0,0:0:0:0:
436,53,329304,2,0,P|431:26|417:1,1,56.2500021457673,2|0,0:0|0:0,0:0:0:0:
87,349,329447,2,0,P|70:315|70:276,1,56.2500021457673,12|0,0:0|0:0,0:0:0:0:
25,127,329590,2,0,P|30:100|45:76,1,56.2500021457673,6|0,0:0|0:0,0:0:0:0:
305,87,329733,5,6,0:1:0:0:
334,109,329804,1,0,0:0:0:0:
353,141,329875,1,0,0:0:0:0:
357,178,329947,1,0,0:0:0:0:
346,214,330018,1,8,0:0:0:0:
323,243,330090,1,0,0:0:0:0:
290,260,330161,1,0,0:0:0:0:
253,262,330233,1,0,0:0:0:0:
216,255,330304,1,2,0:0:0:0:
194,255,330375,1,0,0:0:0:0:
174,260,330446,1,0,0:0:0:0:
155,270,330518,1,0,0:0:0:0:
139,285,330589,1,8,0:0:0:0:
127,302,330661,1,0,0:0:0:0:
120,323,330732,1,0,0:0:0:0:
118,344,330804,1,0,0:0:0:0:
131,330,330875,5,2,0:0:0:0:
152,299,330946,1,0,0:0:0:0:
162,263,331017,1,0,0:0:0:0:
159,226,331089,1,0,0:0:0:0:
143,191,331160,1,8,0:0:0:0:
118,164,331232,1,0,0:0:0:0:
84,148,331303,1,0,0:0:0:0:
47,143,331375,1,0,0:0:0:0:
9,144,331447,1,2,0:0:0:0:
34,171,331518,1,0,0:0:0:0:
68,187,331589,1,0,0:0:0:0:
105,189,331661,1,0,0:0:0:0:
140,177,331732,1,8,0:0:0:0:
169,153,331804,1,0,0:0:0:0:
186,121,331875,1,0,0:0:0:0:
191,84,331947,1,0,0:0:0:0:
183,47,332018,5,2,0:0:0:0:
220,50,332089,1,0,0:0:0:0:
257,53,332160,1,0,0:0:0:0:
295,56,332232,1,0,0:0:0:0:
332,59,332303,1,8,0:0:0:0:
369,63,332375,1,0,0:0:0:0:
407,66,332446,1,0,0:0:0:0:
444,69,332518,1,0,0:0:0:0:
481,74,332590,1,2,0:0:0:0:
481,111,332661,1,0,0:0:0:0:
467,145,332732,1,0,0:0:0:0:
440,170,332804,1,0,0:0:0:0:
404,182,332875,1,8,0:0:0:0:
367,179,332947,1,0,0:0:0:0:
335,161,333018,1,0,0:0:0:0:
313,131,333090,1,0,0:0:0:0:
299,96,333161,5,0,0:0:0:0:
278,64,333232,1,0,0:0:0:0:
246,47,333303,1,0,0:0:0:0:
208,47,333375,1,0,0:0:0:0:
176,65,333446,1,8,0:0:0:0:
156,96,333518,1,0,0:0:0:0:
153,133,333589,1,0,0:0:0:0:
169,167,333661,1,0,0:0:0:0:
204,179,333733,1,2,0:0:0:0:
241,183,333804,1,0,0:0:0:0:
272,203,333875,1,0,0:0:0:0:
292,234,333947,1,0,0:0:0:0:
296,271,334018,1,8,0:0:0:0:
283,306,334090,1,0,0:0:0:0:
257,332,334161,1,0,0:0:0:0:
221,344,334233,1,0,0:0:0:0:
184,338,334304,5,2,0:0:0:0:
169,331,334375,1,0,0:0:0:0:
158,320,334446,1,0,0:0:0:0:
152,305,334518,1,0,0:0:0:0:
153,289,334589,1,8,0:0:0:0:
159,274,334661,1,0,0:0:0:0:
171,264,334733,1,0,0:0:0:0:
186,258,334804,1,0,0:0:0:0:
201,256,334875,1,2,0:0:0:0:
216,251,334946,1,0,0:0:0:0:
230,242,335017,1,0,0:0:0:0:
241,231,335089,1,0,0:0:0:0:
249,217,335160,1,8,0:0:0:0:
253,202,335232,1,0,0:0:0:0:
253,186,335303,1,0,0:0:0:0:
249,170,335375,1,0,0:0:0:0:
243,157,335447,5,2,0:0:0:0:
228,134,335518,1,0,0:0:0:0:
223,108,335589,1,0,0:0:0:0:
227,81,335661,1,0,0:0:0:0:
241,58,335733,1,8,0:0:0:0:
261,41,335804,1,0,0:0:0:0:
286,33,335875,1,0,0:0:0:0:
313,33,335947,1,0,0:0:0:0:
338,39,336018,1,2,0:0:0:0:
361,51,336089,1,0,0:0:0:0:
379,71,336160,1,0,0:0:0:0:
389,95,336232,1,0,0:0:0:0:
391,122,336303,1,8,0:0:0:0:
383,147,336375,1,0,0:0:0:0:
367,169,336446,1,0,0:0:0:0:
344,183,336518,1,0,0:0:0:0:
317,187,336590,5,2,0:0:0:0:
287,175,336661,1,0,0:0:0:0:
255,179,336732,1,0,0:0:0:0:
228,195,336804,1,0,0:0:0:0:
211,222,336875,1,8,0:0:0:0:
207,254,336947,1,0,0:0:0:0:
217,284,337018,1,0,0:0:0:0:
240,306,337090,1,0,0:0:0:0:
269,312,337161,1,2,0:0:0:0:
260,281,337232,1,0,0:0:0:0:
245,253,337303,1,0,0:0:0:0:
223,229,337375,1,0,0:0:0:0:
197,211,337446,1,8,0:0:0:0:
167,199,337518,1,0,0:0:0:0:
136,194,337589,1,0,0:0:0:0:
104,197,337661,1,0,0:0:0:0:
76,208,337733,5,2,0:0:0:0:
49,233,337804,1,0,0:0:0:0:
36,268,337875,1,0,0:0:0:0:
39,305,337947,1,0,0:0:0:0:
57,337,338018,1,8,0:0:0:0:
88,358,338090,1,0,0:0:0:0:
125,364,338161,1,0,0:0:0:0:
160,353,338233,1,0,0:0:0:0:
190,331,338304,1,2,0:0:0:0:
221,309,338375,1,0,0:0:0:0:
256,296,338446,1,0,0:0:0:0:
293,293,338518,1,0,0:0:0:0:
330,300,338589,1,8,0:0:0:0:
364,316,338661,1,0,0:0:0:0:
392,340,338732,1,0,0:0:0:0:
414,371,338804,1,0,0:0:0:0:
378,358,338875,5,2,0:0:0:0:
350,333,338946,1,0,0:0:0:0:
331,300,339017,1,0,0:0:0:0:
323,264,339089,1,0,0:0:0:0:
328,227,339160,1,8,0:0:0:0:
344,193,339232,1,0,0:0:0:0:
370,166,339303,1,0,0:0:0:0:
403,149,339375,1,0,0:0:0:0:
440,141,339447,1,2,0:0:0:0:
473,124,339518,1,0,0:0:0:0:
490,92,339589,1,0,0:0:0:0:
486,55,339661,1,0,0:0:0:0:
462,27,339733,1,8,0:0:0:0:
427,17,339804,1,0,0:0:0:0:
392,28,339875,1,0,0:0:0:0:
369,58,339947,1,0,0:0:0:0:
343,85,340018,5,2,0:0:0:0:
321,115,340089,1,0,0:0:0:0:
292,139,340160,1,0,0:0:0:0:
257,153,340232,1,0,0:0:0:0:
220,157,340303,1,8,0:0:0:0:
183,150,340375,1,0,0:0:0:0:
150,133,340446,1,0,0:0:0:0:
123,108,340518,1,0,0:0:0:0:
93,84,340590,1,2,0:0:0:0:
62,104,340661,1,0,0:0:0:0:
43,136,340732,1,0,0:0:0:0:
42,173,340804,1,0,0:0:0:0:
57,207,340875,1,8,0:0:0:0:
87,229,340947,1,0,0:0:0:0:
124,235,341018,1,0,0:0:0:0:
159,223,341090,1,0,0:0:0:0:
187,199,341161,5,2,0:0:0:0:
213,172,341232,1,0,0:0:0:0:
248,160,341303,1,0,0:0:0:0:
285,165,341375,1,0,0:0:0:0:
315,186,341446,1,8,0:0:0:0:
334,218,341518,1,0,0:0:0:0:
336,255,341589,1,0,0:0:0:0:
321,289,341661,1,0,0:0:0:0:
296,318,341733,1,2,0:0:0:0:
263,336,341804,1,0,0:0:0:0:
227,343,341875,1,0,0:0:0:0:
190,336,341947,1,0,0:0:0:0:
158,317,342018,1,8,0:0:0:0:
134,289,342090,1,0,0:0:0:0:
122,253,342161,1,0,0:0:0:0:
122,216,342233,1,0,0:0:0:0:
130,179,342304,5,2,0:0:0:0:
145,144,342375,1,0,0:0:0:0:
168,115,342446,1,0,0:0:0:0:
199,94,342518,1,0,0:0:0:0:
234,80,342589,1,8,0:0:0:0:
271,77,342661,1,0,0:0:0:0:
308,83,342732,1,0,0:0:0:0:
342,98,342804,1,0,0:0:0:0:
372,121,342875,1,2,0:0:0:0:
403,140,342946,1,0,0:0:0:0:
440,137,343017,1,0,0:0:0:0:
468,114,343089,1,0,0:0:0:0:
478,78,343160,1,8,0:0:0:0:
466,43,343232,1,0,0:0:0:0:
435,22,343303,1,0,0:0:0:0:
398,23,343375,1,0,0:0:0:0:
363,35,343447,5,2,0:0:0:0:
332,56,343518,1,0,0:0:0:0:
311,87,343589,1,0,0:0:0:0:
303,123,343661,1,0,0:0:0:0:
308,160,343732,1,8,0:0:0:0:
326,193,343804,1,0,0:0:0:0:
355,217,343875,1,0,0:0:0:0:
390,229,343947,1,0,0:0:0:0:
423,248,344018,1,2,0:0:0:0:
425,285,344089,1,0,0:0:0:0:
412,320,344160,1,0,0:0:0:0:
387,347,344232,1,0,0:0:0:0:
353,363,344303,1,8,0:0:0:0:
316,364,344375,1,0,0:0:0:0:
281,350,344446,1,0,0:0:0:0:
255,324,344518,1,0,0:0:0:0:
228,297,344590,5,2,0:0:0:0:
210,276,344661,1,0,0:0:0:0:
188,262,344732,1,0,0:0:0:0:
162,256,344804,1,0,0:0:0:0:
135,258,344875,1,8,0:0:0:0:
111,269,344947,1,0,0:0:0:0:
91,286,345018,1,0,0:0:0:0:
77,310,345090,1,0,0:0:0:0:
55,296,345161,1,2,0:0:0:0:
34,279,345232,1,0,0:0:0:0:
20,257,345303,1,0,0:0:0:0:
15,231,345375,1,0,0:0:0:0:
19,204,345446,1,8,0:0:0:0:
33,181,345518,1,0,0:0:0:0:
53,164,345589,1,0,0:0:0:0:
78,155,345661,1,0,0:0:0:0:
103,147,345733,5,2,0:0:0:0:
118,143,345804,1,0,0:0:0:0:
134,140,345875,1,0,0:0:0:0:
150,139,345947,1,0,0:0:0:0:
166,140,346018,1,8,0:0:0:0:
182,142,346090,1,0,0:0:0:0:
198,146,346161,1,0,0:0:0:0:
213,151,346233,1,0,0:0:0:0:
227,157,346304,1,2,0:0:0:0:
240,166,346375,1,0,0:0:0:0:
254,173,346446,1,0,0:0:0:0:
270,177,346518,1,0,0:0:0:0:
285,180,346590,1,8,0:0:0:0:
301,179,346661,1,0,0:0:0:0:
317,177,346732,1,0,0:0:0:0:
333,172,346804,1,0,0:0:0:0:
344,162,346875,5,2,0:0:0:0:
329,159,346946,1,0,0:0:0:0:
314,161,347017,1,0,0:0:0:0:
300,167,347089,1,0,0:0:0:0:
289,177,347160,1,8,0:0:0:0:
282,189,347232,1,0,0:0:0:0:
278,204,347303,1,0,0:0:0:0:
279,219,347375,1,0,0:0:0:0:
287,232,347447,1,2,0:0:0:0:
297,242,347518,1,0,0:0:0:0:
304,255,347589,1,0,0:0:0:0:
308,270,347661,1,0,0:0:0:0:
309,285,347732,1,8,0:0:0:0:
305,299,347804,1,0,0:0:0:0:
298,312,347875,1,0,0:0:0:0:
288,323,347947,1,0,0:0:0:0:
278,329,348018,5,6,0:0:0:0:
270,332,348089,1,0,0:0:0:0:
262,335,348160,1,0,0:0:0:0:
254,337,348232,1,0,0:0:0:0:
245,337,348303,1,6,0:0:0:0:
237,336,348375,1,0,0:0:0:0:
229,335,348446,1,0,0:0:0:0:
221,332,348518,1,0,0:0:0:0:
212,329,348590,1,6,0:0:0:0:
204,325,348661,1,0,0:0:0:0:
196,322,348732,1,0,0:0:0:0:
188,320,348804,1,0,0:0:0:0:
180,318,348874,1,6,0:0:0:0:
171,317,348947,1,0,0:0:0:0:
163,316,349018,1,0,0:0:0:0:
155,316,349090,1,0,0:0:0:0:
146,317,349161,5,2,0:0:0:0:
148,308,349232,1,0,0:0:0:0:
150,300,349303,1,0,0:0:0:0:
151,292,349375,1,0,0:0:0:0:
151,283,349446,1,2,0:0:0:0:
149,275,349518,1,0,0:0:0:0:
146,266,349589,1,0,0:0:0:0:
143,259,349661,1,0,0:0:0:0:
135,254,349733,1,2,0:0:0:0:
125,239,349804,1,0,0:0:0:0:
119,223,349875,1,0,0:0:0:0:
117,206,349947,1,0,0:0:0:0:
120,189,350017,1,2,0:0:0:0:
126,174,350090,1,0,0:0:0:0:
136,160,350161,1,0,0:0:0:0:
149,149,350233,1,0,0:0:0:0:
166,143,350304,5,2,0:0:0:0:
179,145,350375,1,0,0:0:0:0:
192,151,350446,1,0,0:0:0:0:
203,159,350518,1,0,0:0:0:0:
212,170,350589,1,2,0:0:0:0:
219,182,350661,1,0,0:0:0:0:
222,196,350732,1,0,0:0:0:0:
223,210,350804,1,0,0:0:0:0:
221,223,350875,1,2,0:0:0:0:
215,236,350946,1,0,0:0:0:0:
207,248,351018,1,0,0:0:0:0:
197,257,351089,1,0,0:0:0:0:
184,264,351161,1,2,0:0:0:0:
171,268,351232,1,0,0:0:0:0:
157,269,351304,1,0,0:0:0:0:
143,266,351375,1,0,0:0:0:0:
129,263,351447,5,2,0:0:0:0:
134,250,351518,1,0,0:0:0:0:
140,237,351589,1,0,0:0:0:0:
148,225,351661,1,0,0:0:0:0:
157,215,351732,1,2,0:0:0:0:
167,205,351804,1,0,0:0:0:0:
177,196,351875,1,0,0:0:0:0:
189,188,351947,1,0,0:0:0:0:
201,181,352018,1,2,0:0:0:0:
214,176,352089,1,0,0:0:0:0:
228,172,352161,1,0,0:0:0:0:
241,169,352232,1,0,0:0:0:0:
255,167,352304,1,2,0:0:0:0:
269,167,352375,1,0,0:0:0:0:
283,168,352447,1,0,0:0:0:0:
297,171,352518,1,0,0:0:0:0:
311,176,352589,6,0,L|365:180,7,30,2|0|0|0|2|0|0|0,0:0|0:0|0:0|0:0|0:0|0:0|0:0|0:0,0:0:0:0:
171,101,353160,2,0,L|117:105,7,30,2|0|0|0|2|0|0|0,0:0|0:0|0:0|0:0|0:0|0:0|0:0|0:0,0:0:0:0:
317,42,353732,6,0,B|329:43|329:43|357:56,7,30,2|0|0|0|2|0|0|0,0:0|0:0|0:0|0:0|0:0|0:0|0:0|0:0,0:0:0:0:
83,18,354304,2,0,B|71:19|71:19|43:32,7,30,2|0|0|0|8|0|0|0,0:0|0:0|0:0|0:0|0:0|0:0|0:0|0:0,0:0:0:0:
256,192,354875,12,0,357018,0:0:0:0:
111,252,357161,6,0,P|84:231|241:93,1,365.624983263017,6|0,0:0|0:0,0:0:0:0:
192,157,358304,6,0,P|241:178|333:101,1,170.624992189408
399,60,358875,6,0,P|403:146|344:220,1,170.624992189408
285,249,359447,6,0,B|213:259|159:230|159:230|58:252|69:372|174:379,1,365.624983263017,2|0,0:0|0:0,0:0:0:0:
256,352,360590,6,0,B|354:342|479:353|479:353|473:339|473:339|487:258|454:205,1,365.624983263017,2|0,0:0|0:0,0:0:0:0:
375,227,361733,6,0,B|344:210|340:123|400:101|400:101|403:114|403:114|400:101|400:101|376:33|280:26|242:73,1,365.624983263017,2|0,0:0|0:0,0:0:0:0:
186,129,362875,6,0,B|173:171|173:171|180:225|180:225|172:222|172:222|166:291,1,170.624992189408
249,302,363447,6,0,B|256:267|256:267|263:269|263:269|289:192|289:192|288:196|288:196|340:210,1,170.624992189408
411,220,364018,6,0,B|423:162|423:162|376:150|376:150|425:104|394:33|326:48|313:63|313:63|264:40|212:55,1,365.624983263017,2|0,0:0|0:0,0:0:0:0:
160,97,365161,6,0,B|125:135|125:135|103:138|68:196|68:196|99:269|185:270|185:270|184:263|184:263|192:249|192:249|196:310,1,365.624983263017,2|0,0:0|0:0,0:0:0:0:
273,317,366304,6,0,B|287:263|270:203|270:203|291:215|330:218|330:218|330:212|330:212|335:218|335:218|349:202|427:181|437:208|437:208|447:143,1,365.624983263017,2|0,0:0|0:0,0:0:0:0:
369,113,367447,6,0,B|345:105|326:59|326:59|310:83|251:97|221:76,1,170.624992189408
160,62,368018,6,0,B|137:61|109:87|109:87|90:163|173:168,1,170.624992189408
252,169,368590,6,0,B|306:199|332:295|262:358|179:339|179:339|178:334|178:334|151:364|93:351,1,365.624983263017,2|0,0:0|0:0,0:0:0:0:
14,343,369733,6,0,B|26:272|26:272|19:279|19:279|-5:181|-5:181|1:187|1:187|37:78|37:78|43:81|43:81|55:12,1,365.624983263017,2|0,0:0|0:0,0:0:0:0:
135,21,370875,6,0,B|178:42|178:42|203:34|203:34|223:47|223:47|188:119|263:218|391:137|358:58,1,365.624983263017,2|0,0:0|0:0,0:0:0:0:
290,70,372018,6,0,P|302:40|428:22,1,170.624992189408
488,70,372590,6,0,B|442:126|442:126|468:228,1,170.624992189408
383,234,373161,6,0,B|337:213|337:213|333:219|333:219|322:201|322:201|317:207|317:207|308:204|308:204|301:213|301:213|283:191|283:191|278:209|278:209|263:199|263:199|248:216|248:216|192:184|133:206|163:299|231:255,1,365.624983263017,2|0,0:0|0:0,0:0:0:0:
283,281,374304,6,0,B|307:250|383:316|301:435|178:373|209:276|209:276|169:261|143:211,1,365.624983263017,2|0,0:0|0:0,0:0:0:0:
223,191,375447,6,0,B|240:157|192:64|192:64|208:68|208:68|224:51|224:51|229:54|229:54|238:30|238:30|290:47|290:47|293:77,1,281.25,2|0,0:0|0:0,0:0:0:0:
361,85,376624,6,0,B|363:76|363:76|372:81|372:81|371:88|371:88|404:109|404:109|407:74|407:74|418:76|418:76|438:89,1,131.25,2|0,0:0|0:0,0:0:0:0:
500,118,377223,6,0,B|494:136|493:136|491:145|491:145|478:153|478:153|479:164|479:164|496:176|496:176|473:210|473:210|453:208,1,131.25,2|0,0:0|0:0,0:0:0:0:
374,198,377854,6,0,B|351:186|351:186|340:194|340:194|333:187|333:187|326:191|326:191|321:185|321:185|315:197|315:197|322:171|322:171|291:201|291:201|287:196|287:196|246:224|246:224|250:236|250:236|245:225|245:225|227:233|227:233|220:250|220:250|226:253|226:253|205:260|205:260|196:271|196:271,1,300,6|0,0:0|0:0,0:0:0:0:
80,302,379355,2,0,L|80:301,2,0.9375,0|0|0,0:3|0:3|0:3,0:3:0:0:
