osu file format v14

[General]
AudioFilename: audio.mp3
AudioLeadIn: 0
PreviewTime: 92020
Countdown: 0
SampleSet: Soft
StackLeniency: 0.5
Mode: 0
LetterboxInBreaks: 0
WidescreenStoryboard: 1

[Editor]
Bookmarks: 55449,73735,110306,128592,156020,174306,210878,229163,247449,256592,265735,293163,329735,348020,357163,377735
DistanceSpacing: 1.1
BeatDivisor: 8
GridSize: 4
TimelineZoom: 4.199998

[Metadata]
Title:ROLLING PANDEMONIUM (Ata Remix)
TitleUnicode:ROLLING PANDEMONIUM (Ata Remix)
Artist:RYUWAVE
ArtistUnicode:RYUWAVE
Creator:Ciyus Miapah
Version:1300-??? (Deathstream + technical streams)
Source:
Tags:marathon deathstream tocorn CiiyusMiapah fort you! hi tech psychedelic trance psycore psytrance electronic instrumental euphoria 420bpm streams bongo indian 爆速電子音楽紀行 -Chaotic Worldtour- Bakusoku Denshiongaku Kikou Chaotic Worldtour
BeatmapID:2608127
BeatmapSetID:1254944

[Difficulty]
HPDrainRate:5
CircleSize:4
OverallDifficulty:8.6
ApproachRate:9.8
SliderMultiplier:1.7
SliderTickRate:1

[Events]
//Background and Video events
0,0,"BG.jpg",0,0
//Break Periods
//Storyboard Layer 0 (Background)
//Storyboard Layer 1 (Fail)
//Storyboard Layer 2 (Pass)
//Storyboard Layer 3 (Foreground)
//Storyboard Layer 4 (Overlay)
//Storyboard Sound Samples

[TimingPoints]
536,571.428571428571,4,2,1,95,1,0
3107,571.428571428571,4,2,1,95,1,0
5166,571.428571428571,4,2,1,95,1,0
9737,-66.6666666666667,4,2,1,95,0,0
34878,285.714285714286,4,2,1,95,1,0
34878,-125,4,2,1,95,0,0
37163,-125,4,2,2,95,0,0
37199,-125,4,2,1,95,0,0
52020,-166.666666666667,4,2,1,95,0,0
52306,-250,4,2,1,95,0,0
52592,-500,4,2,1,95,0,0
52878,-1000,4,2,1,95,0,0
53163,-125,4,2,1,95,0,0
54878,-55.5555555555556,4,2,1,95,0,0
55449,-100,4,2,2,95,0,0
55485,-100,4,2,1,95,0,0
64020,-66.6666666666667,4,2,1,95,0,0
64592,-100,4,2,2,95,0,0
64663,-100,4,2,1,95,0,0
71449,-66.6666666666667,4,2,1,95,0,0
73735,-100,4,2,2,95,0,0
73770,-100,4,2,1,95,0,0
74878,-66.6666666666667,4,2,1,95,0,0
75449,-100,4,2,1,95,0,0
76020,-66.6666666666667,4,2,1,95,0,0
76449,-66.6666666666667,4,2,2,95,0,0
76485,-66.6666666666667,4,2,1,95,0,0
76735,-66.6666666666667,4,2,2,95,0,0
76770,-66.6666666666667,4,2,1,95,0,0
77020,-66.6666666666667,4,2,2,95,0,0
77056,-66.6666666666667,4,2,1,95,0,0
77449,-100,4,2,1,95,0,0
77735,-66.6666666666667,4,2,1,95,0,0
78163,-100,4,2,1,95,0,0
78306,-66.6666666666667,4,2,2,95,0,0
78342,-66.6666666666667,4,2,1,95,0,0
78878,-100,4,2,1,95,0,0
79449,-100,4,2,2,95,0,0
79485,-100,4,2,1,95,0,0
80020,-100,4,2,2,95,0,0
80056,-100,4,2,1,95,0,0
80306,-100,4,2,2,95,0,0
80342,-100,4,2,1,95,0,0
80592,-100,4,2,2,95,0,0
80628,-100,4,2,1,95,0,0
81163,-100,4,2,2,95,0,0
81199,-100,4,2,1,95,0,0
81735,-100,4,2,2,95,0,0
81770,-100,4,2,1,95,0,0
82020,-100,4,2,2,95,0,0
82056,-100,4,2,1,95,0,0
82306,-100,4,2,2,95,0,0
82342,-100,4,2,1,95,0,0
82449,-100,4,2,2,95,0,0
82485,-100,4,2,1,95,0,0
82592,-100,4,2,2,95,0,0
82628,-100,4,2,1,95,0,0
82735,-100,4,2,2,95,0,0
82770,-100,4,2,1,95,0,0
82878,-100,4,2,2,95,0,0
82913,-100,4,2,1,95,0,0
85163,-100,4,2,2,95,0,0
85199,-100,4,2,1,95,0,0
85735,-100,4,2,2,95,0,0
85770,-100,4,2,1,95,0,0
85878,-100,4,2,2,95,0,0
85913,-100,4,2,1,95,0,0
87449,-83.3333333333333,4,2,2,95,0,0
87485,-83.3333333333333,4,2,1,95,0,0
88592,-83.3333333333333,4,2,2,95,0,0
88628,-83.3333333333333,4,2,1,95,0,0
89735,-83.3333333333333,4,2,2,95,0,0
89770,-83.3333333333333,4,2,1,95,0,0
90878,-100,4,2,1,95,0,0
92020,-100,4,2,2,95,0,0
92056,-100,4,2,1,95,0,0
101163,-100,4,2,2,95,0,0
101199,-100,4,2,1,95,0,0
110306,-100,4,2,2,95,0,0
110342,-100,4,2,1,95,0,0
128592,-83.3333333333333,4,2,2,95,0,0
128628,-83.3333333333333,4,2,1,95,0,0
136592,-83.3333333333333,4,2,2,95,0,0
136628,-83.3333333333333,4,2,1,95,0,0
136878,-83.3333333333333,4,2,2,95,0,0
136913,-83.3333333333333,4,2,1,95,0,0
137020,-83.3333333333333,4,2,2,95,0,0
137056,-83.3333333333333,4,2,1,95,0,0
137306,-83.3333333333333,4,2,2,95,0,0
137342,-83.3333333333333,4,2,1,95,0,0
137449,-83.3333333333333,4,2,2,95,0,0
137485,-83.3333333333333,4,2,1,95,0,0
137592,-83.3333333333333,4,2,2,95,0,0
137628,-83.3333333333333,4,2,1,95,0,0
137735,-83.3333333333333,4,2,2,95,0,0
137770,-83.3333333333333,4,2,1,95,0,0
144592,-83.3333333333333,4,2,2,95,0,0
144628,-83.3333333333333,4,2,1,95,0,0
146878,-83.3333333333333,4,2,2,95,0,0
146913,-83.3333333333333,4,2,1,95,0,0
156020,-83.3333333333333,4,2,2,95,0,0
156056,-83.3333333333333,4,2,1,95,0,0
160592,-83.3333333333333,4,2,2,95,0,0
160628,-83.3333333333333,4,2,1,95,0,0
165163,-83.3333333333333,4,2,2,95,0,0
165199,-83.3333333333333,4,2,1,95,0,0
174306,-83.3333333333333,4,2,2,95,0,0
174342,-83.3333333333333,4,2,1,95,0,0
192592,-71.4285714285714,4,2,2,95,0,0
192628,-71.4285714285714,4,2,1,95,0,0
209735,-200,4,2,1,95,0,0
210878,-200,4,2,2,95,0,0
210913,-200,4,2,1,95,0,0
217735,-100,4,2,1,95,0,0
220020,-100,4,2,2,95,0,0
220056,-100,4,2,1,95,0,0
229163,-100,4,2,2,95,0,0
229199,-100,4,2,1,95,0,0
246878,-100,4,2,2,95,0,0
246913,-100,4,2,1,95,0,0
247163,-100,4,2,2,95,0,0
247199,-100,4,2,1,95,0,0
265735,-50,4,1,2,95,0,1
265770,-50,4,1,1,95,0,1
273735,-50,4,1,2,95,0,1
274878,-50,4,1,1,95,0,1
279449,-50,4,1,2,95,0,1
279485,-50,4,1,1,95,0,1
280163,-50,4,1,2,95,0,1
280199,-50,4,1,1,95,0,1
280306,-50,4,1,2,95,0,1
280342,-50,4,1,1,95,0,1
280449,-50,4,1,2,95,0,1
280485,-50,4,1,1,95,0,1
280878,-50,4,1,2,95,0,1
280913,-50,4,1,1,95,0,1
281306,-50,4,1,0,95,0,1
281342,-50,4,1,1,95,0,1
281449,-50,4,1,2,95,0,1
281485,-50,4,1,1,95,0,1
281592,-50,4,1,2,95,0,1
281628,-50,4,1,1,95,0,1
282020,-50,4,1,2,95,0,1
282056,-50,4,1,1,95,0,1
282592,-50,4,1,2,95,0,1
282628,-50,4,1,1,95,0,1
283163,-50,4,1,2,95,0,1
283199,-50,4,1,1,95,0,1
283306,-50,4,1,2,95,0,1
283342,-50,4,1,1,95,0,1
283735,-50,4,1,2,95,0,1
283770,-50,4,1,1,95,0,1
283878,-50,4,1,2,95,0,1
283913,-50,4,1,1,95,0,1
284020,-66.6666666666667,4,2,1,95,0,0
286306,-66.6666666666667,4,2,2,95,0,0
286342,-66.6666666666667,4,2,1,95,0,0
287449,-66.6666666666667,4,2,2,95,0,0
288342,-66.6666666666667,4,2,1,95,0,0
288592,-100,4,2,2,95,0,0
288628,-100,4,2,1,95,0,0
291449,-66.6666666666667,4,2,1,95,0,0
293163,-55.5555555555556,4,1,2,95,0,1
293199,-55.5555555555556,4,1,1,95,0,1
301163,-55.5555555555556,4,1,2,95,0,1
301199,-55.5555555555556,4,1,1,95,0,1
301449,-55.5555555555556,4,1,2,95,0,1
301485,-55.5555555555556,4,1,1,95,0,1
301735,-55.5555555555556,4,1,2,95,0,1
301770,-55.5555555555556,4,1,1,95,0,1
301878,-55.5555555555556,4,1,2,95,0,1
301913,-55.5555555555556,4,1,1,95,0,1
302020,-55.5555555555556,4,1,2,95,0,1
302056,-55.5555555555556,4,1,1,95,0,1
302163,-55.5555555555556,4,1,2,95,0,1
302199,-55.5555555555556,4,1,1,95,0,1
320592,-55.5555555555556,4,1,2,95,0,1
320628,-55.5555555555556,4,1,1,95,0,1
328592,-55.5555555555556,4,1,2,95,0,1
328628,-55.5555555555556,4,1,1,95,0,1
328878,-55.5555555555556,4,1,2,95,0,1
328913,-55.5555555555556,4,1,1,95,0,1
329163,-55.5555555555556,4,1,2,95,0,1
329199,-55.5555555555556,4,1,1,95,0,1
329449,-55.5555555555556,4,1,2,95,0,1
329485,-55.5555555555556,4,1,1,95,0,1
329735,-58.8235294117647,4,2,1,95,0,0
338878,-66.6666666666667,4,2,1,95,0,0
343449,-100,4,2,1,95,0,0
345735,-133.333333333333,4,2,1,95,0,0
348020,-66.6666666666667,4,2,1,95,0,0
348592,-100,4,2,1,95,0,0
349163,-142.857142857143,4,2,1,95,0,0

[Colours]
Combo1 : 249,136,165
Combo2 : 253,111,189
Combo3 : 245,80,121
Combo4 : 255,155,192

[HitObjects]
160,300,34878,6,0,P|122:284|89:288,2,68,4|0|0,0:0|0:0|0:0,0:0:0:0:
228,344,35306,1,4,0:0:0:0:
276,280,35449,1,0,0:0:0:0:
344,324,35592,1,0,0:0:0:0:
400,264,35735,2,0,L|476:248,1,68,4|0,0:0|0:0,0:0:0:0:
316,96,36020,6,0,L|300:16,1,68,4|0,0:0|0:0,0:0:0:0:
232,152,36306,1,4,0:0:0:0:
204,64,36449,2,0,L|196:32,4,17,0|0|0|0|4,0:0|0:0|0:0|0:0|0:0,0:0:0:0:
144,176,36735,2,0,L|152:204,4,17,0|0|0|0|4,0:0|0:0|0:0|0:0|0:0,0:0:0:0:
112,76,37020,1,4,0:0:0:0:
136,308,37163,5,6,0:0:0:0:
142,313,37234,1,0,0:0:0:0:
148,319,37305,1,0,0:0:0:0:
155,323,37377,1,0,0:0:0:0:
163,327,37448,1,2,0:0:0:0:
171,331,37520,1,0,0:0:0:0:
179,333,37591,1,0,0:0:0:0:
187,335,37663,1,0,0:0:0:0:
196,335,37735,1,2,0:0:0:0:
204,335,37805,1,0,0:0:0:0:
213,334,37877,1,0,0:0:0:0:
221,333,37948,1,0,0:0:0:0:
229,330,38020,1,2,0:0:0:0:
237,327,38091,1,0,0:0:0:0:
244,323,38163,1,0,0:0:0:0:
252,318,38234,1,0,0:0:0:0:
258,313,38306,5,2,0:0:0:0:
264,307,38377,1,0,0:0:0:0:
271,302,38448,1,0,0:0:0:0:
279,298,38520,1,0,0:0:0:0:
286,295,38591,1,2,0:0:0:0:
295,293,38663,1,0,0:0:0:0:
303,291,38734,1,0,0:0:0:0:
311,290,38806,1,0,0:0:0:0:
320,290,38877,1,2,0:0:0:0:
328,291,38948,1,0,0:0:0:0:
337,292,39020,1,0,0:0:0:0:
345,295,39091,1,0,0:0:0:0:
353,298,39163,1,2,0:0:0:0:
360,302,39234,1,0,0:0:0:0:
367,307,39306,1,0,0:0:0:0:
374,312,39377,1,0,0:0:0:0:
380,318,39449,5,2,0:0:0:0:
374,324,39520,1,0,0:0:0:0:
367,329,39591,1,0,0:0:0:0:
359,333,39663,1,0,0:0:0:0:
352,336,39734,1,2,0:0:0:0:
343,338,39806,1,0,0:0:0:0:
335,340,39877,1,0,0:0:0:0:
327,341,39949,1,0,0:0:0:0:
318,341,40020,1,2,0:0:0:0:
310,340,40091,1,0,0:0:0:0:
301,339,40163,1,0,0:0:0:0:
293,336,40234,1,0,0:0:0:0:
285,333,40306,1,2,0:0:0:0:
278,329,40377,1,0,0:0:0:0:
271,324,40449,1,0,0:0:0:0:
264,319,40520,1,0,0:0:0:0:
258,313,40592,5,2,0:0:0:0:
252,295,40663,1,0,0:0:0:0:
249,278,40734,1,0,0:0:0:0:
245,262,40806,1,0,0:0:0:0:
242,245,40877,1,2,0:0:0:0:
238,228,40949,1,0,0:0:0:0:
235,212,41020,1,0,0:0:0:0:
232,195,41092,1,0,0:0:0:0:
228,178,41163,1,2,0:0:0:0:
225,162,41234,1,0,0:0:0:0:
221,145,41306,1,0,0:0:0:0:
218,128,41377,1,0,0:0:0:0:
214,112,41449,1,2,0:0:0:0:
211,95,41520,1,0,0:0:0:0:
208,78,41592,1,0,0:0:0:0:
204,62,41663,1,0,0:0:0:0:
201,45,41735,5,2,0:0:0:0:
196,66,41806,1,0,0:0:0:0:
195,87,41877,1,0,0:0:0:0:
203,106,41949,1,0,0:0:0:0:
218,121,42020,1,2,0:0:0:0:
237,131,42092,1,0,0:0:0:0:
257,138,42163,1,0,0:0:0:0:
277,144,42235,1,0,0:0:0:0:
298,148,42306,1,2,0:0:0:0:
319,153,42377,1,0,0:0:0:0:
340,158,42449,1,0,0:0:0:0:
360,163,42520,1,0,0:0:0:0:
380,170,42592,1,2,0:0:0:0:
399,180,42663,1,0,0:0:0:0:
417,192,42735,1,0,0:0:0:0:
431,208,42806,1,0,0:0:0:0:
440,227,42878,5,2,0:0:0:0:
438,248,42950,1,0,0:0:0:0:
433,268,43021,1,0,0:0:0:0:
419,285,43093,1,0,0:0:0:0:
400,294,43164,1,2,0:0:0:0:
379,298,43236,1,0,0:0:0:0:
358,298,43307,1,0,0:0:0:0:
337,297,43379,1,0,0:0:0:0:
316,295,43450,1,2,0:0:0:0:
294,293,43521,1,0,0:0:0:0:
273,291,43593,1,0,0:0:0:0:
252,290,43664,1,0,0:0:0:0:
231,291,43736,1,2,0:0:0:0:
210,293,43807,1,0,0:0:0:0:
189,299,43879,1,0,0:0:0:0:
171,310,43950,1,0,0:0:0:0:
153,322,44020,5,2,0:0:0:0:
120,314,44091,1,0,0:0:0:0:
93,293,44162,1,0,0:0:0:0:
76,264,44234,1,0,0:0:0:0:
73,230,44305,1,2,0:0:0:0:
83,198,44377,1,0,0:0:0:0:
105,173,44448,1,0,0:0:0:0:
135,158,44520,1,0,0:0:0:0:
168,156,44592,5,2,0:0:0:0:
198,169,44663,1,0,0:0:0:0:
232,171,44735,1,0,0:0:0:0:
263,159,44806,1,0,0:0:0:0:
287,135,44878,1,2,0:0:0:0:
299,104,44949,1,0,0:0:0:0:
299,70,45021,1,0,0:0:0:0:
284,40,45092,1,0,0:0:0:0:
259,17,45163,5,2,0:0:0:0:
234,40,45234,1,0,0:0:0:0:
219,70,45305,1,0,0:0:0:0:
219,104,45377,1,0,0:0:0:0:
231,135,45448,1,2,0:0:0:0:
255,159,45520,1,0,0:0:0:0:
286,171,45591,1,0,0:0:0:0:
320,169,45663,1,0,0:0:0:0:
350,156,45734,5,2,0:0:0:0:
383,158,45806,1,0,0:0:0:0:
413,173,45878,1,0,0:0:0:0:
435,198,45949,1,0,0:0:0:0:
445,230,46021,1,2,0:0:0:0:
442,264,46092,1,0,0:0:0:0:
425,293,46164,1,0,0:0:0:0:
398,314,46235,1,0,0:0:0:0:
366,322,46306,5,2,0:0:0:0:
328,307,46377,1,0,0:0:0:0:
300,278,46448,1,0,0:0:0:0:
279,244,46520,1,0,0:0:0:0:
261,208,46591,1,2,0:0:0:0:
242,172,46663,1,0,0:0:0:0:
220,138,46734,1,0,0:0:0:0:
192,109,46806,1,0,0:0:0:0:
157,90,46877,1,2,0:0:0:0:
117,87,46948,1,0,0:0:0:0:
80,103,47020,1,0,0:0:0:0:
53,132,47091,1,0,0:0:0:0:
40,170,47163,1,2,0:0:0:0:
43,210,47234,1,0,0:0:0:0:
66,243,47306,1,0,0:0:0:0:
104,253,47377,1,0,0:0:0:0:
137,233,47449,5,2,0:0:0:0:
105,215,47520,1,0,0:0:0:0:
71,229,47591,1,0,0:0:0:0:
56,263,47663,1,0,0:0:0:0:
64,300,47734,1,2,0:0:0:0:
93,324,47806,1,0,0:0:0:0:
130,329,47877,1,0,0:0:0:0:
166,316,47949,1,0,0:0:0:0:
196,292,48020,1,2,0:0:0:0:
221,263,48091,1,0,0:0:0:0:
243,232,48163,1,0,0:0:0:0:
266,201,48234,1,0,0:0:0:0:
292,173,48306,1,2,0:0:0:0:
323,151,48377,1,0,0:0:0:0:
360,140,48449,1,0,0:0:0:0:
398,142,48520,1,0,0:0:0:0:
434,155,48592,5,2,0:0:0:0:
412,168,48663,1,0,0:0:0:0:
390,180,48734,1,0,0:0:0:0:
365,188,48806,1,0,0:0:0:0:
340,191,48877,1,2,0:0:0:0:
315,189,48949,1,0,0:0:0:0:
291,180,49020,1,0,0:0:0:0:
268,168,49092,1,0,0:0:0:0:
247,154,49163,1,2,0:0:0:0:
227,138,49234,1,0,0:0:0:0:
206,123,49306,1,0,0:0:0:0:
185,110,49377,1,0,0:0:0:0:
162,99,49449,1,2,0:0:0:0:
137,92,49520,1,0,0:0:0:0:
112,90,49592,1,0,0:0:0:0:
87,92,49663,1,0,0:0:0:0:
62,99,49735,5,2,0:0:0:0:
76,114,49806,1,0,0:0:0:0:
93,127,49877,1,0,0:0:0:0:
112,137,49949,1,0,0:0:0:0:
133,143,50020,1,2,0:0:0:0:
154,145,50092,1,0,0:0:0:0:
175,143,50163,1,0,0:0:0:0:
195,136,50235,1,0,0:0:0:0:
214,126,50306,1,2,0:0:0:0:
230,113,50377,1,0,0:0:0:0:
246,99,50449,1,0,0:0:0:0:
261,84,50520,1,0,0:0:0:0:
276,69,50592,1,2,0:0:0:0:
293,56,50663,1,0,0:0:0:0:
313,47,50735,1,0,0:0:0:0:
334,45,50806,1,0,0:0:0:0:
354,49,50878,6,0,L|396:60,3,34,2|0|0|0,0:0|0:0|0:0|0:0,0:0:0:0:
360,132,51163,2,0,L|408:144,3,34,2|0|0|0,0:0|0:0|0:0|0:0,0:0:0:0:
436,216,51449,2,0,L|394:226,3,34,2|0|0|0,0:0|0:0|0:0|0:0,0:0:0:0:
430,298,51734,2,0,L|382:310,3,34,2|0|0|0,0:0|0:0|0:0|0:0,0:0:0:0:
304,320,52020,6,0,L|300:348,3,25.4999992218018,2|0|0|0,0:0|0:0|0:0|0:0,0:0:0:0:
224,316,52306,2,0,L|220:340,3,17,2|0|0|0,0:0|0:0|0:0|0:0,0:0:0:0:
144,320,52592,2,0,L|144:328,3,8.5,2|0|0|0,0:0|0:0|0:0|0:0,0:0:0:0:
68,324,52878,2,0,L|68:328,3,4.25,2|0|0|0,0:0|0:0|0:0|0:0,0:0:0:0:
104,244,53163,5,2,0:0:0:0:
68,172,53306,1,0,0:0:0:0:
92,92,53449,1,2,0:0:0:0:
168,60,53592,1,0,0:0:0:0:
200,136,53735,5,2,0:0:0:0:
272,176,53878,1,0,0:0:0:0:
352,160,54020,1,2,0:0:0:0:
396,92,54163,1,0,0:0:0:0:
404,12,54306,6,0,B|428:0|496:16|508:88|496:140|440:172,1,204,2|0,0:0|0:0,0:0:0:0:
428,228,54878,2,0,L|444:296,6,38.2499988327027,2|0|0|0|0|0|0,0:0|0:0|0:0|0:0|0:0|0:0|0:0,0:0:0:0:
340,240,55163,2,0,L|360:332,1,76.4999976654053,2|4,0:0|0:0,0:0:0:0:
264,296,55306,2,0,L|284:388,1,76.4999976654053,4|4,0:0|0:0,0:0:0:0:
208,192,55449,5,6,0:0:0:0:
165,187,55520,1,0,0:0:0:0:
123,182,55591,1,4,0:0:0:0:
81,177,55663,1,0,0:0:0:0:
39,173,55735,1,2,0:0:0:0:
43,130,55806,1,0,0:0:0:0:
48,88,55877,1,4,0:0:0:0:
53,46,55949,1,0,0:0:0:0:
57,5,56020,5,2,0:0:0:0:
100,10,56091,1,0,0:0:0:0:
142,15,56162,1,4,0:0:0:0:
184,20,56234,1,0,0:0:0:0:
226,24,56306,1,2,0:0:0:0:
222,67,56377,1,0,0:0:0:0:
217,109,56448,1,4,0:0:0:0:
212,151,56520,1,0,0:0:0:0:
208,192,56593,5,2,0:0:0:0:
251,197,56664,1,0,0:0:0:0:
293,202,56735,1,4,0:0:0:0:
335,207,56807,1,0,0:0:0:0:
377,211,56879,1,2,0:0:0:0:
373,254,56950,1,0,0:0:0:0:
368,296,57021,1,4,0:0:0:0:
363,338,57093,1,0,0:0:0:0:
359,379,57164,5,2,0:0:0:0:
316,374,57235,1,0,0:0:0:0:
274,369,57306,1,4,0:0:0:0:
232,364,57378,1,0,0:0:0:0:
190,360,57450,1,2,0:0:0:0:
194,317,57521,1,0,0:0:0:0:
199,275,57592,1,4,0:0:0:0:
204,233,57664,1,0,0:0:0:0:
208,192,57735,5,2,0:0:0:0:
240,165,57806,1,0,0:0:0:0:
282,159,57878,1,4,0:0:0:0:
322,172,57949,1,0,0:0:0:0:
350,204,58020,1,2,0:0:0:0:
378,236,58091,1,0,0:0:0:0:
418,249,58163,1,4,0:0:0:0:
460,243,58234,1,0,0:0:0:0:
493,217,58306,5,2,0:0:0:0:
460,190,58377,1,0,0:0:0:0:
418,184,58448,1,4,0:0:0:0:
378,197,58520,1,0,0:0:0:0:
351,229,58591,1,2,0:0:0:0:
323,261,58662,1,0,0:0:0:0:
283,274,58734,1,4,0:0:0:0:
241,268,58805,1,0,0:0:0:0:
208,242,58878,5,2,0:0:0:0:
181,208,58949,1,0,0:0:0:0:
171,168,59020,1,4,0:0:0:0:
178,126,59092,1,0,0:0:0:0:
202,91,59163,1,2,0:0:0:0:
239,70,59235,1,0,0:0:0:0:
281,65,59306,1,4,0:0:0:0:
321,78,59378,1,0,0:0:0:0:
350,104,59449,5,2,0:0:0:0:
376,136,59520,1,0,0:0:0:0:
387,177,59592,1,4,0:0:0:0:
380,218,59663,1,0,0:0:0:0:
357,254,59735,1,2,0:0:0:0:
321,276,59806,1,0,0:0:0:0:
279,281,59878,1,4,0:0:0:0:
239,269,59949,1,0,0:0:0:0:
208,242,60020,5,2,0:0:0:0:
169,225,60091,1,0,0:0:0:0:
126,224,60162,1,4,0:0:0:0:
86,236,60234,1,0,0:0:0:0:
56,265,60306,1,2,0:0:0:0:
52,307,60377,1,0,0:0:0:0:
79,338,60449,1,4,0:0:0:0:
120,345,60520,1,0,0:0:0:0:
161,333,60592,5,2,0:0:0:0:
193,305,60663,1,0,0:0:0:0:
229,282,60734,1,4,0:0:0:0:
267,264,60806,1,0,0:0:0:0:
308,252,60877,1,2,0:0:0:0:
350,246,60949,1,0,0:0:0:0:
392,248,61020,1,4,0:0:0:0:
432,262,61092,1,0,0:0:0:0:
464,290,61163,5,2,0:0:0:0:
422,299,61234,1,0,0:0:0:0:
380,299,61305,1,4,0:0:0:0:
339,287,61377,1,0,0:0:0:0:
303,265,61448,1,2,0:0:0:0:
271,237,61520,1,0,0:0:0:0:
241,207,61591,1,4,0:0:0:0:
213,175,61663,1,0,0:0:0:0:
183,145,61734,5,2,0:0:0:0:
150,119,61805,1,0,0:0:0:0:
111,101,61877,1,4,0:0:0:0:
69,103,61948,1,0,0:0:0:0:
38,131,62020,1,2,0:0:0:0:
30,172,62091,1,0,0:0:0:0:
46,211,62163,1,4,0:0:0:0:
83,231,62234,1,0,0:0:0:0:
124,224,62306,5,2,0:0:0:0:
169,203,62377,1,0,0:0:0:0:
200,163,62448,1,4,0:0:0:0:
228,121,62520,1,0,0:0:0:0:
262,85,62591,1,2,0:0:0:0:
306,59,62663,1,0,0:0:0:0:
355,51,62735,1,4,0:0:0:0:
402,68,62806,1,0,0:0:0:0:
416,113,62878,6,0,L|407:170,3,42.5,0|0|4|0,0:0|0:0|0:0|0:0,0:0:0:0:
456,232,63163,2,0,L|500:244,1,42.5,2|0,0:0|0:0,0:0:0:0:
360,236,63306,2,0,L|313:226,1,42.5,4|0,0:0|0:0,0:0:0:0:
416,312,63449,6,0,L|408:344,6,21.25,2|0|0|0|4|0|0,0:0|0:0|0:0|0:0|0:0|0:0|0:0,0:0:0:0:
320,324,63735,2,0,L|312:356,6,21.25,2|0|0|0|4|0|0,0:0|0:0|0:0|0:0|0:0|0:0|0:0,0:0:0:0:
224,288,64020,6,0,L|96:248,1,127.500004863739,2|4,0:0|0:0,0:0:0:0:
36,292,64235,1,0,0:0:0:0:
92,344,64306,2,0,B|140:324|136:184|208:176,1,191.250007295609,2|0,0:0|0:0,0:0:0:0:
184,104,64592,6,0,L|176:60,3,42.5,6|0|0|0,0:0|0:0|0:0|0:0,0:0:0:0:
280,56,64878,2,0,L|288:8,3,42.5
292,148,65163,5,2,0:0:0:0:
316,184,65235,1,0,0:0:0:0:
352,204,65306,1,4,0:0:0:0:
396,204,65378,1,0,0:0:0:0:
432,184,65449,1,2,0:0:0:0:
476,188,65520,1,0,0:0:0:0:
504,220,65592,1,4,0:0:0:0:
504,264,65663,1,0,0:0:0:0:
496,308,65735,5,2,0:0:0:0:
464,336,65806,1,0,0:0:0:0:
420,336,65878,1,4,0:0:0:0:
384,316,65949,1,0,0:0:0:0:
352,288,66020,1,2,0:0:0:0:
312,276,66092,1,0,0:0:0:0:
268,276,66163,1,4,0:0:0:0:
232,300,66235,1,0,0:0:0:0:
212,336,66306,5,2,0:0:0:0:
172,352,66378,1,0,0:0:0:0:
128,348,66449,1,4,0:0:0:0:
96,320,66520,1,0,0:0:0:0:
80,280,66592,1,2,0:0:0:0:
116,300,66663,1,0,0:0:0:0:
160,308,66735,1,4,0:0:0:0:
196,284,66806,1,0,0:0:0:0:
224,252,66878,5,2,0:0:0:0:
236,212,66949,1,0,0:0:0:0:
220,172,67020,1,4,0:0:0:0:
188,144,67092,1,0,0:0:0:0:
152,124,67163,1,2,0:0:0:0:
136,84,67235,1,0,0:0:0:0:
144,44,67306,1,4,0:0:0:0:
176,16,67378,1,0,0:0:0:0:
220,12,67449,5,2,0:0:0:0:
256,36,67520,1,0,0:0:0:0:
268,76,67592,1,4,0:0:0:0:
260,116,67663,1,0,0:0:0:0:
228,144,67735,1,2,0:0:0:0:
200,176,67806,1,0,0:0:0:0:
188,216,67878,1,4,0:0:0:0:
200,256,67949,1,0,0:0:0:0:
228,288,68020,5,2,0:0:0:0:
268,300,68092,1,0,0:0:0:0:
308,292,68163,1,4,0:0:0:0:
340,264,68235,1,0,0:0:0:0:
356,224,68306,1,2,0:0:0:0:
388,192,68378,1,0,0:0:0:0:
432,192,68449,1,4,0:0:0:0:
472,204,68520,1,0,0:0:0:0:
496,240,68592,1,2,0:0:0:0:
456,232,68663,1,0,0:0:0:0:
412,232,68735,1,4,0:0:0:0:
384,264,68806,1,0,0:0:0:0:
360,300,68878,1,2,0:0:0:0:
324,320,68949,1,0,0:0:0:0:
284,328,69020,1,4,0:0:0:0:
240,320,69092,1,0,0:0:0:0:
208,296,69163,6,0,P|192:272|192:248,1,42.5,2|0,0:0|0:0,0:0:0:0:
112,212,69306,2,0,P|120:188|128:164,1,42.5,4|0,0:0|0:0,0:0:0:0:
156,80,69449,2,0,L|136:24,1,42.5,2|0,0:0|0:0,0:0:0:0:
232,136,69592,2,0,L|248:176,1,42.5,4|0,0:0|0:0,0:0:0:0:
264,48,69735,2,0,L|252:8,1,42.5,2|0,0:0|0:0,0:0:0:0:
344,124,69878,2,0,L|400:108,3,42.5,4|0|2|0,0:0|0:0|0:0|0:0,0:0:0:0:
432,208,70163,2,0,L|480:196,1,42.5,4|0,0:0|0:0,0:0:0:0:
360,332,70306,5,2,0:0:0:0:
316,348,70378,1,0,0:0:0:0:
272,340,70449,1,4,0:0:0:0:
244,304,70520,1,0,0:0:0:0:
240,256,70592,1,2,0:0:0:0:
204,288,70663,1,0,0:0:0:0:
160,308,70735,1,4,0:0:0:0:
116,292,70806,1,0,0:0:0:0:
88,252,70878,2,0,P|88:232|100:200,3,42.5,2|0|4|0,0:0|0:0|0:0|0:0,0:0:0:0:
132,100,71163,2,0,L|112:52,1,42.5,2|0,0:0|0:0,0:0:0:0:
208,164,71306,2,0,L|260:168,1,42.5,4|0,0:0|0:0,0:0:0:0:
464,184,71449,5,2,0:0:0:0:
452,160,71878,1,0,0:0:0:0:
440,184,72306,2,0,L|412:248,1,63.7500024318696
356,80,72449,2,0,L|328:8,1,63.7500024318696
328,212,72592,6,0,L|300:276,1,63.7500024318696
256,148,72735,1,0,0:0:0:0:
216,232,72878,6,0,L|188:296,1,63.7500024318696
164,112,73020,1,0,0:0:0:0:
104,252,73163,6,0,L|76:316,1,63.7500024318696
136,136,73306,2,0,L|120:60,1,63.7500024318696
288,292,73449,2,0,L|308:368,1,63.7500024318696
340,104,73592,1,0,0:0:0:0:
416,296,73735,5,6,0:0:0:0:
418,306,73806,1,0,0:0:0:0:
421,316,73877,1,4,0:0:0:0:
424,326,73949,1,0,0:0:0:0:
426,337,74020,2,0,L|480:328,1,42.5,10|0,0:0|0:0,0:0:0:0:
400,192,74163,1,4,0:0:0:0:
386,194,74234,1,0,0:0:0:0:
372,197,74305,1,2,0:0:0:0:
358,199,74377,1,0,0:0:0:0:
344,202,74448,1,4,0:0:0:0:
330,204,74520,1,0,0:0:0:0:
316,207,74592,2,0,L|268:216,1,42.5,10|0,0:0|0:0,0:0:0:0:
312,92,74735,2,0,L|304:40,1,42.5,4|0,0:0|0:0,0:0:0:0:
212,124,74878,6,0,L|128:136,1,63.7500024318696,2|0,0:0|0:0,0:0:0:0:
92,216,75020,2,0,L|48:224,2,31.8750012159348,4|0|0,0:0|0:0|0:0,0:0:0:0:
168,288,75163,2,0,P|176:320|172:352,1,63.7500024318696,10|0,0:0|0:0,0:0:0:0:
124,120,75306,1,4,0:0:0:0:
100,92,75378,1,0,0:0:0:0:
76,64,75449,2,0,L|76:16,1,42.5,2|0,0:0|0:0,0:0:0:0:
204,204,75592,2,0,P|228:224|240:248,1,42.5,4|0,0:0|0:0,0:0:0:0:
236,28,75735,2,0,L|284:16,1,42.5,10|0,0:0|0:0,0:0:0:0:
372,200,75878,2,0,L|416:204,1,42.5,4|0,0:0|0:0,0:0:0:0:
468,108,76020,6,0,L|476:40,1,63.7500024318696,2|0,0:0|0:0,0:0:0:0:
464,288,76163,2,0,L|460:324,2,31.8750012159348,4|0|0,0:0|0:0|0:0,0:0:0:0:
356,168,76306,2,0,L|372:100,1,63.7500024318696,10|0,0:0|0:0,0:0:0:0:
312,312,76449,1,4,0:0:0:0:
288,336,76520,1,0,0:0:0:0:
264,312,76592,2,0,L|184:316,1,63.7500024318696,2|0,0:0|0:0,0:0:0:0:
120,216,76735,2,0,L|36:220,1,63.7500024318696,4|0,0:0|0:0,0:0:0:0:
232,136,76878,1,10,0:0:0:0:
239,105,76949,1,0,0:0:0:0:
238,73,77020,1,4,0:0:0:0:
228,43,77092,1,0,0:0:0:0:
209,17,77163,6,0,P|192:64|200:100,1,63.7500024318696,2|0,0:0|0:0,0:0:0:0:
288,208,77306,2,0,L|320:232,2,31.8750012159348,4|0|0,0:0|0:0|0:0,0:0:0:0:
364,108,77449,6,0,L|416:96,3,42.5,10|0|4|0,0:0|0:0|0:0|0:0,0:0:0:0:
440,196,77735,2,0,L|476:200,4,31.8750012159348,2|0|0|0|4,0:0|0:0|0:0|0:0|0:0,0:0:0:0:
424,224,77949,1,0,0:0:0:0:
416,252,78020,2,0,L|436:316,1,63.7500024318696,10|0,0:0|0:0,0:0:0:0:
340,320,78163,2,0,L|328:364,1,42.5,4|0,0:0|0:0,0:0:0:0:
232,284,78306,5,6,0:0:0:0:
222,237,78377,1,0,0:0:0:0:
198,196,78448,1,4,0:0:0:0:
160,167,78520,1,0,0:0:0:0:
115,153,78592,2,0,L|76:168,6,31.8750012159348,10|0|0|0|4|0|0,0:0|0:0|0:0|0:0|0:0|0:0|0:0,0:0:0:0:
168,64,78878,2,0,L|156:16,3,42.5,2|0|4|0,0:0|0:0|0:0|0:0,0:0:0:0:
268,112,79163,2,0,L|312:96,1,42.5,10|0,0:0|0:0,0:0:0:0:
412,64,79306,2,0,L|456:48,1,42.5,4|0,0:0|0:0,0:0:0:0:
356,236,79449,5,6,0:0:0:0:
345,233,79520,1,0,0:0:0:0:
335,230,79592,1,4,0:0:0:0:
325,228,79663,1,0,0:0:0:0:
314,225,79735,2,0,L|360:208,1,42.5,10|0,0:0|0:0,0:0:0:0:
472,160,79878,2,0,L|512:144,1,42.5,4|0,0:0|0:0,0:0:0:0:
328,104,80020,2,0,L|304:48,1,42.5,6|0,0:0|0:0,0:0:0:0:
456,272,80163,1,4,0:0:0:0:
464,292,80235,1,0,0:0:0:0:
472,312,80306,2,0,L|492:360,1,42.5,14|0,0:0|0:0,0:0:0:0:
312,312,80449,1,4,0:0:0:0:
272,336,80520,1,0,0:0:0:0:
232,360,80592,6,0,L|172:352,7,42.5,6|0|0|0|0|0|0|0,0:0|0:0|0:0|0:0|0:0|0:0|0:0|0:0,0:0:0:0:
136,280,81163,2,0,L|80:296,7,42.5,6|0|0|0|0|0|0|0,0:0|0:0|0:0|0:0|0:0|0:0|0:0|0:0,0:0:0:0:
192,96,81735,6,0,L|176:48,3,42.5,6|0|0|0,0:0|0:0|0:0|0:0,0:0:0:0:
288,160,82020,2,0,L|296:116,3,42.5,6|0|0|0,0:0|0:0|0:0|0:0,0:0:0:0:
364,248,82306,6,0,L|420:264,1,42.5,6|0,0:0|0:0,0:0:0:0:
120,152,82449,2,0,L|76:136,1,42.5,4|0,0:0|0:0,0:0:0:0:
368,276,82592,2,0,L|424:292,1,42.5,6|0,0:0|0:0,0:0:0:0:
124,180,82735,2,0,L|80:164,1,42.5,4|0,0:0|0:0,0:0:0:0:
416,140,82878,6,0,L|464:120,2,42.5,6|0|4,0:0|0:0|0:0,0:0:0:0:
376,112,83092,1,0,0:0:0:0:
364,68,83163,2,0,L|368:16,1,42.5,10|0,0:0|0:0,0:0:0:0:
336,188,83306,2,0,P|308:200|284:200,1,42.5,4|0,0:0|0:0,0:0:0:0:
212,92,83449,2,0,P|184:72|168:64,1,42.5,2|0,0:0|0:0,0:0:0:0:
164,256,83592,1,4,0:0:0:0:
148,272,83663,1,0,0:0:0:0:
128,284,83735,2,0,P|96:292|72:288,1,42.5,10|0,0:0|0:0,0:0:0:0:
232,308,83878,2,0,P|252:344|252:364,1,42.5,4|0,0:0|0:0,0:0:0:0:
92,208,84020,5,2,0:0:0:0:
80,178,84091,1,0,0:0:0:0:
77,146,84162,1,4,0:0:0:0:
82,115,84234,1,0,0:0:0:0:
96,86,84306,2,0,P|104:56|100:32,1,42.5,10|0,0:0|0:0,0:0:0:0:
176,148,84449,1,4,0:0:0:0:
196,132,84520,1,0,0:0:0:0:
220,132,84592,2,0,L|272:136,1,42.5,2|0,0:0|0:0,0:0:0:0:
424,56,84735,2,0,P|400:88|400:104,1,42.5,4|0,0:0|0:0,0:0:0:0:
356,192,84878,2,0,P|364:216|380:232,1,42.5,10|0,0:0|0:0,0:0:0:0:
380,352,85020,2,0,P|408:360|428:356,1,42.5,4|0,0:0|0:0,0:0:0:0:
452,168,85163,6,0,L|468:120,3,42.5,6|0|4|0,0:0|0:0|0:0|0:0,0:0:0:0:
464,264,85449,2,0,L|512:272,3,42.5,10|0|4|0,0:0|0:0|0:0|0:0,0:0:0:0:
292,296,85735,2,0,P|272:316|268:332,1,42.5,6|0,0:0|0:0,0:0:0:0:
164,320,85878,2,0,P|160:348|168:368,1,42.5,4|0,0:0|0:0,0:0:0:0:
200,208,86020,1,10,0:0:0:0:
220,171,86091,1,0,0:0:0:0:
225,129,86162,1,4,0:0:0:0:
212,89,86234,1,0,0:0:0:0:
184,57,86306,5,2,0:0:0:0:
140,72,86378,1,0,0:0:0:0:
96,92,86449,2,0,L|48:80,1,42.5,4|0,0:0|0:0,0:0:0:0:
296,40,86592,2,0,L|344:52,3,42.5,10|0|4|0,0:0|0:0|0:0|0:0,0:0:0:0:
352,160,86878,1,2,0:0:0:0:
367,156,86949,1,0,0:0:0:0:
383,153,87020,1,4,0:0:0:0:
398,149,87092,1,0,0:0:0:0:
414,146,87163,1,10,0:0:0:0:
412,200,87235,1,0,0:0:0:0:
372,236,87306,1,4,0:0:0:0:
316,248,87378,1,0,0:0:0:0:
264,228,87449,6,0,L|244:164,1,50.9999984436036,6|0,0:0|0:0,0:0:0:0:
216,324,87592,2,0,L|196:380,1,50.9999984436036,4|0,0:0|0:0,0:0:0:0:
152,224,87735,1,10,0:0:0:0:
148,211,87806,1,0,0:0:0:0:
145,199,87877,1,4,0:0:0:0:
142,187,87949,1,0,0:0:0:0:
138,174,88020,2,0,L|120:120,1,50.9999984436036,2|0,0:0|0:0,0:0:0:0:
92,296,88163,2,0,L|76:356,1,50.9999984436036,4|0,0:0|0:0,0:0:0:0:
224,104,88306,1,10,0:0:0:0:
220,91,88377,1,0,0:0:0:0:
216,79,88448,1,4,0:0:0:0:
213,67,88520,1,0,0:0:0:0:
209,54,88592,6,0,L|192:0,1,50.9999984436036,6|0,0:0|0:0,0:0:0:0:
264,200,88735,2,0,L|280:256,1,50.9999984436036,4|0,0:0|0:0,0:0:0:0:
320,80,88878,2,0,L|302:25,1,50.9999984436036,10|0,0:0|0:0,0:0:0:0:
368,184,89021,2,0,L|418:167,1,50.9999984436036,4|0,0:0|0:0,0:0:0:0:
316,324,89163,1,2,0:0:0:0:
303,327,89234,1,0,0:0:0:0:
291,331,89305,1,4,0:0:0:0:
279,334,89377,1,0,0:0:0:0:
267,338,89448,1,10,0:0:0:0:
228,304,89520,1,0,0:0:0:0:
180,288,89592,1,4,0:0:0:0:
128,288,89663,1,0,0:0:0:0:
88,320,89735,6,0,L|52:360,3,50.9999984436036,6|0|4|0,0:0|0:0|0:0|0:0,0:0:0:0:
72,196,90020,2,0,L|44:144,3,50.9999984436036,10|0|4|0,0:0|0:0|0:0|0:0,0:0:0:0:
160,80,90306,2,0,L|180:12,3,50.9999984436036,2|0|4|0,0:0|0:0|0:0|0:0,0:0:0:0:
248,164,90592,1,10,0:0:0:0:
287,131,90663,1,0,0:0:0:0:
335,115,90734,1,4,0:0:0:0:
385,118,90806,1,0,0:0:0:0:
432,139,90878,6,0,P|452:152|480:152,3,42.5,2|0|4|0,0:0|0:0|0:0|0:0,0:0:0:0:
360,208,91163,2,0,P|328:216|320:228,3,42.5,2|0|4|0,0:0|0:0|0:0|0:0,0:0:0:0:
412,296,91449,2,0,P|436:304|448:320,1,42.5,2|0,0:0|0:0,0:0:0:0:
308,336,91592,1,4,0:0:0:0:
299,347,91663,1,0,0:0:0:0:
288,355,91734,1,10,0:0:0:0:
275,361,91806,1,0,0:0:0:0:
261,364,91877,1,4,0:0:0:0:
247,364,91949,1,0,0:0:0:0:
233,360,92020,5,6,0:0:0:0:
204,332,92092,1,0,0:0:0:0:
164,316,92163,2,0,P|136:312|108:320,1,42.5,4|0,0:0|0:0,0:0:0:0:
160,204,92306,1,2,0:0:0:0:
120,188,92378,1,0,0:0:0:0:
76,192,92449,2,0,P|44:196|28:208,1,42.5,4|0,0:0|0:0,0:0:0:0:
152,84,92592,2,0,L|156:28,2,42.5,2|0|4,0:0|0:0|0:0,0:0:0:0:
184,112,92806,1,0,0:0:0:0:
228,112,92878,2,0,L|288:100,1,42.5,2|0,0:0|0:0,0:0:0:0:
400,124,93020,2,0,L|452:116,1,42.5,4|0,0:0|0:0,0:0:0:0:
316,208,93163,5,2,0:0:0:0:
292,244,93235,1,0,0:0:0:0:
328,264,93306,2,0,L|336:320,1,42.5,4|0,0:0|0:0,0:0:0:0:
432,256,93449,2,0,L|480:248,3,42.5,2|0|4|0,0:0|0:0|0:0|0:0,0:0:0:0:
256,324,93735,2,0,L|208:328,1,42.5,2|0,0:0|0:0,0:0:0:0:
144,244,93878,2,0,L|112:284,1,42.5,4|0,0:0|0:0,0:0:0:0:
12,272,94020,2,0,L|16:324,1,42.5,2|0,0:0|0:0,0:0:0:0:
88,148,94163,1,4,0:0:0:0:
112,112,94235,1,0,0:0:0:0:
100,72,94306,6,0,L|92:16,1,42.5,2|0,0:0|0:0,0:0:0:0:
216,92,94449,2,0,L|232:40,1,42.5,4|0,0:0|0:0,0:0:0:0:
16,92,94592,2,0,L|0:48,1,42.5,2|0,0:0|0:0,0:0:0:0:
232,184,94735,1,4,0:0:0:0:
241,179,94806,1,0,0:0:0:0:
251,174,94877,1,2,0:0:0:0:
260,169,94949,1,0,0:0:0:0:
270,164,95020,1,4,0:0:0:0:
280,208,95092,1,0,0:0:0:0:
288,248,95163,2,0,L|304:308,1,42.5,2|0,0:0|0:0,0:0:0:0:
384,76,95306,1,4,0:0:0:0:
376,120,95378,1,0,0:0:0:0:
372,164,95449,6,0,L|384:204,3,42.5,2|0|4|0,0:0|0:0|0:0|0:0,0:0:0:0:
472,248,95735,1,2,0:0:0:0:
440,288,95806,1,0,0:0:0:0:
392,312,95878,2,0,L|336:304,1,42.5,4|0,0:0|0:0,0:0:0:0:
224,216,96020,1,2,0:0:0:0:
200,168,96092,1,0,0:0:0:0:
152,156,96163,1,4,0:0:0:0:
104,172,96235,1,0,0:0:0:0:
76,216,96306,2,0,P|72:240|84:272,1,42.5,2|0,0:0|0:0,0:0:0:0:
148,76,96449,2,0,P|152:52|140:36,1,42.5,4|0,0:0|0:0,0:0:0:0:
184,296,96592,5,2,0:0:0:0:
193,300,96663,1,0,0:0:0:0:
203,303,96735,1,4,0:0:0:0:
214,304,96806,1,0,0:0:0:0:
225,304,96878,2,0,P|256:296|272:304,3,42.5,2|0|4|0,0:0|0:0|0:0|0:0,0:0:0:0:
384,288,97163,2,0,P|396:312|396:332,1,42.5,2|0,0:0|0:0,0:0:0:0:
340,180,97306,2,0,P|328:156|332:136,1,42.5,4|0,0:0|0:0,0:0:0:0:
456,208,97449,2,0,L|500:200,1,42.5,2|0,0:0|0:0,0:0:0:0:
224,168,97592,2,0,L|180:156,1,42.5,4|0,0:0|0:0,0:0:0:0:
448,88,97735,6,0,L|496:76,2,42.5,2|0|4,0:0|0:0|0:0,0:0:0:0:
404,60,97949,1,0,0:0:0:0:
360,36,98020,2,0,L|308:52,3,42.5,2|0|4|0,0:0|0:0|0:0|0:0,0:0:0:0:
224,16,98306,6,0,P|208:52|212:68,1,42.5,2|0,0:0|0:0,0:0:0:0:
120,104,98449,2,0,P|136:136|144:144,1,42.5,4|0,0:0|0:0,0:0:0:0:
140,248,98592,2,0,P|128:272|104:292,1,42.5,2|0,0:0|0:0,0:0:0:0:
180,364,98735,2,0,P|156:380|140:384,1,42.5,4|0,0:0|0:0,0:0:0:0:
256,268,98878,5,2,0:0:0:0:
280,232,98949,1,0,0:0:0:0:
320,220,99020,1,4,0:0:0:0:
360,236,99092,1,0,0:0:0:0:
388,268,99163,2,0,L|400:308,1,42.5,2|0,0:0|0:0,0:0:0:0:
416,152,99306,1,4,0:0:0:0:
436,148,99378,1,0,0:0:0:0:
456,148,99449,2,0,L|460:104,1,42.5,2|0,0:0|0:0,0:0:0:0:
364,68,99592,2,0,L|348:24,1,42.5,4|0,0:0|0:0,0:0:0:0:
260,108,99735,2,0,L|204:92,1,42.5,2|0,0:0|0:0,0:0:0:0:
124,188,99878,1,4,0:0:0:0:
104,192,99949,1,0,0:0:0:0:
84,200,100020,6,0,L|32:184,1,42.5,2|0,0:0|0:0,0:0:0:0:
144,280,100163,1,4,0:0:0:0:
156,320,100235,1,0,0:0:0:0:
188,292,100306,2,0,L|240:296,1,42.5,2|0,0:0|0:0,0:0:0:0:
376,324,100449,1,4,0:0:0:0:
404,356,100520,1,0,0:0:0:0:
448,356,100592,2,0,P|476:344|480:328,1,42.5,2|0,0:0|0:0,0:0:0:0:
456,224,100735,2,0,P|424:216|408:224,1,42.5,4|0,0:0|0:0,0:0:0:0:
296,336,100878,2,0,L|288:380,1,42.5,2|0,0:0|0:0,0:0:0:0:
320,200,101020,2,0,L|312:156,1,42.5,4|0,0:0|0:0,0:0:0:0:
232,72,101163,6,0,L|248:32,2,42.5,6|0|4,0:0|0:0|0:0,0:0:0:0:
192,92,101378,1,0,0:0:0:0:
148,96,101449,2,0,L|104:80,3,42.5,2|0|4|0,0:0|0:0|0:0|0:0,0:0:0:0:
172,192,101735,2,0,L|156:240,1,42.5,2|0,0:0|0:0,0:0:0:0:
68,296,101878,1,4,0:0:0:0:
72,316,101949,1,0,0:0:0:0:
76,337,102020,2,0,L|128:332,1,42.5,2|0,0:0|0:0,0:0:0:0:
232,288,102163,1,4,0:0:0:0:
241,270,102234,1,0,0:0:0:0:
252,251,102305,6,0,L|298:272,3,42.5,2|0|4|0,0:0|0:0|0:0|0:0,0:0:0:0:
416,268,102592,1,2,0:0:0:0:
456,256,102663,1,0,0:0:0:0:
480,220,102735,1,4,0:0:0:0:
480,176,102806,1,0,0:0:0:0:
464,136,102878,2,0,L|420:152,1,42.5,2|0,0:0|0:0,0:0:0:0:
332,64,103020,2,0,L|320:24,1,42.5,4|0,0:0|0:0,0:0:0:0:
260,152,103163,1,2,0:0:0:0:
250,155,103234,1,0,0:0:0:0:
240,159,103305,1,4,0:0:0:0:
230,162,103377,1,0,0:0:0:0:
220,166,103449,6,0,L|180:184,1,42.5,2|0,0:0|0:0,0:0:0:0:
160,72,103592,2,0,L|144:28,1,42.5,4|0,0:0|0:0,0:0:0:0:
84,188,103735,1,2,0:0:0:0:
90,213,103806,1,0,0:0:0:0:
97,239,103877,1,4,0:0:0:0:
103,265,103949,1,0,0:0:0:0:
110,290,104020,2,0,L|64:316,2,42.5,2|0|4,0:0|0:0|0:0,0:0:0:0:
160,316,104235,1,0,0:0:0:0:
200,300,104306,2,0,L|244:304,1,42.5,2|0,0:0|0:0,0:0:0:0:
276,196,104449,2,0,L|332:184,1,42.5,4|0,0:0|0:0,0:0:0:0:
356,308,104592,6,0,L|364:356,1,42.5,2|0,0:0|0:0,0:0:0:0:
460,256,104735,1,4,0:0:0:0:
468,236,104806,1,0,0:0:0:0:
476,216,104878,2,0,L|468:168,1,42.5,2|0,0:0|0:0,0:0:0:0:
404,84,105020,1,4,0:0:0:0:
409,63,105091,1,0,0:0:0:0:
415,42,105163,2,0,L|372:56,1,42.5,2|0,0:0|0:0,0:0:0:0:
244,84,105306,2,0,L|200:72,1,42.5,4|0,0:0|0:0,0:0:0:0:
80,96,105449,2,0,L|32:84,3,42.5,2|0|4|0,0:0|0:0|0:0|0:0,0:0:0:0:
148,192,105735,5,2,0:0:0:0:
112,216,105806,1,0,0:0:0:0:
100,256,105878,1,4,0:0:0:0:
104,300,105949,1,0,0:0:0:0:
132,332,106020,2,0,L|180:320,1,42.5,2|0,0:0|0:0,0:0:0:0:
276,240,106163,1,4,0:0:0:0:
292,280,106235,1,0,0:0:0:0:
308,320,106306,2,0,L|356:332,3,42.5,2|0|4|0,0:0|0:0|0:0|0:0,0:0:0:0:
392,236,106592,2,0,L|452:224,1,42.5,2|0,0:0|0:0,0:0:0:0:
320,136,106735,2,0,L|328:88,1,42.5,4|0,0:0|0:0,0:0:0:0:
448,112,106878,6,0,L|508:120,2,42.5,2|0|4,0:0|0:0|0:0,0:0:0:0:
436,72,107092,1,0,0:0:0:0:
420,32,107163,2,0,L|360:16,1,42.5,2|0,0:0|0:0,0:0:0:0:
224,92,107306,1,4,0:0:0:0:
221,113,107377,1,0,0:0:0:0:
218,134,107449,2,0,L|168:148,1,42.5,2|0,0:0|0:0,0:0:0:0:
80,232,107592,2,0,L|128:248,1,42.5,4|0,0:0|0:0,0:0:0:0:
196,344,107735,1,2,0:0:0:0:
216,308,107806,1,0,0:0:0:0:
252,284,107878,1,4,0:0:0:0:
296,284,107949,1,0,0:0:0:0:
336,300,108020,6,0,L|384:320,3,42.5,2|0|4|0,0:0|0:0|0:0|0:0,0:0:0:0:
472,256,108306,1,2,0:0:0:0:
492,216,108378,1,0,0:0:0:0:
488,172,108449,1,4,0:0:0:0:
464,136,108520,1,0,0:0:0:0:
420,128,108592,1,2,0:0:0:0:
388,156,108663,1,0,0:0:0:0:
348,176,108735,1,4,0:0:0:0:
308,168,108806,1,0,0:0:0:0:
284,132,108878,1,2,0:0:0:0:
272,92,108949,1,0,0:0:0:0:
236,68,109020,1,4,0:0:0:0:
192,60,109092,1,0,0:0:0:0:
152,72,109163,5,2,0:0:0:0:
124,112,109235,1,0,0:0:0:0:
124,160,109306,1,4,0:0:0:0:
160,192,109378,1,0,0:0:0:0:
204,204,109449,1,2,0:0:0:0:
240,236,109520,1,0,0:0:0:0:
248,284,109592,1,4,0:0:0:0:
232,328,109663,1,0,0:0:0:0:
192,352,109735,1,2,0:0:0:0:
144,336,109806,1,0,0:0:0:0:
124,288,109878,1,4,0:0:0:0:
132,240,109949,1,0,0:0:0:0:
168,204,110020,1,2,0:0:0:0:
216,188,110092,1,0,0:0:0:0:
268,192,110163,1,4,0:0:0:0:
312,220,110235,1,0,0:0:0:0:
344,260,110306,5,6,0:0:0:0:
368,284,110378,1,0,0:0:0:0:
400,292,110449,1,0,0:0:0:0:
432,288,110520,1,0,0:0:0:0:
460,268,110592,1,10,0:0:0:0:
476,236,110663,1,0,0:0:0:0:
484,204,110735,1,0,0:0:0:0:
480,172,110806,1,0,0:0:0:0:
460,144,110878,1,2,0:0:0:0:
428,128,110949,1,0,0:0:0:0:
396,132,111020,1,0,0:0:0:0:
364,144,111092,1,0,0:0:0:0:
340,168,111163,1,10,0:0:0:0:
324,200,111235,1,0,0:0:0:0:
316,232,111306,1,0,0:0:0:0:
316,268,111378,1,0,0:0:0:0:
332,300,111449,5,2,0:0:0:0:
316,328,111520,1,0,0:0:0:0:
288,348,111592,1,0,0:0:0:0:
256,352,111663,1,0,0:0:0:0:
224,344,111735,1,10,0:0:0:0:
200,320,111806,1,0,0:0:0:0:
180,292,111878,1,0,0:0:0:0:
172,260,111949,1,0,0:0:0:0:
172,228,112020,1,2,0:0:0:0:
184,196,112092,1,0,0:0:0:0:
200,168,112163,1,0,0:0:0:0:
224,144,112235,1,0,0:0:0:0:
252,128,112306,1,10,0:0:0:0:
284,120,112378,1,0,0:0:0:0:
316,124,112449,1,0,0:0:0:0:
348,136,112520,1,0,0:0:0:0:
376,160,112592,5,2,0:0:0:0:
424,152,112663,1,0,0:0:0:0:
444,120,112735,1,0,0:0:0:0:
448,84,112806,1,0,0:0:0:0:
432,48,112878,1,10,0:0:0:0:
404,36,112949,1,0,0:0:0:0:
376,40,113020,1,0,0:0:0:0:
348,52,113092,1,0,0:0:0:0:
324,72,113163,1,0,0:0:0:0:
308,96,113235,1,0,0:0:0:0:
288,116,113306,1,0,0:0:0:0:
260,128,113378,1,0,0:0:0:0:
232,132,113449,1,10,0:0:0:0:
204,128,113520,1,0,0:0:0:0:
176,120,113592,1,0,0:0:0:0:
152,104,113663,1,0,0:0:0:0:
136,80,113735,5,2,0:0:0:0:
136,52,113806,1,0,0:0:0:0:
152,28,113878,1,0,0:0:0:0:
180,16,113949,1,0,0:0:0:0:
204,32,114020,1,10,0:0:0:0:
212,60,114092,1,0,0:0:0:0:
208,88,114163,1,0,0:0:0:0:
192,116,114235,1,0,0:0:0:0:
172,136,114306,1,2,0:0:0:0:
148,156,114378,1,0,0:0:0:0:
128,180,114449,1,0,0:0:0:0:
112,208,114520,1,0,0:0:0:0:
104,236,114592,1,10,0:0:0:0:
100,264,114663,1,0,0:0:0:0:
108,292,114735,1,0,0:0:0:0:
120,320,114806,1,0,0:0:0:0:
144,340,114878,5,2,0:0:0:0:
140,304,114949,1,0,0:0:0:0:
148,268,115020,1,0,0:0:0:0:
176,244,115092,1,0,0:0:0:0:
212,240,115163,1,10,0:0:0:0:
240,252,115235,1,0,0:0:0:0:
260,276,115306,1,0,0:0:0:0:
272,304,115378,1,0,0:0:0:0:
276,332,115449,1,2,0:0:0:0:
296,356,115520,1,0,0:0:0:0:
324,364,115592,1,0,0:0:0:0:
352,356,115663,1,0,0:0:0:0:
380,340,115735,1,10,0:0:0:0:
396,316,115806,1,0,0:0:0:0:
404,288,115878,1,0,0:0:0:0:
396,260,115949,1,0,0:0:0:0:
376,240,116020,5,2,0:0:0:0:
352,224,116092,1,0,0:0:0:0:
336,200,116163,1,0,0:0:0:0:
328,172,116235,1,0,0:0:0:0:
328,144,116306,1,10,0:0:0:0:
340,116,116378,1,0,0:0:0:0:
360,96,116449,1,0,0:0:0:0:
388,88,116520,1,0,0:0:0:0:
416,96,116592,1,2,0:0:0:0:
412,124,116663,1,0,0:0:0:0:
384,136,116735,1,0,0:0:0:0:
356,144,116806,1,0,0:0:0:0:
328,144,116878,1,10,0:0:0:0:
300,136,116949,1,0,0:0:0:0:
276,120,117020,1,0,0:0:0:0:
248,104,117092,1,0,0:0:0:0:
220,92,117163,5,2,0:0:0:0:
176,100,117235,1,0,0:0:0:0:
144,128,117306,1,0,0:0:0:0:
128,168,117378,1,0,0:0:0:0:
132,208,117449,1,10,0:0:0:0:
160,240,117520,1,0,0:0:0:0:
200,252,117592,1,0,0:0:0:0:
244,252,117663,1,0,0:0:0:0:
284,232,117735,1,2,0:0:0:0:
328,236,117806,1,0,0:0:0:0:
364,260,117878,1,0,0:0:0:0:
384,296,117949,1,0,0:0:0:0:
384,340,118020,1,10,0:0:0:0:
352,368,118092,1,0,0:0:0:0:
312,380,118163,1,0,0:0:0:0:
272,364,118235,1,0,0:0:0:0:
244,336,118306,5,2,0:0:0:0:
232,308,118378,1,0,0:0:0:0:
232,280,118449,1,0,0:0:0:0:
244,252,118520,1,0,0:0:0:0:
264,228,118592,1,10,0:0:0:0:
292,216,118663,1,0,0:0:0:0:
320,216,118735,1,0,0:0:0:0:
348,224,118806,1,0,0:0:0:0:
372,244,118878,1,2,0:0:0:0:
400,252,118949,1,0,0:0:0:0:
428,244,119020,1,0,0:0:0:0:
452,224,119092,1,0,0:0:0:0:
464,196,119163,1,10,0:0:0:0:
468,168,119235,1,0,0:0:0:0:
464,140,119306,1,0,0:0:0:0:
452,112,119378,1,0,0:0:0:0:
428,92,119449,5,2,0:0:0:0:
392,104,119520,1,0,0:0:0:0:
356,116,119592,1,0,0:0:0:0:
320,128,119663,1,0,0:0:0:0:
284,144,119735,1,10,0:0:0:0:
256,144,119806,1,0,0:0:0:0:
228,140,119878,1,0,0:0:0:0:
204,124,119949,1,0,0:0:0:0:
188,100,120020,1,2,0:0:0:0:
216,96,120092,1,0,0:0:0:0:
240,116,120163,1,0,0:0:0:0:
252,144,120235,1,0,0:0:0:0:
252,172,120306,1,10,0:0:0:0:
240,200,120378,1,0,0:0:0:0:
216,220,120449,1,0,0:0:0:0:
188,232,120520,1,0,0:0:0:0:
160,236,120592,5,2,0:0:0:0:
132,244,120663,1,0,0:0:0:0:
124,272,120735,1,0,0:0:0:0:
136,300,120806,1,0,0:0:0:0:
160,320,120878,1,10,0:0:0:0:
188,328,120949,1,0,0:0:0:0:
216,324,121020,1,0,0:0:0:0:
240,308,121092,1,0,0:0:0:0:
260,284,121163,1,2,0:0:0:0:
288,276,121235,1,0,0:0:0:0:
316,288,121306,1,0,0:0:0:0:
336,308,121378,1,0,0:0:0:0:
344,336,121449,1,10,0:0:0:0:
356,308,121520,1,0,0:0:0:0:
380,292,121592,1,0,0:0:0:0:
408,288,121663,1,0,0:0:0:0:
436,292,121735,6,0,L|480:304,3,42.5,2|0|0|0,0:0|0:0|0:0|0:0,0:0:0:0:
460,204,122020,2,0,L|504:196,3,42.5,10|0|0|0,0:0|0:0|0:0|0:0,0:0:0:0:
456,108,122306,2,0,L|472:68,3,42.5,2|0|0|0,0:0|0:0|0:0|0:0,0:0:0:0:
368,56,122592,2,0,L|360:8,3,42.5,10|0|0|0,0:0|0:0|0:0|0:0,0:0:0:0:
312,152,122878,6,0,L|324:196,3,42.5,2|0|0|0,0:0|0:0|0:0|0:0,0:0:0:0:
228,212,123163,2,0,L|216:256,3,42.5,10|0|0|0,0:0|0:0|0:0|0:0,0:0:0:0:
116,228,123449,2,0,L|72:248,3,42.5,2|0|0|0,0:0|0:0|0:0|0:0,0:0:0:0:
44,152,123735,5,10,0:0:0:0:
38,150,123806,1,0,0:0:0:0:
33,149,123877,1,0,0:0:0:0:
28,148,123949,1,0,0:0:0:0:
23,147,124020,6,0,L|64:136,3,42.5,2|0|0|0,0:0|0:0|0:0|0:0,0:0:0:0:
132,64,124306,2,0,L|176:76,1,42.5,10|0,0:0|0:0,0:0:0:0:
204,160,124449,1,0,0:0:0:0:
220,156,124520,1,0,0:0:0:0:
236,152,124592,2,0,L|280:140,3,42.5,2|0|0|0,0:0|0:0|0:0|0:0,0:0:0:0:
336,60,124878,2,0,L|424:68,1,85,10|0,0:0|0:0,0:0:0:0:
440,92,125092,1,0,0:0:0:0:
452,120,125163,6,0,L|500:108,2,42.5,2|0|0,0:0|0:0|0:0,0:0:0:0:
444,148,125378,1,0,0:0:0:0:
428,172,125449,2,0,L|376:192,1,42.5,10|0,0:0|0:0,0:0:0:0:
376,312,125592,1,0,0:0:0:0:
364,304,125663,1,0,0:0:0:0:
352,300,125735,2,0,L|296:296,1,42.5,2|0,0:0|0:0,0:0:0:0:
224,208,125878,1,0,0:0:0:0:
212,236,125949,1,0,0:0:0:0:
200,264,126020,2,0,L|152:280,1,42.5,10|0,0:0|0:0,0:0:0:0:
128,152,126163,1,0,0:0:0:0:
112,112,126235,1,0,0:0:0:0:
96,72,126306,6,0,L|40:60,1,42.5,2|0,0:0|0:0,0:0:0:0:
224,72,126449,2,0,L|240:24,1,42.5
84,144,126592,6,0,L|28:132,1,42.5,10|0,0:0|0:0,0:0:0:0:
296,120,126735,2,0,L|312:72,1,42.5
88,232,126878,6,0,L|32:220,1,42.5,2|0,0:0|0:0,0:0:0:0:
368,176,127021,2,0,L|384:128,1,42.5
76,316,127163,6,0,L|20:304,1,42.5,10|0,0:0|0:0,0:0:0:0:
444,220,127306,2,0,L|460:172,1,42.5
368,356,127449,5,2,0:0:0:0:
324,384,127520,1,0,0:0:0:0:
276,372,127592,1,0,0:0:0:0:
248,328,127663,1,0,0:0:0:0:
260,276,127735,1,10,0:0:0:0:
276,228,127806,1,0,0:0:0:0:
268,176,127878,1,0,0:0:0:0:
224,148,127949,1,0,0:0:0:0:
172,152,128020,1,10,0:0:0:0:
144,192,128092,1,0,0:0:0:0:
132,240,128163,1,0,0:0:0:0:
116,288,128235,1,0,0:0:0:0:
100,336,128306,2,0,L|88:388,3,42.5,10|0|0|0,0:0|0:0|0:0|0:0,0:0:0:0:
44,208,128592,6,0,L|32:136,3,50.9999984436036,6|0|0|0,0:0|0:0|0:0|0:0,0:0:0:0:
88,56,128878,1,2,0:0:0:0:
136,40,128949,1,0,0:0:0:0:
184,52,129020,1,0,0:0:0:0:
216,92,129092,1,0,0:0:0:0:
216,144,129163,1,2,0:0:0:0:
240,188,129235,1,0,0:0:0:0:
288,208,129306,1,0,0:0:0:0:
340,204,129378,1,0,0:0:0:0:
376,168,129449,1,2,0:0:0:0:
424,152,129520,1,0,0:0:0:0:
472,172,129592,1,0,0:0:0:0:
492,220,129663,1,0,0:0:0:0:
488,272,129735,6,0,P|480:288|440:304,3,50.9999984436036,2|0|0|0,0:0|0:0|0:0|0:0,0:0:0:0:
368,360,130020,1,2,0:0:0:0:
328,328,130092,1,0,0:0:0:0:
276,320,130163,1,0,0:0:0:0:
228,336,130235,1,0,0:0:0:0:
188,368,130306,2,0,L|128:360,1,50.9999984436036,2|0,0:0|0:0,0:0:0:0:
144,264,130449,1,0,0:0:0:0:
96,252,130520,1,0,0:0:0:0:
96,200,130592,2,0,L|88:136,1,50.9999984436036,2|0,0:0|0:0,0:0:0:0:
200,72,130735,2,0,L|216:12,1,50.9999984436036
236,184,130878,5,2,0:0:0:0:
280,160,130949,1,0,0:0:0:0:
332,164,131020,2,0,P|360:176|380:208,1,50.9999984436036
336,64,131163,2,0,L|352:8,1,50.9999984436036,2|0,0:0|0:0,0:0:0:0:
300,252,131306,1,0,0:0:0:0:
284,300,131378,1,0,0:0:0:0:
268,348,131449,2,0,L|340:332,1,50.9999984436036,2|0,0:0|0:0,0:0:0:0:
452,216,131592,1,0,0:0:0:0:
436,264,131664,1,0,0:0:0:0:
420,312,131735,2,0,L|492:296,1,50.9999984436036,2|0,0:0|0:0,0:0:0:0:
184,288,131878,2,0,L|116:304,1,50.9999984436036
80,220,132020,6,0,L|16:200,3,50.9999984436036,2|0|0|0,0:0|0:0|0:0|0:0,0:0:0:0:
144,128,132306,2,0,L|192:112,3,50.9999984436036,2|0|0|0,0:0|0:0|0:0|0:0,0:0:0:0:
336,72,132592,1,2,0:0:0:0:
380,92,132663,1,0,0:0:0:0:
408,136,132735,1,0,0:0:0:0:
400,188,132806,1,0,0:0:0:0:
368,228,132878,2,0,P|336:244|308:240,3,50.9999984436036,2|0|0|0,0:0|0:0|0:0|0:0,0:0:0:0:
224,304,133163,5,2,0:0:0:0:
217,293,133234,1,0,0:0:0:0:
207,284,133305,1,0,0:0:0:0:
196,278,133377,1,0,0:0:0:0:
184,276,133448,1,2,0:0:0:0:
132,284,133520,1,0,0:0:0:0:
84,264,133592,2,0,P|56:236|56:216,1,50.9999984436036
144,164,133735,1,2,0:0:0:0:
124,116,133806,1,0,0:0:0:0:
136,64,133878,2,0,P|144:36|168:16,1,50.9999984436036
240,104,134020,2,0,L|304:96,1,50.9999984436036,2|0,0:0|0:0,0:0:0:0:
284,232,134163,2,0,P|308:256|320:280,1,50.9999984436036
408,180,134306,6,0,L|464:176,3,50.9999984436036,2|0|0|0,0:0|0:0|0:0|0:0,0:0:0:0:
496,64,134592,2,0,L|488:8,1,50.9999984436036,2|0,0:0|0:0,0:0:0:0:
468,268,134735,2,0,L|476:320,1,50.9999984436036
408,76,134878,2,0,L|400:8,1,50.9999984436036,2|0,0:0|0:0,0:0:0:0:
372,276,135020,1,0,0:0:0:0:
356,296,135092,1,0,0:0:0:0:
332,304,135163,2,0,L|276:296,3,50.9999984436036,2|0|0|0,0:0|0:0|0:0|0:0,0:0:0:0:
140,292,135449,6,0,P|128:324|128:352,2,50.9999984436036,2|0|0,0:0|0:0|0:0,0:0:0:0:
168,248,135663,1,0,0:0:0:0:
200,208,135735,2,0,P|212:176|204:148,1,50.9999984436036,2|0,0:0|0:0,0:0:0:0:
240,60,135878,2,0,P|220:40|196:28,1,50.9999984436036
312,160,136020,2,0,L|372:144,1,50.9999984436036,2|0,0:0|0:0,0:0:0:0:
124,116,136163,2,0,L|64:132,1,50.9999984436036
324,248,136306,1,2,0:0:0:0:
336,245,136377,1,0,0:0:0:0:
348,242,136448,1,0,0:0:0:0:
361,239,136520,1,0,0:0:0:0:
373,237,136592,6,0,L|432:224,3,50.9999984436036,6|0|0|0,0:0|0:0|0:0|0:0,0:0:0:0:
252,304,136878,2,0,L|260:356,1,50.9999984436036,6|0,0:0|0:0,0:0:0:0:
320,144,137020,2,0,L|312:88,3,50.9999984436036,4|0|2|0,0:0|0:0|0:0|0:0,0:0:0:0:
408,36,137306,2,0,L|460:28,1,50.9999984436036,4|0,0:0|0:0,0:0:0:0:
212,132,137449,2,0,L|160:140,1,50.9999984436036,4|0,0:0|0:0,0:0:0:0:
432,56,137592,2,0,L|484:48,1,50.9999984436036,4|0,0:0|0:0,0:0:0:0:
224,164,137735,5,6,0:0:0:0:
173,170,137806,1,0,0:0:0:0:
122,177,137878,1,0,0:0:0:0:
72,184,137949,1,0,0:0:0:0:
21,191,138020,2,0,L|48:236,1,50.9999984436036,2|0,0:0|0:0,0:0:0:0:
76,364,138163,2,0,L|120:328,1,50.9999984436036
272,256,138306,2,0,L|320:220,2,50.9999984436036,2|0|0,0:0|0:0|0:0,0:0:0:0:
272,308,138520,1,0,0:0:0:0:
320,324,138592,2,0,P|336:352|336:372,1,50.9999984436036,2|0,0:0|0:0,0:0:0:0:
224,164,138735,2,0,P|212:132|220:112,1,50.9999984436036
324,40,138878,6,0,L|384:56,3,50.9999984436036,2|0|0|0,0:0|0:0|0:0|0:0,0:0:0:0:
472,160,139163,1,2,0:0:0:0:
416,164,139235,1,0,0:0:0:0:
368,192,139306,1,0,0:0:0:0:
348,244,139378,1,0,0:0:0:0:
352,300,139449,2,0,L|296:316,1,50.9999984436036,2|0,0:0|0:0,0:0:0:0:
228,240,139592,1,0,0:0:0:0:
192,280,139663,1,0,0:0:0:0:
156,324,139735,2,0,L|100:336,1,50.9999984436036,2|0,0:0|0:0,0:0:0:0:
92,216,139878,1,0,0:0:0:0:
44,184,139949,1,0,0:0:0:0:
52,128,140020,6,0,L|64:76,3,50.9999984436036,2|0|0|0,0:0|0:0|0:0|0:0,0:0:0:0:
172,112,140306,1,2,0:0:0:0:
216,136,140378,1,0,0:0:0:0:
264,124,140449,1,0,0:0:0:0:
308,104,140520,1,0,0:0:0:0:
340,64,140592,2,0,L|332:8,1,50.9999984436036,2|0,0:0|0:0,0:0:0:0:
356,192,140735,1,0,0:0:0:0:
400,220,140806,1,0,0:0:0:0:
452,212,140878,2,0,L|508:192,1,50.9999984436036,2|0,0:0|0:0,0:0:0:0:
440,108,141020,2,0,L|456:60,1,50.9999984436036
372,308,141163,5,2,0:0:0:0:
368,320,141234,1,0,0:0:0:0:
364,332,141305,1,0,0:0:0:0:
360,344,141377,1,0,0:0:0:0:
357,356,141449,2,0,L|300:344,3,50.9999984436036,2|0|0|0,0:0|0:0|0:0|0:0,0:0:0:0:
208,296,141735,1,2,0:0:0:0:
164,320,141806,1,0,0:0:0:0:
112,320,141878,1,0,0:0:0:0:
72,292,141949,1,0,0:0:0:0:
52,244,142020,2,0,P|48:216|56:192,3,50.9999984436036,2|0|0|0,0:0|0:0|0:0|0:0,0:0:0:0:
112,88,142306,5,2,0:0:0:0:
160,104,142378,1,0,0:0:0:0:
208,120,142449,1,0,0:0:0:0:
256,136,142520,1,0,0:0:0:0:
304,156,142592,2,0,L|352:172,1,50.9999984436036,2|0,0:0|0:0,0:0:0:0:
196,208,142735,2,0,L|140:224,1,50.9999984436036
332,60,142878,2,0,L|388:44,3,50.9999984436036,2|0|0|0,0:0|0:0|0:0|0:0,0:0:0:0:
460,132,143163,1,2,0:0:0:0:
476,180,143235,1,0,0:0:0:0:
452,224,143306,2,0,P|428:256|424:280,1,50.9999984436036
352,364,143449,6,0,P|320:328|320:308,1,50.9999984436036,2|0,0:0|0:0,0:0:0:0:
328,204,143592,2,0,L|272:220,1,50.9999984436036
224,324,143735,2,0,L|176:308,1,50.9999984436036,2|0,0:0|0:0,0:0:0:0:
112,236,143878,1,0,0:0:0:0:
88,244,143949,1,0,0:0:0:0:
64,252,144020,2,0,L|8:272,1,50.9999984436036,2|0,0:0|0:0,0:0:0:0:
156,116,144163,2,0,L|172:60,1,50.9999984436036
136,324,144306,2,0,L|120:380,1,50.9999984436036,2|0,0:0|0:0,0:0:0:0:
236,184,144449,1,0,0:0:0:0:
256,136,144520,1,0,0:0:0:0:
272,88,144592,6,0,L|288:32,3,50.9999984436036,6|0|0|0,0:0|0:0|0:0|0:0,0:0:0:0:
352,168,144878,2,0,L|400:152,3,50.9999984436036,2|0|0|0,0:0|0:0|0:0|0:0,0:0:0:0:
420,260,145163,1,2,0:0:0:0:
440,276,145235,1,0,0:0:0:0:
460,292,145306,2,0,L|520:280,1,50.9999984436036,2|0,0:0|0:0,0:0:0:0:
356,328,145449,2,0,P|344:356|348:376,1,50.9999984436036,2|0,0:0|0:0,0:0:0:0:
272,260,145592,2,0,L|208:272,1,50.9999984436036,2|0,0:0|0:0,0:0:0:0:
116,344,145735,5,0,0:0:0:0:
105,336,145806,1,0,0:0:0:0:
94,330,145877,1,0,0:0:0:0:
82,326,145949,1,0,0:0:0:0:
69,324,146020,5,2,0:0:0:0:
75,286,146091,1,0,0:0:0:0:
92,252,146162,1,0,0:0:0:0:
119,226,146234,1,0,0:0:0:0:
153,209,146306,5,2,0:0:0:0:
117,183,146377,1,0,0:0:0:0:
81,156,146448,1,0,0:0:0:0:
45,130,146520,1,0,0:0:0:0:
9,104,146592,5,2,0:0:0:0:
73,98,146663,1,2,0:0:0:0:
136,92,146734,1,2,0:0:0:0:
200,86,146806,1,2,0:0:0:0:
263,80,146878,6,0,L|332:72,3,50.9999984436036,6|0|0|0,0:0|0:0|0:0|0:0,0:0:0:0:
288,196,147163,1,10,0:0:0:0:
272,244,147235,1,0,0:0:0:0:
288,292,147306,2,0,P|304:316|308:352,1,50.9999984436036
400,244,147449,2,0,L|456:248,3,50.9999984436036,2|0|0|0,0:0|0:0|0:0|0:0,0:0:0:0:
200,192,147735,2,0,L|136:176,3,50.9999984436036,10|0|0|0,0:0|0:0|0:0|0:0,0:0:0:0:
144,304,148020,6,0,L|88:320,2,50.9999984436036,2|0|0,0:0|0:0|0:0,0:0:0:0:
192,328,148235,1,0,0:0:0:0:
240,344,148306,2,0,L|256:288,1,50.9999984436036,10|0,0:0|0:0,0:0:0:0:
300,148,148449,1,0,0:0:0:0:
284,128,148520,1,0,0:0:0:0:
268,108,148592,1,2,0:0:0:0:
252,88,148663,1,0,0:0:0:0:
240,68,148735,2,0,L|252:8,1,50.9999984436036
376,76,148878,2,0,L|436:64,1,50.9999984436036,10|0,0:0|0:0,0:0:0:0:
196,176,149020,1,0,0:0:0:0:
188,228,149092,1,0,0:0:0:0:
184,280,149163,6,0,L|180:336,1,50.9999984436036,2|0,0:0|0:0,0:0:0:0:
76,236,149306,2,0,L|16:228,1,50.9999984436036
276,328,149449,1,10,0:0:0:0:
328,336,149520,1,0,0:0:0:0:
380,344,149592,1,0,0:0:0:0:
432,352,149663,1,0,0:0:0:0:
484,360,149735,2,0,L|464:304,1,50.9999984436036,2|0,0:0|0:0,0:0:0:0:
368,240,149878,2,0,L|392:188,1,50.9999984436036
448,84,150020,2,0,L|432:24,3,50.9999984436036,10|0|0|0,0:0|0:0|0:0|0:0,0:0:0:0:
324,96,150306,6,0,L|264:80,1,50.9999984436036,2|0,0:0|0:0,0:0:0:0:
136,120,150449,1,0,0:0:0:0:
111,113,150520,1,0,0:0:0:0:
86,106,150592,2,0,L|32:92,3,50.9999984436036,10|0|0|0,0:0|0:0|0:0|0:0,0:0:0:0:
80,280,150878,1,2,0:0:0:0:
104,236,150949,1,0,0:0:0:0:
152,216,151020,1,0,0:0:0:0:
204,224,151092,1,0,0:0:0:0:
244,256,151163,2,0,P|252:292|248:312,3,50.9999984436036,10|0|0|0,0:0|0:0|0:0|0:0,0:0:0:0:
288,140,151449,5,2,0:0:0:0:
260,96,151520,1,0,0:0:0:0:
268,44,151592,1,0,0:0:0:0:
312,16,151663,1,0,0:0:0:0:
364,24,151735,2,0,L|416:40,1,50.9999984436036,10|0,0:0|0:0,0:0:0:0:
400,152,151878,1,0,0:0:0:0:
412,176,151949,1,0,0:0:0:0:
424,200,152020,2,0,L|484:180,3,50.9999984436036,2|0|0|0,0:0|0:0|0:0|0:0,0:0:0:0:
400,316,152306,1,10,0:0:0:0:
368,276,152378,1,0,0:0:0:0:
320,260,152449,1,0,0:0:0:0:
268,264,152520,1,0,0:0:0:0:
228,296,152592,5,2,0:0:0:0:
188,324,152663,1,0,0:0:0:0:
136,328,152735,1,0,0:0:0:0:
96,296,152806,1,0,0:0:0:0:
80,248,152878,1,10,0:0:0:0:
92,200,152949,1,0,0:0:0:0:
104,152,153020,1,0,0:0:0:0:
124,104,153092,1,0,0:0:0:0:
140,56,153163,2,0,L|160:0,1,50.9999984436036,2|0,0:0|0:0,0:0:0:0:
208,156,153306,1,0,0:0:0:0:
260,148,153378,1,0,0:0:0:0:
312,140,153449,2,0,L|372:128,1,50.9999984436036,10|0,0:0|0:0,0:0:0:0:
332,24,153592,1,0,0:0:0:0:
384,32,153663,1,0,0:0:0:0:
436,40,153735,6,0,L|496:48,1,50.9999984436036,2|0,0:0|0:0,0:0:0:0:
256,192,153842,12,0,154878,0:0:0:0:
256,192,154949,12,0,155735,0:0:0:0:
492,204,156020,6,0,P|484:232|496:264,3,50.9999984436036,6|0|0|0,0:0|0:0|0:0|0:0,0:0:0:0:
460,360,156306,1,2,0:0:0:0:
420,327,156377,1,0,0:0:0:0:
372,311,156448,1,0,0:0:0:0:
322,313,156520,1,0,0:0:0:0:
275,332,156592,2,0,P|252:348|216:356,3,50.9999984436036,2|0|0|0,0:0|0:0|0:0|0:0,0:0:0:0:
288,200,156878,2,0,L|264:144,2,50.9999984436036,2|0|0,0:0|0:0|0:0,0:0:0:0:
336,212,157092,1,0,0:0:0:0:
368,176,157163,6,0,P|384:136|376:112,1,50.9999984436036,2|0,0:0|0:0,0:0:0:0:
336,32,157306,1,0,0:0:0:0:
312,44,157378,1,0,0:0:0:0:
288,52,157449,2,0,L|228:36,3,50.9999984436036,2|0|0|0,0:0|0:0|0:0|0:0,0:0:0:0:
200,128,157735,2,0,L|140:140,1,50.9999984436036,2|0,0:0|0:0,0:0:0:0:
192,244,157878,1,0,0:0:0:0:
176,292,157949,1,0,0:0:0:0:
160,340,158020,2,0,L|148:392,1,50.9999984436036,2|0,0:0|0:0,0:0:0:0:
248,160,158163,1,0,0:0:0:0:
232,112,158235,1,0,0:0:0:0:
216,64,158306,6,0,L|192:8,3,50.9999984436036,2|0|0|0,0:0|0:0|0:0|0:0,0:0:0:0:
136,120,158592,2,0,L|80:100,3,50.9999984436036,2|0|0|0,0:0|0:0|0:0|0:0,0:0:0:0:
168,220,158878,2,0,L|228:228,3,50.9999984436036,2|0|0|0,0:0|0:0|0:0|0:0,0:0:0:0:
184,332,159163,2,0,L|228:368,3,50.9999984436036,2|0|0|0,0:0|0:0|0:0|0:0,0:0:0:0:
68,300,159449,6,0,P|40:292|16:300,1,50.9999984436036,2|0,0:0|0:0,0:0:0:0:
80,200,159592,1,0,0:0:0:0:
56,192,159663,1,0,0:0:0:0:
32,188,159735,2,0,P|20:160|20:136,1,50.9999984436036,2|0,0:0|0:0,0:0:0:0:
120,108,159878,1,0,0:0:0:0:
112,56,159949,1,0,0:0:0:0:
152,24,160020,2,0,L|212:16,1,50.9999984436036,2|0,0:0|0:0,0:0:0:0:
216,124,160163,2,0,L|276:136,1,50.9999984436036
172,216,160306,2,0,P|172:248|180:268,3,50.9999984436036,2|0|0|0,0:0|0:0|0:0|0:0,0:0:0:0:
232,336,160592,5,6,0:0:0:0:
268,300,160663,1,0,0:0:0:0:
320,288,160735,1,0,0:0:0:0:
368,308,160806,1,0,0:0:0:0:
396,356,160878,2,0,L|332:368,3,50.9999984436036,2|0|0|0,0:0|0:0|0:0|0:0,0:0:0:0:
276,200,161163,2,0,L|264:148,3,50.9999984436036,2|0|0|0,0:0|0:0|0:0|0:0,0:0:0:0:
292,44,161449,1,2,0:0:0:0:
316,52,161520,1,0,0:0:0:0:
332,72,161592,2,0,L|404:56,1,50.9999984436036
384,208,161735,6,0,P|404:212|416:248,2,50.9999984436036,2|0|0,0:0|0:0|0:0,0:0:0:0:
364,256,161949,1,0,0:0:0:0:
352,304,162020,2,0,L|340:364,1,50.9999984436036,2|0,0:0|0:0,0:0:0:0:
280,220,162163,2,0,L|220:212,1,50.9999984436036
444,332,162306,2,0,L|500:320,3,50.9999984436036,2|0|0|0,0:0|0:0|0:0|0:0,0:0:0:0:
364,160,162592,2,0,L|312:140,3,50.9999984436036,2|0|0|0,0:0|0:0|0:0|0:0,0:0:0:0:
456,144,162878,5,2,0:0:0:0:
459,156,162949,1,0,0:0:0:0:
463,168,163020,1,0,0:0:0:0:
466,180,163092,1,0,0:0:0:0:
470,193,163163,2,0,L|484:248,1,50.9999984436036,2|0,0:0|0:0,0:0:0:0:
456,64,163306,2,0,L|480:8,1,50.9999984436036
404,256,163449,2,0,L|424:328,1,50.9999984436036,2|0,0:0|0:0,0:0:0:0:
356,152,163592,1,0,0:0:0:0:
340,104,163663,1,0,0:0:0:0:
324,56,163735,2,0,L|340:0,3,50.9999984436036,2|0|0|0,0:0|0:0|0:0|0:0,0:0:0:0:
292,224,164020,6,0,P|264:236|256:264,1,50.9999984436036,2|0,0:0|0:0,0:0:0:0:
248,352,164163,1,0,0:0:0:0:
272,340,164235,1,0,0:0:0:0:
296,344,164306,2,0,P|332:352|344:368,1,50.9999984436036,2|0,0:0|0:0,0:0:0:0:
160,308,164449,2,0,P|136:324|100:328,1,50.9999984436036
176,192,164592,2,0,L|152:136,3,50.9999984436036,2|0|0|0,0:0|0:0|0:0|0:0,0:0:0:0:
256,104,164878,1,2,0:0:0:0:
284,60,164949,1,0,0:0:0:0:
280,8,165020,2,0,L|212:0,1,50.9999984436036
280,192,165163,6,0,L|296:252,3,50.9999984436036,6|0|0|0,0:0|0:0|0:0|0:0,0:0:0:0:
240,324,165449,1,2,0:0:0:0:
196,352,165520,1,0,0:0:0:0:
144,360,165592,1,0,0:0:0:0:
100,332,165663,1,0,0:0:0:0:
84,284,165735,2,0,L|144:264,1,50.9999984436036,2|0,0:0|0:0,0:0:0:0:
196,168,165878,1,0,0:0:0:0:
220,172,165949,1,0,0:0:0:0:
244,180,166020,2,0,L|300:168,1,50.9999984436036,2|0,0:0|0:0,0:0:0:0:
132,88,166163,2,0,L|116:24,1,50.9999984436036
64,188,166306,6,0,L|8:204,3,50.9999984436036,2|0|0|0,0:0|0:0|0:0|0:0,0:0:0:0:
12,348,166592,1,2,0:0:0:0:
28,300,166663,1,0,0:0:0:0:
72,276,166735,1,0,0:0:0:0:
124,276,166806,1,0,0:0:0:0:
160,312,166878,2,0,P|160:344|152:368,1,50.9999984436036,2|0,0:0|0:0,0:0:0:0:
60,188,167020,1,0,0:0:0:0:
44,168,167092,1,0,0:0:0:0:
40,144,167163,2,0,P|40:104|52:88,1,50.9999984436036,2|0,0:0|0:0,0:0:0:0:
156,172,167306,2,0,L|220:160,1,50.9999984436036
184,48,167449,6,0,L|252:56,3,50.9999984436036,2|0|0|0,0:0|0:0|0:0|0:0,0:0:0:0:
300,144,167735,1,2,0:0:0:0:
260,176,167806,1,0,0:0:0:0:
248,224,167878,1,0,0:0:0:0:
256,276,167949,1,0,0:0:0:0:
284,316,168020,2,0,P|320:336|336:340,3,50.9999984436036,2|0|0|0,0:0|0:0|0:0|0:0,0:0:0:0:
348,236,168306,1,2,0:0:0:0:
372,232,168378,1,0,0:0:0:0:
396,228,168449,2,0,P|408:268|404:300,1,50.9999984436036
352,124,168592,5,2,0:0:0:0:
344,99,168663,1,0,0:0:0:0:
346,74,168735,1,0,0:0:0:0:
358,52,168806,1,0,0:0:0:0:
378,36,168878,2,0,L|448:48,2,50.9999984436036,2|0|0,0:0|0:0|0:0,0:0:0:0:
332,20,169092,1,0,0:0:0:0:
288,44,169163,2,0,L|236:36,1,50.9999984436036,2|0,0:0|0:0,0:0:0:0:
436,136,169306,2,0,L|492:128,1,50.9999984436036
364,252,169449,1,2,0:0:0:0:
332,292,169520,1,0,0:0:0:0:
336,344,169592,2,0,P|352:368|380:380,1,50.9999984436036
448,308,169735,6,0,P|476:296|504:304,3,50.9999984436036,2|0|0|0,0:0|0:0|0:0|0:0,0:0:0:0:
452,196,170020,2,0,P|464:168|496:148,3,50.9999984436036,2|0|0|0,0:0|0:0|0:0|0:0,0:0:0:0:
444,52,170306,1,2,0:0:0:0:
408,88,170378,1,0,0:0:0:0:
360,104,170449,1,0,0:0:0:0:
312,92,170520,1,0,0:0:0:0:
268,64,170592,2,0,L|280:8,1,50.9999984436036,2|0,0:0|0:0,0:0:0:0:
344,180,170735,2,0,L|356:232,1,50.9999984436036
296,320,170878,6,0,L|288:376,3,50.9999984436036,2|0|0|0,0:0|0:0|0:0|0:0,0:0:0:0:
260,220,171163,1,2,0:0:0:0:
244,172,171235,1,0,0:0:0:0:
260,124,171306,1,0,0:0:0:0:
300,88,171378,1,0,0:0:0:0:
352,84,171449,2,0,L|416:88,1,50.9999984436036,2|0,0:0|0:0,0:0:0:0:
164,108,171592,1,0,0:0:0:0:
164,84,171663,1,0,0:0:0:0:
160,60,171735,2,0,L|152:8,1,50.9999984436036,2|0,0:0|0:0,0:0:0:0:
344,180,171878,2,0,P|372:188|408:184,1,50.9999984436036
176,276,172020,5,2,0:0:0:0:
132,300,172092,1,0,0:0:0:0:
80,296,172163,1,0,0:0:0:0:
40,264,172235,1,0,0:0:0:0:
28,216,172306,1,2,0:0:0:0:
64,252,172378,1,0,0:0:0:0:
112,264,172449,1,0,0:0:0:0:
160,244,172520,1,0,0:0:0:0:
200,212,172592,1,2,0:0:0:0:
244,184,172663,1,0,0:0:0:0:
296,180,172735,1,0,0:0:0:0:
340,204,172806,1,0,0:0:0:0:
372,244,172878,1,2,0:0:0:0:
372,296,172949,1,0,0:0:0:0:
340,336,173020,1,0,0:0:0:0:
296,360,173092,1,0,0:0:0:0:
248,344,173163,6,0,P|244:324|256:296,3,50.9999984436036,2|0|0|0,0:0|0:0|0:0|0:0,0:0:0:0:
296,180,173449,2,0,P|288:148|272:136,3,50.9999984436036,2|0|0|0,0:0|0:0|0:0|0:0,0:0:0:0:
204,52,173735,2,0,L|256:36,3,50.9999984436036,2|0|0|0,0:0|0:0|0:0|0:0,0:0:0:0:
208,200,174020,1,2,0:0:0:0:
170,193,174091,1,0,0:0:0:0:
132,186,174162,1,0,0:0:0:0:
95,179,174234,1,0,0:0:0:0:
57,172,174306,6,0,L|8:160,3,50.9999984436036,6|0|0|0,0:0|0:0|0:0|0:0,0:0:0:0:
72,336,174592,1,2,0:0:0:0:
89,302,174663,1,0,0:0:0:0:
120,281,174734,1,0,0:0:0:0:
158,277,174806,1,0,0:0:0:0:
193,291,174878,2,0,L|244:312,3,50.9999984436036,2|0|0|0,0:0|0:0|0:0|0:0,0:0:0:0:
336,356,175163,1,2,0:0:0:0:
392,332,175235,1,0,0:0:0:0:
416,276,175306,1,0,0:0:0:0:
416,216,175378,1,0,0:0:0:0:
380,168,175449,6,0,L|316:176,3,50.9999984436036,2|0|0|0,0:0|0:0|0:0|0:0,0:0:0:0:
264,88,175735,1,2,0:0:0:0:
224,132,175806,1,0,0:0:0:0:
164,152,175878,2,0,L|96:144,1,50.9999984436036
156,48,176020,2,0,L|136:-8,1,50.9999984436036,2|0,0:0|0:0,0:0:0:0:
232,224,176163,2,0,L|248:272,1,50.9999984436036
128,300,176306,1,2,0:0:0:0:
125,312,176377,1,0,0:0:0:0:
122,325,176448,1,0,0:0:0:0:
120,337,176520,1,0,0:0:0:0:
117,350,176592,5,2,0:0:0:0:
64,324,176663,1,0,0:0:0:0:
12,288,176735,2,0,L|72:272,1,50.9999984436036
208,368,176878,2,0,L|268:352,1,50.9999984436036,2|0,0:0|0:0,0:0:0:0:
360,316,177020,1,0,0:0:0:0:
360,316,177092,1,0,0:0:0:0:
360,316,177163,2,0,L|420:300,1,50.9999984436036,2|0,0:0|0:0,0:0:0:0:
352,192,177306,2,0,L|336:140,1,50.9999984436036
444,308,177449,2,0,L|460:360,1,50.9999984436036,2|0,0:0|0:0,0:0:0:0:
432,120,177592,2,0,L|416:64,1,50.9999984436036
264,232,177735,6,0,L|208:256,1,50.9999984436036,2|0,0:0|0:0,0:0:0:0:
448,212,177878,2,0,L|504:188,1,50.9999984436036
224,144,178020,1,2,0:0:0:0:
187,156,178091,1,0,0:0:0:0:
151,169,178162,1,0,0:0:0:0:
115,182,178234,1,0,0:0:0:0:
79,195,178306,2,0,L|24:220,1,50.9999984436036,2|0,0:0|0:0,0:0:0:0:
128,80,178449,2,0,L|112:24,1,50.9999984436036
132,272,178592,1,2,0:0:0:0:
160,324,178663,1,0,0:0:0:0:
216,348,178735,1,0,0:0:0:0:
276,336,178806,1,0,0:0:0:0:
316,288,178878,6,0,P|324:252|304:232,1,50.9999984436036,2|0,0:0|0:0,0:0:0:0:
324,128,179020,1,0,0:0:0:0:
324,128,179092,2,0,P|308:96|300:64,1,50.9999984436036,0|2,0:0|0:0,0:0:0:0:
408,200,179235,1,0,0:0:0:0:
408,200,179306,2,0,L|468:184,1,50.9999984436036
240,240,179449,1,2,0:0:0:0:
233,241,179520,1,0,0:0:0:0:
227,243,179591,1,0,0:0:0:0:
221,244,179663,1,0,0:0:0:0:
215,246,179735,2,0,L|196:196,3,50.9999984436036,2|0|0|0,0:0|0:0|0:0|0:0,0:0:0:0:
152,84,180020,5,2,0:0:0:0:
96,56,180092,1,0,0:0:0:0:
40,76,180163,1,0,0:0:0:0:
20,136,180235,1,0,0:0:0:0:
40,192,180306,2,0,L|92:176,1,50.9999984436036,2|0,0:0|0:0,0:0:0:0:
248,120,180449,2,0,L|300:104,1,50.9999984436036
128,316,180592,2,0,L|76:304,2,50.9999984436036,2|0|0,0:0|0:0|0:0,0:0:0:0:
144,344,180806,1,0,0:0:0:0:
164,368,180878,2,0,L|236:352,1,50.9999984436036,2|0,0:0|0:0,0:0:0:0:
284,228,181020,2,0,L|336:240,1,50.9999984436036
464,272,181163,5,2,0:0:0:0:
492,216,181235,1,0,0:0:0:0:
476,156,181306,2,0,P|456:132|424:136,1,50.9999984436036
352,52,181449,1,2,0:0:0:0:
292,56,181520,1,0,0:0:0:0:
244,96,181592,2,0,P|232:140|232:160,1,50.9999984436036
208,280,181735,2,0,P|192:256|168:248,1,50.9999984436036,2|0,0:0|0:0,0:0:0:0:
132,144,181878,1,0,0:0:0:0:
76,168,181949,1,0,0:0:0:0:
20,192,182020,1,2,0:0:0:0:
48,208,182092,1,0,0:0:0:0:
76,220,182163,2,0,L|76:288,1,50.9999984436036
132,68,182306,6,0,L|120:12,3,50.9999984436036,2|0|0|0,0:0|0:0|0:0|0:0,0:0:0:0:
240,168,182592,1,2,0:0:0:0:
284,212,182663,1,0,0:0:0:0:
344,224,182735,1,0,0:0:0:0:
400,204,182806,1,0,0:0:0:0:
440,156,182878,2,0,P|448:128|440:104,3,50.9999984436036,2|0|0|0,0:0|0:0|0:0|0:0,0:0:0:0:
312,312,183163,2,0,P|300:340|304:364,3,50.9999984436036,2|0|0|0,0:0|0:0|0:0|0:0,0:0:0:0:
340,128,183449,6,0,L|332:64,1,50.9999984436036,2|0,0:0|0:0,0:0:0:0:
208,292,183592,1,0,0:0:0:0:
184,312,183663,1,0,0:0:0:0:
160,328,183735,2,0,L|100:312,1,50.9999984436036,2|2,0:0|0:0,0:0:0:0:
404,340,183878,2,0,L|464:356,1,50.9999984436036
144,224,184020,2,0,L|88:208,3,50.9999984436036,2|0|0|0,0:0|0:0|0:0|0:0,0:0:0:0:
268,212,184306,1,2,0:0:0:0:
300,208,184378,1,0,0:0:0:0:
328,200,184449,2,0,L|380:220,1,50.9999984436036
220,100,184592,6,0,L|216:40,3,50.9999984436036,2|0|0|0,0:0|0:0|0:0|0:0,0:0:0:0:
340,76,184878,1,2,0:0:0:0:
396,100,184949,1,0,0:0:0:0:
452,124,185020,2,0,L|500:144,1,50.9999984436036
320,304,185163,2,0,L|272:332,1,50.9999984436036,2|0,0:0|0:0,0:0:0:0:
460,252,185306,2,0,L|512:272,1,50.9999984436036
256,224,185449,1,2,0:0:0:0:
222,242,185520,1,0,0:0:0:0:
189,261,185591,1,0,0:0:0:0:
156,280,185663,1,0,0:0:0:0:
123,299,185735,5,2,0:0:0:0:
104,244,185806,1,0,0:0:0:0:
80,188,185878,2,0,L|64:132,1,50.9999984436036
244,332,186020,2,0,L|260:388,1,50.9999984436036,2|0,0:0|0:0,0:0:0:0:
184,148,186163,1,0,0:0:0:0:
176,120,186235,1,0,0:0:0:0:
164,92,186306,2,0,L|144:32,1,50.9999984436036,2|0,0:0|0:0,0:0:0:0:
312,232,186449,1,0,0:0:0:0:
320,260,186521,1,0,0:0:0:0:
332,288,186592,2,0,L|352:348,1,50.9999984436036,2|0,0:0|0:0,0:0:0:0:
276,96,186735,2,0,L|340:68,1,50.9999984436036
424,208,186878,6,0,L|484:188,1,50.9999984436036,2|0,0:0|0:0,0:0:0:0:
208,284,187020,1,0,0:0:0:0:
148,304,187092,1,0,0:0:0:0:
92,324,187163,2,0,L|32:344,3,50.9999984436036,2|0|0|0,0:0|0:0|0:0|0:0,0:0:0:0:
64,204,187449,1,2,0:0:0:0:
84,148,187520,1,0,0:0:0:0:
132,108,187592,1,0,0:0:0:0:
192,104,187663,1,0,0:0:0:0:
244,136,187735,1,2,0:0:0:0:
288,180,187806,1,0,0:0:0:0:
348,196,187878,1,0,0:0:0:0:
408,184,187949,1,0,0:0:0:0:
444,136,188020,6,0,P|452:104|440:72,1,50.9999984436036,2|0,0:0|0:0,0:0:0:0:
432,284,188163,1,0,0:0:0:0:
432,284,188235,2,0,L|496:292,1,50.9999984436036,0|2,0:0|0:0,0:0:0:0:
348,100,188378,1,0,0:0:0:0:
348,100,188449,2,0,L|332:48,1,50.9999984436036
328,296,188592,1,2,0:0:0:0:
323,308,188663,1,0,0:0:0:0:
319,320,188734,1,0,0:0:0:0:
315,332,188806,1,0,0:0:0:0:
311,344,188877,1,2,0:0:0:0:
264,308,188949,1,0,0:0:0:0:
204,296,189020,1,0,0:0:0:0:
148,320,189092,1,0,0:0:0:0:
116,372,189163,5,2,0:0:0:0:
68,332,189235,1,0,0:0:0:0:
64,272,189306,1,0,0:0:0:0:
88,216,189378,1,0,0:0:0:0:
148,200,189449,2,0,P|148:168|128:144,1,50.9999984436036,2|0,0:0|0:0,0:0:0:0:
200,56,189592,2,0,P|176:28|176:4,1,50.9999984436036
72,84,189735,2,0,L|12:72,1,50.9999984436036,2|0,0:0|0:0,0:0:0:0:
252,136,189878,1,0,0:0:0:0:
312,120,189949,1,0,0:0:0:0:
372,104,190020,2,0,L|352:172,1,50.9999984436036,2|0,0:0|0:0,0:0:0:0:
260,244,190163,2,0,L|288:300,1,50.9999984436036
360,372,190306,5,2,0:0:0:0:
392,320,190378,1,0,0:0:0:0:
452,308,190449,2,0,L|504:320,1,50.9999984436036
184,312,190592,1,2,0:0:0:0:
124,324,190663,1,0,0:0:0:0:
64,336,190735,2,0,L|4:348,1,50.9999984436036
356,228,190878,2,0,L|416:236,1,50.9999984436036,2|0,0:0|0:0,0:0:0:0:
168,204,191020,1,0,0:0:0:0:
108,192,191092,1,0,0:0:0:0:
48,176,191163,1,2,0:0:0:0:
108,164,191235,1,0,0:0:0:0:
168,152,191306,1,0,0:0:0:0:
228,140,191378,1,0,0:0:0:0:
288,132,191449,6,0,L|332:124,14,25.4999992218018,2|0|0|0|0|0|0|0|2|0|0|0|0|0|0,0:0|0:0|0:0|0:0|0:0|0:0|0:0|0:0|0:0|0:0|0:0|0:0|0:0|0:0|0:0,0:0:0:0:
172,60,192020,2,0,L|160:8,1,50.9999984436036,2|0,0:0|0:0,0:0:0:0:
288,228,192163,1,0,0:0:0:0:
296,256,192235,1,0,0:0:0:0:
304,284,192306,2,0,L|316:336,3,50.9999984436036,2|0|0|0,0:0|0:0|0:0|0:0,0:0:0:0:
208,320,192592,5,6,0:0:0:0:
156,344,192663,1,0,0:0:0:0:
96,340,192735,1,0,0:0:0:0:
56,296,192806,1,0,0:0:0:0:
48,236,192878,2,0,L|68:168,1,59.4999981842042,10|0,0:0|0:0,0:0:0:0:
104,68,193020,2,0,L|84:4,1,59.4999981842042
168,152,193163,2,0,L|192:216,3,59.4999981842042,2|0|0|0,0:0|0:0|0:0|0:0,0:0:0:0:
280,276,193449,1,10,0:0:0:0:
336,296,193520,1,0,0:0:0:0:
396,284,193592,1,0,0:0:0:0:
432,240,193663,1,0,0:0:0:0:
436,180,193735,6,0,L|424:116,3,59.4999981842042,2|0|0|0,0:0|0:0|0:0|0:0,0:0:0:0:
384,16,194020,1,10,0:0:0:0:
328,32,194092,1,0,0:0:0:0:
272,52,194163,2,0,L|212:76,1,59.4999981842042
328,140,194306,2,0,L|344:200,1,59.4999981842042,2|0,0:0|0:0,0:0:0:0:
140,128,194449,2,0,L|124:68,1,59.4999981842042
236,184,194592,1,10,0:0:0:0:
245,227,194663,1,0,0:0:0:0:
254,271,194734,1,0,0:0:0:0:
263,315,194806,1,0,0:0:0:0:
272,358,194878,5,2,0:0:0:0:
244,352,194949,1,0,0:0:0:0:
216,344,195020,2,0,L|144:360,1,59.4999981842042
356,288,195163,2,0,L|428:272,1,59.4999981842042,10|0,0:0|0:0,0:0:0:0:
156,256,195306,1,0,0:0:0:0:
128,244,195378,1,0,0:0:0:0:
100,232,195449,2,0,L|32:248,1,59.4999981842042,2|0,0:0|0:0,0:0:0:0:
124,120,195592,2,0,L|112:48,1,59.4999981842042
228,160,195735,1,10,0:0:0:0:
272,120,195806,1,0,0:0:0:0:
332,112,195878,2,0,L|408:128,1,59.4999981842042
424,232,196020,6,0,L|504:224,1,59.4999981842042,2|0,0:0|0:0,0:0:0:0:
320,232,196163,1,0,0:0:0:0:
300,256,196235,1,0,0:0:0:0:
292,284,196306,1,10,0:0:0:0:
252,328,196378,1,0,0:0:0:0:
196,344,196449,1,0,0:0:0:0:
140,332,196520,1,0,0:0:0:0:
100,288,196592,1,2,0:0:0:0:
92,228,196663,1,0,0:0:0:0:
112,172,196735,1,0,0:0:0:0:
164,144,196806,1,0,0:0:0:0:
224,148,196878,1,10,0:0:0:0:
272,112,196949,1,0,0:0:0:0:
276,52,197020,2,0,P|268:20|236:0,1,59.4999981842042
376,100,197163,6,0,L|448:88,3,59.4999981842042,2|0|0|0,0:0|0:0|0:0|0:0,0:0:0:0:
324,212,197449,2,0,L|336:288,3,59.4999981842042,10|0|0|0,0:0|0:0|0:0|0:0,0:0:0:0:
440,252,197735,1,2,0:0:0:0:
428,312,197806,1,0,0:0:0:0:
388,356,197878,1,0,0:0:0:0:
332,372,197949,1,0,0:0:0:0:
276,360,198020,1,10,0:0:0:0:
228,324,198092,1,0,0:0:0:0:
172,300,198163,1,0,0:0:0:0:
112,292,198235,1,0,0:0:0:0:
60,316,198306,5,2,0:0:0:0:
116,332,198378,1,0,0:0:0:0:
172,316,198449,1,0,0:0:0:0:
220,280,198520,1,0,0:0:0:0:
240,224,198592,2,0,L|248:160,1,59.4999981842042,10|0,0:0|0:0,0:0:0:0:
164,72,198735,2,0,L|172:8,1,59.4999981842042
136,176,198878,2,0,L|60:168,1,59.4999981842042,2|0,0:0|0:0,0:0:0:0:
276,52,199020,2,0,L|352:60,1,59.4999981842042
356,248,199163,2,0,L|436:256,3,59.4999981842042,10|0|0|0,0:0|0:0|0:0|0:0,0:0:0:0:
472,148,199449,5,2,0:0:0:0:
428,108,199520,1,0,0:0:0:0:
368,104,199592,1,0,0:0:0:0:
316,132,199663,1,0,0:0:0:0:
280,180,199735,1,10,0:0:0:0:
264,236,199806,1,0,0:0:0:0:
224,280,199878,1,0,0:0:0:0:
168,296,199949,1,0,0:0:0:0:
108,284,200020,2,0,P|76:272|56:248,1,59.4999981842042,2|0,0:0|0:0,0:0:0:0:
160,164,200163,1,0,0:0:0:0:
144,104,200235,1,0,0:0:0:0:
128,48,200306,1,10,0:0:0:0:
156,60,200378,1,0,0:0:0:0:
184,76,200449,2,0,L|168:148,1,59.4999981842042
260,304,200592,6,0,L|248:372,3,59.4999981842042,2|0|0|0,0:0|0:0|0:0|0:0,0:0:0:0:
368,252,200878,2,0,L|436:264,3,59.4999981842042,10|0|0|0,0:0|0:0|0:0|0:0,0:0:0:0:
492,164,201163,1,2,0:0:0:0:
460,112,201235,1,0,0:0:0:0:
404,96,201306,1,0,0:0:0:0:
344,100,201378,1,0,0:0:0:0:
292,128,201449,1,10,0:0:0:0:
260,176,201520,1,0,0:0:0:0:
204,200,201592,1,0,0:0:0:0:
144,192,201663,1,0,0:0:0:0:
92,160,201735,5,2,0:0:0:0:
100,132,201806,1,0,0:0:0:0:
108,104,201878,2,0,L|128:40,1,59.4999981842042
160,344,202020,1,10,0:0:0:0:
152,316,202092,1,0,0:0:0:0:
144,288,202163,2,0,L|128:220,1,59.4999981842042
52,332,202306,2,0,L|-8:320,3,59.4999981842042,2|0|0|0,0:0|0:0|0:0|0:0,0:0:0:0:
240,272,202592,1,10,0:0:0:0:
292,248,202663,1,0,0:0:0:0:
352,252,202735,1,0,0:0:0:0:
404,280,202806,1,0,0:0:0:0:
444,324,202878,6,0,L|428:388,3,59.4999981842042,2|0|0|0,0:0|0:0|0:0|0:0,0:0:0:0:
472,192,203163,1,10,0:0:0:0:
428,152,203235,1,0,0:0:0:0:
424,92,203306,2,0,L|452:32,1,59.4999981842042
304,116,203449,2,0,L|244:88,1,59.4999981842042,2|0,0:0|0:0,0:0:0:0:
152,180,203592,1,0,0:0:0:0:
124,192,203663,1,0,0:0:0:0:
96,204,203735,2,0,L|32:192,3,59.4999981842042,10|0|0|0,0:0|0:0|0:0|0:0,0:0:0:0:
132,304,204020,5,2,0:0:0:0:
172,348,204092,1,0,0:0:0:0:
232,356,204163,1,0,0:0:0:0:
288,336,204235,1,0,0:0:0:0:
308,280,204306,2,0,L|312:212,1,59.4999981842042,10|0,0:0|0:0,0:0:0:0:
408,324,204449,2,0,L|476:332,1,59.4999981842042
224,204,204592,2,0,L|160:216,1,59.4999981842042,2|0,0:0|0:0,0:0:0:0:
364,108,204735,1,0,0:0:0:0:
392,100,204806,1,0,0:0:0:0:
420,92,204878,2,0,L|432:160,1,59.4999981842042,10|0,0:0|0:0,0:0:0:0:
264,76,205020,2,0,L|276:8,1,59.4999981842042
128,112,205163,5,2,0:0:0:0:
72,96,205235,1,0,0:0:0:0:
16,76,205306,2,0,L|8:8,1,59.4999981842042
48,216,205449,2,0,L|60:280,2,59.4999981842042,10|0|0,0:0|0:0|0:0,0:0:0:0:
76,200,205663,1,0,0:0:0:0:
104,188,205735,2,0,L|92:120,1,59.4999981842042,2|0,0:0|0:0,0:0:0:0:
152,304,205878,2,0,L|164:368,1,59.4999981842042
220,184,206020,1,10,0:0:0:0:
252,132,206092,1,0,0:0:0:0:
308,112,206163,1,0,0:0:0:0:
368,124,206235,1,0,0:0:0:0:
412,164,206306,6,0,P|424:196|416:232,3,59.4999981842042,2|0|0|0,0:0|0:0|0:0|0:0,0:0:0:0:
368,308,206592,2,0,L|296:296,3,59.4999981842042,10|0|0|0,0:0|0:0|0:0|0:0,0:0:0:0:
208,348,206878,1,2,0:0:0:0:
171,341,206949,1,0,0:0:0:0:
134,334,207020,1,0,0:0:0:0:
98,327,207092,1,0,0:0:0:0:
61,320,207163,2,0,L|-4:308,3,59.4999981842042,10|0|0|0,0:0|0:0|0:0|0:0,0:0:0:0:
168,248,207449,5,2,0:0:0:0:
139,240,207520,1,0,0:0:0:0:
110,232,207591,1,0,0:0:0:0:
81,225,207663,1,0,0:0:0:0:
53,217,207735,1,10,0:0:0:0:
67,199,207806,1,0,0:0:0:0:
80,182,207877,1,0,0:0:0:0:
94,165,207949,1,0,0:0:0:0:
108,147,208020,1,2,0:0:0:0:
123,151,208091,1,0,0:0:0:0:
137,155,208162,1,0,0:0:0:0:
152,159,208234,1,0,0:0:0:0:
166,163,208305,1,10,0:0:0:0:
180,167,208377,1,0,0:0:0:0:
195,170,208448,1,0,0:0:0:0:
209,174,208520,1,0,0:0:0:0:
223,178,208592,5,2,0:0:0:0:
227,179,208663,1,0,0:0:0:0:
231,180,208734,1,0,0:0:0:0:
234,181,208806,1,0,0:0:0:0:
238,182,208877,1,10,0:0:0:0:
241,183,208949,1,0,0:0:0:0:
245,184,209020,1,0,0:0:0:0:
249,185,209092,1,0,0:0:0:0:
252,186,209163,1,2,0:0:0:0:
256,187,209234,1,0,0:0:0:0:
259,188,209306,1,0,0:0:0:0:
263,189,209377,1,0,0:0:0:0:
266,190,209449,1,10,0:0:0:0:
270,191,209520,1,0,0:0:0:0:
274,192,209592,1,0,0:0:0:0:
277,193,209663,1,0,0:0:0:0:
281,194,209735,6,0,L|304:200,3,21.25,2|0|0|0,0:0|0:0|0:0|0:0,0:0:0:0:
388,152,210020,2,0,L|396:172,3,21.25,2|0|0|0,0:0|0:0|0:0|0:0,0:0:0:0:
484,200,210306,2,0,L|476:228,3,21.25,2|0|0|0,0:0|0:0|0:0|0:0,0:0:0:0:
480,320,210592,2,0,L|460:328,3,21.25,2|0|0|0,0:0|0:0|0:0|0:0,0:0:0:0:
360,360,210878,5,6,0:0:0:0:
356,358,210949,1,0,0:0:0:0:
352,357,211020,1,0,0:0:0:0:
348,356,211092,1,0,0:0:0:0:
344,355,211163,1,0,0:0:0:0:
341,353,211235,1,0,0:0:0:0:
337,352,211306,1,0,0:0:0:0:
333,351,211378,1,0,0:0:0:0:
329,350,211449,1,8,0:0:0:0:
325,348,211520,1,0,0:0:0:0:
322,347,211592,1,0,0:0:0:0:
318,346,211663,1,0,0:0:0:0:
314,345,211735,1,0,0:0:0:0:
310,344,211806,1,0,0:0:0:0:
306,342,211878,1,0,0:0:0:0:
303,341,211949,1,0,0:0:0:0:
299,340,212020,1,2,0:0:0:0:
295,339,212092,1,0,0:0:0:0:
291,337,212163,1,0,0:0:0:0:
287,336,212235,1,0,0:0:0:0:
284,335,212306,1,0,0:0:0:0:
280,334,212378,1,0,0:0:0:0:
276,333,212449,1,0,0:0:0:0:
272,331,212520,1,0,0:0:0:0:
268,330,212592,1,8,0:0:0:0:
265,329,212663,1,0,0:0:0:0:
261,328,212735,1,0,0:0:0:0:
257,326,212806,1,0,0:0:0:0:
253,325,212878,1,0,0:0:0:0:
250,324,212949,1,0,0:0:0:0:
246,323,213020,1,0,0:0:0:0:
242,322,213092,1,0,0:0:0:0:
238,320,213163,6,0,L|212:308,3,21.25,2|0|0|0,0:0|0:0|0:0|0:0,0:0:0:0:
108,292,213449,2,0,L|92:316,3,21.25,8|0|0|0,0:0|0:0|0:0|0:0,0:0:0:0:
100,176,213735,2,0,L|126:188,3,21.25,2|0|0|0,0:0|0:0|0:0|0:0,0:0:0:0:
230,204,214021,2,0,L|246:180,3,21.25,8|0|0|0,0:0|0:0|0:0|0:0,0:0:0:0:
296,92,214306,6,0,L|316:48,3,42.5,2|0|8|0,0:0|0:0|0:0|0:0,0:0:0:0:
444,96,214878,2,0,L|488:108,3,42.5,2|0|8|0,0:0|0:0|0:0|0:0,0:0:0:0:
472,224,215449,5,2,0:0:0:0:
470,227,215520,1,0,0:0:0:0:
469,231,215591,1,0,0:0:0:0:
468,235,215663,1,0,0:0:0:0:
466,239,215734,1,0,0:0:0:0:
465,242,215806,1,0,0:0:0:0:
464,246,215877,1,0,0:0:0:0:
462,250,215949,1,0,0:0:0:0:
461,254,216020,1,8,0:0:0:0:
460,257,216091,1,0,0:0:0:0:
459,261,216163,1,0,0:0:0:0:
457,265,216234,1,0,0:0:0:0:
456,269,216306,1,0,0:0:0:0:
455,272,216377,1,0,0:0:0:0:
453,276,216449,1,0,0:0:0:0:
452,280,216520,1,0,0:0:0:0:
451,284,216591,1,2,0:0:0:0:
449,288,216663,1,0,0:0:0:0:
448,291,216734,1,0,0:0:0:0:
447,295,216806,1,0,0:0:0:0:
446,299,216877,1,0,0:0:0:0:
444,303,216949,1,0,0:0:0:0:
443,306,217020,1,0,0:0:0:0:
442,310,217091,1,0,0:0:0:0:
440,314,217163,1,8,0:0:0:0:
439,318,217234,1,0,0:0:0:0:
438,321,217306,1,0,0:0:0:0:
437,325,217377,1,0,0:0:0:0:
435,329,217449,1,0,0:0:0:0:
434,333,217520,1,0,0:0:0:0:
433,337,217591,1,0,0:0:0:0:
431,340,217663,1,0,0:0:0:0:
430,344,217735,5,2,0:0:0:0:
410,320,217806,1,0,0:0:0:0:
384,301,217877,1,0,0:0:0:0:
354,290,217949,1,0,0:0:0:0:
322,286,218020,1,8,0:0:0:0:
304,312,218091,1,0,0:0:0:0:
278,331,218162,1,0,0:0:0:0:
248,340,218234,1,0,0:0:0:0:
216,340,218306,1,2,0:0:0:0:
196,316,218377,1,0,0:0:0:0:
168,300,218448,1,0,0:0:0:0:
137,295,218520,1,0,0:0:0:0:
106,301,218592,1,8,0:0:0:0:
79,318,218663,1,0,0:0:0:0:
48,320,218734,1,0,0:0:0:0:
20,306,218806,1,0,0:0:0:0:
2,280,218878,6,0,P|0:260|8:240,1,42.5,2|0,0:0|0:0,0:0:0:0:
48,236,219020,2,0,P|68:220|92:216,1,42.5,2|0,0:0|0:0,0:0:0:0:
172,132,219163,2,0,P|188:156|192:176,1,42.5,8|0,0:0|0:0,0:0:0:0:
232,184,219306,2,0,P|228:216|224:232,1,42.5,2|0,0:0|0:0,0:0:0:0:
320,80,219449,2,0,L|368:88,1,42.5,2|0,0:0|0:0,0:0:0:0:
396,60,219592,2,0,L|448:64,1,42.5,2|0,0:0|0:0,0:0:0:0:
368,256,219735,2,0,P|356:276|356:300,1,42.5,8|0,0:0|0:0,0:0:0:0:
316,312,219878,2,0,P|320:336|336:360,1,42.5,2|0,0:0|0:0,0:0:0:0:
464,328,220020,5,6,0:0:0:0:
464,322,220091,1,0,0:0:0:0:
464,317,220162,1,0,0:0:0:0:
465,312,220234,1,0,0:0:0:0:
465,306,220305,1,0,0:0:0:0:
466,301,220377,1,0,0:0:0:0:
466,296,220448,1,0,0:0:0:0:
467,290,220520,1,0,0:0:0:0:
467,285,220591,1,8,0:0:0:0:
468,280,220662,1,0,0:0:0:0:
468,275,220734,1,0,0:0:0:0:
469,269,220805,1,0,0:0:0:0:
469,264,220877,1,0,0:0:0:0:
469,259,220948,1,0,0:0:0:0:
470,253,221020,1,0,0:0:0:0:
470,248,221091,1,0,0:0:0:0:
471,243,221162,1,2,0:0:0:0:
471,238,221234,1,0,0:0:0:0:
472,232,221305,1,0,0:0:0:0:
472,227,221377,1,0,0:0:0:0:
473,222,221448,1,0,0:0:0:0:
473,216,221520,1,0,0:0:0:0:
474,211,221591,1,0,0:0:0:0:
474,206,221662,1,0,0:0:0:0:
475,200,221734,1,8,0:0:0:0:
475,195,221805,1,0,0:0:0:0:
475,190,221877,1,0,0:0:0:0:
476,185,221948,1,0,0:0:0:0:
476,179,222020,1,0,0:0:0:0:
477,174,222091,1,0,0:0:0:0:
477,169,222162,1,0,0:0:0:0:
478,163,222234,1,0,0:0:0:0:
478,158,222306,5,2,0:0:0:0:
478,163,222377,1,0,0:0:0:0:
477,169,222449,1,0,0:0:0:0:
477,174,222520,1,0,0:0:0:0:
476,179,222591,1,0,0:0:0:0:
476,185,222663,1,0,0:0:0:0:
475,190,222734,1,0,0:0:0:0:
475,195,222806,1,0,0:0:0:0:
475,200,222877,1,8,0:0:0:0:
474,206,222949,1,0,0:0:0:0:
474,211,223020,1,0,0:0:0:0:
473,216,223091,1,0,0:0:0:0:
473,222,223163,1,0,0:0:0:0:
472,227,223234,1,0,0:0:0:0:
472,232,223306,1,0,0:0:0:0:
471,238,223377,1,0,0:0:0:0:
471,243,223449,1,2,0:0:0:0:
470,248,223520,1,0,0:0:0:0:
470,253,223591,1,0,0:0:0:0:
469,259,223663,1,0,0:0:0:0:
469,264,223734,1,0,0:0:0:0:
469,269,223806,1,0,0:0:0:0:
468,275,223877,1,0,0:0:0:0:
468,280,223949,1,0,0:0:0:0:
467,285,224020,1,8,0:0:0:0:
467,290,224091,1,0,0:0:0:0:
466,296,224163,1,0,0:0:0:0:
466,301,224234,1,0,0:0:0:0:
465,306,224306,1,0,0:0:0:0:
465,312,224377,1,0,0:0:0:0:
464,317,224449,1,0,0:0:0:0:
464,322,224520,1,0,0:0:0:0:
464,328,224592,5,2,0:0:0:0:
449,328,224663,1,0,0:0:0:0:
434,327,224734,1,0,0:0:0:0:
420,325,224806,1,0,0:0:0:0:
405,322,224877,1,0,0:0:0:0:
391,318,224949,1,0,0:0:0:0:
378,313,225020,1,0,0:0:0:0:
364,307,225092,1,0,0:0:0:0:
352,300,225163,1,8,0:0:0:0:
340,292,225234,1,0,0:0:0:0:
328,283,225306,1,0,0:0:0:0:
317,273,225377,1,0,0:0:0:0:
307,263,225449,1,0,0:0:0:0:
297,252,225520,1,0,0:0:0:0:
287,242,225592,1,0,0:0:0:0:
277,231,225663,1,0,0:0:0:0:
268,219,225734,1,2,0:0:0:0:
258,208,225806,1,0,0:0:0:0:
249,197,225877,1,0,0:0:0:0:
239,186,225949,1,0,0:0:0:0:
229,175,226020,1,0,0:0:0:0:
219,165,226092,1,0,0:0:0:0:
208,155,226163,1,0,0:0:0:0:
197,146,226234,1,0,0:0:0:0:
185,137,226306,1,8,0:0:0:0:
173,130,226377,1,0,0:0:0:0:
160,123,226449,1,0,0:0:0:0:
146,117,226520,1,0,0:0:0:0:
132,113,226592,1,0,0:0:0:0:
118,110,226663,1,0,0:0:0:0:
104,108,226734,1,0,0:0:0:0:
89,107,226806,1,0,0:0:0:0:
89,107,226878,5,2,0:0:0:0:
94,120,226949,1,0,0:0:0:0:
101,133,227020,1,0,0:0:0:0:
110,144,227092,1,0,0:0:0:0:
122,153,227163,1,0,0:0:0:0:
134,161,227235,1,0,0:0:0:0:
148,166,227306,1,0,0:0:0:0:
162,168,227378,1,0,0:0:0:0:
177,169,227449,1,8,0:0:0:0:
191,167,227520,1,0,0:0:0:0:
206,164,227592,1,0,0:0:0:0:
220,160,227663,1,0,0:0:0:0:
233,154,227735,1,0,0:0:0:0:
246,148,227806,1,0,0:0:0:0:
259,140,227878,1,0,0:0:0:0:
271,133,227949,1,0,0:0:0:0:
283,125,228020,1,2,0:0:0:0:
296,117,228092,1,0,0:0:0:0:
308,109,228163,1,0,0:0:0:0:
320,101,228235,1,0,0:0:0:0:
333,93,228306,1,0,0:0:0:0:
345,86,228378,1,0,0:0:0:0:
358,79,228449,1,0,0:0:0:0:
372,74,228520,1,0,0:0:0:0:
386,69,228592,1,8,0:0:0:0:
400,66,228663,1,0,0:0:0:0:
414,63,228735,1,0,0:0:0:0:
429,62,228806,1,0,0:0:0:0:
443,63,228878,1,0,0:0:0:0:
458,65,228949,1,0,0:0:0:0:
472,68,229020,1,0,0:0:0:0:
486,72,229092,1,0,0:0:0:0:
500,78,229163,6,0,L|464:160,1,85,6|0,0:0|0:0,0:0:0:0:
