osu file format v14

[General]
AudioFilename: harmonia.mp3
AudioLeadIn: 0
PreviewTime: 54921
Countdown: 0
SampleSet: Soft
StackLeniency: 0.7
Mode: 0
LetterboxInBreaks: 0
WidescreenStoryboard: 1

[Editor]
DistanceSpacing: 1
BeatDivisor: 4
GridSize: 4
TimelineZoom: 1

[Metadata]
Title:Harmonia
TitleUnicode:ハルモニア
Artist:RYTHEM
ArtistUnicode:RYTHEM
Creator:alacat
Version:Easy
Source:NARUTO-ナルト-
Tags:tv size ending ed2 YUI NIITSU YUKARI KATO
BeatmapID:937458
BeatmapSetID:435165

[Difficulty]
HPDrainRate:2
CircleSize:3
OverallDifficulty:2
ApproachRate:3
SliderMultiplier:1
SliderTickRate:1

[Events]
//Background and Video events
Video,0,"ed2.flv"
0,0,"bg.jpg",0,0
//Break Periods
//Storyboard Layer 0 (Background)
//Storyboard Layer 1 (Fail)
//Storyboard Layer 2 (Pass)
//Storyboard Layer 3 (Foreground)
//Storyboard Sound Samples

[TimingPoints]
5779,571.428571428571,4,2,1,50,1,0
56064,-100,4,2,1,60,0,1
83493,-100,4,2,1,40,0,0
88064,-100,4,2,1,5,0,0

[Colours]
Combo1 : 176,255,255
Combo2 : 255,181,255
Combo3 : 255,255,170

[HitObjects]
60,292,5779,6,0,B|160:260|160:316|256:292,1,200,4|0,0:0|0:0,0:0:0:0:
336,232,7493,1,8,0:0:0:0:
244,196,8064,2,0,P|240:148|256:96,1,100,0|8,0:0|0:0,0:0:0:0:
332,36,9207,2,0,P|380:32|432:48,1,100,0|8,0:0|0:0,0:0:0:0:
488,128,10350,5,4,0:0:0:0:
444,216,10921,1,8,0:0:0:0:
348,188,11493,2,0,L|244:204,1,100,2|8,0:0|0:0,0:0:0:0:
220,244,12350,2,0,P|148:260|88:216,1,150,2|8,0:0|0:0,0:0:0:0:
72,172,13493,2,0,L|96:20,1,150,2|8,0:0|0:0,0:0:0:0:
188,64,14921,6,0,B|208:164|208:164|240:200|300:184,1,200,4|0,0:0|0:0,0:0:0:0:
380,124,16636,1,8,0:0:0:0:
476,156,17207,2,0,P|480:212|468:256,2,100,0|8|0,0:0|0:0|0:0,0:0:0:0:
456,60,18921,1,8,0:0:0:0:
356,48,19493,6,0,L|256:64,1,100,4|8,0:0|0:0,0:0:0:0:
176,124,20636,2,0,L|76:108,1,100,2|8,0:0|0:0,0:0:0:0:
36,136,21493,2,0,P|12:212|36:280,1,150,2|8,0:0|0:0,0:0:0:0:
76,304,22636,2,0,P|146:282|216:306,1,150,2|8,0:0|0:0,0:0:0:0:
300,364,24064,6,0,P|396:352|440:264,1,200,4|0,0:0|0:0,0:0:0:0:
396,176,25778,1,8,0:0:0:0:
308,220,26350,2,0,P|256:228|208:216,1,100,0|8,0:0|0:0,0:0:0:0:
136,152,27493,2,0,P|84:144|36:156,1,100,0|8,0:0|0:0,0:0:0:0:
8,252,28636,6,0,L|28:352,1,100,4|8,0:0|0:0,0:0:0:0:
124,320,29778,2,0,P|176:324|224:340,1,100,2|8,0:0|0:0,0:0:0:0:
260,368,30636,2,0,L|408:344,1,150,2|8,0:0|0:0,0:0:0:0:
448,312,31778,2,0,P|464:236|444:164,1,150,2|8,0:0|0:0,0:0:0:0:
364,108,33207,6,0,L|380:4,2,100,4|8|0,0:0|0:0|0:0,0:0:0:0:
284,168,34921,1,8,0:0:0:0:
192,132,35493,2,0,P|140:132|92:144,1,100,0|4,3:0|0:0,0:0:0:0:
93,240,36636,2,0,P|142:252|192:252,1,100,0|4,1:0|0:3,0:0:0:0:
272,192,37778,5,4,0:0:0:0:
256,92,38350,1,8,0:0:0:0:
160,60,38921,2,0,P|108:60|60:76,1,100,0|8,0:0|0:0,0:0:0:0:
0,156,40064,1,0,0:0:0:0:
60,236,40636,1,8,0:0:0:0:
156,208,41207,2,0,P|208:216|252:240,1,100,0|8,0:0|0:0,0:0:0:0:
308,320,42350,6,0,P|404:320|456:240,1,200,2|0,0:0|0:0,0:0:0:0:
444,140,44064,1,8,0:0:0:0:
350,104,44636,2,0,P|361:52|385:10,2,100,0|8|0,0:0|0:0|0:0,0:0:0:0:
363,203,46350,1,8,0:0:0:0:
296,276,46921,6,0,P|200:244|104:264,1,200,4|0,0:0|0:0,0:0:0:0:
36,336,48636,1,8,0:0:0:0:
0,244,49207,2,0,P|0:136|48:60,1,200,4|0,0:0|0:0,0:0:0:0:
140,28,50921,1,4,0:0:0:0:
220,84,51493,6,0,B|284:84|316:48|316:48|364:48|392:100,1,200,4|0,0:0|0:0,0:0:0:0:
428,192,53207,1,8,0:0:0:0:
392,284,53778,2,0,P|349:310|301:312,1,100,4|8,0:0|0:0,0:0:0:0:
212,364,54921,2,0,L|112:348,1,100,0|4,1:0|0:3,0:0:0:0:
24,304,56064,6,0,P|12:252|24:204,2,100,4|8|2,0:0|0:0|0:0,0:0:0:0:
108,252,57778,1,8,0:0:0:0:
204,224,58350,2,0,L|304:240,1,100,2|8,0:0|0:0,0:0:0:0:
360,156,59493,2,0,L|261:140,1,100,2|8,0:0|0:0,0:0:0:0:
200,64,60636,6,0,P|96:64|44:140,1,200,2|2,0:0|0:0,0:0:0:0:
76,232,62350,1,8,0:0:0:0:
172,208,62921,2,0,P|224:216|268:232,1,100,2|8,0:0|0:0,0:0:0:0:
348,292,64064,1,2,0:0:0:0:
360,192,64636,1,8,0:0:0:0:
280,132,65207,6,0,B|180:100|180:156|84:132,2,200,4|2|4,0:0|0:0|0:0,0:0:0:0:
360,68,68064,1,8,0:0:0:0:
448,112,68636,2,0,L|468:212,1,100,0|4,1:0|0:3,0:0:0:0:
384,264,69778,6,0,P|332:256|284:264,1,100,4|8,0:0|0:0,0:0:0:0:
224,344,70921,2,0,P|172:352|124:344,1,100,2|8,0:0|0:0,0:0:0:0:
64,264,72064,1,2,0:0:0:0:
112,176,72636,1,8,0:0:0:0:
208,152,73207,2,0,L|306:167,1,100,2|8,0:0|0:0,0:0:0:0:
400,128,74350,6,0,P|448:144|484:176,2,100,2|8|2,0:0|0:0|0:0,0:0:0:0:
316,72,76064,1,8,0:0:0:0:
256,152,76636,2,0,B|200:160|148:128|148:128|100:136|88:188,1,200,2|2,0:0|0:0,0:0:0:0:
132,272,78350,1,8,0:0:0:0:
224,312,78921,6,0,B|324:280|324:336|420:312,2,200,4|2|2,0:0|0:0|0:0,0:0:0:0:
144,372,81778,1,8,0:0:0:0:
60,320,82350,2,0,P|52:268|64:220,1,100,2|8,0:0|0:0,0:0:0:0:
144,164,83493,6,0,L|296:176,2,150,4|0|8,0:0|3:0|0:0,0:0:0:0:
256,192,85493,12,0,88064,0:0:0:0:
