osu file format v14

[General]
AudioFilename: audio.mp3
AudioLeadIn: 0
PreviewTime: 12728
Countdown: 0
SampleSet: None
StackLeniency: 0.7
Mode: 3
LetterboxInBreaks: 0
SpecialStyle: 0
WidescreenStoryboard: 1

[Editor]
Bookmarks: 17780,42490,52595,72806,90490,94280,103122,104385
DistanceSpacing: 0.6
BeatDivisor: 4
GridSize: 4
TimelineZoom: 2.9

[Metadata]
Title:Shuffle Heaven
TitleUnicode:Shuffle Heaven
Artist:RYO
ArtistUnicode:RYO
Creator:Xenophilius
Version:Tesseract
Source:O2Jam
Tags:
BeatmapID:1178249
BeatmapSetID:420352

[Difficulty]
HPDrainRate:8.5
CircleSize:7
OverallDifficulty:7
ApproachRate:5
SliderMultiplier:1.4
SliderTickRate:1

[Events]
//Background and Video events
0,0,"hypercube.jpg",0,0
//Break Periods
//Storyboard Layer 0 (Background)
//Storyboard Layer 1 (Fail)
//Storyboard Layer 2 (Pass)
//Storyboard Layer 3 (Foreground)
//Storyboard Sound Samples

[TimingPoints]
2642,315.789473684211,4,2,1,20,1,0
12728,315.789473684211,4,2,1,20,1,0
22833,-66.6666666666667,4,2,1,20,0,0
22912,-200,4,2,1,20,0,0
22991,-100,4,2,1,20,0,0
27885,-66.6666666666667,4,2,1,20,0,0
27964,-200,4,2,1,20,0,0
28043,-100,4,2,1,20,0,0
35465,-400,4,2,1,20,0,0
37438,315.789473684211,4,2,1,20,1,0
52595,-100,4,2,1,20,0,1
62701,-100,4,2,1,20,0,0
94280,-100,4,2,1,20,0,1
111964,-100,4,2,1,20,0,0

[HitObjects]
329,192,2642,5,8,0:0:0:0:
475,192,2642,1,8,0:0:0:0:
36,192,2642,1,0,0:0:0:0:
402,192,2799,1,0,0:0:0:0:
402,192,2957,1,0,0:0:0:0:
182,192,3115,1,8,0:0:0:0:
36,192,3115,1,8,0:0:0:0:
475,192,3115,1,0,0:0:0:0:
109,192,3273,1,0,0:0:0:0:
109,192,3431,1,0,0:0:0:0:
475,192,3589,1,0,0:0:0:0:
182,192,3589,1,8,0:0:0:0:
36,192,3589,1,8,0:0:0:0:
256,192,3747,1,0,0:0:0:0:
36,192,3905,1,0,0:0:0:0:
329,192,3905,1,8,0:0:0:0:
475,192,3905,1,8,0:0:0:0:
402,192,4063,1,0,0:0:0:0:
402,192,4220,1,0,0:0:0:0:
182,192,4378,1,8,0:0:0:0:
36,192,4378,1,8,0:0:0:0:
475,192,4378,1,0,0:0:0:0:
109,192,4536,1,0,0:0:0:0:
109,192,4694,1,0,0:0:0:0:
36,192,4852,1,0,0:0:0:0:
329,192,4852,1,8,0:0:0:0:
475,192,4852,1,8,0:0:0:0:
256,192,5010,1,0,0:0:0:0:
182,192,5168,1,8,0:0:0:0:
36,192,5168,1,8,0:0:0:0:
475,192,5168,1,0,0:0:0:0:
109,192,5326,1,0,0:0:0:0:
109,192,5484,1,0,0:0:0:0:
329,192,5642,1,8,0:0:0:0:
475,192,5642,1,8,0:0:0:0:
36,192,5642,1,0,0:0:0:0:
402,192,5799,1,0,0:0:0:0:
402,192,5957,1,0,0:0:0:0:
109,192,6115,1,8,0:0:0:0:
36,192,6115,1,8,0:0:0:0:
475,192,6115,1,0,0:0:0:0:
256,192,6273,1,0,0:0:0:0:
402,192,6431,1,8,0:0:0:0:
475,192,6431,1,8,0:0:0:0:
36,192,6431,1,0,0:0:0:0:
329,192,6589,1,0,0:0:0:0:
329,192,6747,1,0,0:0:0:0:
109,192,6905,1,8,0:0:0:0:
36,192,6905,1,8,0:0:0:0:
475,192,6905,1,0,0:0:0:0:
182,192,7063,1,0,0:0:0:0:
182,192,7220,1,0,0:0:0:0:
329,192,7378,1,8,0:0:0:0:
402,192,7378,1,8,0:0:0:0:
36,192,7378,1,0,0:0:0:0:
109,192,7536,1,0,0:0:0:0:
402,192,7694,1,8,0:0:0:0:
475,192,7694,1,8,0:0:0:0:
182,192,7694,1,0,0:0:0:0:
256,192,7852,1,0,0:0:0:0:
256,192,8010,1,0,0:0:0:0:
109,192,8168,1,8,0:0:0:0:
36,192,8168,1,8,0:0:0:0:
329,192,8168,1,0,0:0:0:0:
256,192,8326,1,0,0:0:0:0:
256,192,8484,1,0,0:0:0:0:
329,192,8642,1,8,0:0:0:0:
475,192,8642,1,8,0:0:0:0:
36,192,8642,1,0,0:0:0:0:
256,192,8799,1,0,0:0:0:0:
182,192,8957,1,8,0:0:0:0:
36,192,8957,1,8,0:0:0:0:
475,192,8957,1,0,0:0:0:0:
402,192,9115,1,0,0:0:0:0:
402,192,9273,1,0,0:0:0:0:
329,192,9431,1,8,0:0:0:0:
36,192,9431,1,0,0:0:0:0:
475,192,9431,1,8,0:0:0:0:
109,192,9589,1,0,0:0:0:0:
109,192,9747,1,0,0:0:0:0:
36,192,9905,1,8,0:0:0:0:
182,192,9905,1,8,0:0:0:0:
475,192,9905,1,0,0:0:0:0:
402,192,10063,1,0,0:0:0:0:
109,192,10220,1,8,0:0:0:0:
256,192,10220,1,8,0:0:0:0:
475,192,10220,1,0,0:0:0:0:
182,192,10378,1,0,0:0:0:0:
182,192,10536,1,0,0:0:0:0:
256,192,10694,1,8,0:0:0:0:
402,192,10694,1,8,0:0:0:0:
36,192,10694,1,0,0:0:0:0:
329,192,10852,1,0,0:0:0:0:
329,192,11010,1,0,0:0:0:0:
475,192,11168,1,0,0:0:0:0:
182,192,11168,1,8,0:0:0:0:
36,192,11168,1,8,0:0:0:0:
256,192,11326,1,0,0:0:0:0:
329,192,11484,1,8,0:0:0:0:
475,192,11484,1,8,0:0:0:0:
36,192,11484,1,0,0:0:0:0:
182,192,11957,1,8,0:0:0:0:
36,192,11957,1,8,0:0:0:0:
475,192,11957,1,0,0:0:0:0:
329,192,12431,1,8,0:0:0:0:
475,192,12431,1,8,0:0:0:0:
36,192,12431,1,0,0:0:0:0:
109,192,12728,1,0,0:0:0:0:
36,192,12728,1,8,0:0:0:0:
402,192,12728,1,8,0:0:0:0:
475,192,12728,1,8,0:0:0:0:
182,192,12806,1,0,0:0:0:0:
256,192,12885,1,0,0:0:0:0:
329,192,12964,1,0,0:0:0:0:
36,192,13043,1,0,0:0:0:0:
109,192,13122,1,0,0:0:0:0:
182,192,13201,1,0,0:0:0:0:
256,192,13280,1,0,0:0:0:0:
329,192,13359,1,0,0:0:0:0:
475,192,13359,1,8,0:0:0:0:
36,192,13359,1,8,0:0:0:0:
109,192,13359,1,8,0:0:0:0:
256,192,13438,1,0,0:0:0:0:
182,192,13517,1,0,0:0:0:0:
109,192,13596,1,0,0:0:0:0:
402,192,13675,1,0,0:0:0:0:
329,192,13754,1,0,0:0:0:0:
256,192,13833,1,0,0:0:0:0:
182,192,13912,1,0,0:0:0:0:
109,192,13991,1,0,0:0:0:0:
36,192,13991,1,8,0:0:0:0:
329,192,13991,1,8,0:0:0:0:
475,192,13991,1,8,0:0:0:0:
256,192,14070,1,0,0:0:0:0:
182,192,14149,1,0,0:0:0:0:
109,192,14228,1,0,0:0:0:0:
402,192,14306,1,0,0:0:0:0:
329,192,14385,1,0,0:0:0:0:
256,192,14464,1,0,0:0:0:0:
182,192,14543,1,0,0:0:0:0:
109,192,14622,1,0,0:0:0:0:
329,192,14622,1,8,0:0:0:0:
475,192,14622,1,8,0:0:0:0:
36,192,14622,1,8,0:0:0:0:
182,192,14701,1,0,0:0:0:0:
256,192,14780,1,0,0:0:0:0:
329,192,14859,1,0,0:0:0:0:
475,192,14938,128,0,15096:0:0:0:0:
36,192,14938,128,0,15096:0:0:0:0:
329,192,15096,128,0,15175:0:0:0:0:
182,192,15096,128,0,15175:0:0:0:0:
256,192,15096,1,8,0:0:0:0:
402,192,15096,1,8,0:0:0:0:
109,192,15096,1,8,0:0:0:0:
402,192,15254,1,8,0:0:0:0:
36,192,15254,1,8,0:0:0:0:
475,192,15254,1,8,0:0:0:0:
109,192,15254,1,0,0:0:0:0:
329,192,15333,1,0,0:0:0:0:
256,192,15412,1,0,0:0:0:0:
182,192,15491,1,0,0:0:0:0:
475,192,15570,1,0,0:0:0:0:
402,192,15649,1,0,0:0:0:0:
329,192,15728,1,0,0:0:0:0:
256,192,15806,1,0,0:0:0:0:
182,192,15885,1,0,0:0:0:0:
36,192,15885,1,8,0:0:0:0:
475,192,15885,1,8,0:0:0:0:
402,192,15885,1,8,0:0:0:0:
256,192,15964,1,0,0:0:0:0:
329,192,16043,1,0,0:0:0:0:
402,192,16122,1,0,0:0:0:0:
109,192,16201,1,0,0:0:0:0:
182,192,16280,1,0,0:0:0:0:
256,192,16359,1,0,0:0:0:0:
402,192,16359,1,8,0:0:0:0:
475,192,16359,1,8,0:0:0:0:
36,192,16359,1,8,0:0:0:0:
329,192,16438,1,0,0:0:0:0:
402,192,16517,1,0,0:0:0:0:
475,192,16517,1,8,0:0:0:0:
182,192,16517,1,8,0:0:0:0:
36,192,16517,1,8,0:0:0:0:
256,192,16596,1,0,0:0:0:0:
329,192,16675,1,0,0:0:0:0:
402,192,16754,1,0,0:0:0:0:
109,192,16833,1,0,0:0:0:0:
182,192,16912,1,0,0:0:0:0:
256,192,16991,1,0,0:0:0:0:
402,192,16991,1,8,0:0:0:0:
475,192,16991,1,8,0:0:0:0:
36,192,16991,1,8,0:0:0:0:
329,192,17070,1,0,0:0:0:0:
402,192,17149,1,0,0:0:0:0:
182,192,17149,1,8,0:0:0:0:
36,192,17149,1,8,0:0:0:0:
475,192,17149,1,8,0:0:0:0:
329,192,17228,1,0,0:0:0:0:
109,192,17306,1,0,0:0:0:0:
182,192,17306,1,8,0:0:0:0:
402,192,17385,1,0,0:0:0:0:
329,192,17385,1,8,0:0:0:0:
36,192,17464,128,0,17622:0:0:0:0:
475,192,17464,128,0,17622:0:0:0:0:
109,192,17464,1,0,0:0:0:0:
182,192,17464,1,8,0:0:0:0:
182,192,17622,128,0,17701:0:0:0:0:
329,192,17622,128,0,17701:0:0:0:0:
256,192,17622,1,8,0:0:0:0:
109,192,17622,1,8,0:0:0:0:
402,192,17622,1,8,0:0:0:0:
36,192,17701,1,8,0:0:0:0:
475,192,17701,1,8,0:0:0:0:
109,192,17780,1,8,0:0:0:0:
402,192,17780,1,8,0:0:0:0:
182,192,17780,1,8,0:0:0:0:
329,192,17780,1,0,0:0:0:0:
256,192,17859,1,0,0:0:0:0:
329,192,17938,1,0,0:0:0:0:
402,192,18017,1,0,0:0:0:0:
475,192,18096,1,8,0:0:0:0:
329,192,18096,1,0,0:0:0:0:
109,192,18096,1,8,0:0:0:0:
36,192,18096,1,8,0:0:0:0:
256,192,18175,1,0,0:0:0:0:
182,192,18254,1,0,0:0:0:0:
109,192,18333,1,0,0:0:0:0:
36,192,18412,1,0,0:0:0:0:
256,192,18412,1,0,0:0:0:0:
402,192,18412,1,8,0:0:0:0:
475,192,18412,1,8,0:0:0:0:
329,192,18491,1,0,0:0:0:0:
402,192,18570,1,0,0:0:0:0:
475,192,18649,1,0,0:0:0:0:
36,192,18728,1,0,0:0:0:0:
182,192,18728,1,8,0:0:0:0:
256,192,18728,1,8,0:0:0:0:
402,192,18728,1,8,0:0:0:0:
109,192,18806,1,0,0:0:0:0:
182,192,18885,1,0,0:0:0:0:
256,192,18964,1,0,0:0:0:0:
402,192,19043,1,8,0:0:0:0:
475,192,19043,1,8,0:0:0:0:
182,192,19043,1,0,0:0:0:0:
36,192,19043,1,8,0:0:0:0:
329,192,19122,1,0,0:0:0:0:
256,192,19201,1,0,0:0:0:0:
182,192,19280,1,0,0:0:0:0:
109,192,19359,1,0,0:0:0:0:
36,192,19359,1,8,0:0:0:0:
329,192,19359,1,8,0:0:0:0:
475,192,19359,1,8,0:0:0:0:
402,192,19438,1,0,0:0:0:0:
329,192,19517,1,0,0:0:0:0:
256,192,19596,1,0,0:0:0:0:
182,192,19675,1,0,0:0:0:0:
36,192,19675,1,8,0:0:0:0:
402,192,19675,1,8,0:0:0:0:
475,192,19675,1,8,0:0:0:0:
329,192,19754,1,0,0:0:0:0:
256,192,19833,1,0,0:0:0:0:
182,192,19912,1,0,0:0:0:0:
36,192,19991,128,0,20228:0:0:0:0:
475,192,19991,128,0,20228:0:0:0:0:
329,192,20149,128,0,20228:0:0:0:0:
182,192,20149,128,0,20228:0:0:0:0:
36,192,20306,1,0,0:0:0:0:
182,192,20306,1,8,0:0:0:0:
329,192,20306,1,8,0:0:0:0:
475,192,20306,1,8,0:0:0:0:
109,192,20385,1,0,0:0:0:0:
182,192,20464,1,0,0:0:0:0:
256,192,20543,1,0,0:0:0:0:
329,192,20622,1,0,0:0:0:0:
475,192,20622,1,8,0:0:0:0:
109,192,20622,1,8,0:0:0:0:
36,192,20622,1,8,0:0:0:0:
256,192,20701,1,0,0:0:0:0:
182,192,20780,1,0,0:0:0:0:
109,192,20859,1,0,0:0:0:0:
36,192,20938,1,0,0:0:0:0:
256,192,20938,1,8,0:0:0:0:
402,192,20938,1,8,0:0:0:0:
475,192,20938,1,8,0:0:0:0:
109,192,21017,1,0,0:0:0:0:
182,192,21096,1,0,0:0:0:0:
256,192,21175,1,0,0:0:0:0:
475,192,21254,128,0,21491:0:0:0:0:
36,192,21254,128,0,21491:0:0:0:0:
329,192,21412,128,0,21491:0:0:0:0:
182,192,21412,128,0,21491:0:0:0:0:
475,192,21570,1,0,0:0:0:0:
329,192,21570,1,8,0:0:0:0:
182,192,21570,1,8,0:0:0:0:
36,192,21570,1,8,0:0:0:0:
402,192,21649,1,0,0:0:0:0:
329,192,21728,1,0,0:0:0:0:
256,192,21806,1,0,0:0:0:0:
182,192,21885,1,0,0:0:0:0:
36,192,21885,1,8,0:0:0:0:
402,192,21885,1,8,0:0:0:0:
475,192,21885,1,8,0:0:0:0:
256,192,21964,1,0,0:0:0:0:
329,192,22043,1,0,0:0:0:0:
402,192,22122,1,0,0:0:0:0:
475,192,22201,1,0,0:0:0:0:
256,192,22201,1,8,0:0:0:0:
109,192,22201,1,8,0:0:0:0:
36,192,22201,1,8,0:0:0:0:
402,192,22280,1,0,0:0:0:0:
329,192,22359,1,0,0:0:0:0:
256,192,22438,1,0,0:0:0:0:
36,192,22517,128,0,22754:0:0:0:0:
475,192,22517,128,0,22754:0:0:0:0:
182,192,22675,128,0,22754:0:0:0:0:
329,192,22675,128,0,22754:0:0:0:0:
182,192,22833,128,0,22991:0:0:0:0:
329,192,22833,128,0,22991:0:0:0:0:
475,192,22991,128,0,23070:0:0:0:0:
402,192,22991,128,0,23070:0:0:0:0:
109,192,22991,1,4,0:0:0:0:
36,192,22991,1,4,0:0:0:0:
182,192,23070,1,2,0:0:0:0:
256,192,23149,128,0,23228:0:0:0:0:
329,192,23149,128,0,23228:0:0:0:0:
36,192,23228,1,2,0:0:0:0:
109,192,23306,128,0,23385:0:0:0:0:
182,192,23306,128,0,23385:0:0:0:0:
475,192,23385,1,2,0:0:0:0:
329,192,23464,128,0,23543:0:0:0:0:
402,192,23464,128,0,23543:0:0:0:0:
36,192,23543,1,2,0:0:0:0:
182,192,23622,128,0,23701:0:0:0:0:
256,192,23622,128,0,23701:0:0:0:0:
475,192,23701,1,2,0:0:0:0:
36,192,23780,128,0,23859:0:0:0:0:
109,192,23780,128,0,23859:0:0:0:0:
402,192,23859,1,2,0:0:0:0:
475,192,23938,128,0,24017:0:0:0:0:
256,192,23938,128,0,24017:0:0:0:0:
36,192,24017,1,2,0:0:0:0:
182,192,24096,128,0,24175:0:0:0:0:
402,192,24096,128,0,24175:0:0:0:0:
475,192,24175,1,2,0:0:0:0:
36,192,24254,128,0,24333:0:0:0:0:
256,192,24254,128,0,24333:0:0:0:0:
402,192,24333,1,2,0:0:0:0:
329,192,24412,128,0,24491:0:0:0:0:
109,192,24412,128,0,24491:0:0:0:0:
475,192,24491,1,2,0:0:0:0:
402,192,24570,128,0,24649:0:0:0:0:
182,192,24570,128,0,24649:0:0:0:0:
36,192,24649,1,2,0:0:0:0:
475,192,24728,128,0,24806:0:0:0:0:
256,192,24728,128,0,24806:0:0:0:0:
109,192,24806,1,2,0:0:0:0:
36,192,24885,128,0,24964:0:0:0:0:
329,192,24885,128,0,24964:0:0:0:0:
182,192,24964,1,2,0:0:0:0:
109,192,25043,128,0,25122:0:0:0:0:
402,192,25043,128,0,25122:0:0:0:0:
256,192,25122,1,2,0:0:0:0:
182,192,25201,128,0,25280:0:0:0:0:
475,192,25201,128,0,25280:0:0:0:0:
329,192,25280,1,2,0:0:0:0:
36,192,25359,128,0,25438:0:0:0:0:
109,192,25359,128,0,25438:0:0:0:0:
402,192,25438,1,2,0:0:0:0:
256,192,25517,128,0,25596:0:0:0:0:
182,192,25517,128,0,25596:0:0:0:0:
475,192,25596,1,2,0:0:0:0:
402,192,25675,128,0,25754:0:0:0:0:
329,192,25675,128,0,25754:0:0:0:0:
36,192,25754,1,2,0:0:0:0:
182,192,25833,128,0,25912:0:0:0:0:
109,192,25833,128,0,25912:0:0:0:0:
475,192,25912,1,2,0:0:0:0:
329,192,25991,128,0,26070:0:0:0:0:
256,192,25991,128,0,26070:0:0:0:0:
36,192,26070,1,2,0:0:0:0:
475,192,26149,128,0,26228:0:0:0:0:
402,192,26149,128,0,26228:0:0:0:0:
109,192,26228,1,2,0:0:0:0:
36,192,26306,128,0,26385:0:0:0:0:
256,192,26306,128,0,26385:0:0:0:0:
475,192,26385,1,2,0:0:0:0:
329,192,26464,128,0,26543:0:0:0:0:
109,192,26464,128,0,26543:0:0:0:0:
36,192,26543,1,2,0:0:0:0:
475,192,26622,128,0,26701:0:0:0:0:
256,192,26622,128,0,26701:0:0:0:0:
109,192,26701,1,2,0:0:0:0:
182,192,26780,128,0,26859:0:0:0:0:
402,192,26780,128,0,26859:0:0:0:0:
36,192,26859,1,2,0:0:0:0:
109,192,26938,128,0,27017:0:0:0:0:
329,192,26938,128,0,27017:0:0:0:0:
475,192,27017,1,2,0:0:0:0:
36,192,27096,128,0,27175:0:0:0:0:
256,192,27096,128,0,27175:0:0:0:0:
402,192,27175,1,2,0:0:0:0:
475,192,27254,128,0,27333:0:0:0:0:
182,192,27254,128,0,27333:0:0:0:0:
329,192,27333,1,2,0:0:0:0:
402,192,27412,128,0,27491:0:0:0:0:
109,192,27412,128,0,27491:0:0:0:0:
256,192,27491,1,2,0:0:0:0:
329,192,27570,128,0,27649:0:0:0:0:
36,192,27570,128,0,27649:0:0:0:0:
182,192,27649,1,2,0:0:0:0:
475,192,27728,128,0,27806:0:0:0:0:
256,192,27728,128,0,27806:0:0:0:0:
109,192,27806,1,2,0:0:0:0:
182,192,27885,128,0,28043:0:0:0:0:
329,192,27885,128,0,28043:0:0:0:0:
109,192,28043,1,4,0:0:0:0:
36,192,28043,1,4,0:0:0:0:
475,192,28043,128,0,28122:0:0:0:0:
402,192,28043,128,0,28122:0:0:0:0:
182,192,28122,1,2,0:0:0:0:
329,192,28201,128,0,28280:0:0:0:0:
256,192,28201,128,0,28280:0:0:0:0:
36,192,28280,1,2,0:0:0:0:
182,192,28359,128,0,28438:0:0:0:0:
109,192,28359,128,0,28438:0:0:0:0:
475,192,28438,1,2,0:0:0:0:
402,192,28517,128,0,28596:0:0:0:0:
329,192,28517,128,0,28596:0:0:0:0:
36,192,28596,1,2,0:0:0:0:
256,192,28675,128,0,28754:0:0:0:0:
182,192,28675,128,0,28754:0:0:0:0:
475,192,28754,1,2,0:0:0:0:
109,192,28833,128,0,28912:0:0:0:0:
36,192,28833,128,0,28912:0:0:0:0:
402,192,28912,1,2,0:0:0:0:
256,192,28991,128,0,29070:0:0:0:0:
475,192,28991,128,0,29070:0:0:0:0:
36,192,29070,1,2,0:0:0:0:
402,192,29149,128,0,29228:0:0:0:0:
182,192,29149,128,0,29228:0:0:0:0:
475,192,29228,1,2,0:0:0:0:
256,192,29306,128,0,29385:0:0:0:0:
36,192,29306,128,0,29385:0:0:0:0:
402,192,29385,1,2,0:0:0:0:
109,192,29464,128,0,29543:0:0:0:0:
329,192,29464,128,0,29543:0:0:0:0:
475,192,29543,1,2,0:0:0:0:
182,192,29622,128,0,29701:0:0:0:0:
402,192,29622,128,0,29701:0:0:0:0:
36,192,29701,1,2,0:0:0:0:
256,192,29780,128,0,29859:0:0:0:0:
475,192,29780,128,0,29859:0:0:0:0:
109,192,29859,1,2,0:0:0:0:
329,192,29938,128,0,30017:0:0:0:0:
36,192,29938,128,0,30017:0:0:0:0:
182,192,30017,1,2,0:0:0:0:
402,192,30096,128,0,30175:0:0:0:0:
109,192,30096,128,0,30175:0:0:0:0:
256,192,30175,1,2,0:0:0:0:
475,192,30254,128,0,30333:0:0:0:0:
182,192,30254,128,0,30333:0:0:0:0:
329,192,30333,1,2,0:0:0:0:
475,192,30412,128,0,30491:0:0:0:0:
402,192,30412,128,0,30491:0:0:0:0:
182,192,30491,1,2,0:0:0:0:
256,192,30570,128,0,30649:0:0:0:0:
329,192,30570,128,0,30649:0:0:0:0:
402,192,30570,1,4,0:0:0:0:
475,192,30570,1,4,0:0:0:0:
36,192,30649,1,2,0:0:0:0:
109,192,30728,128,0,30806:0:0:0:0:
182,192,30728,128,0,30806:0:0:0:0:
475,192,30806,1,2,0:0:0:0:
329,192,30885,128,0,30964:0:0:0:0:
402,192,30885,128,0,30964:0:0:0:0:
36,192,30964,1,2,0:0:0:0:
182,192,31043,128,0,31122:0:0:0:0:
256,192,31043,128,0,31122:0:0:0:0:
475,192,31122,1,2,0:0:0:0:
36,192,31201,128,0,31280:0:0:0:0:
109,192,31201,128,0,31280:0:0:0:0:
402,192,31280,1,2,0:0:0:0:
475,192,31359,128,0,31438:0:0:0:0:
256,192,31359,128,0,31438:0:0:0:0:
36,192,31438,1,2,0:0:0:0:
182,192,31517,128,0,31596:0:0:0:0:
402,192,31517,128,0,31596:0:0:0:0:
475,192,31596,1,2,0:0:0:0:
36,192,31675,128,0,31754:0:0:0:0:
256,192,31675,128,0,31754:0:0:0:0:
402,192,31754,1,2,0:0:0:0:
329,192,31833,128,0,31912:0:0:0:0:
109,192,31833,128,0,31912:0:0:0:0:
475,192,31912,1,2,0:0:0:0:
402,192,31991,128,0,32070:0:0:0:0:
182,192,31991,128,0,32070:0:0:0:0:
36,192,32070,1,2,0:0:0:0:
475,192,32149,128,0,32228:0:0:0:0:
256,192,32149,128,0,32228:0:0:0:0:
109,192,32228,1,2,0:0:0:0:
36,192,32306,128,0,32385:0:0:0:0:
329,192,32306,128,0,32385:0:0:0:0:
182,192,32385,1,2,0:0:0:0:
109,192,32464,128,0,32543:0:0:0:0:
402,192,32464,128,0,32543:0:0:0:0:
256,192,32543,1,2,0:0:0:0:
182,192,32622,128,0,32701:0:0:0:0:
475,192,32622,128,0,32701:0:0:0:0:
329,192,32701,1,2,0:0:0:0:
36,192,32780,128,0,32859:0:0:0:0:
256,192,32780,128,0,32859:0:0:0:0:
402,192,32859,1,2,0:0:0:0:
36,192,32938,128,0,33017:0:0:0:0:
329,192,32938,128,0,33017:0:0:0:0:
329,192,33096,128,0,33175:0:0:0:0:
36,192,33096,128,0,33175:0:0:0:0:
109,192,33254,128,0,33333:0:0:0:0:
402,192,33254,128,0,33333:0:0:0:0:
402,192,33412,128,0,33491:0:0:0:0:
109,192,33412,128,0,33491:0:0:0:0:
36,192,33570,128,0,33649:0:0:0:0:
329,192,33570,128,0,33649:0:0:0:0:
36,192,33728,128,0,33806:0:0:0:0:
329,192,33728,128,0,33806:0:0:0:0:
475,192,33885,128,0,33964:0:0:0:0:
182,192,33885,128,0,33964:0:0:0:0:
475,192,34043,128,0,34122:0:0:0:0:
182,192,34043,128,0,34122:0:0:0:0:
475,192,34201,128,0,34280:0:0:0:0:
182,192,34201,128,0,34280:0:0:0:0:
109,192,34359,128,0,34438:0:0:0:0:
36,192,34359,128,0,34438:0:0:0:0:
182,192,34359,1,8,0:0:0:0:
256,192,34359,1,8,0:0:0:0:
402,192,34438,1,8,0:0:0:0:
475,192,34438,1,8,0:0:0:0:
36,192,34517,128,0,34596:0:0:0:0:
109,192,34517,128,0,34596:0:0:0:0:
256,192,34517,1,8,0:0:0:0:
182,192,34517,1,8,0:0:0:0:
402,192,34596,1,8,0:0:0:0:
475,192,34596,1,8,0:0:0:0:
402,192,34675,128,0,34754:0:0:0:0:
475,192,34675,128,0,34754:0:0:0:0:
329,192,34675,1,8,0:0:0:0:
256,192,34675,1,8,0:0:0:0:
109,192,34754,1,8,0:0:0:0:
36,192,34754,1,8,0:0:0:0:
402,192,34833,128,0,34912:0:0:0:0:
475,192,34833,128,0,34912:0:0:0:0:
256,192,34833,1,8,0:0:0:0:
329,192,34833,1,8,0:0:0:0:
109,192,34912,1,8,0:0:0:0:
36,192,34912,1,8,0:0:0:0:
109,192,34991,128,0,35070:0:0:0:0:
36,192,34991,128,0,35070:0:0:0:0:
182,192,34991,1,8,0:0:0:0:
256,192,34991,1,8,0:0:0:0:
402,192,35070,1,8,0:0:0:0:
475,192,35070,1,8,0:0:0:0:
36,192,35149,128,0,35228:0:0:0:0:
109,192,35149,128,0,35228:0:0:0:0:
256,192,35149,1,8,0:0:0:0:
182,192,35149,1,8,0:0:0:0:
402,192,35228,1,8,0:0:0:0:
475,192,35228,1,8,0:0:0:0:
402,192,35306,128,0,35385:0:0:0:0:
475,192,35306,128,0,35385:0:0:0:0:
329,192,35306,1,8,0:0:0:0:
256,192,35306,1,8,0:0:0:0:
109,192,35385,1,8,0:0:0:0:
36,192,35385,1,8,0:0:0:0:
182,192,35464,1,0,0:0:0:0:
256,192,35464,1,8,0:0:0:0:
329,192,35464,1,8,0:0:0:0:
402,192,35464,1,4,0:0:0:0:
475,192,35464,1,4,0:0:0:0:
475,192,37438,128,0,37516:0:0:0:0:
182,192,37438,128,0,37516:0:0:0:0:
182,192,37595,128,0,37674:0:0:0:0:
475,192,37595,128,0,37674:0:0:0:0:
402,192,37753,128,0,37832:0:0:0:0:
109,192,37753,128,0,37832:0:0:0:0:
109,192,37911,128,0,37990:0:0:0:0:
402,192,37911,128,0,37990:0:0:0:0:
475,192,38069,128,0,38148:0:0:0:0:
182,192,38069,128,0,38148:0:0:0:0:
475,192,38227,128,0,38306:0:0:0:0:
182,192,38227,128,0,38306:0:0:0:0:
36,192,38385,128,0,38464:0:0:0:0:
329,192,38385,128,0,38464:0:0:0:0:
36,192,38543,128,0,38622:0:0:0:0:
329,192,38543,128,0,38622:0:0:0:0:
36,192,38701,128,0,38780:0:0:0:0:
329,192,38701,128,0,38780:0:0:0:0:
402,192,38859,128,0,38938:0:0:0:0:
475,192,38859,128,0,38938:0:0:0:0:
329,192,38859,1,8,0:0:0:0:
256,192,38859,1,8,0:0:0:0:
109,192,38938,1,8,0:0:0:0:
36,192,38938,1,8,0:0:0:0:
475,192,39016,128,0,39095:0:0:0:0:
402,192,39016,128,0,39095:0:0:0:0:
256,192,39016,1,8,0:0:0:0:
329,192,39016,1,8,0:0:0:0:
109,192,39095,1,8,0:0:0:0:
36,192,39095,1,8,0:0:0:0:
109,192,39174,128,0,39253:0:0:0:0:
36,192,39174,128,0,39253:0:0:0:0:
182,192,39174,1,8,0:0:0:0:
256,192,39174,1,8,0:0:0:0:
402,192,39253,1,8,0:0:0:0:
475,192,39253,1,8,0:0:0:0:
109,192,39332,128,0,39411:0:0:0:0:
36,192,39332,128,0,39411:0:0:0:0:
256,192,39332,1,8,0:0:0:0:
182,192,39332,1,8,0:0:0:0:
402,192,39411,1,8,0:0:0:0:
475,192,39411,1,8,0:0:0:0:
402,192,39490,128,0,39569:0:0:0:0:
475,192,39490,128,0,39569:0:0:0:0:
329,192,39490,1,8,0:0:0:0:
256,192,39490,1,8,0:0:0:0:
109,192,39569,1,8,0:0:0:0:
36,192,39569,1,8,0:0:0:0:
475,192,39648,128,0,39727:0:0:0:0:
402,192,39648,128,0,39727:0:0:0:0:
256,192,39648,1,8,0:0:0:0:
329,192,39648,1,8,0:0:0:0:
109,192,39727,1,8,0:0:0:0:
36,192,39727,1,8,0:0:0:0:
109,192,39806,128,0,39885:0:0:0:0:
36,192,39806,128,0,39885:0:0:0:0:
182,192,39806,1,8,0:0:0:0:
256,192,39806,1,8,0:0:0:0:
402,192,39885,1,8,0:0:0:0:
475,192,39885,1,8,0:0:0:0:
36,192,39964,128,0,40595:0:0:0:0:
329,192,39964,128,0,40043:0:0:0:0:
109,192,40122,128,0,40201:0:0:0:0:
475,192,40280,128,0,40911:0:0:0:0:
402,192,40280,128,0,40359:0:0:0:0:
256,192,40438,128,0,40516:0:0:0:0:
109,192,40595,128,0,41227:0:0:0:0:
402,192,40595,128,0,40674:0:0:0:0:
256,192,40753,128,0,40832:0:0:0:0:
402,192,40911,128,0,41543:0:0:0:0:
329,192,40911,128,0,40990:0:0:0:0:
182,192,41069,128,0,41148:0:0:0:0:
36,192,41227,128,0,41859:0:0:0:0:
329,192,41227,128,0,41306:0:0:0:0:
182,192,41385,128,0,41464:0:0:0:0:
475,192,41543,128,0,42174:0:0:0:0:
256,192,41543,128,0,41622:0:0:0:0:
109,192,41701,128,0,41780:0:0:0:0:
329,192,41859,128,0,41938:0:0:0:0:
182,192,42016,128,0,42095:0:0:0:0:
402,192,42174,128,0,42490:0:0:0:0:
36,192,42174,128,0,42253:0:0:0:0:
256,192,42332,128,0,42411:0:0:0:0:
36,192,42490,128,2,43753:0:0:0:0:
256,192,42490,1,8,0:0:0:0:
475,192,42490,1,8,0:0:0:0:
329,192,42490,1,0,0:0:0:0:
182,192,42569,1,0,0:0:0:0:
109,192,42648,1,0,0:0:0:0:
329,192,42727,1,0,0:0:0:0:
256,192,42806,1,0,0:0:0:0:
182,192,42806,1,8,0:0:0:0:
475,192,42806,1,8,0:0:0:0:
329,192,42885,1,0,0:0:0:0:
402,192,42964,1,0,0:0:0:0:
475,192,43043,1,0,0:0:0:0:
109,192,43122,1,8,0:0:0:0:
256,192,43122,1,8,0:0:0:0:
402,192,43122,1,0,0:0:0:0:
329,192,43201,1,0,0:0:0:0:
256,192,43280,1,0,0:0:0:0:
182,192,43359,1,0,0:0:0:0:
109,192,43438,1,0,0:0:0:0:
402,192,43438,1,8,0:0:0:0:
475,192,43438,1,8,0:0:0:0:
329,192,43516,1,0,0:0:0:0:
256,192,43595,1,0,0:0:0:0:
182,192,43674,1,0,0:0:0:0:
475,192,43753,128,2,45016:0:0:0:0:
109,192,43753,1,0,0:0:0:0:
329,192,43753,1,8,0:0:0:0:
402,192,43753,1,8,0:0:0:0:
182,192,43832,1,0,0:0:0:0:
256,192,43911,1,0,0:0:0:0:
329,192,43990,1,0,0:0:0:0:
402,192,44069,1,0,0:0:0:0:
182,192,44069,1,8,0:0:0:0:
36,192,44069,1,8,0:0:0:0:
256,192,44148,1,0,0:0:0:0:
329,192,44227,1,0,0:0:0:0:
402,192,44306,1,0,0:0:0:0:
36,192,44385,1,8,0:0:0:0:
109,192,44385,1,8,0:0:0:0:
182,192,44385,1,0,0:0:0:0:
256,192,44464,1,0,0:0:0:0:
329,192,44543,1,0,0:0:0:0:
256,192,44622,1,0,0:0:0:0:
182,192,44701,1,0,0:0:0:0:
402,192,44701,1,8,0:0:0:0:
36,192,44701,1,8,0:0:0:0:
109,192,44780,1,0,0:0:0:0:
36,192,44859,1,0,0:0:0:0:
402,192,44938,1,0,0:0:0:0:
329,192,45016,128,2,46280:0:0:0:0:
256,192,45016,1,8,0:0:0:0:
182,192,45016,1,0,0:0:0:0:
36,192,45016,1,8,0:0:0:0:
109,192,45095,1,0,0:0:0:0:
182,192,45174,1,0,0:0:0:0:
256,192,45253,1,0,0:0:0:0:
109,192,45332,1,8,0:0:0:0:
182,192,45332,1,8,0:0:0:0:
402,192,45332,1,0,0:0:0:0:
36,192,45411,1,0,0:0:0:0:
475,192,45490,1,0,0:0:0:0:
402,192,45569,1,0,0:0:0:0:
256,192,45648,1,0,0:0:0:0:
182,192,45648,1,8,0:0:0:0:
36,192,45648,1,8,0:0:0:0:
109,192,45727,1,0,0:0:0:0:
36,192,45806,1,0,0:0:0:0:
109,192,45885,1,0,0:0:0:0:
182,192,45964,1,0,0:0:0:0:
402,192,45964,1,8,0:0:0:0:
475,192,45964,1,8,0:0:0:0:
256,192,46043,1,0,0:0:0:0:
402,192,46122,1,0,0:0:0:0:
475,192,46201,1,0,0:0:0:0:
36,192,46280,128,2,47543:0:0:0:0:
256,192,46280,1,0,0:0:0:0:
109,192,46280,1,8,0:0:0:0:
182,192,46280,1,8,0:0:0:0:
329,192,46359,1,0,0:0:0:0:
402,192,46438,1,0,0:0:0:0:
475,192,46516,1,0,0:0:0:0:
329,192,46595,1,8,0:0:0:0:
256,192,46595,1,8,0:0:0:0:
109,192,46595,1,0,0:0:0:0:
182,192,46674,1,0,0:0:0:0:
256,192,46753,1,0,0:0:0:0:
329,192,46832,1,0,0:0:0:0:
402,192,46911,1,8,0:0:0:0:
475,192,46911,1,8,0:0:0:0:
109,192,46911,1,0,0:0:0:0:
329,192,46990,1,0,0:0:0:0:
256,192,47069,1,0,0:0:0:0:
182,192,47148,1,0,0:0:0:0:
109,192,47227,1,0,0:0:0:0:
329,192,47227,1,8,0:0:0:0:
475,192,47227,1,8,0:0:0:0:
402,192,47306,1,0,0:0:0:0:
329,192,47385,1,0,0:0:0:0:
256,192,47464,1,0,0:0:0:0:
475,192,47543,128,2,48806:0:0:0:0:
182,192,47543,1,0,0:0:0:0:
109,192,47543,1,8,0:0:0:0:
402,192,47543,1,8,0:0:0:0:
256,192,47622,1,0,0:0:0:0:
329,192,47701,1,0,0:0:0:0:
402,192,47780,1,0,0:0:0:0:
36,192,47859,1,0,0:0:0:0:
109,192,47859,1,8,0:0:0:0:
182,192,47859,1,8,0:0:0:0:
256,192,47938,1,0,0:0:0:0:
329,192,48016,1,0,0:0:0:0:
402,192,48095,1,0,0:0:0:0:
256,192,48174,1,0,0:0:0:0:
109,192,48174,1,8,0:0:0:0:
36,192,48174,1,8,0:0:0:0:
182,192,48253,1,0,0:0:0:0:
109,192,48332,1,0,0:0:0:0:
36,192,48411,1,0,0:0:0:0:
109,192,48490,1,8,0:0:0:0:
256,192,48490,1,8,0:0:0:0:
402,192,48490,1,0,0:0:0:0:
182,192,48569,1,0,0:0:0:0:
256,192,48648,1,0,0:0:0:0:
329,192,48727,1,0,0:0:0:0:
36,192,48806,128,2,50069:0:0:0:0:
402,192,48806,1,0,0:0:0:0:
182,192,48806,1,8,0:0:0:0:
109,192,48806,1,8,0:0:0:0:
256,192,48885,1,0,0:0:0:0:
329,192,48964,1,0,0:0:0:0:
402,192,49043,1,0,0:0:0:0:
475,192,49122,1,0,0:0:0:0:
256,192,49122,1,8,0:0:0:0:
109,192,49122,1,8,0:0:0:0:
182,192,49201,1,0,0:0:0:0:
109,192,49280,1,0,0:0:0:0:
402,192,49359,1,0,0:0:0:0:
329,192,49438,1,0,0:0:0:0:
182,192,49438,1,8,0:0:0:0:
109,192,49438,1,8,0:0:0:0:
256,192,49516,1,0,0:0:0:0:
182,192,49595,1,0,0:0:0:0:
256,192,49674,1,0,0:0:0:0:
329,192,49753,1,0,0:0:0:0:
475,192,49753,1,8,0:0:0:0:
109,192,49753,1,8,0:0:0:0:
402,192,49832,1,0,0:0:0:0:
475,192,49911,1,0,0:0:0:0:
182,192,49990,1,0,0:0:0:0:
256,192,50069,128,2,50701:0:0:0:0:
109,192,50069,1,0,0:0:0:0:
329,192,50069,1,8,0:0:0:0:
475,192,50069,1,8,0:0:0:0:
36,192,50148,1,0,0:0:0:0:
475,192,50227,1,0,0:0:0:0:
402,192,50306,1,0,0:0:0:0:
329,192,50385,1,0,0:0:0:0:
182,192,50385,1,8,0:0:0:0:
36,192,50385,1,8,0:0:0:0:
109,192,50464,1,0,0:0:0:0:
182,192,50543,1,0,0:0:0:0:
329,192,50622,1,0,0:0:0:0:
475,192,50701,128,2,51332:0:0:0:0:
402,192,50701,1,0,0:0:0:0:
109,192,50701,1,8,0:0:0:0:
36,192,50701,1,8,0:0:0:0:
182,192,50780,1,0,0:0:0:0:
256,192,50859,1,0,0:0:0:0:
329,192,50938,1,0,0:0:0:0:
402,192,51016,1,0,0:0:0:0:
182,192,51016,1,8,0:0:0:0:
36,192,51016,1,8,0:0:0:0:
109,192,51095,1,0,0:0:0:0:
182,192,51174,1,0,0:0:0:0:
256,192,51253,1,0,0:0:0:0:
36,192,51332,128,2,52595:0:0:0:0:
329,192,51332,1,8,0:0:0:0:
402,192,51332,1,8,0:0:0:0:
109,192,51332,1,0,0:0:0:0:
256,192,51411,1,0,0:0:0:0:
182,192,51490,1,0,0:0:0:0:
109,192,51569,1,0,0:0:0:0:
402,192,51648,1,8,0:0:0:0:
475,192,51648,1,8,0:0:0:0:
256,192,51648,1,0,0:0:0:0:
182,192,51727,1,0,0:0:0:0:
109,192,51806,1,0,0:0:0:0:
182,192,51885,1,0,0:0:0:0:
256,192,51964,1,0,0:0:0:0:
329,192,51964,1,8,0:0:0:0:
402,192,51964,1,8,0:0:0:0:
475,192,52043,1,0,0:0:0:0:
109,192,52122,1,0,0:0:0:0:
182,192,52201,1,0,0:0:0:0:
256,192,52280,1,0,0:0:0:0:
402,192,52280,1,8,0:0:0:0:
475,192,52280,1,8,0:0:0:0:
329,192,52359,1,0,0:0:0:0:
256,192,52438,1,0,0:0:0:0:
182,192,52516,1,0,0:0:0:0:
402,192,52595,1,8,0:0:0:0:
475,192,52595,128,2,53859:0:0:0:0:
329,192,52595,128,0,52753:0:0:0:0:
109,192,52595,128,0,52674:0:0:0:0:
182,192,52674,128,0,52832:0:0:0:0:
256,192,52674,128,0,52753:0:0:0:0:
36,192,52753,128,0,52911:0:0:0:0:
109,192,52753,128,0,52832:0:0:0:0:
256,192,52832,128,0,52990:0:0:0:0:
329,192,52832,128,0,52911:0:0:0:0:
109,192,52911,128,0,53069:0:0:0:0:
402,192,52911,128,0,52990:0:0:0:0:
182,192,52990,128,0,53148:0:0:0:0:
36,192,52990,128,0,53069:0:0:0:0:
329,192,53069,128,0,53227:0:0:0:0:
256,192,53069,128,0,53148:0:0:0:0:
402,192,53148,128,0,53306:0:0:0:0:
109,192,53148,128,0,53227:0:0:0:0:
36,192,53227,128,0,53385:0:0:0:0:
256,192,53227,128,0,53306:0:0:0:0:
182,192,53306,128,0,53464:0:0:0:0:
109,192,53306,128,0,53385:0:0:0:0:
329,192,53385,128,0,53543:0:0:0:0:
402,192,53385,128,0,53464:0:0:0:0:
109,192,53464,128,0,53622:0:0:0:0:
36,192,53464,128,0,53543:0:0:0:0:
256,192,53543,128,0,53701:0:0:0:0:
182,192,53543,128,0,53622:0:0:0:0:
402,192,53622,128,0,53780:0:0:0:0:
36,192,53622,128,0,53701:0:0:0:0:
182,192,53701,128,0,53859:0:0:0:0:
109,192,53701,128,0,53780:0:0:0:0:
329,192,53780,128,0,53938:0:0:0:0:
256,192,53780,128,0,53859:0:0:0:0:
36,192,53859,128,2,55122:0:0:0:0:
109,192,53859,128,0,54016:0:0:0:0:
402,192,53859,128,0,53938:0:0:0:0:
256,192,53938,128,0,54095:0:0:0:0:
475,192,53938,128,0,54016:0:0:0:0:
402,192,54016,128,0,54174:0:0:0:0:
329,192,54016,128,0,54095:0:0:0:0:
182,192,54095,128,0,54253:0:0:0:0:
109,192,54095,128,0,54174:0:0:0:0:
329,192,54174,128,0,54332:0:0:0:0:
256,192,54174,128,0,54253:0:0:0:0:
475,192,54253,128,0,54411:0:0:0:0:
402,192,54253,128,0,54332:0:0:0:0:
256,192,54332,128,0,54490:0:0:0:0:
182,192,54332,128,0,54411:0:0:0:0:
109,192,54411,128,0,54569:0:0:0:0:
329,192,54411,128,0,54490:0:0:0:0:
402,192,54490,128,0,54648:0:0:0:0:
475,192,54490,128,0,54569:0:0:0:0:
182,192,54569,128,0,54727:0:0:0:0:
256,192,54569,128,0,54648:0:0:0:0:
475,192,54648,128,0,54806:0:0:0:0:
109,192,54648,128,0,54727:0:0:0:0:
329,192,54727,128,0,54885:0:0:0:0:
402,192,54727,128,0,54806:0:0:0:0:
109,192,54806,128,0,54964:0:0:0:0:
182,192,54806,128,0,54885:0:0:0:0:
402,192,54885,128,0,55043:0:0:0:0:
475,192,54885,128,0,54964:0:0:0:0:
256,192,54964,128,0,55122:0:0:0:0:
329,192,54964,128,0,55043:0:0:0:0:
109,192,55043,128,0,55201:0:0:0:0:
329,192,55122,128,2,56385:0:0:0:0:
182,192,55122,128,0,55280:0:0:0:0:
402,192,55122,128,0,55201:0:0:0:0:
475,192,55201,128,0,55359:0:0:0:0:
256,192,55201,128,0,55280:0:0:0:0:
36,192,55280,128,0,55438:0:0:0:0:
109,192,55280,128,0,55359:0:0:0:0:
402,192,55359,128,0,55516:0:0:0:0:
182,192,55359,128,0,55438:0:0:0:0:
109,192,55438,128,0,55595:0:0:0:0:
475,192,55438,128,0,55516:0:0:0:0:
256,192,55516,128,0,55674:0:0:0:0:
36,192,55516,128,0,55595:0:0:0:0:
182,192,55595,128,0,55753:0:0:0:0:
402,192,55595,128,0,55674:0:0:0:0:
475,192,55674,128,0,55832:0:0:0:0:
36,192,55674,128,0,55753:0:0:0:0:
109,192,55753,128,0,55911:0:0:0:0:
256,192,55753,128,0,55832:0:0:0:0:
36,192,55832,128,0,55990:0:0:0:0:
182,192,55832,128,0,55911:0:0:0:0:
402,192,55911,128,0,56069:0:0:0:0:
475,192,55911,128,0,55990:0:0:0:0:
256,192,55990,128,0,56148:0:0:0:0:
182,192,55990,128,0,56069:0:0:0:0:
109,192,56069,128,0,56227:0:0:0:0:
475,192,56069,128,0,56227:0:0:0:0:
36,192,56069,128,0,56148:0:0:0:0:
182,192,56148,128,0,56306:0:0:0:0:
402,192,56148,128,0,56227:0:0:0:0:
36,192,56227,128,0,56385:0:0:0:0:
256,192,56227,128,0,56306:0:0:0:0:
402,192,56306,128,0,56464:0:0:0:0:
109,192,56306,128,0,56385:0:0:0:0:
182,192,56385,128,2,57016:0:0:0:0:
256,192,56385,128,0,56543:0:0:0:0:
475,192,56385,128,0,56464:0:0:0:0:
109,192,56464,128,0,56622:0:0:0:0:
329,192,56464,128,0,56543:0:0:0:0:
475,192,56543,128,0,56701:0:0:0:0:
36,192,56543,128,0,56622:0:0:0:0:
329,192,56622,128,0,56780:0:0:0:0:
256,192,56622,128,0,56701:0:0:0:0:
36,192,56701,128,0,56859:0:0:0:0:
109,192,56701,128,0,56780:0:0:0:0:
402,192,56780,128,0,56938:0:0:0:0:
475,192,56780,128,0,56859:0:0:0:0:
256,192,56859,128,0,57016:0:0:0:0:
329,192,56859,128,0,56938:0:0:0:0:
475,192,56938,128,0,57095:0:0:0:0:
109,192,56938,128,0,57016:0:0:0:0:
36,192,57016,128,2,57648:0:0:0:0:
329,192,57016,128,0,57174:0:0:0:0:
402,192,57016,128,0,57095:0:0:0:0:
109,192,57095,128,0,57253:0:0:0:0:
256,192,57095,128,0,57174:0:0:0:0:
402,192,57174,128,0,57332:0:0:0:0:
182,192,57174,128,0,57253:0:0:0:0:
256,192,57253,128,0,57411:0:0:0:0:
329,192,57253,128,0,57332:0:0:0:0:
109,192,57332,128,0,57490:0:0:0:0:
475,192,57332,128,0,57490:0:0:0:0:
182,192,57332,128,0,57411:0:0:0:0:
329,192,57411,128,0,57569:0:0:0:0:
402,192,57411,128,0,57490:0:0:0:0:
182,192,57490,128,0,57648:0:0:0:0:
256,192,57490,128,0,57569:0:0:0:0:
402,192,57569,128,0,57727:0:0:0:0:
109,192,57569,128,0,57648:0:0:0:0:
475,192,57648,128,2,58911:0:0:0:0:
256,192,57648,128,0,57806:0:0:0:0:
329,192,57648,128,0,57727:0:0:0:0:
109,192,57727,128,0,57885:0:0:0:0:
182,192,57727,128,0,57806:0:0:0:0:
329,192,57806,128,0,57964:0:0:0:0:
36,192,57806,128,0,57885:0:0:0:0:
182,192,57885,128,0,58043:0:0:0:0:
256,192,57885,128,0,57964:0:0:0:0:
36,192,57964,128,0,58122:0:0:0:0:
109,192,57964,128,0,58043:0:0:0:0:
256,192,58043,128,0,58201:0:0:0:0:
402,192,58043,128,0,58122:0:0:0:0:
109,192,58122,128,0,58280:0:0:0:0:
329,192,58122,128,0,58201:0:0:0:0:
402,192,58201,128,0,58359:0:0:0:0:
36,192,58201,128,0,58280:0:0:0:0:
182,192,58280,128,0,58438:0:0:0:0:
256,192,58280,128,0,58359:0:0:0:0:
36,192,58359,128,0,58516:0:0:0:0:
109,192,58359,128,0,58438:0:0:0:0:
329,192,58438,128,0,58595:0:0:0:0:
402,192,58438,128,0,58516:0:0:0:0:
256,192,58516,128,0,58674:0:0:0:0:
182,192,58516,128,0,58595:0:0:0:0:
109,192,58595,128,0,58753:0:0:0:0:
36,192,58595,128,0,58674:0:0:0:0:
402,192,58674,128,0,58832:0:0:0:0:
182,192,58674,128,0,58753:0:0:0:0:
329,192,58753,128,0,58911:0:0:0:0:
256,192,58753,128,0,58832:0:0:0:0:
36,192,58832,128,0,58990:0:0:0:0:
182,192,58832,128,0,58911:0:0:0:0:
256,192,58911,128,2,60174:0:0:0:0:
402,192,58911,128,0,59069:0:0:0:0:
109,192,58911,128,0,58990:0:0:0:0:
182,192,58990,128,0,59148:0:0:0:0:
475,192,58990,128,0,59069:0:0:0:0:
36,192,59069,128,0,59227:0:0:0:0:
329,192,59069,128,0,59148:0:0:0:0:
475,192,59148,128,0,59306:0:0:0:0:
109,192,59148,128,0,59227:0:0:0:0:
329,192,59227,128,0,59385:0:0:0:0:
402,192,59227,128,0,59306:0:0:0:0:
109,192,59306,128,0,59464:0:0:0:0:
182,192,59306,128,0,59385:0:0:0:0:
36,192,59385,128,0,59464:0:0:0:0:
402,192,59464,128,0,59622:0:0:0:0:
475,192,59464,128,0,59543:0:0:0:0:
182,192,59543,128,0,59701:0:0:0:0:
329,192,59543,128,0,59622:0:0:0:0:
36,192,59622,128,0,59780:0:0:0:0:
109,192,59622,128,0,59701:0:0:0:0:
475,192,59701,128,0,59859:0:0:0:0:
402,192,59701,128,0,59780:0:0:0:0:
329,192,59780,128,0,59938:0:0:0:0:
182,192,59780,128,0,59859:0:0:0:0:
109,192,59859,128,0,60016:0:0:0:0:
36,192,59859,128,0,59938:0:0:0:0:
402,192,59938,128,0,60095:0:0:0:0:
475,192,59938,128,0,60016:0:0:0:0:
182,192,60016,128,0,60174:0:0:0:0:
329,192,60016,128,0,60095:0:0:0:0:
475,192,60095,128,0,60253:0:0:0:0:
109,192,60095,128,0,60174:0:0:0:0:
36,192,60174,128,2,60806:0:0:0:0:
329,192,60174,128,0,60332:0:0:0:0:
402,192,60174,128,0,60253:0:0:0:0:
109,192,60253,128,0,60411:0:0:0:0:
256,192,60253,128,0,60332:0:0:0:0:
402,192,60332,128,0,60490:0:0:0:0:
182,192,60332,128,0,60411:0:0:0:0:
256,192,60411,128,0,60569:0:0:0:0:
329,192,60411,128,0,60490:0:0:0:0:
109,192,60490,128,0,60648:0:0:0:0:
475,192,60490,128,0,60569:0:0:0:0:
329,192,60569,128,0,60727:0:0:0:0:
402,192,60569,128,0,60648:0:0:0:0:
182,192,60648,128,0,60806:0:0:0:0:
256,192,60648,128,0,60727:0:0:0:0:
475,192,60727,128,0,60885:0:0:0:0:
109,192,60727,128,0,60806:0:0:0:0:
256,192,60806,128,2,61438:0:0:0:0:
329,192,60806,128,0,60964:0:0:0:0:
402,192,60806,128,0,60885:0:0:0:0:
109,192,60885,128,0,61043:0:0:0:0:
182,192,60885,128,0,60964:0:0:0:0:
402,192,60964,128,0,61122:0:0:0:0:
36,192,60964,128,0,61043:0:0:0:0:
182,192,61043,128,0,61201:0:0:0:0:
475,192,61043,128,0,61122:0:0:0:0:
36,192,61122,128,0,61280:0:0:0:0:
329,192,61122,128,0,61201:0:0:0:0:
475,192,61201,128,0,61359:0:0:0:0:
109,192,61201,128,0,61280:0:0:0:0:
329,192,61280,128,0,61438:0:0:0:0:
402,192,61280,128,0,61359:0:0:0:0:
109,192,61359,128,0,61516:0:0:0:0:
182,192,61359,128,0,61438:0:0:0:0:
475,192,61438,128,2,62701:0:0:0:0:
402,192,61438,128,0,61595:0:0:0:0:
36,192,61438,128,0,61516:0:0:0:0:
182,192,61516,128,0,61674:0:0:0:0:
256,192,61516,128,0,61595:0:0:0:0:
36,192,61595,128,0,61753:0:0:0:0:
109,192,61595,128,0,61674:0:0:0:0:
329,192,61674,128,0,61832:0:0:0:0:
256,192,61674,128,0,61753:0:0:0:0:
182,192,61753,128,0,61911:0:0:0:0:
402,192,61753,128,0,61832:0:0:0:0:
36,192,61832,128,0,61990:0:0:0:0:
109,192,61832,128,0,61911:0:0:0:0:
402,192,61911,128,0,62069:0:0:0:0:
329,192,61911,128,0,61990:0:0:0:0:
256,192,61990,128,0,62148:0:0:0:0:
182,192,61990,128,0,62069:0:0:0:0:
109,192,62069,128,0,62227:0:0:0:0:
36,192,62069,128,0,62148:0:0:0:0:
329,192,62148,128,0,62306:0:0:0:0:
402,192,62148,128,0,62227:0:0:0:0:
182,192,62227,128,0,62385:0:0:0:0:
256,192,62227,128,0,62306:0:0:0:0:
36,192,62306,128,0,62464:0:0:0:0:
109,192,62306,128,0,62385:0:0:0:0:
402,192,62385,128,0,62543:0:0:0:0:
329,192,62385,128,0,62464:0:0:0:0:
256,192,62464,128,0,62622:0:0:0:0:
182,192,62464,128,0,62543:0:0:0:0:
329,192,62543,128,0,62622:0:0:0:0:
109,192,62543,128,0,62701:0:0:0:0:
36,192,62622,128,0,62701:0:0:0:0:
402,192,62622,128,0,62701:0:0:0:0:
182,192,62701,1,0,0:0:0:0:
256,192,62780,1,0,0:0:0:0:
329,192,62859,1,0,0:0:0:0:
402,192,62938,1,0,0:0:0:0:
475,192,63016,1,8,0:0:0:0:
329,192,63016,1,0,0:0:0:0:
109,192,63016,1,8,0:0:0:0:
36,192,63016,1,8,0:0:0:0:
256,192,63095,1,0,0:0:0:0:
182,192,63174,1,0,0:0:0:0:
109,192,63253,1,0,0:0:0:0:
36,192,63332,1,0,0:0:0:0:
256,192,63332,1,0,0:0:0:0:
402,192,63332,1,8,0:0:0:0:
475,192,63332,1,8,0:0:0:0:
329,192,63411,1,0,0:0:0:0:
402,192,63490,1,0,0:0:0:0:
475,192,63569,1,0,0:0:0:0:
36,192,63648,1,0,0:0:0:0:
182,192,63648,1,8,0:0:0:0:
256,192,63648,1,8,0:0:0:0:
402,192,63648,1,8,0:0:0:0:
109,192,63727,1,0,0:0:0:0:
182,192,63806,1,0,0:0:0:0:
256,192,63885,1,0,0:0:0:0:
402,192,63964,1,8,0:0:0:0:
475,192,63964,1,8,0:0:0:0:
182,192,63964,1,0,0:0:0:0:
36,192,63964,1,8,0:0:0:0:
329,192,64043,1,0,0:0:0:0:
256,192,64122,1,0,0:0:0:0:
182,192,64201,1,0,0:0:0:0:
109,192,64280,1,0,0:0:0:0:
36,192,64280,1,8,0:0:0:0:
329,192,64280,1,8,0:0:0:0:
475,192,64280,1,8,0:0:0:0:
402,192,64359,1,0,0:0:0:0:
329,192,64438,1,0,0:0:0:0:
256,192,64516,1,0,0:0:0:0:
182,192,64595,1,0,0:0:0:0:
36,192,64595,1,8,0:0:0:0:
402,192,64595,1,8,0:0:0:0:
475,192,64595,1,8,0:0:0:0:
329,192,64674,1,0,0:0:0:0:
256,192,64753,1,0,0:0:0:0:
182,192,64832,1,0,0:0:0:0:
475,192,64911,128,0,65227:0:0:0:0:
36,192,64911,128,0,65227:0:0:0:0:
329,192,65069,128,0,65148:0:0:0:0:
182,192,65069,128,0,65227:0:0:0:0:
329,192,65227,1,0,0:0:0:0:
256,192,65306,1,0,0:0:0:0:
182,192,65385,1,0,0:0:0:0:
109,192,65464,1,0,0:0:0:0:
475,192,65543,1,8,0:0:0:0:
36,192,65543,1,8,0:0:0:0:
182,192,65543,1,0,0:0:0:0:
402,192,65543,1,8,0:0:0:0:
256,192,65622,1,0,0:0:0:0:
329,192,65701,1,0,0:0:0:0:
402,192,65780,1,0,0:0:0:0:
36,192,65859,1,8,0:0:0:0:
475,192,65859,1,0,0:0:0:0:
256,192,65859,1,0,0:0:0:0:
109,192,65859,1,8,0:0:0:0:
182,192,65938,1,0,0:0:0:0:
109,192,66016,1,0,0:0:0:0:
36,192,66095,1,0,0:0:0:0:
109,192,66174,1,8,0:0:0:0:
256,192,66174,1,8,0:0:0:0:
475,192,66174,1,0,0:0:0:0:
329,192,66174,1,8,0:0:0:0:
402,192,66253,1,0,0:0:0:0:
329,192,66332,1,0,0:0:0:0:
256,192,66411,1,0,0:0:0:0:
475,192,66490,1,8,0:0:0:0:
109,192,66490,1,8,0:0:0:0:
36,192,66490,1,8,0:0:0:0:
329,192,66490,1,0,0:0:0:0:
182,192,66569,1,0,0:0:0:0:
256,192,66648,1,0,0:0:0:0:
329,192,66727,1,0,0:0:0:0:
36,192,66806,1,8,0:0:0:0:
475,192,66806,1,8,0:0:0:0:
402,192,66806,1,0,0:0:0:0:
182,192,66806,1,8,0:0:0:0:
109,192,66885,1,0,0:0:0:0:
182,192,66964,1,0,0:0:0:0:
256,192,67043,1,0,0:0:0:0:
36,192,67122,1,8,0:0:0:0:
329,192,67122,1,0,0:0:0:0:
475,192,67122,1,8,0:0:0:0:
109,192,67122,1,8,0:0:0:0:
182,192,67201,1,0,0:0:0:0:
256,192,67280,1,0,0:0:0:0:
329,192,67359,1,0,0:0:0:0:
475,192,67438,128,0,67753:0:0:0:0:
36,192,67438,128,0,67753:0:0:0:0:
182,192,67595,128,0,67674:0:0:0:0:
329,192,67595,128,0,67753:0:0:0:0:
182,192,67753,1,0,0:0:0:0:
256,192,67832,1,0,0:0:0:0:
329,192,67911,1,0,0:0:0:0:
402,192,67990,1,0,0:0:0:0:
329,192,68069,1,0,0:0:0:0:
109,192,68069,1,8,0:0:0:0:
36,192,68069,1,8,0:0:0:0:
475,192,68069,1,8,0:0:0:0:
256,192,68148,1,0,0:0:0:0:
182,192,68227,1,0,0:0:0:0:
109,192,68306,1,0,0:0:0:0:
256,192,68385,1,0,0:0:0:0:
402,192,68385,1,8,0:0:0:0:
475,192,68385,1,8,0:0:0:0:
36,192,68385,1,0,0:0:0:0:
329,192,68464,1,0,0:0:0:0:
402,192,68543,1,0,0:0:0:0:
475,192,68622,1,0,0:0:0:0:
36,192,68701,1,0,0:0:0:0:
182,192,68701,1,8,0:0:0:0:
402,192,68701,1,8,0:0:0:0:
256,192,68701,1,8,0:0:0:0:
109,192,68780,1,0,0:0:0:0:
182,192,68859,1,0,0:0:0:0:
256,192,68938,1,0,0:0:0:0:
475,192,69016,1,8,0:0:0:0:
182,192,69016,1,0,0:0:0:0:
36,192,69016,1,8,0:0:0:0:
402,192,69016,1,8,0:0:0:0:
329,192,69095,1,0,0:0:0:0:
256,192,69174,1,0,0:0:0:0:
182,192,69253,1,0,0:0:0:0:
109,192,69332,1,0,0:0:0:0:
329,192,69332,1,8,0:0:0:0:
475,192,69332,1,8,0:0:0:0:
36,192,69332,1,8,0:0:0:0:
402,192,69411,1,0,0:0:0:0:
329,192,69490,1,0,0:0:0:0:
256,192,69569,1,0,0:0:0:0:
36,192,69648,1,8,0:0:0:0:
402,192,69648,1,8,0:0:0:0:
475,192,69648,1,8,0:0:0:0:
182,192,69648,1,0,0:0:0:0:
329,192,69727,1,0,0:0:0:0:
256,192,69806,1,0,0:0:0:0:
182,192,69885,1,0,0:0:0:0:
36,192,69964,128,0,70201:0:0:0:0:
475,192,69964,128,0,70201:0:0:0:0:
329,192,70122,128,0,70201:0:0:0:0:
182,192,70122,128,0,70201:0:0:0:0:
475,192,70280,1,0,0:0:0:0:
329,192,70280,1,8,0:0:0:0:
182,192,70280,1,8,0:0:0:0:
36,192,70280,1,8,0:0:0:0:
402,192,70359,1,0,0:0:0:0:
329,192,70438,1,0,0:0:0:0:
256,192,70516,1,0,0:0:0:0:
182,192,70595,1,0,0:0:0:0:
36,192,70595,1,8,0:0:0:0:
402,192,70595,1,8,0:0:0:0:
475,192,70595,1,8,0:0:0:0:
256,192,70674,1,0,0:0:0:0:
329,192,70753,1,0,0:0:0:0:
402,192,70832,1,0,0:0:0:0:
475,192,70911,1,0,0:0:0:0:
256,192,70911,1,8,0:0:0:0:
109,192,70911,1,8,0:0:0:0:
36,192,70911,1,8,0:0:0:0:
402,192,70990,1,0,0:0:0:0:
329,192,71069,1,0,0:0:0:0:
256,192,71148,1,0,0:0:0:0:
36,192,71227,128,0,71464:0:0:0:0:
475,192,71227,128,0,71464:0:0:0:0:
182,192,71385,128,0,71464:0:0:0:0:
329,192,71385,128,0,71464:0:0:0:0:
36,192,71543,1,0,0:0:0:0:
182,192,71543,1,8,0:0:0:0:
329,192,71543,1,8,0:0:0:0:
475,192,71543,1,8,0:0:0:0:
109,192,71622,1,0,0:0:0:0:
182,192,71701,1,0,0:0:0:0:
256,192,71780,1,0,0:0:0:0:
329,192,71859,1,0,0:0:0:0:
475,192,71859,1,8,0:0:0:0:
109,192,71859,1,8,0:0:0:0:
36,192,71859,1,8,0:0:0:0:
256,192,71938,1,0,0:0:0:0:
182,192,72016,1,0,0:0:0:0:
109,192,72095,1,0,0:0:0:0:
36,192,72174,1,0,0:0:0:0:
256,192,72174,1,8,0:0:0:0:
402,192,72174,1,8,0:0:0:0:
475,192,72174,1,8,0:0:0:0:
109,192,72253,1,0,0:0:0:0:
182,192,72332,1,0,0:0:0:0:
256,192,72411,1,0,0:0:0:0:
475,192,72490,128,0,72727:0:0:0:0:
36,192,72490,128,0,72727:0:0:0:0:
329,192,72648,128,0,72727:0:0:0:0:
182,192,72648,128,0,72727:0:0:0:0:
329,192,72806,128,0,72964:0:0:0:0:
182,192,72806,128,0,72964:0:0:0:0:
36,192,72964,128,0,73043:0:0:0:0:
109,192,72964,128,0,73043:0:0:0:0:
402,192,72964,1,4,0:0:0:0:
475,192,72964,1,4,0:0:0:0:
329,192,73043,1,2,0:0:0:0:
256,192,73122,128,0,73201:0:0:0:0:
182,192,73122,128,0,73201:0:0:0:0:
475,192,73201,1,2,0:0:0:0:
402,192,73280,128,0,73359:0:0:0:0:
329,192,73280,128,0,73359:0:0:0:0:
36,192,73359,1,2,0:0:0:0:
182,192,73438,128,0,73516:0:0:0:0:
109,192,73438,128,0,73516:0:0:0:0:
475,192,73516,1,2,0:0:0:0:
329,192,73595,128,0,73674:0:0:0:0:
256,192,73595,128,0,73674:0:0:0:0:
36,192,73674,1,2,0:0:0:0:
475,192,73753,128,0,73832:0:0:0:0:
402,192,73753,128,0,73832:0:0:0:0:
109,192,73832,1,2,0:0:0:0:
36,192,73911,128,0,73990:0:0:0:0:
256,192,73911,128,0,73990:0:0:0:0:
475,192,73990,1,2,0:0:0:0:
329,192,74069,128,0,74148:0:0:0:0:
109,192,74069,128,0,74148:0:0:0:0:
36,192,74148,1,2,0:0:0:0:
475,192,74227,128,0,74306:0:0:0:0:
256,192,74227,128,0,74306:0:0:0:0:
109,192,74306,1,2,0:0:0:0:
182,192,74385,128,0,74464:0:0:0:0:
402,192,74385,128,0,74464:0:0:0:0:
36,192,74464,1,2,0:0:0:0:
109,192,74543,128,0,74622:0:0:0:0:
329,192,74543,128,0,74622:0:0:0:0:
475,192,74622,1,2,0:0:0:0:
36,192,74701,128,0,74780:0:0:0:0:
256,192,74701,128,0,74780:0:0:0:0:
402,192,74780,1,2,0:0:0:0:
475,192,74859,128,0,74938:0:0:0:0:
182,192,74859,128,0,74938:0:0:0:0:
329,192,74938,1,2,0:0:0:0:
402,192,75016,128,0,75095:0:0:0:0:
109,192,75016,128,0,75095:0:0:0:0:
256,192,75095,1,2,0:0:0:0:
329,192,75174,128,0,75253:0:0:0:0:
36,192,75174,128,0,75253:0:0:0:0:
182,192,75253,1,2,0:0:0:0:
475,192,75332,128,0,75411:0:0:0:0:
402,192,75332,128,0,75411:0:0:0:0:
109,192,75411,1,2,0:0:0:0:
256,192,75490,128,0,75569:0:0:0:0:
329,192,75490,128,0,75569:0:0:0:0:
36,192,75569,1,2,0:0:0:0:
109,192,75648,128,0,75727:0:0:0:0:
182,192,75648,128,0,75727:0:0:0:0:
475,192,75727,1,2,0:0:0:0:
329,192,75806,128,0,75885:0:0:0:0:
402,192,75806,128,0,75885:0:0:0:0:
36,192,75885,1,2,0:0:0:0:
182,192,75964,128,0,76043:0:0:0:0:
256,192,75964,128,0,76043:0:0:0:0:
475,192,76043,1,2,0:0:0:0:
36,192,76122,128,0,76201:0:0:0:0:
109,192,76122,128,0,76201:0:0:0:0:
402,192,76201,1,2,0:0:0:0:
475,192,76280,128,0,76359:0:0:0:0:
256,192,76280,128,0,76359:0:0:0:0:
36,192,76359,1,2,0:0:0:0:
182,192,76438,128,0,76516:0:0:0:0:
402,192,76438,128,0,76516:0:0:0:0:
475,192,76516,1,2,0:0:0:0:
36,192,76595,128,0,76674:0:0:0:0:
256,192,76595,128,0,76674:0:0:0:0:
402,192,76674,1,2,0:0:0:0:
329,192,76753,128,0,76832:0:0:0:0:
109,192,76753,128,0,76832:0:0:0:0:
475,192,76832,1,2,0:0:0:0:
402,192,76911,128,0,76990:0:0:0:0:
182,192,76911,128,0,76990:0:0:0:0:
36,192,76990,1,2,0:0:0:0:
475,192,77069,128,0,77148:0:0:0:0:
256,192,77069,128,0,77148:0:0:0:0:
109,192,77148,1,2,0:0:0:0:
36,192,77227,128,0,77306:0:0:0:0:
329,192,77227,128,0,77306:0:0:0:0:
182,192,77306,1,2,0:0:0:0:
109,192,77385,128,0,77464:0:0:0:0:
402,192,77385,128,0,77464:0:0:0:0:
256,192,77464,1,2,0:0:0:0:
182,192,77543,128,0,77622:0:0:0:0:
475,192,77543,128,0,77622:0:0:0:0:
329,192,77622,1,2,0:0:0:0:
36,192,77701,128,0,77780:0:0:0:0:
256,192,77701,128,0,77780:0:0:0:0:
402,192,77780,1,2,0:0:0:0:
329,192,77859,128,0,78016:0:0:0:0:
182,192,77859,128,0,78016:0:0:0:0:
402,192,78016,1,4,0:0:0:0:
475,192,78016,1,4,0:0:0:0:
36,192,78016,128,0,78095:0:0:0:0:
109,192,78016,128,0,78095:0:0:0:0:
329,192,78095,1,2,0:0:0:0:
182,192,78174,128,0,78253:0:0:0:0:
256,192,78174,128,0,78253:0:0:0:0:
475,192,78253,1,2,0:0:0:0:
329,192,78332,128,0,78411:0:0:0:0:
402,192,78332,128,0,78411:0:0:0:0:
36,192,78411,1,2,0:0:0:0:
109,192,78490,128,0,78569:0:0:0:0:
182,192,78490,128,0,78569:0:0:0:0:
475,192,78569,1,2,0:0:0:0:
256,192,78648,128,0,78727:0:0:0:0:
329,192,78648,128,0,78727:0:0:0:0:
36,192,78727,1,2,0:0:0:0:
402,192,78806,128,0,78885:0:0:0:0:
475,192,78806,128,0,78885:0:0:0:0:
109,192,78885,1,2,0:0:0:0:
256,192,78964,128,0,79043:0:0:0:0:
36,192,78964,128,0,79043:0:0:0:0:
475,192,79043,1,2,0:0:0:0:
109,192,79122,128,0,79201:0:0:0:0:
329,192,79122,128,0,79201:0:0:0:0:
36,192,79201,1,2,0:0:0:0:
256,192,79280,128,0,79359:0:0:0:0:
475,192,79280,128,0,79359:0:0:0:0:
109,192,79359,1,2,0:0:0:0:
402,192,79438,128,0,79516:0:0:0:0:
182,192,79438,128,0,79516:0:0:0:0:
36,192,79516,1,2,0:0:0:0:
329,192,79595,128,0,79674:0:0:0:0:
109,192,79595,128,0,79674:0:0:0:0:
475,192,79674,1,2,0:0:0:0:
256,192,79753,128,0,79832:0:0:0:0:
36,192,79753,128,0,79832:0:0:0:0:
402,192,79832,1,2,0:0:0:0:
182,192,79911,128,0,79990:0:0:0:0:
475,192,79911,128,0,79990:0:0:0:0:
329,192,79990,1,2,0:0:0:0:
109,192,80069,128,0,80148:0:0:0:0:
402,192,80069,128,0,80148:0:0:0:0:
256,192,80148,1,2,0:0:0:0:
36,192,80227,128,0,80306:0:0:0:0:
329,192,80227,128,0,80306:0:0:0:0:
182,192,80306,1,2,0:0:0:0:
36,192,80385,128,0,80464:0:0:0:0:
109,192,80385,128,0,80464:0:0:0:0:
329,192,80464,1,2,0:0:0:0:
256,192,80543,128,0,80622:0:0:0:0:
182,192,80543,128,0,80622:0:0:0:0:
109,192,80543,1,4,0:0:0:0:
36,192,80543,1,4,0:0:0:0:
475,192,80622,1,2,0:0:0:0:
402,192,80701,128,0,80780:0:0:0:0:
329,192,80701,128,0,80780:0:0:0:0:
36,192,80780,1,2,0:0:0:0:
182,192,80859,128,0,80938:0:0:0:0:
109,192,80859,128,0,80938:0:0:0:0:
475,192,80938,1,2,0:0:0:0:
329,192,81016,128,0,81095:0:0:0:0:
256,192,81016,128,0,81095:0:0:0:0:
36,192,81095,1,2,0:0:0:0:
475,192,81174,128,0,81253:0:0:0:0:
402,192,81174,128,0,81253:0:0:0:0:
109,192,81253,1,2,0:0:0:0:
36,192,81332,128,0,81411:0:0:0:0:
256,192,81332,128,0,81411:0:0:0:0:
475,192,81411,1,2,0:0:0:0:
329,192,81490,128,0,81569:0:0:0:0:
109,192,81490,128,0,81569:0:0:0:0:
36,192,81569,1,2,0:0:0:0:
475,192,81648,128,0,81727:0:0:0:0:
256,192,81648,128,0,81727:0:0:0:0:
109,192,81727,1,2,0:0:0:0:
182,192,81806,128,0,81885:0:0:0:0:
402,192,81806,128,0,81885:0:0:0:0:
36,192,81885,1,2,0:0:0:0:
109,192,81964,128,0,82043:0:0:0:0:
329,192,81964,128,0,82043:0:0:0:0:
475,192,82043,1,2,0:0:0:0:
36,192,82122,128,0,82201:0:0:0:0:
256,192,82122,128,0,82201:0:0:0:0:
402,192,82201,1,2,0:0:0:0:
475,192,82280,128,0,82359:0:0:0:0:
182,192,82280,128,0,82359:0:0:0:0:
329,192,82359,1,2,0:0:0:0:
402,192,82438,128,0,82516:0:0:0:0:
109,192,82438,128,0,82516:0:0:0:0:
256,192,82516,1,2,0:0:0:0:
329,192,82595,128,0,82674:0:0:0:0:
36,192,82595,128,0,82674:0:0:0:0:
182,192,82674,1,2,0:0:0:0:
475,192,82753,128,0,82832:0:0:0:0:
256,192,82753,128,0,82832:0:0:0:0:
109,192,82832,1,2,0:0:0:0:
475,192,82911,128,0,82990:0:0:0:0:
182,192,82911,128,0,82990:0:0:0:0:
182,192,83069,128,0,83148:0:0:0:0:
475,192,83069,128,0,83148:0:0:0:0:
402,192,83227,128,0,83306:0:0:0:0:
109,192,83227,128,0,83306:0:0:0:0:
109,192,83385,128,0,83464:0:0:0:0:
402,192,83385,128,0,83464:0:0:0:0:
475,192,83543,128,0,83622:0:0:0:0:
182,192,83543,128,0,83622:0:0:0:0:
475,192,83701,128,0,83780:0:0:0:0:
182,192,83701,128,0,83780:0:0:0:0:
36,192,83859,128,0,83938:0:0:0:0:
329,192,83859,128,0,83938:0:0:0:0:
36,192,84016,128,0,84095:0:0:0:0:
329,192,84016,128,0,84095:0:0:0:0:
36,192,84174,128,0,84253:0:0:0:0:
329,192,84174,128,0,84253:0:0:0:0:
402,192,84332,128,0,84411:0:0:0:0:
475,192,84332,128,0,84411:0:0:0:0:
329,192,84332,1,8,0:0:0:0:
256,192,84332,1,8,0:0:0:0:
109,192,84411,1,8,0:0:0:0:
36,192,84411,1,8,0:0:0:0:
475,192,84490,128,0,84569:0:0:0:0:
402,192,84490,128,0,84569:0:0:0:0:
256,192,84490,1,8,0:0:0:0:
329,192,84490,1,8,0:0:0:0:
109,192,84569,1,8,0:0:0:0:
36,192,84569,1,8,0:0:0:0:
109,192,84648,128,0,84727:0:0:0:0:
36,192,84648,128,0,84727:0:0:0:0:
182,192,84648,1,8,0:0:0:0:
256,192,84648,1,8,0:0:0:0:
402,192,84727,1,8,0:0:0:0:
475,192,84727,1,8,0:0:0:0:
109,192,84806,128,0,84885:0:0:0:0:
36,192,84806,128,0,84885:0:0:0:0:
256,192,84806,1,8,0:0:0:0:
182,192,84806,1,8,0:0:0:0:
402,192,84885,1,8,0:0:0:0:
475,192,84885,1,8,0:0:0:0:
402,192,84964,128,0,85043:0:0:0:0:
475,192,84964,128,0,85043:0:0:0:0:
329,192,84964,1,8,0:0:0:0:
256,192,84964,1,8,0:0:0:0:
109,192,85043,1,8,0:0:0:0:
36,192,85043,1,8,0:0:0:0:
475,192,85122,128,0,85201:0:0:0:0:
402,192,85122,128,0,85201:0:0:0:0:
256,192,85122,1,8,0:0:0:0:
329,192,85122,1,8,0:0:0:0:
109,192,85201,1,8,0:0:0:0:
36,192,85201,1,8,0:0:0:0:
109,192,85280,128,0,85359:0:0:0:0:
36,192,85280,128,0,85359:0:0:0:0:
182,192,85280,1,8,0:0:0:0:
256,192,85280,1,8,0:0:0:0:
402,192,85359,1,8,0:0:0:0:
475,192,85359,1,8,0:0:0:0:
36,192,85438,128,0,85516:0:0:0:0:
329,192,85438,128,0,85516:0:0:0:0:
329,192,85595,128,0,85674:0:0:0:0:
36,192,85595,128,0,85674:0:0:0:0:
109,192,85753,128,0,85832:0:0:0:0:
402,192,85753,128,0,85832:0:0:0:0:
402,192,85911,128,0,85990:0:0:0:0:
109,192,85911,128,0,85990:0:0:0:0:
36,192,86069,128,0,86148:0:0:0:0:
329,192,86069,128,0,86148:0:0:0:0:
36,192,86227,128,0,86306:0:0:0:0:
329,192,86227,128,0,86306:0:0:0:0:
475,192,86385,128,0,86464:0:0:0:0:
182,192,86385,128,0,86464:0:0:0:0:
475,192,86543,128,0,86622:0:0:0:0:
182,192,86543,128,0,86622:0:0:0:0:
475,192,86701,128,0,86780:0:0:0:0:
182,192,86701,128,0,86780:0:0:0:0:
109,192,86859,128,0,86938:0:0:0:0:
36,192,86859,128,0,86938:0:0:0:0:
182,192,86859,1,8,0:0:0:0:
256,192,86859,1,8,0:0:0:0:
402,192,86938,1,8,0:0:0:0:
475,192,86938,1,8,0:0:0:0:
36,192,87016,128,0,87095:0:0:0:0:
109,192,87016,128,0,87095:0:0:0:0:
256,192,87016,1,8,0:0:0:0:
182,192,87016,1,8,0:0:0:0:
402,192,87095,1,8,0:0:0:0:
475,192,87095,1,8,0:0:0:0:
402,192,87174,128,0,87253:0:0:0:0:
475,192,87174,128,0,87253:0:0:0:0:
329,192,87174,1,8,0:0:0:0:
256,192,87174,1,8,0:0:0:0:
109,192,87253,1,8,0:0:0:0:
36,192,87253,1,8,0:0:0:0:
402,192,87332,128,0,87411:0:0:0:0:
475,192,87332,128,0,87411:0:0:0:0:
256,192,87332,1,8,0:0:0:0:
329,192,87332,1,8,0:0:0:0:
109,192,87411,1,8,0:0:0:0:
36,192,87411,1,8,0:0:0:0:
109,192,87490,128,0,87569:0:0:0:0:
36,192,87490,128,0,87569:0:0:0:0:
182,192,87490,1,8,0:0:0:0:
256,192,87490,1,8,0:0:0:0:
402,192,87569,1,8,0:0:0:0:
475,192,87569,1,8,0:0:0:0:
36,192,87648,128,0,87727:0:0:0:0:
109,192,87648,128,0,87727:0:0:0:0:
256,192,87648,1,8,0:0:0:0:
182,192,87648,1,8,0:0:0:0:
402,192,87727,1,8,0:0:0:0:
475,192,87727,1,8,0:0:0:0:
402,192,87806,128,0,87885:0:0:0:0:
475,192,87806,128,0,87885:0:0:0:0:
329,192,87806,1,8,0:0:0:0:
256,192,87806,1,8,0:0:0:0:
109,192,87885,1,8,0:0:0:0:
36,192,87885,1,8,0:0:0:0:
402,192,87964,128,0,88043:0:0:0:0:
475,192,87964,128,0,88043:0:0:0:0:
256,192,87964,1,8,0:0:0:0:
329,192,87964,1,8,0:0:0:0:
109,192,88043,1,8,0:0:0:0:
36,192,88043,1,8,0:0:0:0:
109,192,88122,128,0,88201:0:0:0:0:
36,192,88122,128,0,88201:0:0:0:0:
256,192,88122,1,8,0:0:0:0:
182,192,88122,1,8,0:0:0:0:
475,192,88201,1,8,0:0:0:0:
402,192,88201,1,8,0:0:0:0:
182,192,88280,1,8,0:0:0:0:
256,192,88280,1,8,0:0:0:0:
109,192,88280,128,0,88359:0:0:0:0:
36,192,88280,128,0,88359:0:0:0:0:
475,192,88359,1,8,0:0:0:0:
402,192,88359,1,8,0:0:0:0:
402,192,88438,128,0,88516:0:0:0:0:
475,192,88438,128,0,88516:0:0:0:0:
329,192,88438,1,8,0:0:0:0:
256,192,88438,1,8,0:0:0:0:
36,192,88516,1,8,0:0:0:0:
109,192,88516,1,8,0:0:0:0:
475,192,88595,128,0,88674:0:0:0:0:
402,192,88595,128,0,88674:0:0:0:0:
329,192,88595,1,8,0:0:0:0:
256,192,88595,1,8,0:0:0:0:
109,192,88674,1,8,0:0:0:0:
36,192,88674,1,8,0:0:0:0:
256,192,88753,1,8,0:0:0:0:
182,192,88753,1,8,0:0:0:0:
109,192,88753,128,0,88832:0:0:0:0:
36,192,88753,128,0,88832:0:0:0:0:
402,192,88832,1,8,0:0:0:0:
475,192,88832,1,8,0:0:0:0:
109,192,88911,128,0,88990:0:0:0:0:
36,192,88911,128,0,88990:0:0:0:0:
182,192,88911,1,8,0:0:0:0:
256,192,88911,1,8,0:0:0:0:
402,192,88990,1,8,0:0:0:0:
475,192,88990,1,8,0:0:0:0:
329,192,89069,1,8,0:0:0:0:
256,192,89069,1,8,0:0:0:0:
402,192,89069,128,0,89148:0:0:0:0:
475,192,89069,128,0,89148:0:0:0:0:
109,192,89148,1,8,0:0:0:0:
36,192,89148,1,8,0:0:0:0:
329,192,89227,1,8,0:0:0:0:
256,192,89227,1,8,0:0:0:0:
475,192,89227,128,0,89306:0:0:0:0:
402,192,89227,128,0,89306:0:0:0:0:
36,192,89306,1,8,0:0:0:0:
109,192,89306,1,8,0:0:0:0:
109,192,89385,128,0,89464:0:0:0:0:
36,192,89385,128,0,89464:0:0:0:0:
256,192,89385,1,8,0:0:0:0:
182,192,89385,1,8,0:0:0:0:
475,192,89464,1,8,0:0:0:0:
402,192,89464,1,8,0:0:0:0:
182,192,89543,1,8,0:0:0:0:
256,192,89543,1,8,0:0:0:0:
109,192,89543,128,0,89622:0:0:0:0:
36,192,89543,128,0,89622:0:0:0:0:
475,192,89622,1,8,0:0:0:0:
402,192,89622,1,8,0:0:0:0:
402,192,89701,128,0,89780:0:0:0:0:
475,192,89701,128,0,89780:0:0:0:0:
329,192,89701,1,8,0:0:0:0:
256,192,89701,1,8,0:0:0:0:
36,192,89780,1,8,0:0:0:0:
109,192,89780,1,8,0:0:0:0:
475,192,89859,128,0,89938:0:0:0:0:
402,192,89859,128,0,89938:0:0:0:0:
329,192,89859,1,8,0:0:0:0:
256,192,89859,1,8,0:0:0:0:
109,192,89938,1,8,0:0:0:0:
36,192,89938,1,8,0:0:0:0:
256,192,90016,1,8,0:0:0:0:
182,192,90016,1,8,0:0:0:0:
109,192,90016,128,0,90095:0:0:0:0:
36,192,90016,128,0,90095:0:0:0:0:
402,192,90095,1,8,0:0:0:0:
475,192,90095,1,8,0:0:0:0:
109,192,90174,128,0,90253:0:0:0:0:
36,192,90174,128,0,90253:0:0:0:0:
182,192,90174,1,8,0:0:0:0:
256,192,90174,1,8,0:0:0:0:
402,192,90253,1,8,0:0:0:0:
475,192,90253,1,8,0:0:0:0:
329,192,90332,1,8,0:0:0:0:
256,192,90332,1,8,0:0:0:0:
402,192,90332,128,0,90411:0:0:0:0:
475,192,90332,128,0,90411:0:0:0:0:
109,192,90411,1,8,0:0:0:0:
36,192,90411,1,8,0:0:0:0:
475,192,90490,128,0,91122:0:0:0:0:
256,192,90490,128,0,90569:0:0:0:0:
109,192,90648,128,0,90727:0:0:0:0:
36,192,90806,128,0,91438:0:0:0:0:
329,192,90806,128,0,90885:0:0:0:0:
182,192,90964,128,0,91043:0:0:0:0:
402,192,91122,128,0,91753:0:0:0:0:
256,192,91122,128,0,91201:0:0:0:0:
329,192,91280,128,0,91359:0:0:0:0:
109,192,91438,128,0,92069:0:0:0:0:
182,192,91438,128,0,91516:0:0:0:0:
256,192,91595,128,0,91674:0:0:0:0:
475,192,91753,128,0,92385:0:0:0:0:
329,192,91753,128,0,91832:0:0:0:0:
182,192,91911,128,0,91990:0:0:0:0:
36,192,92069,128,0,92701:0:0:0:0:
402,192,92069,128,0,92148:0:0:0:0:
256,192,92227,128,0,92306:0:0:0:0:
402,192,92385,128,0,93016:0:0:0:0:
109,192,92385,128,0,92464:0:0:0:0:
329,192,92543,128,0,92622:0:0:0:0:
109,192,92701,128,0,93332:0:0:0:0:
182,192,92701,128,0,92780:0:0:0:0:
329,192,92859,128,0,92938:0:0:0:0:
475,192,93016,128,0,93648:0:0:0:0:
256,192,93016,128,0,93095:0:0:0:0:
182,192,93174,128,0,93253:0:0:0:0:
36,192,93332,128,0,93964:0:0:0:0:
402,192,93332,128,0,93411:0:0:0:0:
256,192,93490,128,0,93569:0:0:0:0:
402,192,93648,128,0,94280:0:0:0:0:
109,192,93648,128,0,93727:0:0:0:0:
329,192,93806,128,0,93885:0:0:0:0:
109,192,93964,128,0,94280:0:0:0:0:
182,192,93964,128,0,94043:0:0:0:0:
329,192,94122,128,0,94201:0:0:0:0:
36,192,94280,128,2,94911:0:0:0:0:
182,192,94280,128,0,94438:0:0:0:0:
256,192,94280,128,0,94359:0:0:0:0:
329,192,94359,128,0,94516:0:0:0:0:
402,192,94359,128,0,94438:0:0:0:0:
475,192,94438,128,0,94595:0:0:0:0:
256,192,94438,128,0,94516:0:0:0:0:
109,192,94516,128,0,94674:0:0:0:0:
182,192,94516,128,0,94595:0:0:0:0:
256,192,94595,128,0,94753:0:0:0:0:
329,192,94595,128,0,94674:0:0:0:0:
402,192,94674,128,0,94832:0:0:0:0:
475,192,94674,128,0,94753:0:0:0:0:
182,192,94753,128,0,94911:0:0:0:0:
109,192,94753,128,0,94832:0:0:0:0:
329,192,94832,128,0,94990:0:0:0:0:
256,192,94832,128,0,94911:0:0:0:0:
475,192,94911,128,2,95543:0:0:0:0:
109,192,94911,128,0,95069:0:0:0:0:
402,192,94911,128,0,94990:0:0:0:0:
256,192,94990,128,0,95148:0:0:0:0:
182,192,94990,128,0,95069:0:0:0:0:
402,192,95069,128,0,95227:0:0:0:0:
329,192,95069,128,0,95148:0:0:0:0:
36,192,95148,128,0,95306:0:0:0:0:
109,192,95148,128,0,95227:0:0:0:0:
182,192,95227,128,0,95385:0:0:0:0:
256,192,95227,128,0,95306:0:0:0:0:
329,192,95306,128,0,95464:0:0:0:0:
402,192,95306,128,0,95385:0:0:0:0:
109,192,95385,128,0,95543:0:0:0:0:
36,192,95385,128,0,95464:0:0:0:0:
256,192,95464,128,0,95622:0:0:0:0:
182,192,95464,128,0,95543:0:0:0:0:
36,192,95543,128,0,95701:0:0:0:0:
402,192,95543,128,0,95622:0:0:0:0:
329,192,95543,128,2,96174:0:0:0:0:
182,192,95622,128,0,95780:0:0:0:0:
475,192,95622,128,0,95701:0:0:0:0:
402,192,95701,128,0,95859:0:0:0:0:
256,192,95701,128,0,95780:0:0:0:0:
109,192,95780,128,0,95938:0:0:0:0:
36,192,95780,128,0,95859:0:0:0:0:
256,192,95859,128,0,96016:0:0:0:0:
182,192,95859,128,0,95938:0:0:0:0:
475,192,95938,128,0,96095:0:0:0:0:
402,192,95938,128,0,96016:0:0:0:0:
182,192,96016,128,0,96095:0:0:0:0:
36,192,96095,128,0,96253:0:0:0:0:
109,192,96095,128,0,96174:0:0:0:0:
182,192,96174,128,2,96806:0:0:0:0:
256,192,96174,128,0,96332:0:0:0:0:
475,192,96174,128,0,96253:0:0:0:0:
402,192,96253,128,0,96411:0:0:0:0:
329,192,96253,128,0,96332:0:0:0:0:
109,192,96332,128,0,96490:0:0:0:0:
36,192,96332,128,0,96411:0:0:0:0:
329,192,96411,128,0,96569:0:0:0:0:
256,192,96411,128,0,96490:0:0:0:0:
475,192,96490,128,0,96648:0:0:0:0:
402,192,96490,128,0,96569:0:0:0:0:
36,192,96569,128,0,96727:0:0:0:0:
109,192,96569,128,0,96648:0:0:0:0:
256,192,96648,128,0,96806:0:0:0:0:
329,192,96648,128,0,96727:0:0:0:0:
402,192,96727,128,0,96885:0:0:0:0:
475,192,96727,128,0,96806:0:0:0:0:
36,192,96806,128,2,97438:0:0:0:0:
109,192,96806,128,0,96964:0:0:0:0:
329,192,96806,128,0,96885:0:0:0:0:
256,192,96885,128,0,97043:0:0:0:0:
182,192,96885,128,0,96964:0:0:0:0:
475,192,96964,128,0,97122:0:0:0:0:
329,192,96964,128,0,97043:0:0:0:0:
402,192,97043,128,0,97201:0:0:0:0:
109,192,97043,128,0,97122:0:0:0:0:
182,192,97122,128,0,97280:0:0:0:0:
256,192,97122,128,0,97201:0:0:0:0:
109,192,97201,128,0,97359:0:0:0:0:
329,192,97201,128,0,97280:0:0:0:0:
256,192,97280,128,0,97359:0:0:0:0:
475,192,97280,128,0,97438:0:0:0:0:
402,192,97359,128,0,97438:0:0:0:0:
329,192,97359,128,0,97516:0:0:0:0:
256,192,97438,128,2,98069:0:0:0:0:
182,192,97438,128,0,97595:0:0:0:0:
109,192,97438,128,0,97516:0:0:0:0:
402,192,97516,128,0,97674:0:0:0:0:
36,192,97516,128,0,97595:0:0:0:0:
109,192,97595,128,0,97753:0:0:0:0:
475,192,97595,128,0,97674:0:0:0:0:
36,192,97674,128,0,97832:0:0:0:0:
329,192,97674,128,0,97753:0:0:0:0:
475,192,97753,128,0,97911:0:0:0:0:
182,192,97753,128,0,97832:0:0:0:0:
329,192,97832,128,0,97990:0:0:0:0:
402,192,97832,128,0,97911:0:0:0:0:
109,192,97911,128,0,98069:0:0:0:0:
182,192,97911,128,0,97990:0:0:0:0:
402,192,97990,128,0,98148:0:0:0:0:
36,192,97990,128,0,98069:0:0:0:0:
475,192,98069,128,2,98701:0:0:0:0:
182,192,98069,128,0,98227:0:0:0:0:
329,192,98069,128,0,98148:0:0:0:0:
36,192,98148,128,0,98306:0:0:0:0:
109,192,98148,128,0,98227:0:0:0:0:
256,192,98227,128,0,98385:0:0:0:0:
329,192,98227,128,0,98306:0:0:0:0:
402,192,98306,128,0,98464:0:0:0:0:
182,192,98306,128,0,98385:0:0:0:0:
109,192,98385,128,0,98543:0:0:0:0:
36,192,98385,128,0,98464:0:0:0:0:
256,192,98464,128,0,98622:0:0:0:0:
182,192,98464,128,0,98543:0:0:0:0:
402,192,98543,128,0,98701:0:0:0:0:
329,192,98543,128,0,98622:0:0:0:0:
36,192,98543,128,0,98622:0:0:0:0:
182,192,98622,128,0,98780:0:0:0:0:
109,192,98622,128,0,98701:0:0:0:0:
36,192,98701,128,2,99016:0:0:0:0:
329,192,98701,128,0,98859:0:0:0:0:
256,192,98701,128,0,98780:0:0:0:0:
475,192,98780,128,0,98938:0:0:0:0:
402,192,98780,128,0,98859:0:0:0:0:
109,192,98780,128,0,98859:0:0:0:0:
256,192,98859,128,0,99016:0:0:0:0:
182,192,98859,128,0,98938:0:0:0:0:
402,192,98938,128,0,99095:0:0:0:0:
182,192,99016,128,2,99332:0:0:0:0:
329,192,99016,128,0,99174:0:0:0:0:
109,192,99016,128,0,99095:0:0:0:0:
475,192,99095,128,0,99253:0:0:0:0:
256,192,99095,128,0,99174:0:0:0:0:
109,192,99174,128,0,99253:0:0:0:0:
36,192,99174,128,0,99332:0:0:0:0:
402,192,99174,128,0,99253:0:0:0:0:
256,192,99253,128,0,99411:0:0:0:0:
329,192,99253,128,0,99332:0:0:0:0:
402,192,99332,128,2,99648:0:0:0:0:
109,192,99332,128,0,99490:0:0:0:0:
475,192,99332,128,0,99411:0:0:0:0:
329,192,99411,128,0,99569:0:0:0:0:
36,192,99411,128,0,99490:0:0:0:0:
475,192,99490,128,0,99648:0:0:0:0:
256,192,99490,128,0,99569:0:0:0:0:
182,192,99569,128,0,99727:0:0:0:0:
109,192,99569,128,0,99648:0:0:0:0:
36,192,99648,128,2,99964:0:0:0:0:
256,192,99648,128,0,99806:0:0:0:0:
329,192,99648,128,0,99727:0:0:0:0:
402,192,99727,128,0,99885:0:0:0:0:
475,192,99727,128,0,99806:0:0:0:0:
109,192,99806,128,0,99964:0:0:0:0:
329,192,99806,128,0,99885:0:0:0:0:
256,192,99885,128,0,100043:0:0:0:0:
182,192,99885,128,0,99964:0:0:0:0:
402,192,99964,128,2,100280:0:0:0:0:
475,192,99964,128,0,100122:0:0:0:0:
329,192,99964,128,0,100043:0:0:0:0:
36,192,100043,128,0,100201:0:0:0:0:
182,192,100043,128,0,100122:0:0:0:0:
109,192,100122,128,0,100280:0:0:0:0:
256,192,100122,128,0,100201:0:0:0:0:
329,192,100201,128,0,100359:0:0:0:0:
475,192,100201,128,0,100280:0:0:0:0:
182,192,100280,128,2,100595:0:0:0:0:
256,192,100280,128,0,100438:0:0:0:0:
36,192,100280,128,0,100359:0:0:0:0:
402,192,100359,128,0,100516:0:0:0:0:
109,192,100359,128,0,100438:0:0:0:0:
36,192,100438,128,0,100595:0:0:0:0:
475,192,100438,128,0,100516:0:0:0:0:
329,192,100516,128,0,100674:0:0:0:0:
256,192,100516,128,0,100595:0:0:0:0:
475,192,100595,128,2,100911:0:0:0:0:
109,192,100595,128,0,100753:0:0:0:0:
402,192,100595,128,0,100674:0:0:0:0:
182,192,100674,128,0,100832:0:0:0:0:
36,192,100674,128,0,100753:0:0:0:0:
402,192,100753,128,0,100911:0:0:0:0:
329,192,100753,128,0,100832:0:0:0:0:
36,192,100832,128,0,100990:0:0:0:0:
256,192,100832,128,0,100911:0:0:0:0:
329,192,100911,128,2,101227:0:0:0:0:
182,192,100911,128,0,101069:0:0:0:0:
109,192,100911,128,0,100990:0:0:0:0:
475,192,100990,128,0,101148:0:0:0:0:
256,192,100990,128,0,101069:0:0:0:0:
109,192,101069,128,0,101227:0:0:0:0:
402,192,101069,128,0,101148:0:0:0:0:
256,192,101148,128,0,101306:0:0:0:0:
36,192,101148,128,0,101227:0:0:0:0:
182,192,101227,128,2,101543:0:0:0:0:
402,192,101227,128,0,101385:0:0:0:0:
475,192,101227,128,0,101306:0:0:0:0:
36,192,101306,128,0,101464:0:0:0:0:
329,192,101306,128,0,101385:0:0:0:0:
256,192,101385,128,0,101543:0:0:0:0:
109,192,101385,128,0,101464:0:0:0:0:
475,192,101464,128,0,101622:0:0:0:0:
402,192,101464,128,0,101543:0:0:0:0:
36,192,101543,128,2,101859:0:0:0:0:
109,192,101543,128,0,101701:0:0:0:0:
329,192,101543,128,0,101622:0:0:0:0:
256,192,101622,128,0,101780:0:0:0:0:
402,192,101622,128,0,101701:0:0:0:0:
329,192,101701,128,0,101859:0:0:0:0:
475,192,101701,128,0,101780:0:0:0:0:
182,192,101780,128,0,101938:0:0:0:0:
109,192,101780,128,0,101859:0:0:0:0:
402,192,101859,128,2,102174:0:0:0:0:
256,192,101859,128,0,102016:0:0:0:0:
475,192,101859,128,0,101938:0:0:0:0:
329,192,101938,128,0,102095:0:0:0:0:
109,192,101938,128,0,102016:0:0:0:0:
36,192,102016,128,0,102174:0:0:0:0:
475,192,102016,128,0,102095:0:0:0:0:
182,192,102095,128,0,102253:0:0:0:0:
109,192,102095,128,0,102174:0:0:0:0:
256,192,102174,128,2,102490:0:0:0:0:
475,192,102174,128,0,102332:0:0:0:0:
329,192,102174,128,0,102253:0:0:0:0:
109,192,102253,128,0,102411:0:0:0:0:
402,192,102253,128,0,102332:0:0:0:0:
329,192,102332,128,0,102490:0:0:0:0:
36,192,102332,128,0,102411:0:0:0:0:
475,192,102411,128,0,102569:0:0:0:0:
182,192,102411,128,0,102490:0:0:0:0:
109,192,102490,128,2,102806:0:0:0:0:
36,192,102490,128,0,102648:0:0:0:0:
402,192,102490,128,0,102569:0:0:0:0:
256,192,102569,128,0,102727:0:0:0:0:
329,192,102569,128,0,102648:0:0:0:0:
402,192,102648,128,0,102806:0:0:0:0:
475,192,102648,128,0,102727:0:0:0:0:
182,192,102727,128,0,102885:0:0:0:0:
36,192,102727,128,0,102806:0:0:0:0:
475,192,102806,128,2,103122:0:0:0:0:
329,192,102806,128,0,102964:0:0:0:0:
256,192,102806,128,0,102885:0:0:0:0:
36,192,102885,128,0,103043:0:0:0:0:
109,192,102885,128,0,102964:0:0:0:0:
182,192,102964,128,0,103122:0:0:0:0:
402,192,102964,128,0,103043:0:0:0:0:
329,192,103043,128,0,103201:0:0:0:0:
109,192,103043,128,0,103122:0:0:0:0:
256,192,103122,128,0,103753:0:0:0:0:
36,192,103122,128,0,103280:0:0:0:0:
402,192,103122,128,0,103201:0:0:0:0:
109,192,103201,128,0,103359:0:0:0:0:
475,192,103201,128,0,103280:0:0:0:0:
402,192,103280,128,0,103438:0:0:0:0:
182,192,103280,128,0,103359:0:0:0:0:
475,192,103359,128,0,103516:0:0:0:0:
329,192,103359,128,0,103438:0:0:0:0:
36,192,103438,128,0,103595:0:0:0:0:
109,192,103438,128,0,103516:0:0:0:0:
182,192,103516,128,0,103674:0:0:0:0:
402,192,103516,128,0,103595:0:0:0:0:
329,192,103595,128,0,103753:0:0:0:0:
109,192,103595,128,0,103674:0:0:0:0:
475,192,103674,128,0,103753:0:0:0:0:
36,192,103674,128,0,103753:0:0:0:0:
109,192,103753,1,0,0:0:0:0:
182,192,103753,128,0,103832:0:0:0:0:
402,192,103753,128,0,103832:0:0:0:0:
329,192,103832,128,0,103911:0:0:0:0:
109,192,103832,128,0,103911:0:0:0:0:
256,192,103911,128,0,103990:0:0:0:0:
36,192,103911,128,0,103990:0:0:0:0:
109,192,103990,128,0,104069:0:0:0:0:
329,192,103990,128,0,104069:0:0:0:0:
182,192,104069,128,0,104148:0:0:0:0:
402,192,104069,128,0,104148:0:0:0:0:
475,192,104148,128,0,104227:0:0:0:0:
256,192,104148,128,0,104227:0:0:0:0:
182,192,104227,128,0,104306:0:0:0:0:
402,192,104227,128,0,104306:0:0:0:0:
109,192,104306,128,0,104385:0:0:0:0:
329,192,104306,128,0,104385:0:0:0:0:
36,192,104385,128,2,105648:0:0:0:0:
182,192,104385,128,0,104543:0:0:0:0:
256,192,104385,128,0,104464:0:0:0:0:
329,192,104464,128,0,104622:0:0:0:0:
402,192,104464,128,0,104543:0:0:0:0:
475,192,104543,128,0,104701:0:0:0:0:
256,192,104543,128,0,104622:0:0:0:0:
109,192,104622,128,0,104780:0:0:0:0:
402,192,104622,128,0,104701:0:0:0:0:
256,192,104701,128,0,104859:0:0:0:0:
182,192,104701,128,0,104780:0:0:0:0:
402,192,104780,128,0,104938:0:0:0:0:
329,192,104780,128,0,104859:0:0:0:0:
182,192,104859,128,0,105016:0:0:0:0:
475,192,104859,128,0,104938:0:0:0:0:
329,192,104938,128,0,105095:0:0:0:0:
109,192,104938,128,0,105016:0:0:0:0:
475,192,105016,128,0,105174:0:0:0:0:
256,192,105016,128,0,105095:0:0:0:0:
109,192,105095,128,0,105253:0:0:0:0:
402,192,105095,128,0,105174:0:0:0:0:
256,192,105174,128,0,105332:0:0:0:0:
182,192,105174,128,0,105253:0:0:0:0:
402,192,105253,128,0,105411:0:0:0:0:
329,192,105253,128,0,105332:0:0:0:0:
475,192,105332,128,0,105411:0:0:0:0:
256,192,105411,128,0,105569:0:0:0:0:
329,192,105411,128,0,105490:0:0:0:0:
109,192,105490,128,0,105648:0:0:0:0:
182,192,105490,128,0,105569:0:0:0:0:
402,192,105569,128,0,105727:0:0:0:0:
329,192,105569,128,0,105648:0:0:0:0:
475,192,105648,128,2,106911:0:0:0:0:
256,192,105648,128,0,105806:0:0:0:0:
182,192,105648,128,0,105727:0:0:0:0:
109,192,105727,128,0,105885:0:0:0:0:
36,192,105727,128,0,105806:0:0:0:0:
402,192,105806,128,0,105964:0:0:0:0:
329,192,105806,128,0,105885:0:0:0:0:
182,192,105885,128,0,106043:0:0:0:0:
256,192,105885,128,0,105964:0:0:0:0:
329,192,105964,128,0,106043:0:0:0:0:
36,192,105964,128,0,106122:0:0:0:0:
109,192,106043,128,0,106122:0:0:0:0:
402,192,106043,128,0,106201:0:0:0:0:
329,192,106122,128,0,106201:0:0:0:0:
256,192,106122,128,0,106280:0:0:0:0:
182,192,106201,128,0,106280:0:0:0:0:
109,192,106201,128,0,106359:0:0:0:0:
36,192,106280,128,0,106359:0:0:0:0:
329,192,106280,128,0,106438:0:0:0:0:
402,192,106359,128,0,106438:0:0:0:0:
182,192,106359,128,0,106516:0:0:0:0:
256,192,106438,128,0,106516:0:0:0:0:
36,192,106438,128,0,106595:0:0:0:0:
402,192,106516,128,0,106595:0:0:0:0:
109,192,106516,128,0,106674:0:0:0:0:
329,192,106595,128,0,106674:0:0:0:0:
256,192,106595,128,0,106753:0:0:0:0:
182,192,106674,128,0,106753:0:0:0:0:
402,192,106674,128,0,106832:0:0:0:0:
329,192,106753,128,0,106832:0:0:0:0:
36,192,106753,128,0,106911:0:0:0:0:
109,192,106832,128,0,106911:0:0:0:0:
182,192,106832,128,0,106990:0:0:0:0:
256,192,106911,128,2,108174:0:0:0:0:
329,192,106911,128,0,107069:0:0:0:0:
402,192,106911,128,0,106990:0:0:0:0:
475,192,106990,128,0,107148:0:0:0:0:
36,192,106990,128,0,107069:0:0:0:0:
109,192,107069,128,0,107227:0:0:0:0:
402,192,107069,128,0,107148:0:0:0:0:
36,192,107148,128,0,107306:0:0:0:0:
182,192,107148,128,0,107227:0:0:0:0:
329,192,107227,128,0,107385:0:0:0:0:
402,192,107227,128,0,107306:0:0:0:0:
475,192,107306,128,0,107464:0:0:0:0:
109,192,107306,128,0,107385:0:0:0:0:
182,192,107385,128,0,107543:0:0:0:0:
402,192,107385,128,0,107464:0:0:0:0:
36,192,107464,128,0,107622:0:0:0:0:
109,192,107464,128,0,107543:0:0:0:0:
402,192,107543,128,0,107701:0:0:0:0:
475,192,107543,128,0,107622:0:0:0:0:
329,192,107622,128,0,107780:0:0:0:0:
109,192,107622,128,0,107701:0:0:0:0:
182,192,107701,128,0,107859:0:0:0:0:
36,192,107701,128,0,107780:0:0:0:0:
475,192,107701,128,0,107780:0:0:0:0:
109,192,107780,128,0,107938:0:0:0:0:
402,192,107780,128,0,107859:0:0:0:0:
475,192,107859,128,0,108016:0:0:0:0:
36,192,107859,128,0,107938:0:0:0:0:
402,192,107938,128,0,108095:0:0:0:0:
182,192,107938,128,0,108016:0:0:0:0:
109,192,108016,128,0,108174:0:0:0:0:
36,192,108016,128,0,108095:0:0:0:0:
475,192,108095,128,0,108253:0:0:0:0:
329,192,108095,128,0,108174:0:0:0:0:
402,192,108174,128,0,108253:0:0:0:0:
36,192,108174,128,2,108806:0:0:0:0:
182,192,108174,128,0,108332:0:0:0:0:
329,192,108253,128,0,108411:0:0:0:0:
109,192,108253,128,0,108332:0:0:0:0:
475,192,108332,128,0,108490:0:0:0:0:
256,192,108332,128,0,108411:0:0:0:0:
109,192,108411,128,0,108569:0:0:0:0:
402,192,108411,128,0,108490:0:0:0:0:
256,192,108490,128,0,108648:0:0:0:0:
182,192,108490,128,0,108569:0:0:0:0:
402,192,108569,128,0,108727:0:0:0:0:
329,192,108569,128,0,108648:0:0:0:0:
475,192,108648,128,0,108727:0:0:0:0:
182,192,108648,128,0,108806:0:0:0:0:
329,192,108727,128,0,108885:0:0:0:0:
109,192,108727,128,0,108806:0:0:0:0:
256,192,108806,128,2,109438:0:0:0:0:
475,192,108806,128,0,108964:0:0:0:0:
402,192,108806,128,0,108885:0:0:0:0:
109,192,108885,128,0,109043:0:0:0:0:
36,192,108885,128,0,108964:0:0:0:0:
329,192,108964,128,0,109122:0:0:0:0:
182,192,108964,128,0,109043:0:0:0:0:
402,192,109043,128,0,109201:0:0:0:0:
475,192,109043,128,0,109122:0:0:0:0:
109,192,109122,128,0,109280:0:0:0:0:
36,192,109122,128,0,109201:0:0:0:0:
182,192,109201,128,0,109359:0:0:0:0:
475,192,109201,128,0,109280:0:0:0:0:
329,192,109280,128,0,109438:0:0:0:0:
36,192,109280,128,0,109359:0:0:0:0:
402,192,109359,128,0,109438:0:0:0:0:
109,192,109359,128,0,109438:0:0:0:0:
475,192,109438,128,2,110069:0:0:0:0:
36,192,109438,128,2,110069:0:0:0:0:
182,192,109911,128,2,110227:0:0:0:0:
329,192,109911,128,2,110227:0:0:0:0:
109,192,110069,128,2,111806:0:0:0:0:
402,192,110069,128,2,111806:0:0:0:0:
36,192,110227,128,2,110543:0:0:0:0:
475,192,110227,128,2,110543:0:0:0:0:
329,192,110385,128,2,111174:0:0:0:0:
182,192,110385,128,2,111174:0:0:0:0:
36,192,110701,128,2,111648:0:0:0:0:
475,192,110701,128,2,111648:0:0:0:0:
329,192,111332,128,2,111964:0:0:0:0:
182,192,111332,128,2,111964:0:0:0:0:
475,192,112911,128,0,115753:0:0:0:0:
36,192,112911,128,0,115753:0:0:0:0:
256,192,113227,1,0,0:0:0:0:
256,192,113543,1,0,0:0:0:0:
256,192,114174,1,0,0:0:0:0:
256,192,114490,1,0,0:0:0:0:
