osu file format v14

[General]
AudioFilename: audio.mp3
AudioLeadIn: 0
PreviewTime: 186544
Countdown: 0
SampleSet: Soft
StackLeniency: 0.4
Mode: 0
LetterboxInBreaks: 0
WidescreenStoryboard: 0

[Editor]
DistanceSpacing: 1
BeatDivisor: 4
GridSize: 32
TimelineZoom: 2

[Metadata]
Title:Phronesis
TitleUnicode:Phronesis
Artist:RURUTIA
ArtistUnicode:ルルティア
Creator:Shurelia
Version:Magical
Source:ソフィーのアトリエ ~不思議な本の錬金術士~
Tags:Atelier Sophie: The Alchemist of the Mysterious Book Opening gust jrpg koeitecmo NISA Hinsvar Cami
BeatmapID:2198681
BeatmapSetID:1052074

[Difficulty]
HPDrainRate:6.7
CircleSize:4.2
OverallDifficulty:8.8
ApproachRate:9.2
SliderMultiplier:1.6
SliderTickRate:1

[Events]
//Background and Video events
0,0,"sophie bg.jpg",0,0
//Break Periods
2,187544,200640
//Storyboard Layer 0 (Background)
//Storyboard Layer 1 (Fail)
//Storyboard Layer 2 (Pass)
//Storyboard Layer 3 (Foreground)
//Storyboard Layer 4 (Overlay)
//Storyboard Sound Samples

[TimingPoints]
2551,333.333333333333,5,2,2,41,1,0
2551,-125,4,2,2,41,0,0
4217,333.333333333333,6,2,2,41,1,0
4217,-125,6,2,2,41,0,0
6217,333.333333333333,5,2,2,41,1,0
6217,-125,5,2,2,41,0,0
7883,333.333333333333,6,2,2,41,1,0
7883,-125,6,2,2,41,0,0
9716,-125,6,2,1,41,0,0
9884,333.333333333333,5,2,1,47,1,0
11550,333.333333333333,6,2,1,47,1,0
13549,333.333333333333,5,2,1,47,1,0
15215,333.333333333333,6,2,1,47,1,0
18048,-71.4285714285714,6,2,1,47,0,0
18217,333.333333333333,6,2,1,53,1,0
18217,-90.9090909090909,6,2,1,53,0,0
23466,-100,6,2,1,5,0,0
23550,-71.4285714285714,6,2,1,53,0,0
23633,-100,6,2,1,5,0,0
23883,-71.4285714285714,6,2,1,53,0,0
23966,-100,6,2,1,5,0,0
24216,-90.9090909090909,6,2,1,53,0,0
26050,-71.4285714285714,6,2,1,53,0,0
26133,-71.4285714285714,6,2,1,5,0,0
26216,-90.9090909090909,6,2,1,53,0,0
29550,-71.4285714285714,6,2,1,53,0,0
30216,333.333333333333,5,2,1,53,1,0
30216,-90.9090909090909,5,2,1,53,0,0
31882,333.333333333333,6,2,1,53,1,0
33382,-166.666666666667,6,2,1,53,0,0
33882,-90.9090909090909,6,2,1,53,0,0
49881,-166.666666666667,6,2,1,20,0,0
50881,-125,6,2,1,57,0,0
51881,-83.3333333333333,6,2,1,57,0,1
53798,-83.3333333333333,6,2,1,5,0,1
53881,-83.3333333333333,6,2,1,57,0,1
67715,-83.3333333333333,6,2,1,57,0,0
67881,-83.3333333333333,6,2,1,57,0,1
83881,-83.3333333333333,6,2,1,50,0,0
87881,333.333333333333,5,2,2,41,1,0
87881,-125,5,2,2,41,0,0
89547,333.333333333333,6,2,2,41,1,0
89547,-125,6,2,2,41,0,0
91547,333.333333333333,5,2,2,41,1,0
91547,-125,5,2,2,41,0,0
93213,333.333333333333,6,2,2,41,1,0
93213,-125,6,2,2,41,0,0
94213,-125,6,2,1,41,0,0
95213,333.333333333333,5,2,1,47,1,0
95213,-100,5,2,1,47,0,0
96879,333.333333333333,6,2,1,47,1,0
102379,-71.4285714285714,6,2,1,47,0,0
102879,-90.9090909090909,6,2,1,53,0,0
108128,-90.9090909090909,6,2,1,5,0,0
108212,-71.4285714285714,6,2,1,53,0,0
108295,-90.9090909090909,6,2,1,5,0,0
108545,-71.4285714285714,6,2,1,53,0,0
108628,-90.9090909090909,6,2,1,5,0,0
108878,-90.9090909090909,6,2,1,53,0,0
110712,-71.4285714285714,6,2,1,53,0,0
110878,-90.9090909090909,6,2,1,53,0,0
114878,333.333333333333,5,2,1,53,1,0
114878,-90.9090909090909,5,2,1,53,0,0
116545,333.333333333333,6,2,1,53,1,0
116545,-90.9090909090909,6,2,1,53,0,0
118045,-166.666666666667,6,2,1,53,0,0
118545,-90.9090909090909,6,2,1,53,0,0
134878,-71.4285714285714,6,2,1,53,0,0
135544,-62.5,6,2,1,53,0,0
136544,-83.3333333333333,6,2,1,53,0,0
147878,-76.9230769230769,6,2,1,53,0,0
148544,-83.3333333333333,6,2,1,53,0,0
152044,-71.4285714285714,6,2,1,53,0,0
152544,-83.3333333333333,6,2,1,57,0,1
154461,-83.3333333333333,6,2,1,5,0,1
154544,-83.3333333333333,6,2,1,57,0,1
182544,-83.3333333333333,6,2,1,50,0,0
183544,-100,6,2,1,44,0,0
184544,-125,6,2,1,38,0,0
187544,333.333333333333,6,2,1,50,1,0
201210,-100,6,2,1,21,0,0
203543,-83.3333333333333,6,2,1,63,0,1
205460,-83.3333333333333,6,2,1,5,0,1
205543,-83.3333333333333,6,2,1,63,0,1
219043,-71.4285714285714,6,2,1,63,0,1
219460,-71.4285714285714,6,2,1,63,0,0
219543,-76.9230769230769,6,2,1,63,0,1
240543,-71.4285714285714,6,2,1,63,0,1
240627,-71.4285714285714,6,2,1,5,0,1
240877,-71.4285714285714,6,2,1,63,0,1
240960,-71.4285714285714,6,2,1,5,0,1
241210,-71.4285714285714,6,2,1,63,0,1
241543,-76.9230769230769,6,2,1,63,0,1
251293,-76.9230769230769,6,2,1,5,0,1
251377,-76.9230769230769,6,2,1,50,0,1
251460,-76.9230769230769,6,2,1,5,0,1
251543,-76.9230769230769,6,2,1,41,0,0

[Colours]
Combo1 : 255,140,140
Combo2 : 180,0,33
Combo3 : 50,86,150
Combo4 : 240,180,130

[HitObjects]
130,269,2550,5,2,0:0:0:0:
66,155,2884,2,0,P|53:92|41:29,2,128
130,269,3884,1,2,0:0:0:0:
205,128,4217,6,0,P|258:95|321:97,1,128,2|0,0:0|0:0,0:0:0:0:
429,221,4716,2,0,P|460:215|491:209,2,64
282,168,5216,1,2,0:0:0:0:
211,364,5550,1,0,0:0:0:0:
71,212,5883,1,2,0:0:0:0:
270,79,6217,6,0,P|333:89|390:117,1,128,2|0,0:0|0:0,0:0:0:0:
195,162,6883,1,0,0:0:0:0:
303,333,7216,1,0,0:0:0:0:
450,193,7550,1,2,0:0:0:0:
341,21,7883,6,0,P|281:44|218:53,1,128,2|0,0:0|0:0,0:0:0:0:
101,28,8383,1,0,0:0:0:0:
101,28,8549,1,0,0:0:0:0:
25,217,8882,1,2,0:0:0:0:
88,372,9216,6,0,P|79:326|87:279,1,96,4|0,0:3|0:0,0:0:0:0:
103,256,9549,2,0,B|115:219|108:192,1,64,6|8,0:3|0:0,0:0:0:0:
99,157,9799,1,8,0:0:0:0:
99,157,9884,6,0,P|178:167|256:151,1,160,8|8,0:3|0:3,0:0:0:0:
321,42,10384,1,0,0:0:0:0:
412,117,10550,2,0,P|451:115|491:110,1,80,0|8,0:0|0:3,0:0:0:0:
339,263,10883,6,0,P|259:252|179:248,1,160,10|0,0:0|0:0,0:0:0:0:
250,379,11383,1,0,0:0:0:0:
400,342,11550,6,0,P|425:289|422:230,1,120,8|0,0:3|0:0,0:0:0:0:
403,205,11883,2,0,P|405:165|411:125,1,80,8|8,0:3|0:0,0:0:0:0:
434,7,12216,1,0,0:0:0:0:
434,7,12383,1,8,0:3:0:0:
315,22,12549,6,0,P|236:35|156:45,1,160,10|0,0:0|0:0,0:0:0:0:
38,67,13049,1,0,0:0:0:0:
9,183,13216,1,8,0:3:0:0:
9,183,13383,1,8,0:3:0:0:
9,182,13549,6,0,P|87:182|145:234,1,160,2|8,0:0|0:3,0:0:0:0:
196,343,14049,1,8,0:0:0:0:
292,272,14215,2,0,P|299:232|301:192,1,80,8|8,0:3|0:3,0:0:0:0:
193,59,14548,6,0,P|194:98|202:138,1,80,10|0,0:0|0:0,0:0:0:0:
410,43,14882,2,0,P|370:44|330:52,1,80
104,246,15215,2,0,P|144:245|184:237,1,80,8|0,0:3|0:0,0:0:0:0:
422,121,15548,6,0,P|418:81|409:42,1,80,8|8,0:3|0:0,0:0:0:0:
297,205,15881,2,0,P|288:244|284:283,1,80,0|8,0:0|0:3,0:0:0:0:
166,128,16214,2,0,P|169:88|178:49,1,80,10|0,0:0|0:0,0:0:0:0:
367,256,16548,6,0,P|407:264|446:267,1,80,0|8,0:0|0:3,0:0:0:0:
208,339,16881,2,0,P|168:346|128:349,1,80,8|8,0:0|0:3,0:0:0:0:
189,145,17214,5,8,0:0:0:0:
204,117,17297,1,8,0:0:0:0:
224,93,17380,1,8,0:0:0:0:
250,73,17463,1,8,0:0:0:0:
278,59,17547,1,8,0:0:0:0:
309,51,17630,1,8,0:0:0:0:
341,49,17713,1,8,0:0:0:0:
372,54,17797,1,8,0:0:0:0:
403,64,17880,1,8,0:0:0:0:
430,81,17963,1,8,0:0:0:0:
450,102,18048,2,0,P|450:130|445:158,1,55.9999982910157,10|0,0:3|0:0,0:0:0:0:
365,348,18217,6,0,P|278:344|197:310,1,176.000005371094,6|2,0:0|0:0,0:0:0:0:
59,229,18717,1,2,0:3:0:0:
45,129,18883,2,0,P|88:137|127:156,1,88.000002685547,2|2,0:0|0:3,0:0:0:0:
371,168,19217,6,0,P|293:206|206:209,1,176.000005371094,6|2,0:3|0:0,0:0:0:0:
192,96,19717,1,2,0:0:0:0:
346,82,19883,2,0,P|389:82|430:98,1,88.000002685547,10|0,0:0|0:0,0:0:0:0:
484,227,20216,6,0,P|442:237|398:234,1,88.000002685547,0|8,0:3|0:0,0:0:0:0:
398,235,20466,1,8,0:0:0:0:
398,235,20550,1,10,0:0:0:0:
292,294,20716,1,8,0:0:0:0:
385,353,20883,1,10,0:0:0:0:
314,185,21050,1,8,0:0:0:0:
195,359,21216,6,0,P|127:312|57:356,1,176.000005371094,6|2,0:3|0:0,0:0:0:0:
255,145,21883,1,2,0:0:0:0:
41,25,22216,6,0,P|41:68|39:112,1,88.000002685547,6|0,0:0|0:0,0:0:0:0:
32,263,22550,1,2,0:0:0:0:
25,302,22716,1,2,0:3:0:0:
146,233,22883,1,2,0:0:0:0:
164,316,23050,1,2,0:3:0:0:
208,170,23216,6,0,P|274:169|339:158,1,132.00000402832,6|0,0:3|0:0,0:0:0:0:
370,175,23550,6,2,L|425:183,1,55.9999982910157,2|2,0:0|0:1,0:1:0:0:
477,337,23883,2,2,L|421:342,1,55.9999982910157,2|2,0:0|0:1,0:1:0:0:
282,251,24216,6,0,P|246:174|279:95,1,176.000005371094,2|2,0:3|0:0,0:0:0:0:
421,0,24716,2,0,P|419:43|414:87,1,88.000002685547,2|2,0:3|0:0,0:0:0:0:
355,174,25050,1,8,0:3:0:0:
339,2,25216,5,6,0:3:0:0:
183,114,25383,1,8,0:0:0:0:
183,114,25466,1,8,0:0:0:0:
183,114,25550,1,10,0:0:0:0:
214,277,25716,1,10,0:0:0:0:
54,216,25883,1,4,0:3:0:0:
206,363,26050,2,0,P|233:360|261:355,1,55.9999982910157,8|0,0:0|0:0,0:0:0:0:
468,282,26216,6,0,P|459:194|448:107,1,176.000005371094,6|2,0:0|0:0,0:0:0:0:
355,12,26716,1,2,0:3:0:0:
298,139,26883,2,0,P|254:130|211:123,1,88.000002685547,2|2,0:0|0:3,0:0:0:0:
131,113,27216,5,4,0:3:0:0:
51,120,27383,1,0,0:0:0:0:
12,190,27550,1,2,0:0:0:0:
19,110,27716,1,2,0:3:0:0:
58,40,27883,1,2,0:0:0:0:
138,33,28050,1,2,0:3:0:0:
363,33,28216,6,0,P|280:16|209:65,1,176.000005371094,6|2,0:3|0:0,0:0:0:0:
178,140,28716,1,8,0:3:0:0:
167,219,28883,1,2,0:0:0:0:
197,292,29050,1,2,0:3:0:0:
392,352,29216,5,8,0:0:0:0:
417,331,29299,1,8,0:0:0:0:
437,306,29382,1,8,0:0:0:0:
450,277,29465,1,8,0:0:0:0:
458,245,29550,2,0,P|459:217|461:189,1,55.9999982910157,10|8,0:0|0:0,0:0:0:0:
348,35,29716,2,0,P|346:62|344:90,1,55.9999982910157,10|8,0:0|0:0,0:0:0:0:
284,271,29883,2,0,P|285:243|287:215,1,55.9999982910157,12|8,0:0|0:0,0:0:0:0:
189,79,30049,2,0,P|187:107|186:135,1,55.9999982910157,10|8,0:0|0:0,0:0:0:0:
0,247,30216,6,0,P|69:253|157:259,1,176.000005371094,14|0,0:3|0:0,0:0:0:0:
53,372,30716,1,2,0:3:0:0:
254,300,30882,2,0,P|260:257|252:214,1,88.000002685547,2|2,0:0|0:3,0:0:0:0:
151,9,31216,6,0,P|213:67|297:59,1,176.000005371094,4|2,0:3|0:0,0:0:0:0:
327,47,31632,1,2,0:0:0:0:
359,45,31716,1,2,0:0:0:0:
388,57,31799,1,2,0:0:0:0:
401,85,31882,6,0,P|390:164|380:243,1,160,2|10,0:0|0:0,0:0:0:0:
293,149,32382,1,8,0:0:0:0:
228,258,32548,1,10,0:0:0:0:
146,158,32715,1,8,0:0:0:0:
126,339,32882,5,2,0:0:0:0:
95,329,32965,1,2,0:0:0:0:
65,317,33048,1,2,0:0:0:0:
34,305,33132,1,2,0:0:0:0:
3,296,33215,1,2,0:0:0:0:
125,142,33382,6,0,P|108:186|92:232,1,95.9999970703126,2|2,0:3|0:0,0:0:0:0:
11,202,33798,1,2,0:0:0:0:
11,201,33882,6,0,P|21:159|24:115,1,88.000002685547,6|0,0:0|0:0,0:0:0:0:
187,6,34215,2,0,P|192:49|204:91,1,88.000002685547,2|2,0:0|0:3,0:0:0:0:
260,224,34548,1,2,0:0:0:0:
299,133,34715,1,2,0:3:0:0:
178,282,34882,6,0,P|264:268|351:255,1,176.000005371094,6|2,0:3|0:0,0:0:0:0:
283,382,35382,1,2,0:0:0:0:
105,299,35548,1,2,0:0:0:0:
105,299,35881,6,0,P|87:212|70:126,1,176.000005371094,4|2,0:3|0:0,0:0:0:0:
170,1,36381,1,2,0:3:0:0:
178,100,36548,1,2,0:0:0:0:
271,12,36715,1,2,0:3:0:0:
405,137,36881,6,0,P|361:134|317:132,1,88.000002685547,6|0,0:3|0:0,0:0:0:0:
238,186,37215,1,2,0:0:0:0:
183,264,37381,1,2,0:0:0:0:
238,342,37548,1,2,0:0:0:0:
237,342,37881,6,0,P|281:335|324:327,1,88.000002685547,4|0,0:3|0:0,0:0:0:0:
346,227,38215,2,0,P|389:221|433:215,1,88.000002685547,10|2,0:0|0:3,0:0:0:0:
488,40,38548,1,2,0:0:0:0:
506,142,38715,1,2,0:3:0:0:
391,20,38881,6,0,P|303:29|216:40,1,176.000005371094,6|2,0:3|0:0,0:0:0:0:
18,59,39381,1,2,0:0:0:0:
127,88,39548,2,0,P|144:128|141:171,1,88.000002685547,10|0,0:0|0:0,0:0:0:0:
38,367,39881,6,0,P|81:362|124:351,1,88.000002685547,4|0,0:3|0:0,0:0:0:0:
313,273,40215,2,0,P|269:268|226:258,1,88.000002685547,2|2,0:0|0:3,0:0:0:0:
54,185,40548,2,0,P|97:180|140:170,1,88.000002685547,2|2,0:0|0:3,0:0:0:0:
299,43,40881,5,4,0:3:0:0:
299,43,40965,1,2,0:0:0:0:
299,43,41048,1,2,0:0:0:0:
252,151,41215,1,2,0:0:0:0:
177,52,41381,1,2,0:0:0:0:
216,247,41548,2,0,P|279:260|328:219,1,132.00000402832,2|0,0:0|0:0,0:0:0:0:
354,205,41881,6,0,P|359:249|365:292,1,88.000002685547,4|0,0:3|0:0,0:0:0:0:
455,384,42215,1,2,0:0:0:0:
485,260,42381,1,2,0:3:0:0:
432,116,42548,2,0,P|388:114|348:132,1,88.000002685547,2|2,0:0|0:3,0:0:0:0:
171,248,42881,6,0,P|239:299|325:288,1,176.000005371094,6|2,0:3|0:0,0:0:0:0:
450,192,43381,1,2,0:0:0:0:
362,43,43548,1,2,0:0:0:0:
362,43,43881,6,0,P|274:49|186:54,1,176.000005371094,2|2,0:3|0:0,0:0:0:0:
66,165,44381,1,2,0:3:0:0:
146,239,44548,2,0,P|167:201|165:158,1,88.000002685547,2|2,0:0|0:3,0:0:0:0:
69,309,44881,6,0,P|152:329|227:288,1,176.000005371094,6|2,0:3|0:0,0:0:0:0:
289,166,45381,1,2,0:0:0:0:
415,219,45548,2,0,P|421:285|430:351,1,132.00000402832,2|0,0:0|0:0,0:0:0:0:
434,372,45881,5,2,0:3:0:0:
502,269,46048,1,0,0:0:0:0:
501,145,46215,1,2,0:0:0:0:
430,44,46382,1,2,0:3:0:0:
415,220,46548,1,2,0:0:0:0:
414,220,46881,6,0,P|392:223|370:226,2,44.0000013427735,2|2|2,0:0|0:0|0:0,0:0:0:0:
314,146,47215,2,0,P|271:140|228:129,1,88.000002685547,2|2,0:0|0:0,0:0:0:0:
187,219,47548,2,0,P|145:231|102:240,1,88.000002685547,2|0,0:0|0:0,0:0:0:0:
49,9,47881,6,0,P|136:17|224:22,1,176.000005371094,2|2,0:3|0:0,0:0:0:0:
402,132,48381,2,0,P|358:140|315:146,1,88.000002685547,2|2,0:3|0:0,0:0:0:0:
337,32,48715,1,2,0:3:0:0:
428,165,48881,5,8,0:0:0:0:
452,193,48964,1,8,0:0:0:0:
463,232,49047,1,8,0:0:0:0:
455,271,49131,1,8,0:0:0:0:
430,301,49214,1,8,0:0:0:0:
394,319,49297,1,8,0:0:0:0:
355,317,49381,1,8,0:0:0:0:
320,298,49464,1,8,0:0:0:0:
297,265,49547,1,8,0:0:0:0:
291,227,49631,1,8,0:0:0:0:
304,188,49714,1,8,0:0:0:0:
419,49,49881,6,0,P|372:48|324:50,1,95.9999970703126
244,114,50381,2,0,P|196:118|148:113,1,95.9999970703126
256,192,50881,12,0,51715,0:0:0:0:
49,35,51881,6,0,P|43:130|36:226,1,191.999994140625,6|2,0:0|0:0,0:0:0:0:
143,132,52381,1,2,0:3:0:0:
219,190,52548,1,2,0:0:0:0:
311,157,52715,1,2,0:3:0:0:
454,252,52881,6,0,P|406:246|359:239,1,95.9999970703126,4|0,0:3|0:0,0:0:0:0:
275,287,53215,1,2,0:0:0:0:
219,190,53381,1,2,0:0:0:0:
135,354,53548,2,0,P|202:329|273:327,1,143.999995605469,2|0,0:0|0:0,0:0:0:0:
287,281,53881,6,0,P|192:278|103:313,1,191.999994140625,2|2,0:3|0:0,0:0:0:0:
16,152,54381,1,2,0:3:0:0:
93,212,54548,2,0,P|140:203|185:187,1,95.9999970703126,2|2,0:0|0:3,0:0:0:0:
322,16,54881,6,0,P|338:110|354:205,1,191.999994140625,4|2,0:3|0:0,0:0:0:0:
384,338,55381,1,2,0:0:0:0:
508,206,55548,2,0,P|481:168|443:139,1,95.9999970703126,2|0,0:0|0:0,0:0:0:0:
202,34,55881,6,0,P|107:38|29:92,1,191.999994140625,6|2,0:3|0:0,0:0:0:0:
19,243,56381,1,2,0:3:0:0:
147,149,56548,1,2,0:0:0:0:
119,232,56715,1,2,0:3:0:0:
238,121,56881,6,0,P|241:144|241:168,2,47.9999985351563,4|8|8,0:3|0:0|0:0,0:0:0:0:
361,232,57215,1,2,0:0:0:0:
242,310,57381,1,2,0:0:0:0:
461,273,57548,2,0,P|466:226|454:180,1,95.9999970703126,2|0,0:0|0:0,0:0:0:0:
290,0,57881,6,0,P|336:81|316:173,1,191.999994140625,2|2,0:3|0:0,0:0:0:0:
235,263,58381,1,2,0:3:0:0:
117,160,58548,2,0,P|164:166|212:169,1,95.9999970703126,2|0,0:0|0:0,0:0:0:0:
58,252,58881,5,4,0:3:0:0:
180,81,59048,1,8,0:0:0:0:
180,81,59131,1,8,0:0:0:0:
180,81,59215,1,10,0:0:0:0:
383,188,59381,1,8,0:0:0:0:
351,118,59548,1,10,0:0:0:0:
304,177,59715,1,8,0:0:0:0:
487,193,59881,6,0,P|478:290|472:384,1,191.999994140625,4|2,0:0|0:0,0:0:0:0:
362,274,60381,1,2,0:3:0:0:
233,362,60548,2,0,P|214:317|217:270,1,95.9999970703126,2|2,0:0|0:3,0:0:0:0:
336,112,60881,6,0,P|259:167|165:164,1,191.999994140625,4|2,0:3|0:0,0:0:0:0:
40,60,61381,1,2,0:0:0:0:
233,90,61548,1,2,0:0:0:0:
233,90,61881,6,0,P|278:171|250:260,1,191.999994140625,4|2,0:3|0:0,0:0:0:0:
158,371,62381,1,2,0:3:0:0:
84,202,62548,2,0,P|128:185|176:182,1,95.9999970703126,2|2,0:0|0:3,0:0:0:0:
367,332,62881,6,0,P|411:349|459:352,1,95.9999970703126,4|0,0:3|0:0,0:0:0:0:
418,185,63215,2,0,P|401:140|398:92,1,95.9999970703126,2|2,0:0|0:0,0:0:0:0:
138,42,63548,1,2,0:0:0:0:
138,42,63881,6,0,P|204:105|290:75,1,191.999994140625,4|2,0:3|0:0,0:0:0:0:
427,0,64381,1,2,0:3:0:0:
427,0,64548,1,2,0:0:0:0:
509,118,64715,1,2,0:3:0:0:
344,296,64881,6,0,P|250:282|155:297,1,191.999994140625,4|2,0:3|0:0,0:0:0:0:
71,49,65548,1,2,0:0:0:0:
71,49,65715,1,0,0:0:0:0:
19,147,65881,6,0,P|89:85|184:81,1,191.999994140625,4|2,0:3|0:0,0:0:0:0:
318,164,66381,1,2,0:3:0:0:
393,104,66548,2,0,P|441:96|487:88,1,95.9999970703126,2|2,0:0|0:3,0:0:0:0:
393,243,66881,5,4,0:3:0:0:
219,210,67048,1,8,0:0:0:0:
219,210,67131,1,8,0:0:0:0:
219,210,67215,1,10,0:0:0:0:
115,384,67381,1,10,0:3:0:0:
132,309,67548,1,10,0:0:0:0:
186,363,67715,1,10,0:3:0:0:
33,172,67881,6,0,P|121:133|209:93,1,191.999994140625,6|2,0:0|0:0,0:0:0:0:
402,20,68381,1,2,0:3:0:0:
288,9,68548,2,0,P|291:56|316:96,1,95.9999970703126,2|2,0:0|0:3,0:0:0:0:
487,232,68881,6,0,P|446:257|399:259,1,95.9999970703126,4|0,0:3|0:0,0:0:0:0:
210,234,69215,2,0,P|162:236|122:261,1,95.9999970703126,2|2,0:0|0:0,0:0:0:0:
316,158,69548,2,0,P|319:111|303:66,1,95.9999970703126,2|0,0:0|0:0,0:0:0:0:
187,322,69881,6,0,P|234:318|275:294,1,95.9999970703126,4|0,0:3|0:0,0:0:0:0:
424,159,70215,2,0,P|419:112|414:63,1,95.9999970703126,2|2,0:0|0:3,0:0:0:0:
222,12,70548,2,0,P|216:59|212:107,1,95.9999970703126,2|2,0:0|0:3,0:0:0:0:
351,250,70881,5,4,0:3:0:0:
330,131,71048,1,0,0:0:0:0:
443,335,71215,1,2,0:0:0:0:
464,216,71382,1,2,0:0:0:0:
308,343,71548,2,0,P|261:341|214:331,1,95.9999970703126,2|0,0:0|0:0,0:0:0:0:
18,143,71881,6,0,P|65:141|112:129,1,95.9999970703126,4|0,0:3|0:0,0:0:0:0:
201,92,72215,1,2,0:0:0:0:
288,52,72381,1,2,0:3:0:0:
384,52,72548,1,2,0:0:0:0:
471,92,72714,1,2,0:3:0:0:
336,270,72881,5,4,0:3:0:0:
336,270,73215,1,2,0:0:0:0:
336,270,73548,1,2,0:0:0:0:
260,329,73715,1,2,0:0:0:0:
188,164,73881,6,0,P|174:259|168:355,2,191.999994140625,2|2|2,0:3|0:0|0:0,0:0:0:0:
449,14,74881,5,4,0:3:0:0:
332,108,75048,1,2,0:0:0:0:
332,108,75131,1,2,0:0:0:0:
332,108,75215,1,2,0:0:0:0:
468,267,75381,1,2,0:0:0:0:
410,215,75548,1,2,0:0:0:0:
482,190,75715,1,2,0:0:0:0:
309,356,75881,6,0,P|213:348|117:341,1,191.999994140625,6|2,0:0|0:0,0:0:0:0:
31,198,76381,1,2,0:3:0:0:
139,232,76548,2,0,P|144:185|131:139,1,95.9999970703126,2|2,0:0|0:3,0:0:0:0:
56,16,76881,6,0,P|43:62|48:109,1,95.9999970703126,4|0,0:3|0:0,0:0:0:0:
197,72,77215,2,0,P|244:63|289:48,1,95.9999970703126,2|2,0:0|0:0,0:0:0:0:
394,202,77548,2,0,P|346:193|301:178,1,95.9999970703126,2|0,0:0|0:0,0:0:0:0:
485,45,77881,6,0,P|488:92|489:140,1,95.9999970703126,4|0,0:3|0:0,0:0:0:0:
410,303,78215,2,0,P|365:320|318:326,1,95.9999970703126,2|2,0:0|0:3,0:0:0:0:
82,231,78548,2,0,P|126:248|173:254,1,95.9999970703126,2|2,0:0|0:3,0:0:0:0:
381,147,78881,5,4,0:3:0:0:
407,237,79048,1,0,0:0:0:0:
315,80,79215,1,2,0:0:0:0:
289,170,79382,1,2,0:0:0:0:
249,16,79548,2,0,P|201:12|157:29,1,95.9999970703126,2|0,0:0|0:0,0:0:0:0:
31,281,79881,6,0,P|126:291|221:302,1,191.999994140625,4|2,0:3|0:0,0:0:0:0:
317,312,80381,1,2,0:3:0:0:
412,297,80548,1,2,0:0:0:0:
487,236,80715,1,2,0:3:0:0:
484,69,80881,6,0,P|491:48|497:23,2,47.9999985351563,4|2|2,0:3|0:0|0:0,0:0:0:0:
401,205,81215,1,2,0:0:0:0:
401,205,81548,1,2,0:0:0:0:
300,119,81715,1,2,0:0:0:0:
193,188,81881,6,0,P|97:174|2:162,1,191.999994140625,4|2,0:3|0:0,0:0:0:0:
75,311,82381,1,2,0:3:0:0:
244,265,82548,1,2,0:0:0:0:
81,264,82715,1,2,0:3:0:0:
249,310,82881,5,4,0:3:0:0:
400,227,83048,1,2,0:0:0:0:
400,227,83131,1,2,0:0:0:0:
400,227,83215,1,2,0:0:0:0:
512,336,83381,1,2,0:0:0:0:
283,197,83548,1,2,0:0:0:0:
492,30,83881,5,6,0:0:0:0:
256,192,83965,12,0,86881,0:0:0:0:
73,312,87881,6,0,P|100:297|132:295,1,64,2|0,0:0|0:0,0:0:0:0:
241,349,88214,2,0,P|304:343|368:341,2,128,0|0|2,0:0|0:0|0:0,0:0:0:0:
56,331,89214,6,0,P|48:300|57:269,1,64
141,183,89547,2,0,P|138:120|122:58,1,128,2|0,0:0|0:0,0:0:0:0:
188,7,90047,1,0,0:0:0:0:
243,69,90213,1,0,0:0:0:0:
302,9,90380,1,0,0:0:0:0:
457,72,90547,6,0,P|474:45|497:23,1,64,2|0,0:0|0:0,0:0:0:0:
387,131,90880,2,0,P|370:104|348:82,1,64
435,217,91213,2,0,P|452:190|475:168,1,64,2|0,0:0|0:0,0:0:0:0:
306,347,91547,5,2,0:0:0:0:
306,347,91880,2,0,P|261:332|214:327,1,96
177,339,92213,2,0,P|146:336|115:328,1,64
0,218,92547,2,0,P|31:215|63:208,1,64,2|0,0:0|0:0,0:0:0:0:
181,109,92880,2,0,P|150:107|119:99,1,64
296,2,93213,6,0,P|290:65|286:129,1,128,2|0,0:0|0:0,0:0:0:0:
280,242,93713,1,0,0:0:0:0:
412,166,93879,2,0,P|384:181|352:187,1,64
153,155,94213,5,2,0:0:0:0:
131,310,94379,1,8,0:0:0:0:
131,310,94463,1,8,0:0:0:0:
131,310,94546,1,8,0:0:0:0:
254,242,94713,1,8,0:0:0:0:
153,155,94880,1,8,0:0:0:0:
28,215,95046,1,8,0:0:0:0:
125,333,95213,6,0,P|204:328|284:336,1,160,2|2,0:0|0:0,0:0:0:0:
460,375,95713,1,2,0:3:0:0:
407,231,95879,2,0,P|389:266|386:306,1,80,2|2,0:0|0:3,0:0:0:0:
512,148,96213,2,0,P|472:147|432:144,1,80,4|0,0:3|0:0,0:0:0:0:
327,67,96546,2,0,P|366:66|406:63,1,80,2|0,0:0|0:0,0:0:0:0:
200,0,96879,6,0,P|183:76|209:151,1,160,4|2,0:3|0:0,0:0:0:0:
314,280,97379,1,2,0:3:0:0:
311,190,97545,1,2,0:0:0:0:
258,355,97712,1,2,0:3:0:0:
144,229,97879,6,0,P|105:234|65:233,1,80,4|0,0:3|0:0,0:0:0:0:
30,144,98129,1,8,0:0:0:0:
45,116,98212,2,0,P|84:121|124:120,1,80,10|0,0:0|0:0,0:0:0:0:
173,40,98462,1,8,0:0:0:0:
146,22,98545,1,10,0:0:0:0:
227,150,98712,1,10,0:0:0:0:
391,33,98879,5,4,0:3:0:0:
391,33,99212,1,2,0:0:0:0:
453,107,99379,1,2,0:3:0:0:
392,180,99545,2,0,P|389:219|386:259,1,80,2|2,0:0|0:3,0:0:0:0:
167,288,99879,6,0,P|226:236|303:216,2,160,4|2|0,0:3|0:0|0:0,0:0:0:0:
300,353,100712,1,2,0:3:0:0:
34,294,100879,6,0,P|28:254|25:214,1,80,2|0,0:0|0:0,0:0:0:0:
110,16,101212,2,0,P|106:55|101:95,1,80,0|8,0:0|0:0,0:0:0:0:
215,213,101545,2,0,P|220:173|223:133,1,80,2|0,0:3|0:0,0:0:0:0:
346,0,101879,1,8,0:0:0:0:
348,31,101962,1,8,0:0:0:0:
351,63,102045,1,8,0:0:0:0:
354,95,102128,1,8,0:0:0:0:
356,127,102212,1,8,0:0:0:0:
359,159,102295,1,8,0:0:0:0:
363,191,102379,6,0,L|367:247,1,55.9999982910157,8|8,0:0|0:0,0:0:0:0:
247,371,102545,2,0,L|251:315,1,55.9999982910157,8|8,0:0|0:0,0:0:0:0:
160,187,102712,2,0,L|154:242,1,55.9999982910157,8|8,0:0|0:0,0:0:0:0:
30,365,102879,6,0,P|40:277|48:190,1,176.000005371094,4|2,0:0|0:0,0:0:0:0:
110,14,103379,1,2,0:3:0:0:
121,111,103545,2,0,P|164:104|205:118,1,88.000002685547,2|2,0:0|0:3,0:0:0:0:
365,245,103879,6,0,P|279:235|197:266,1,176.000005371094,4|2,0:3|0:0,0:0:0:0:
298,358,104378,1,2,0:0:0:0:
472,308,104545,2,0,P|472:242|453:179,1,132.00000402832,2|0,0:0|0:0,0:0:0:0:
434,153,104878,5,4,0:3:0:0:
249,113,105045,1,8,0:0:0:0:
249,113,105128,1,8,0:0:0:0:
249,113,105212,1,10,0:0:0:0:
325,31,105378,1,8,0:0:0:0:
174,183,105545,1,10,0:0:0:0:
156,86,105712,1,8,0:0:0:0:
127,278,105878,6,0,P|212:258|299:246,1,176.000005371094,12|2,0:3|0:0,0:0:0:0:
231,373,106378,1,2,0:0:0:0:
31,311,106545,2,0,P|31:268|44:226,1,88.000002685547,2|0,0:0|0:0,0:0:0:0:
106,12,106878,6,0,P|90:97|125:176,1,176.000005371094,4|2,0:0|0:0,0:0:0:0:
229,75,107378,1,2,0:3:0:0:
220,164,107545,1,2,0:0:0:0:
316,23,107712,1,2,0:3:0:0:
290,224,107878,2,0,P|304:288|315:353,1,132.00000402832,4|0,0:3|0:0,0:0:0:0:
329,384,108212,6,2,L|384:370,1,55.9999982910157,2|2,0:0|0:1,0:1:0:0:
274,149,108545,2,2,L|220:163,1,55.9999982910157,2|2,0:0|0:1,0:1:0:0:
355,121,108878,6,0,P|267:116|179:106,1,176.000005371094,4|2,0:3|0:0,0:0:0:0:
281,0,109378,1,2,0:3:0:0:
379,122,109545,1,2,0:0:0:0:
263,228,109712,1,2,0:3:0:0:
69,94,109878,5,4,0:3:0:0:
15,184,110045,1,0,0:0:0:0:
15,184,110128,1,0,0:0:0:0:
15,184,110212,2,0,P|19:227|20:271,1,88.000002685547,2|2,0:0|0:0,0:0:0:0:
162,201,110545,1,2,0:0:0:0:
277,311,110712,2,0,P|283:286|287:256,1,55.9999982910157,2|2,0:0|0:0,0:0:0:0:
330,62,110878,6,0,P|417:61|501:87,1,176.000005371094,4|2,0:0|0:0,0:0:0:0:
399,184,111378,1,2,0:3:0:0:
472,282,111545,1,2,0:0:0:0:
400,381,111712,1,2,0:3:0:0:
271,184,111878,6,0,P|184:199|97:213,1,176.000005371094,4|2,0:3|0:0,0:0:0:0:
157,72,112378,1,2,0:0:0:0:
352,148,112545,2,0,P|355:191|341:233,1,88.000002685547,2|0,0:0|0:0,0:0:0:0:
119,365,112878,6,0,P|204:346|292:338,1,176.000005371094,4|2,0:3|0:0,0:0:0:0:
488,373,113378,1,2,0:3:0:0:
398,319,113545,2,0,P|401:275|408:231,1,88.000002685547,2|2,0:0|0:3,0:0:0:0:
456,33,113878,5,2,0:0:0:0:
411,35,113962,1,2,0:0:0:0:
367,36,114045,1,2,0:0:0:0:
323,37,114128,1,2,0:0:0:0:
278,40,114212,1,2,0:0:0:0:
467,115,114378,1,8,0:0:0:0:
236,105,114545,1,10,0:0:0:0:
349,235,114712,1,8,0:0:0:0:
150,165,114878,6,0,P|135:124|132:81,1,88.000002685547,4|0,0:0|0:0,0:0:0:0:
26,270,115211,2,0,P|69:271|111:258,1,88.000002685547,2|2,0:0|0:3,0:0:0:0:
331,157,115544,2,0,P|287:155|245:168,1,88.000002685547,2|2,0:0|0:3,0:0:0:0:
315,332,115878,2,0,P|307:288|301:245,1,88.000002685547,4|0,0:3|0:0,0:0:0:0:
377,51,116211,2,0,P|384:72|385:94,1,44.0000013427735,2|2,0:0|0:0,0:0:0:0:
468,129,116378,2,0,P|460:149|455:170,1,44.0000013427735,2|2,0:0|0:0,0:0:0:0:
410,289,116545,6,0,P|401:261|386:236,1,58.6666684570313,2|0,0:0|0:0,0:0:0:0:
356,230,116711,2,0,P|314:240|270:244,2,88.000002685547,0|2|2,0:0|0:0|0:3,0:0:0:0:
294,119,117211,1,2,0:0:0:0:
192,260,117378,1,2,0:3:0:0:
49,181,117545,5,2,0:0:0:0:
55,150,117628,1,2,0:0:0:0:
61,120,117711,1,2,0:0:0:0:
67,90,117794,1,2,0:0:0:0:
73,60,117878,1,2,0:0:0:0:
264,141,118045,6,0,P|217:150|169:159,1,95.9999970703126,0|2,0:0|0:0,0:0:0:0:
140,184,118461,1,2,0:0:0:0:
140,184,118545,5,6,0:0:0:0:
202,60,118711,1,0,0:0:0:0:
332,9,118878,2,0,P|337:52|341:96,1,88.000002685547,2|2,0:0|0:3,0:0:0:0:
438,253,119211,2,0,P|442:209|447:165,1,88.000002685547,2|2,0:0|0:3,0:0:0:0:
332,309,119545,6,0,P|247:299|156:294,1,176.000005371094,4|2,0:3|0:0,0:0:0:0:
271,149,120045,1,2,0:0:0:0:
84,236,120211,2,0,P|67:276|66:320,1,88.000002685547,2|0,0:0|0:0,0:0:0:0:
331,308,120545,6,0,P|354:223|376:137,1,176.000005371094,4|2,0:3|0:0,0:0:0:0:
470,255,121045,1,2,0:3:0:0:
482,138,121212,1,2,0:0:0:0:
423,338,121379,1,2,0:3:0:0:
278,177,121545,6,0,P|212:184|146:189,1,132.00000402832,4|0,0:3|0:0,0:0:0:0:
123,220,121878,2,0,P|135:262|141:305,1,88.000002685547,2|2,0:0|0:0,0:0:0:0:
28,171,122211,2,0,P|15:128|9:85,1,88.000002685547,2|0,0:0|0:0,0:0:0:0:
213,138,122545,5,4,0:3:0:0:
109,107,122711,1,0,0:0:0:0:
186,29,122878,2,0,P|229:30|270:47,1,88.000002685547,2|2,0:0|0:3,0:0:0:0:
400,177,123211,2,0,P|417:218|418:261,1,88.000002685547,2|2,0:0|0:3,0:0:0:0:
163,257,123545,6,0,P|245:229|333:234,1,176.000005371094,4|2,0:3|0:0,0:0:0:0:
266,359,124044,1,2,0:0:0:0:
93,304,124211,2,0,P|85:261|95:218,1,88.000002685547,2|0,0:0|0:0,0:0:0:0:
256,25,124544,6,0,P|300:28|344:34,1,88.000002685547,4|0,0:3|0:0,0:0:0:0:
495,133,124878,2,0,P|451:135|407:141,1,88.000002685547,2|2,0:0|0:3,0:0:0:0:
263,245,125211,2,0,P|318:216|364:258,1,132.00000402832,2|0,0:0|0:0,0:0:0:0:
361,280,125544,5,8,0:0:0:0:
355,300,125627,1,8,0:0:0:0:
360,322,125710,1,8,0:0:0:0:
374,338,125793,1,8,0:0:0:0:
394,346,125878,1,10,0:0:0:0:
416,342,125960,1,8,0:0:0:0:
433,329,126043,1,10,0:0:0:0:
441,309,126127,1,8,0:0:0:0:
445,286,126211,2,0,P|446:243|428:203,1,88.000002685547,10|0,0:0|0:0,0:0:0:0:
255,33,126544,5,4,0:3:0:0:
255,33,126878,1,2,0:0:0:0:
332,125,127044,1,2,0:3:0:0:
151,89,127211,2,0,P|108:91|64:99,1,88.000002685547,2|2,0:0|0:3,0:0:0:0:
218,328,127544,6,0,P|232:241|226:154,1,176.000005371094,4|2,0:3|0:0,0:0:0:0:
109,232,128044,1,2,0:0:0:0:
227,353,128211,2,0,P|270:345|314:343,1,88.000002685547,2|0,0:0|0:0,0:0:0:0:
428,142,128544,6,0,P|341:127|253:129,1,176.000005371094,4|2,0:3|0:0,0:0:0:0:
333,247,129044,1,2,0:3:0:0:
507,149,129211,2,0,P|495:106|469:72,1,88.000002685547,2|2,0:0|0:3,0:0:0:0:
171,11,129544,6,0,P|164:99|157:187,1,176.000005371094,4|2,0:3|0:0,0:0:0:0:
147,283,130044,1,2,0:0:0:0:
225,339,130211,1,2,0:0:0:0:
318,314,130378,1,0,0:0:0:0:
80,359,130544,5,4,0:3:0:0:
245,255,130711,1,0,0:0:0:0:
48,317,130878,1,2,0:0:0:0:
213,213,131045,1,2,0:3:0:0:
15,186,131211,2,0,P|54:167|90:142,1,88.000002685547,2|2,0:0|0:3,0:0:0:0:
301,22,131544,6,0,P|337:46|376:66,1,88.000002685547,4|0,0:3|0:0,0:0:0:0:
221,165,131878,2,0,P|184:189|145:209,1,88.000002685547,2|2,0:0|0:0,0:0:0:0:
299,316,132211,2,0,P|336:340|375:360,1,88.000002685547,2|0,0:0|0:0,0:0:0:0:
145,189,132544,6,0,P|192:119|277:105,1,176.000005371094,4|2,0:3|0:0,0:0:0:0:
340,257,133044,1,2,0:3:0:0:
246,192,133211,1,2,0:0:0:0:
257,372,133378,1,2,0:3:0:0:
126,384,133544,5,8,0:0:0:0:
121,358,133627,1,8,0:0:0:0:
121,331,133711,1,8,0:0:0:0:
126,306,133794,1,8,0:0:0:0:
163,285,133877,5,10,0:0:0:0:
169,255,133960,1,8,0:0:0:0:
169,223,134044,1,10,0:0:0:0:
163,192,134127,1,8,0:0:0:0:
127,164,134211,5,10,0:0:0:0:
119,129,134294,1,8,0:0:0:0:
117,93,134378,1,8,0:0:0:0:
123,58,134461,1,8,0:0:0:0:
157,30,134544,6,0,P|222:36|288:41,1,132.00000402832,2|0,0:0|0:0,0:0:0:0:
397,126,134878,2,0,P|395:153|386:180,1,55.9999982910157,2|0,0:0|0:0,0:0:0:0:
293,160,135044,2,0,P|283:186|268:209,1,55.9999982910157,2|0,0:3|0:3,0:3:0:0:
195,156,135211,2,0,P|180:178|158:197,1,55.9999982910157,2|0,0:0|0:0,0:0:0:0:
89,133,135377,2,0,P|67:151|43:163,1,55.9999982910157,2|0,0:3|0:0,0:0:0:0:
78,293,135544,6,0,P|107:304|133:323,3,64,2|0|0|0,0:0|0:0|0:0|0:0,0:0:0:0:
207,197,135878,2,0,P|238:192|270:196,3,64,2|0|2|0,0:0|0:0|0:0|0:0,0:0:0:0:
162,70,136211,2,0,P|186:50|214:35,3,64,2|2|2|2,0:0|0:0|0:0|0:0,0:0:0:0:
274,94,136544,5,4,0:0:0:0:
369,109,136711,1,0,0:0:0:0:
398,200,136878,1,2,0:0:0:0:
431,289,137044,1,2,0:3:0:0:
467,377,137211,1,2,0:0:0:0:
373,356,137378,1,2,0:3:0:0:
195,299,137544,5,4,0:3:0:0:
103,327,137711,1,0,0:0:0:0:
184,260,137878,1,2,0:0:0:0:
92,288,138045,1,2,0:0:0:0:
174,225,138211,1,2,0:0:0:0:
16,158,138378,5,8,0:0:0:0:
8,110,138461,1,8,0:0:0:0:
0,62,138544,1,8,0:0:0:0:
113,62,138711,1,0,0:0:0:0:
228,62,138878,1,2,0:0:0:0:
243,157,139044,1,2,0:3:0:0:
368,157,139211,2,0,P|362:109|355:62,1,95.9999970703126,2|2,0:0|0:3,0:0:0:0:
399,363,139544,5,4,0:3:0:0:
399,363,139878,1,2,0:0:0:0:
399,363,140211,1,2,0:0:0:0:
399,363,140544,6,0,P|352:360|304:357,1,95.9999970703126,4|0,0:3|0:0,0:0:0:0:
219,307,140878,1,2,0:0:0:0:
176,223,141044,1,2,0:3:0:0:
176,223,141378,5,2,0:3:0:0:
260,64,141544,1,4,0:3:0:0:
171,117,141711,1,0,0:0:0:0:
336,131,141878,2,0,P|383:131|431:131,2,95.9999970703126,2|2|2,0:0|0:0|0:0,0:0:0:0:
254,181,142378,1,0,0:0:0:0:
94,356,142544,5,4,0:3:0:0:
83,260,142711,1,0,0:0:0:0:
71,164,142878,1,2,0:0:0:0:
58,69,143044,1,2,0:3:0:0:
77,66,143211,1,2,0:0:0:0:
96,64,143378,1,2,0:3:0:0:
272,40,143544,5,4,0:3:0:0:
367,27,143711,1,8,0:0:0:0:
364,74,143794,1,8,0:0:0:0:
362,122,143878,1,10,0:0:0:0:
362,217,144044,1,10,0:0:0:0:
268,192,144211,1,10,0:0:0:0:
360,313,144378,1,8,0:0:0:0:
176,217,144544,5,4,0:0:0:0:
90,172,144711,1,0,0:0:0:0:
6,124,144878,2,0,P|6:98|6:76,1,47.9999985351563,2|0,0:0|0:0,0:0:0:0:
7,266,145044,2,0,P|7:240|7:218,1,47.9999985351563,2|0,0:3|0:0,0:0:0:0:
7,266,145378,1,2,0:3:0:0:
152,81,145544,5,4,0:3:0:0:
95,9,145711,1,0,0:0:0:0:
241,62,145877,1,2,0:0:0:0:
334,39,146044,1,2,0:0:0:0:
426,13,146211,1,2,0:0:0:0:
430,31,146378,1,0,0:0:0:0:
467,232,146544,5,4,0:3:0:0:
372,247,146711,1,0,0:0:0:0:
276,261,146878,1,2,0:0:0:0:
181,276,147044,1,2,0:3:0:0:
181,276,147378,1,2,0:3:0:0:
23,166,147544,6,0,P|26:118|31:70,1,95.9999970703126,4|0,0:3|0:0,0:0:0:0:
218,105,147878,2,0,P|221:53|226:1,1,103.999995239258,2|2,0:0|0:0,0:0:0:0:
341,79,148211,2,0,P|345:130|350:182,1,103.999995239258,2|0,0:0|0:0,0:0:0:0:
375,371,148544,5,2,0:0:0:0:
370,324,148627,1,2,0:0:0:0:
364,277,148711,1,2,0:0:0:0:
285,379,148878,1,2,0:0:0:0:
191,358,149044,1,2,0:3:0:0:
98,332,149211,1,2,0:0:0:0:
6,302,149378,1,2,0:3:0:0:
145,164,149544,5,6,0:3:0:0:
122,120,149628,1,2,0:0:0:0:
156,86,149711,1,2,0:0:0:0:
200,108,149794,1,2,0:0:0:0:
191,155,149878,1,2,0:0:0:0:
278,196,150044,1,2,0:0:0:0:
319,109,150211,1,2,0:0:0:0:
260,32,150378,1,0,0:0:0:0:
256,313,150544,5,4,0:3:0:0:
256,313,150878,1,2,0:0:0:0:
348,338,151044,1,2,0:3:0:0:
348,338,151378,1,2,0:3:0:0:
431,291,151544,5,10,0:0:0:0:
434,242,151628,1,8,0:0:0:0:
435,194,151711,1,8,0:0:0:0:
438,145,151795,1,8,0:0:0:0:
441,97,151878,1,8,0:0:0:0:
349,26,152044,6,0,P|321:26|293:28,1,55.9999982910157,10|8,0:0|0:0,0:0:0:0:
245,214,152211,2,0,P|217:213|189:211,1,55.9999982910157,10|8,0:0|0:0,0:0:0:0:
117,34,152378,2,0,P|89:34|61:36,1,55.9999982910157,10|8,0:0|0:0,0:0:0:0:
3,313,152544,6,0,P|98:310|205:310,1,191.999994140625,4|2,0:0|0:0,0:0:0:0:
284,344,153044,1,2,0:3:0:0:
183,214,153211,1,2,0:0:0:0:
274,247,153378,1,2,0:3:0:0:
435,192,153544,6,0,P|387:186|340:179,1,95.9999970703126,4|0,0:3|0:0,0:0:0:0:
245,135,153878,2,0,P|197:142|149:148,1,95.9999970703126,2|2,0:0|0:0,0:0:0:0:
323,68,154211,2,0,P|394:80|466:91,1,143.999995605469,2|0,0:0|0:0,0:0:0:0:
402,29,154544,6,0,P|306:37|210:42,1,191.999994140625,4|2,0:3|0:0,0:0:0:0:
183,197,155044,1,2,0:3:0:0:
268,225,155211,2,0,P|264:177|244:134,1,95.9999970703126,2|2,0:0|0:3,0:0:0:0:
28,339,155544,6,0,P|122:323|217:307,1,191.999994140625,4|2,0:3|0:0,0:0:0:0:
423,283,156044,1,2,0:0:0:0:
370,136,156211,2,0,P|349:178|346:226,1,95.9999970703126,2|0,0:0|0:0,0:0:0:0:
476,79,156544,6,0,P|382:93|295:55,1,191.999994140625,4|2,0:3|0:0,0:0:0:0:
207,17,157044,1,2,0:3:0:0:
285,170,157211,1,2,0:0:0:0:
136,77,157378,1,2,0:3:0:0:
227,235,157544,6,0,P|230:258|229:282,2,47.9999985351563,4|0|0,0:3|0:0|0:0,0:0:0:0:
135,265,157878,1,2,0:0:0:0:
51,312,158044,1,2,0:0:0:0:
227,305,158211,1,2,0:0:0:0:
311,352,158378,1,0,0:0:0:0:
501,218,158544,6,0,P|407:239|312:255,1,191.999994140625,4|2,0:3|0:0,0:0:0:0:
226,212,159044,1,2,0:3:0:0:
375,119,159211,2,0,P|422:125|470:128,1,95.9999970703126,2|2,0:0|0:3,0:0:0:0:
489,33,159544,5,4,0:3:0:0:
320,45,159711,1,8,0:0:0:0:
320,45,159794,1,8,0:0:0:0:
320,45,159878,1,10,0:0:0:0:
273,272,160044,1,8,0:0:0:0:
245,199,160211,1,10,0:0:0:0:
321,207,160378,1,8,0:0:0:0:
61,372,160544,6,0,P|67:276|76:180,1,191.999994140625,4|2,0:0|0:0,0:0:0:0:
178,25,161044,1,2,0:3:0:0:
113,93,161211,2,0,P|156:112|203:119,1,95.9999970703126,2|2,0:0|0:3,0:0:0:0:
401,49,161544,2,0,P|358:29|311:23,1,95.9999970703126,4|0,0:3|0:0,0:0:0:0:
274,200,161878,1,2,0:0:0:0:
336,119,162044,1,2,0:0:0:0:
268,310,162211,1,2,0:0:0:0:
268,310,162544,6,0,P|172:314|76:324,1,191.999994140625,4|2,0:3|0:0,0:0:0:0:
163,200,163044,1,2,0:3:0:0:
351,330,163211,2,0,P|395:347|443:349,1,95.9999970703126,2|2,0:0|0:3,0:0:0:0:
344,206,163544,6,0,P|299:223|251:225,1,95.9999970703126,4|0,0:3|0:0,0:0:0:0:
438,108,163878,2,0,P|446:60|445:12,1,95.9999970703126,2|2,0:0|0:0,0:0:0:0:
248,110,164211,1,2,0:0:0:0:
248,109,164544,6,0,P|238:205|228:301,1,191.999994140625,4|2,0:3|0:0,0:0:0:0:
134,191,165044,1,2,0:3:0:0:
127,286,165211,1,2,0:0:0:0:
49,148,165378,1,2,0:3:0:0:
166,34,165544,6,0,P|261:27|354:49,1,191.999994140625,4|2,0:3|0:0,0:0:0:0:
499,273,166211,1,2,0:0:0:0:
451,273,166294,1,2,0:0:0:0:
402,270,166378,1,2,0:0:0:0:
354,270,166461,1,2,0:0:0:0:
306,268,166544,6,0,P|210:256|115:243,1,191.999994140625,4|2,0:3|0:0,0:0:0:0:
244,70,167044,1,2,0:3:0:0:
208,164,167211,1,2,0:0:0:0:
174,2,167378,1,2,0:3:0:0:
49,104,167544,5,4,0:3:0:0:
8,250,167711,1,0,0:0:0:0:
8,250,167794,1,0,0:0:0:0:
8,250,167878,1,2,0:0:0:0:
111,341,168044,1,2,0:0:0:0:
273,253,168211,1,2,0:0:0:0:
178,265,168378,1,0,0:0:0:0:
479,276,168544,6,0,P|420:200|400:107,1,191.999994140625,0|2,0:0|0:0,0:0:0:0:
509,163,169044,1,2,0:3:0:0:
464,11,169211,1,2,0:0:0:0:
324,225,169378,1,2,0:3:0:0:
313,139,169544,6,0,P|270:121|222:121,1,95.9999970703126,4|0,0:3|0:0,0:0:0:0:
60,278,169878,2,0,P|107:276|151:258,1,95.9999970703126,2|2,0:0|0:0,0:0:0:0:
313,139,170211,2,0,P|323:92|331:44,1,95.9999970703126,2|0,0:0|0:0,0:0:0:0:
139,170,170544,5,4,0:3:0:0:
289,225,170711,1,0,0:0:0:0:
94,203,170878,1,2,0:0:0:0:
302,265,171044,1,2,0:3:0:0:
169,361,171211,1,2,0:0:0:0:
265,361,171378,1,2,0:3:0:0:
360,361,171544,6,0,P|407:360|455:360,1,95.9999970703126,2|0,0:0|0:0,0:0:0:0:
476,332,171878,2,0,P|428:331|381:333,1,95.9999970703126,2|0,0:0|0:0,0:0:0:0:
407,305,172211,2,0,P|454:304|502:304,1,95.9999970703126,2|0,0:0|0:0,0:0:0:0:
243,210,172544,5,4,0:3:0:0:
379,193,172711,1,0,0:0:0:0:
217,184,172878,1,2,0:0:0:0:
401,164,173044,1,2,0:3:0:0:
509,87,173211,2,0,P|461:84|414:73,1,95.9999970703126,2|2,0:0|0:3,0:0:0:0:
153,39,173544,6,0,P|101:40|51:40,1,95.9999970703126,4|0,0:3|0:0,0:0:0:0:
70,63,173878,2,0,P|118:62|166:62,1,95.9999970703126,2|2,0:0|0:0,0:0:0:0:
202,147,174211,1,2,0:0:0:0:
202,147,174544,6,0,P|188:241|182:337,1,191.999994140625,4|2,0:3|0:0,0:0:0:0:
404,246,175044,1,2,0:3:0:0:
348,133,175211,1,2,0:0:0:0:
347,155,175378,1,2,0:3:0:0:
328,349,175544,5,4,0:3:0:0:
283,238,175711,1,0,0:0:0:0:
283,238,175794,1,0,0:0:0:0:
283,238,175878,1,2,0:0:0:0:
149,266,176044,1,2,0:0:0:0:
174,60,176211,1,2,0:0:0:0:
179,18,176378,1,0,0:0:0:0:
73,174,176544,6,0,P|168:180|264:188,1,191.999994140625,4|2,0:3|0:0,0:0:0:0:
437,119,177044,1,2,0:0:0:0:
346,22,177211,2,0,P|332:67|337:115,1,95.9999970703126,2|2,0:0|0:3,0:0:0:0:
492,304,177544,6,0,P|497:256|485:211,1,95.9999970703126,4|0,0:3|0:0,0:0:0:0:
336,351,177878,1,2,0:0:0:0:
399,269,178044,1,2,0:0:0:0:
235,322,178211,2,0,P|187:313|142:298,1,95.9999970703126,2|0,0:0|0:0,0:0:0:0:
25,116,178544,6,0,P|24:68|21:20,1,95.9999970703126,4|0,0:3|0:0,0:0:0:0:
137,77,178878,2,0,P|140:124|140:172,1,95.9999970703126,2|2,0:0|0:0,0:0:0:0:
95,322,179211,1,2,0:0:0:0:
88,348,179378,1,2,0:3:0:0:
323,189,179544,5,4,0:3:0:0:
359,331,179711,1,0,0:0:0:0:
192,275,179878,1,2,0:0:0:0:
415,236,180044,1,2,0:0:0:0:
464,47,180211,2,0,P|418:58|370:63,1,95.9999970703126,2|0,0:0|0:0,0:0:0:0:
74,128,180544,6,0,P|167:147|263:149,1,191.999994140625,4|2,0:3|0:0,0:0:0:0:
481,121,181044,1,2,0:3:0:0:
369,63,181211,1,2,0:0:0:0:
479,242,181378,1,2,0:3:0:0:
261,282,181544,6,0,P|253:259|248:236,2,47.9999985351563,4|0|0,0:3|0:0|0:0,0:0:0:0:
387,367,181878,1,2,0:0:0:0:
430,96,182211,1,2,0:0:0:0:
335,80,182378,1,0,0:0:0:0:
241,61,182544,6,0,P|146:47|50:35,1,191.999994140625,4|0,0:3|0:0,0:0:0:0:
110,222,183044,1,0,0:0:0:0:
13,131,183211,1,0,0:0:0:0:
13,131,183544,6,0,P|93:119|172:110,1,160,4|0,0:3|0:0,0:0:0:0:
105,251,184044,1,0,0:0:0:0:
227,173,184211,1,0,0:0:0:0:
227,173,184544,6,0,B|167:121|45:116|16:265|94:388|158:220,1,384,4|0,0:3|0:0,0:0:0:0:
256,192,201210,5,2,0:0:0:0:
256,192,201544,12,0,203210,0:0:0:0:
62,334,203543,6,0,P|157:326|253:316,1,191.999994140625,4|2,0:0|0:0,0:0:0:0:
145,227,204043,1,2,0:3:0:0:
154,111,204210,1,2,0:0:0:0:
51,164,204377,1,2,0:3:0:0:
258,153,204543,6,0,P|299:130|346:120,1,95.9999970703126,4|0,0:3|0:0,0:0:0:0:
511,48,204877,2,0,P|470:26|423:16,1,95.9999970703126,2|2,0:0|0:0,0:0:0:0:
407,230,205210,2,0,P|403:301|398:373,1,143.999995605469,2|0,0:0|0:0,0:0:0:0:
359,300,205543,6,0,P|264:294|169:278,1,191.999994140625,4|2,0:3|0:0,0:0:0:0:
183,148,206043,1,2,0:3:0:0:
366,153,206210,1,2,0:0:0:0:
270,217,206377,1,2,0:3:0:0:
471,149,206543,6,0,P|466:102|465:54,1,95.9999970703126,4|0,0:3|0:0,0:0:0:0:
387,255,206877,1,2,0:0:0:0:
347,66,207043,1,2,0:0:0:0:
182,148,207210,2,0,P|135:142|88:131,1,95.9999970703126,2|0,0:0|0:0,0:0:0:0:
283,376,207543,6,0,P|293:280|296:184,1,191.999994140625,4|2,0:3|0:0,0:0:0:0:
170,84,208043,1,2,0:3:0:0:
176,116,208126,1,0,0:0:0:0:
182,148,208210,1,2,0:0:0:0:
26,48,208377,1,2,0:3:0:0:
69,269,208543,6,0,P|163:250|258:237,1,191.999994140625,4|2,0:3|0:0,0:0:0:0:
457,294,209043,1,2,0:3:0:0:
376,110,209210,1,2,0:0:0:0:
338,321,209377,1,2,0:3:0:0:
239,349,209543,6,0,P|192:341|144:340,1,95.9999970703126,4|0,0:3|0:0,0:0:0:0:
0,141,209877,2,0,P|47:131|94:125,1,95.9999970703126,2|2,0:0|0:0,0:0:0:0:
196,171,210210,1,2,0:0:0:0:
104,247,210377,1,0,0:0:0:0:
179,48,210543,5,4,0:3:0:0:
298,237,210710,1,8,0:0:0:0:
298,237,210793,1,8,0:0:0:0:
298,237,210877,1,10,0:0:0:0:
407,182,211043,1,8,0:0:0:0:
305,116,211210,1,10,0:0:0:0:
196,171,211377,1,8,0:0:0:0:
220,358,211543,6,0,P|315:348|410:333,1,191.999994140625,4|2,0:0|0:0,0:0:0:0:
298,237,212043,1,2,0:3:0:0:
150,277,212210,2,0,P|144:324|140:372,1,95.9999970703126,2|2,0:0|0:3,0:0:0:0:
201,166,212543,5,4,0:3:0:0:
30,237,212710,1,0,0:0:0:0:
30,237,212793,1,0,0:0:0:0:
30,237,212877,1,2,0:0:0:0:
80,111,213043,1,2,0:0:0:0:
187,23,213210,1,2,0:0:0:0:
187,23,213543,6,0,P|234:30|282:32,1,95.9999970703126,4|0,0:3|0:0,0:0:0:0:
476,51,213877,1,2,0:0:0:0:
293,128,214043,1,2,0:3:0:0:
506,67,214210,1,2,0:0:0:0:
290,163,214377,1,2,0:3:0:0:
218,234,214543,6,0,P|123:247|27:253,1,191.999994140625,4|2,0:3|0:0,0:0:0:0:
113,126,215043,1,2,0:0:0:0:
284,285,215210,2,0,P|295:239|290:192,1,95.9999970703126,2|0,0:0|0:0,0:0:0:0:
201,343,215543,6,0,P|296:329|392:325,1,191.999994140625,4|2,0:3|0:0,0:0:0:0:
457,267,216043,1,2,0:3:0:0:
466,81,216210,1,2,0:0:0:0:
461,174,216377,1,2,0:3:0:0:
394,23,216543,6,0,P|298:31|202:34,1,191.999994140625,4|2,0:3|0:0,0:0:0:0:
118,40,217043,1,2,0:0:0:0:
21,43,217210,1,2,0:0:0:0:
20,64,217377,1,0,0:0:0:0:
141,145,217543,6,0,P|188:139|236:135,1,95.9999970703126,4|0,0:3|0:0,0:0:0:0:
107,249,217877,2,0,P|60:243|12:241,1,95.9999970703126,2|2,0:0|0:3,0:0:0:0:
144,358,218210,2,0,P|191:352|239:349,1,95.9999970703126,2|2,0:0|0:3,0:0:0:0:
451,253,218543,5,8,0:0:0:0:
453,225,218626,1,8,0:0:0:0:
455,198,218709,1,8,0:0:0:0:
458,170,218793,1,8,0:0:0:0:
460,143,218876,1,10,0:0:0:0:
463,115,218959,1,8,0:0:0:0:
465,87,219043,6,0,P|466:59|468:31,1,55.9999982910157,10|8,0:0|0:0,0:0:0:0:
339,173,219210,2,0,P|337:200|336:228,1,55.9999982910157,2|8,0:0|0:0,0:0:0:0:
200,127,219377,2,0,P|201:99|203:71,1,55.9999982910157,8|8,0:0|0:0,0:0:0:0:
82,0,219543,6,0,P|76:103|71:207,1,207.999990478516,4|2,0:0|0:0,0:0:0:0:
61,383,220043,1,2,0:3:0:0:
15,306,220210,2,0,P|65:294|115:304,1,103.999995239258,2|2,0:0|0:3,0:0:0:0:
271,367,220543,5,4,0:3:0:0:
233,189,220710,1,0,0:0:0:0:
315,357,220877,1,2,0:0:0:0:
258,196,221044,1,2,0:0:0:0:
356,336,221210,1,2,0:0:0:0:
285,196,221377,1,0,0:0:0:0:
430,274,221543,6,0,P|427:222|424:170,1,103.999995239258,4|0,0:3|0:0,0:0:0:0:
407,43,221877,1,2,0:0:0:0:
505,76,222043,1,2,0:3:0:0:
242,75,222210,1,2,0:0:0:0:
340,108,222377,1,2,0:3:0:0:
172,153,222543,6,0,P|151:253|182:351,1,207.999990478516,4|2,0:3|0:0,0:0:0:0:
324,384,223043,1,2,0:0:0:0:
260,248,223210,1,2,0:0:0:0:
260,248,223543,6,0,P|362:230|466:229,1,207.999990478516,4|2,0:3|0:0,0:0:0:0:
492,275,223960,1,0,0:0:0:0:
466,308,224043,1,2,0:3:0:0:
429,329,224127,1,0,0:0:0:0:
387,333,224210,1,2,0:0:0:0:
235,282,224377,1,2,0:3:0:0:
55,349,224543,5,4,0:3:0:0:
69,333,224710,1,8,0:0:0:0:
131,238,224877,5,2,0:0:0:0:
117,222,225044,1,2,0:0:0:0:
24,111,225210,5,2,0:0:0:0:
99,39,225377,1,0,0:0:0:0:
198,150,225543,5,4,0:3:0:0:
228,44,225710,1,0,0:0:0:0:
228,44,225793,1,0,0:0:0:0:
228,44,225877,1,2,0:0:0:0:
410,129,226043,1,2,0:3:0:0:
342,37,226210,1,2,0:0:0:0:
512,83,226377,1,2,0:3:0:0:
447,0,226543,5,4,0:3:0:0:
416,134,226710,1,8,0:0:0:0:
416,134,226793,1,8,0:0:0:0:
416,134,226877,1,10,0:0:0:0:
323,349,227043,1,10,0:0:0:0:
368,221,227210,1,10,0:0:0:0:
298,106,227377,1,8,0:0:0:0:
254,234,227543,6,0,P|156:202|53:207,1,207.999990478516,4|2,0:0|0:0,0:0:0:0:
141,340,228043,1,2,0:3:0:0:
308,311,228210,2,0,P|336:268|340:216,1,103.999995239258,2|2,0:0|0:3,0:0:0:0:
319,48,228543,6,0,P|267:54|215:55,1,103.999995239258,4|0,0:3|0:0,0:0:0:0:
32,33,228877,1,2,0:0:0:0:
209,94,229043,1,2,0:0:0:0:
3,62,229210,1,2,0:0:0:0:
217,131,229377,1,0,0:0:0:0:
316,206,229543,6,0,P|312:258|307:310,1,103.999995239258,4|0,0:3|0:0,0:0:0:0:
220,169,229877,1,2,0:0:0:0:
184,347,230043,1,2,0:3:0:0:
195,148,230210,1,2,0:0:0:0:
146,360,230377,1,2,0:3:0:0:
72,228,230543,5,4,0:3:0:0:
173,252,230710,1,0,0:0:0:0:
275,272,230877,1,2,0:0:0:0:
376,294,231043,1,2,0:0:0:0:
477,315,231210,2,0,P|480:263|484:211,1,103.999995239258,2|0,0:0|0:0,0:0:0:0:
488,34,231543,6,0,P|385:41|293:90,1,207.999990478516,4|2,0:3|0:0,0:0:0:0:
258,251,232043,1,2,0:3:0:0:
415,138,232210,1,2,0:0:0:0:
202,160,232377,1,2,0:3:0:0:
103,13,232543,6,0,P|96:64|93:116,1,103.999995239258,4|0,0:3|0:0,0:0:0:0:
111,281,232877,1,2,0:0:0:0:
44,204,233043,1,2,0:0:0:0:
184,69,233210,2,0,P|235:62|287:63,1,103.999995239258,2|0,0:0|0:0,0:0:0:0:
354,216,233543,6,0,P|432:215|508:195,1,155.999992858887,4|0,0:3|0:0,0:0:0:0:
512,167,233877,1,2,0:0:0:0:
409,72,234043,1,2,0:3:0:0:
290,145,234210,1,2,0:0:0:0:
278,289,234377,5,2,0:3:0:0:
243,295,234460,1,2,0:0:0:0:
208,301,234544,1,2,0:0:0:0:
290,145,234711,1,2,0:0:0:0:
255,139,234793,1,2,0:0:0:0:
220,133,234877,1,2,0:0:0:0:
369,219,235043,5,8,0:0:0:0:
264,213,235210,1,8,0:0:0:0:
160,205,235377,1,8,0:0:0:0:
217,6,235543,6,0,P|150:70|219:132,1,207.999990478516,4|2,0:0|0:0,0:0:0:0:
424,145,236043,1,2,0:3:0:0:
345,5,236210,2,0,P|332:55|324:107,1,103.999995239258,2|2,0:0|0:3,0:0:0:0:
512,222,236543,5,4,0:3:0:0:
482,101,236710,1,0,0:0:0:0:
401,299,236877,1,2,0:0:0:0:
403,174,237044,1,2,0:0:0:0:
276,320,237210,1,2,0:0:0:0:
311,200,237377,1,0,0:0:0:0:
354,379,237543,6,0,P|251:363|147:359,1,207.999990478516,4|2,0:3|0:0,0:0:0:0:
34,379,238043,1,2,0:3:0:0:
121,201,238210,2,0,P|132:151|138:99,1,103.999995239258,2|2,0:0|0:3,0:0:0:0:
6,28,238543,5,4,0:3:0:0:
138,99,238710,1,0,0:0:0:0:
103,15,238877,1,2,0:0:0:0:
235,86,239044,1,2,0:0:0:0:
326,125,239210,2,0,P|403:121|481:113,1,155.999992858887,2|0,0:0|0:0,0:0:0:0:
483,147,239543,6,0,P|472:197|469:249,1,103.999995239258,4|0,0:3|0:0,0:0:0:0:
470,354,239877,1,2,0:0:0:0:
376,309,240043,1,2,0:3:0:0:
271,309,240210,1,2,0:0:0:0:
177,354,240376,1,2,0:3:0:0:
91,293,240543,6,0,P|61:291|35:286,1,55.9999982910157,2|0,0:0|0:0,0:0:0:0:
91,275,240877,2,0,P|61:273|35:268,1,55.9999982910157,2|0,0:0|0:0,0:0:0:0:
91,252,241210,6,0,P|61:250|35:245,1,55.9999982910157,2|0,0:0|0:0,0:0:0:0:
91,234,241377,2,0,P|61:232|35:227,1,55.9999982910157,2|0,0:0|0:0,0:0:0:0:
193,227,241543,6,0,P|114:178|169:103,1,207.999990478516,4|2,0:3|0:0,0:0:0:0:
331,225,242043,1,2,0:3:0:0:
256,147,242210,1,2,0:0:0:0:
265,329,242377,1,10,0:3:0:0:
301,334,242460,1,8,0:0:0:0:
338,338,242543,1,4,0:3:0:0:
512,245,242710,5,8,0:0:0:0:
476,250,242793,1,8,0:0:0:0:
439,254,242876,1,10,0:0:0:0:
308,139,243043,5,10,0:0:0:0:
333,157,243126,1,8,0:0:0:0:
363,154,243209,1,10,0:0:0:0:
383,131,243293,1,8,0:0:0:0:
383,101,243376,1,8,0:0:0:0:
362,78,243459,1,8,0:0:0:0:
333,68,243543,6,0,P|229:59|125:48,1,207.999990478516,4|2,0:0|0:0,0:0:0:0:
224,148,244043,1,2,0:3:0:0:
16,102,244210,2,0,P|8:54|47:23,1,103.999995239258,2|2,0:0|0:3,0:0:0:0:
88,211,244543,5,4,0:3:0:0:
130,111,244710,1,0,0:0:0:0:
0,291,244877,1,2,0:0:0:0:
155,308,245044,1,2,0:0:0:0:
301,256,245210,1,2,0:0:0:0:
451,298,245377,1,0,0:0:0:0:
203,225,245543,5,4,0:3:0:0:
268,379,245710,1,0,0:0:0:0:
422,192,245877,1,2,0:0:0:0:
357,346,246044,1,2,0:3:0:0:
220,124,246210,1,2,0:0:0:0:
285,278,246377,1,2,0:3:0:0:
450,36,246543,6,0,P|398:40|346:45,1,103.999995239258,4|0,0:3|0:0,0:0:0:0:
506,280,246877,2,0,P|454:276|402:271,1,103.999995239258,2|2,0:0|0:3,0:0:0:0:
172,252,247210,2,0,P|218:194|291:208,1,155.999992858887,2|0,0:0|0:0,0:0:0:0:
305,239,247543,6,0,P|319:136|328:32,1,207.999990478516,4|2,0:0|0:0,0:0:0:0:
211,111,248043,1,2,0:3:0:0:
163,18,248210,1,2,0:0:0:0:
68,61,248377,1,2,0:3:0:0:
14,226,248543,6,0,P|116:209|220:209,1,207.999990478516,4|2,0:3|0:0,0:0:0:0:
121,324,249043,1,2,0:0:0:0:
306,227,249210,1,2,0:0:0:0:
274,127,249377,1,0,0:0:0:0:
460,40,249543,5,4,0:3:0:0:
463,168,249710,1,0,0:0:0:0:
463,168,249793,1,0,0:0:0:0:
463,168,249877,1,2,0:0:0:0:
327,34,250043,1,2,0:3:0:0:
363,138,250210,1,2,0:0:0:0:
403,240,250377,1,2,0:3:0:0:
191,342,250543,1,4,0:3:0:0:
60,207,250710,1,0,0:0:0:0:
60,207,250793,1,0,0:0:0:0:
60,207,250877,6,0,P|106:262|171:230,1,155.999992858887,6|0,0:3|0:0,0:0:0:0:
184,195,251210,2,0,P|183:170|180:144,1,51.999997619629,8|0,0:0|0:0,0:0:0:0:
282,73,251377,2,0,P|279:99|278:125,1,51.999997619629,8|0,0:0|0:0,0:0:0:0:
350,202,251543,5,2,0:0:0:0:
256,192,251627,12,0,263377,0:0:0:0:
