osu file format v14

[General]
AudioFilename: audio.mp3
AudioLeadIn: 0
PreviewTime: 186544
Countdown: 0
SampleSet: Soft
StackLeniency: 0.4
Mode: 0
LetterboxInBreaks: 0
WidescreenStoryboard: 1

[Editor]
Bookmarks: 2497,87828,136491,203490
DistanceSpacing: 1.3
BeatDivisor: 2
GridSize: 32
TimelineZoom: 1.3

[Metadata]
Title:Phronesis
TitleUnicode:Phronesis
Artist:RURUTIA
ArtistUnicode:ルルティア
Creator:Shurelia
Version:Hinsvar's Normal
Source:ソフィーのアトリエ ~不思議な本の錬金術士~
Tags:Atelier Sophie: The Alchemist of the Mysterious Book Opening gust jrpg koeitecmo NISA Hinsvar Cami
BeatmapID:2207186
BeatmapSetID:1052074

[Difficulty]
HPDrainRate:4
CircleSize:3.3
OverallDifficulty:4
ApproachRate:5.5
SliderMultiplier:1
SliderTickRate:1

[Events]
//Background and Video events
0,0,"plachtabg.jpg",0,0
//Break Periods
2,86081,86756
2,138744,143419
2,187744,202343
//Storyboard Layer 0 (Background)
//Storyboard Layer 1 (Fail)
//Storyboard Layer 2 (Pass)
//Storyboard Layer 3 (Foreground)
//Storyboard Layer 4 (Overlay)
//Storyboard Sound Samples

[TimingPoints]
2551,333.333333333333,5,2,2,41,1,0
2551,-111.111111111111,5,2,2,41,0,0
2883,-111.111111111111,5,2,2,41,0,0
4217,333.333333333333,6,2,2,41,1,0
4217,-111.111111111111,6,2,2,41,0,0
6217,333.333333333333,5,2,2,41,1,0
6217,-111.111111111111,5,2,2,41,0,0
6883,-111.111111111111,5,2,2,41,0,0
7883,333.333333333333,6,2,2,41,1,0
7883,-111.111111111111,5,2,2,41,0,0
9884,333.333333333333,5,2,1,47,1,0
11550,333.333333333333,6,2,1,47,1,0
13549,333.333333333333,5,2,1,47,1,0
15215,333.333333333333,6,2,1,47,1,0
18217,333.333333333333,6,2,1,53,1,0
21716,-100,6,2,1,43,0,0
21883,-100,6,2,1,53,0,0
30216,333.333333333333,5,2,1,53,1,0
31882,333.333333333333,6,2,1,53,1,0
49881,-100,6,2,1,20,0,0
50881,-100,6,2,1,57,0,0
51214,-100,6,2,1,43,0,0
51881,-90.9090909090909,6,2,1,57,0,1
67715,-90.9090909090909,6,2,1,47,0,0
67881,-90.9090909090909,6,2,1,57,0,1
73381,-90.9090909090909,6,2,1,47,0,1
73548,-90.9090909090909,6,2,1,57,0,1
74381,-90.9090909090909,6,2,1,47,0,1
74548,-90.9090909090909,6,2,1,57,0,1
81381,-90.9090909090909,6,2,1,47,0,1
81548,-90.9090909090909,6,2,1,57,0,1
83714,-90.9090909090909,6,2,1,47,0,1
83881,-90.9090909090909,6,2,1,50,0,0
84048,-90.9090909090909,6,2,1,47,0,0
87881,333.333333333333,5,2,2,41,1,0
87881,-111.111111111111,5,2,2,41,0,0
89547,333.333333333333,6,2,2,41,1,0
89547,-111.111111111111,6,2,2,41,0,0
91547,333.333333333333,5,2,2,41,1,0
91547,-111.111111111111,5,2,2,41,0,0
93213,333.333333333333,6,2,2,41,1,0
93213,-111.111111111111,6,2,2,41,0,0
94212,-111.111111111111,6,2,1,41,0,0
94379,-111.111111111111,6,2,1,41,0,0
95213,333.333333333333,5,2,1,47,1,0
96879,333.333333333333,6,2,1,47,1,0
100379,-100,6,2,1,43,0,0
100545,-100,6,2,1,47,0,0
102879,-100,6,2,1,53,0,0
114878,333.333333333333,5,2,1,53,1,0
116545,333.333333333333,6,2,1,53,1,0
145210,-100,6,2,1,43,0,0
145377,-100,6,2,1,53,0,0
152544,-90.9090909090909,6,2,1,57,0,1
182544,-100,6,2,1,50,0,0
183544,-100,6,2,1,44,0,0
184544,-111.111111111111,6,2,1,38,0,0
187544,333.333333333333,6,2,1,53,1,0
203543,-90.9090909090909,6,2,1,63,0,1
219460,-90.9090909090909,6,2,1,53,0,0
219543,-90.9090909090909,6,2,1,63,0,1
239376,-90.9090909090909,6,2,1,53,0,1
239543,-90.9090909090909,6,2,1,63,0,1
241043,-90.9090909090909,6,2,1,53,0,1
241210,-90.9090909090909,6,2,1,63,0,1
251376,-90.9090909090909,6,2,1,50,0,1
251543,-100,6,2,1,41,0,0
251710,-100,6,2,1,20,0,0

[Colours]
Combo1 : 255,128,128
Combo2 : 128,0,64
Combo3 : 0,0,128
Combo4 : 128,128,0

[HitObjects]
8,30,2550,6,0,P|53:48|86:87,1,100,2|0,0:0|0:0,0:0:0:0:
123,173,3217,1,0,0:0:0:0:
123,173,3550,1,0,0:0:0:0:
192,230,3884,1,2,0:0:0:0:
263,175,4217,2,0,P|362:146|439:184,1,179.999994506836,2|0,0:0|0:0,0:0:0:0:
409,262,5216,2,0,P|410:304|432:367,2,89.9999972534181,2|0|2,0:0|0:0|0:0,0:0:0:0:
428,174,6216,5,2,0:0:0:0:
428,174,6883,2,0,P|379:171|337:147,1,89.9999972534181
284,83,7550,1,2,0:0:0:0:
202,44,7883,2,0,P|155:110|162:166,1,134.999995880127,2|0,0:0|0:0,0:0:0:0:
171,204,8549,1,0,0:0:0:0:
251,164,8882,1,2,0:0:0:0:
304,236,9216,2,0,B|294:296|294:296|261:318,1,89.9999972534181,4|6,0:3|0:3,0:0:0:0:
172,334,9884,6,0,B|91:342|91:342|42:295,1,150,8|0,0:3|0:0,0:0:0:0:
28,246,10550,1,0,0:0:0:0:
97,171,10883,2,0,P|107:127|110:67,1,100,10|0,0:0|0:0,0:0:0:0:
190,13,11550,2,0,B|288:22|288:22|265:76,1,150,8|8,0:3|0:0,0:0:0:0:
241,111,12216,2,0,L|256:168,1,50,0|8,0:0|0:3,0:0:0:0:
269,206,12549,1,10,0:0:0:0:
332,283,12883,1,0,0:0:0:0:
428,308,13216,1,8,0:3:0:0:
504,244,13549,6,0,P|517:198|519:135,2,100,2|8|8,0:0|0:3|0:3,0:0:0:0:
428,308,14548,2,0,L|446:364,2,50,10|0|0,0:0|0:0|0:0,0:0:0:0:
357,237,15215,2,0,P|309:226|257:249,2,100,8|8|0,0:3|0:3|0:0,0:0:0:0:
338,335,16214,1,10,0:0:0:0:
245,373,16548,2,0,L|189:365,1,50,0|8,0:0|0:3,0:0:0:0:
161,328,16881,1,8,0:0:0:0:
217,245,17214,2,0,B|235:199|235:199|219:145,2,100,8|8|8,0:0|0:0|0:0,0:0:0:0:
116,251,18217,6,0,P|78:218|28:218,1,100,6|2,0:0|0:0,0:0:0:0:
0,256,18717,1,2,0:3:0:0:
0,256,18883,1,2,0:0:0:0:
49,342,19217,1,6,0:3:0:0:
146,365,19550,2,0,L|198:357,2,50,2|2|10,0:0|0:0|0:0,0:0:0:0:
172,268,20216,6,0,P|165:216|126:159,1,100,0|10,0:3|0:0,0:0:0:0:
93,165,20716,2,0,L|110:113,1,50,8|10,0:0|0:0,0:0:0:0:
187,55,21216,1,6,0:3:0:0:
260,122,21550,2,0,L|312:128,1,50,2|0,0:0|0:0,0:0:0:0:
350,99,21883,1,2,0:0:0:0:
418,171,22216,5,6,0:0:0:0:
346,241,22550,2,0,L|294:229,2,50,2|2|2,0:0|0:3|0:0,0:0:0:0:
364,293,23050,1,2,0:3:0:0:
364,293,23216,2,0,P|405:268|469:268,1,100,6|2,0:3|0:0,0:0:0:0:
497,173,23883,1,2,0:0:0:0:
467,77,24216,6,0,B|420:24|420:24|367:33,1,100,2|2,0:3|0:0,0:0:0:0:
347,53,24716,2,0,L|334:118,2,50,2|2|8,0:3|0:0|0:3,0:0:0:0:
307,21,25216,1,6,0:3:0:0:
225,78,25550,1,10,0:0:0:0:
131,43,25883,1,4,0:3:0:0:
46,95,26216,6,0,B|28:141|28:141|41:201,1,100,6|2,0:0|0:0,0:0:0:0:
68,236,26716,1,2,0:3:0:0:
68,236,26883,2,0,L|118:224,1,50,2|2,0:0|0:3,0:0:0:0:
165,213,27216,1,4,0:3:0:0:
226,292,27550,2,0,L|213:348,2,50,2|2|2,0:0|0:3|0:0,0:0:0:0:
295,220,28216,5,6,0:3:0:0:
379,273,28550,2,0,L|434:282,2,50,2|8|2,0:0|0:3|0:0,0:0:0:0:
411,178,29216,2,0,P|405:130|379:80,1,100,8|10,0:0|0:0,0:0:0:0:
284,107,29883,2,0,P|258:107|229:96,1,50,12|10,0:0|0:0,0:0:0:0:
190,77,30216,6,0,B|144:96|144:96|117:156,1,100,14|0,0:3|0:0,0:0:0:0:
108,191,30716,1,2,0:3:0:0:
108,191,30882,1,2,0:0:0:0:
160,276,31216,2,0,P|202:253|265:251,1,100,4|2,0:3|0:0,0:0:0:0:
325,317,31882,5,2,0:0:0:0:
389,240,32215,1,10,0:0:0:0:
389,240,32382,2,0,L|378:192,2,50,8|10|8,0:0|0:0|0:0,0:0:0:0:
430,268,32882,2,0,B|467:251|467:251|486:186,1,100,2|2,0:0|0:0,0:0:0:0:
483,144,33382,2,0,P|435:119|402:79,1,100,2|2,0:3|0:0,0:0:0:0:
388,37,33882,6,0,L|438:22,2,50,6|0|2,0:0|0:0|0:0,0:0:0:0:
292,7,34548,1,2,0:0:0:0:
202,52,34882,2,0,P|179:99|178:154,1,100,6|2,0:3|0:0,0:0:0:0:
198,198,35382,1,2,0:0:0:0:
198,198,35548,1,2,0:0:0:0:
139,279,35881,6,0,P|85:278|38:254,1,100,4|2,0:3|0:0,0:0:0:0:
20,214,36381,2,0,L|12:154,1,50,2|2,0:3|0:0,0:0:0:0:
70,82,36881,1,6,0:3:0:0:
146,146,37215,2,0,L|205:158,2,50,2|2|2,0:0|0:0|0:0,0:0:0:0:
184,53,37881,6,0,P|208:40|236:35,1,50,4|0,0:3|0:0,0:0:0:0:
274,59,38215,2,0,P|317:84|371:88,1,100,10|2,0:0|0:0,0:0:0:0:
414,66,38715,1,2,0:3:0:0:
414,66,38881,2,0,P|455:130|458:221,1,150,6|2,0:3|0:0,0:0:0:0:
436,245,39548,1,10,0:0:0:0:
397,336,39881,6,0,P|354:305|304:307,1,100,4|2,0:3|0:0,0:0:0:0:
277,344,40381,2,0,L|226:351,1,50,2|2,0:3|0:0,0:0:0:0:
147,290,40881,1,4,0:3:0:0:
82,213,41215,2,0,L|30:198,2,50,2|2|2,0:0|0:0|0:0,0:0:0:0:
170,166,41881,6,0,P|194:121|193:62,1,100,4|2,0:3|0:0,0:0:0:0:
176,33,42381,1,2,0:3:0:0:
176,33,42548,1,2,0:0:0:0:
272,7,42881,2,0,P|321:13|359:47,1,100,6|2,0:3|0:0,0:0:0:0:
377,91,43381,2,0,L|436:103,1,50,2|2,0:0|0:0,0:0:0:0:
485,181,43881,5,2,0:3:0:0:
435,267,44215,2,0,L|452:320,2,50,2|2|2,0:0|0:3|0:0,0:0:0:0:
401,235,44715,1,2,0:3:0:0:
401,235,44881,2,0,P|349:217|298:236,1,100,6|2,0:3|0:0,0:0:0:0:
236,300,45548,1,2,0:0:0:0:
149,249,45881,6,0,L|134:195,1,50,2|0,0:3|0:0,0:0:0:0:
93,172,46215,2,0,L|39:187,2,50,2|2|2,0:0|0:3|0:0,0:0:0:0:
130,79,46881,1,2,0:0:0:0:
216,128,47215,2,0,B|240:175|240:175|233:225,1,100,2|2,0:0|0:0,0:0:0:0:
189,311,47881,6,0,P|223:345|284:352,1,100,2|2,0:3|0:0,0:0:0:0:
317,331,48381,1,2,0:3:0:0:
317,331,48548,2,0,L|370:341,1,50,2|2,0:0|0:3,0:0:0:0:
415,330,48881,1,8,0:0:0:0:
480,254,49215,2,0,P|479:202|462:153,1,100,8|8,0:0|0:0,0:0:0:0:
393,85,49881,6,0,P|327:92|276:18,1,150
177,22,50715,1,0,0:0:0:0:
177,22,50881,2,0,P|134:56|124:102,2,100
263,89,51881,6,0,B|281:178|281:178|266:254,1,165.000005035401,6|2,0:0|0:3,0:0:0:0:
255,304,52548,1,2,0:0:0:0:
156,352,52881,2,0,P|122:312|63:290,1,110.000003356934,4|2,0:3|0:0,0:0:0:0:
29,253,53381,2,0,L|20:198,1,55.0000016784668,2|2,0:0|0:0,0:0:0:0:
100,123,53881,5,2,0:3:0:0:
203,83,54215,2,0,L|214:26,2,55.0000016784668,2|2|2,0:0|0:3|0:0,0:0:0:0:
241,130,54715,1,2,0:3:0:0:
241,130,54881,2,0,P|263:178|251:239,1,110.000003356934,4|2,0:3|0:0,0:0:0:0:
236,285,55381,2,0,L|295:301,1,55.0000016784668,2|2,0:0|0:0,0:0:0:0:
374,369,55881,6,0,P|416:339|485:334,1,110.000003356934,6|2,0:3|0:0,0:0:0:0:
499,284,56381,1,2,0:3:0:0:
499,284,56548,2,0,L|503:221,2,55.0000016784668,2|2|4,0:0|0:3|0:3,0:0:0:0:
397,240,57215,1,2,0:0:0:0:
323,158,57548,2,0,P|316:129|317:103,1,55.0000016784668,2|0,0:0|0:0,0:0:0:0:
348,58,57881,6,0,P|294:56|235:28,1,110.000003356934,2|2,0:3|0:0,0:0:0:0:
200,5,58381,1,2,0:3:0:0:
200,5,58548,2,0,L|136:21,1,55.0000016784668,2|0,0:0|0:0,0:0:0:0:
129,70,58881,2,0,B|83:37|83:37|21:46,1,110.000003356934,4|10,0:3|0:0,0:0:0:0:
3,151,59548,1,10,0:0:0:0:
67,240,59881,6,0,B|167:191|167:191|234:218,1,165.000005035401,4|2,0:0|0:3,0:0:0:0:
240,261,60548,1,2,0:0:0:0:
343,224,60881,2,0,P|357:275|355:340,1,110.000003356934,4|2,0:3|0:0,0:0:0:0:
324,370,61381,1,2,0:0:0:0:
324,370,61548,1,2,0:0:0:0:
235,305,61881,5,4,0:3:0:0:
131,342,62215,2,0,L|68:327,1,55.0000016784668,2|2,0:0|0:3,0:0:0:0:
48,282,62548,2,0,P|40:222|72:184,1,110.000003356934,2|4,0:0|0:3,0:0:0:0:
177,214,63215,2,0,L|233:198,2,55.0000016784668,2|2|2,0:0|0:0|0:0,0:0:0:0:
172,104,63881,6,0,P|204:57|254:32,1,110.000003356934,4|2,0:3|0:0,0:0:0:0:
297,69,64381,1,2,0:3:0:0:
297,69,64548,2,0,P|324:78|356:78,1,55.0000016784668,2|2,0:0|0:3,0:0:0:0:
403,65,64881,1,4,0:3:0:0:
481,142,65215,1,2,0:0:0:0:
392,207,65548,2,0,L|338:217,1,55.0000016784668,2|0,0:0|0:0,0:0:0:0:
288,192,65881,6,0,P|261:240|257:300,1,110.000003356934,4|2,0:3|0:0,0:0:0:0:
281,343,66381,2,0,L|337:358,2,55.0000016784668,2|2|2,0:3|0:0|0:3,0:0:0:0:
237,377,66881,1,4,0:3:0:0:
148,311,67215,1,10,0:0:0:0:
44,348,67548,2,0,P|35:322|29:290,1,55.0000016784668,10|10,0:0|0:3,0:0:0:0:
37,240,67881,6,0,P|114:206|94:133,1,165.000005035401,6|2,0:0|0:3,0:0:0:0:
54,108,68548,1,2,0:0:0:0:
131,30,68881,2,0,P|184:17|249:15,1,110.000003356934,4|2,0:3|0:0,0:0:0:0:
275,56,69381,2,0,P|264:83|258:118,1,55.0000016784668,2|2,0:0|0:0,0:0:0:0:
339,183,69881,5,4,0:3:0:0:
418,106,70215,2,0,L|401:49,2,55.0000016784668,2|2|2,0:0|0:3|0:0,0:0:0:0:
467,143,70715,1,2,0:3:0:0:
467,143,70881,2,0,P|440:191|448:255,1,110.000003356934,4|2,0:3|0:0,0:0:0:0:
428,297,71381,2,0,L|367:314,1,55.0000016784668,2|2,0:0|0:0,0:0:0:0:
284,374,71881,5,4,0:3:0:0:
226,279,72215,2,0,P|229:249|237:214,2,55.0000016784668,2|2|2,0:0|0:3|0:0,0:0:0:0:
189,318,72715,1,2,0:3:0:0:
189,318,72881,2,0,P|146:280|84:281,1,110.000003356934,4|2,0:3|0:0,0:0:0:0:
47,296,73381,1,0,0:0:0:0:
47,296,73548,1,2,0:0:0:0:
4,194,73881,5,2,0:3:0:0:
32,87,74215,2,0,L|88:78,1,55.0000016784668,2|0,0:0|0:0,0:0:0:0:
118,33,74548,1,2,0:0:0:0:
227,44,74881,2,0,P|259:87|264:141,1,110.000003356934,4|2,0:3|0:0,0:0:0:0:
235,191,75381,1,2,0:0:0:0:
235,191,75548,1,2,0:0:0:0:
211,302,75881,6,0,P|270:332|375:346,1,165.000005035401,6|2,0:0|0:3,0:0:0:0:
417,324,76548,1,2,0:0:0:0:
358,230,76881,1,4,0:3:0:0:
428,145,77215,2,0,L|485:129,2,55.0000016784668,2|2|2,0:0|0:0|0:0,0:0:0:0:
380,45,77881,6,0,B|332:13|332:13|277:28,1,110.000003356934,4|2,0:3|0:0,0:0:0:0:
243,66,78381,2,0,L|183:53,1,55.0000016784668,2|2,0:3|0:0,0:0:0:0:
92,1,78881,1,4,0:3:0:0:
24,88,79215,2,0,L|9:154,2,55.0000016784668,2|2|2,0:0|0:0|0:0,0:0:0:0:
123,133,79881,6,0,P|142:185|148:249,1,110.000003356934,4|2,0:3|0:0,0:0:0:0:
124,289,80381,2,0,L|66:301,2,55.0000016784668,2|2|2,0:3|0:0|0:3,0:0:0:0:
154,334,80881,1,4,0:3:0:0:
261,308,81215,2,0,P|270:279|275:253,1,55.0000016784668,2|0,0:0|0:0,0:0:0:0:
316,219,81548,2,0,P|310:191|296:166,1,55.0000016784668,2|2,0:0|0:0,0:0:0:0:
311,114,81881,6,0,P|361:86|427:94,1,110.000003356934,4|2,0:3|0:0,0:0:0:0:
444,133,82381,2,0,L|433:191,1,55.0000016784668,2|2,0:3|0:0,0:0:0:0:
477,288,82881,2,0,P|453:338|384:363,1,110.000003356934,4|2,0:3|0:0,0:0:0:0:
371,326,83381,1,2,0:0:0:0:
371,326,83548,2,0,L|311:315,1,55.0000016784668,2|0,0:0|0:0,0:0:0:0:
265,335,83881,5,6,0:0:0:0:
256,192,84048,12,0,85881,0:0:0:0:
426,157,87881,5,2,0:0:0:0:
426,157,88214,2,0,P|437:115|440:69,2,89.9999972534181,0|0|2,0:0|0:0|0:0,0:0:0:0:
366,224,89214,1,0,0:0:0:0:
291,174,89547,2,0,P|203:181|196:273,1,179.999994506836,2|0,0:0|0:0,0:0:0:0:
239,332,90547,2,0,P|281:306|326:301,1,89.9999972534181,2|0,0:0|0:0,0:0:0:0:
397,346,91213,1,2,0:0:0:0:
485,330,91547,5,2,0:0:0:0:
485,330,92213,1,0,0:0:0:0:
505,242,92547,2,0,P|499:194|474:151,1,89.9999972534181,2|0,0:0|0:0,0:0:0:0:
406,105,93213,2,0,P|353:153|289:148,1,134.999995880127,2|0,0:0|0:0,0:0:0:0:
258,120,93879,2,0,P|218:102|163:96,1,89.9999972534181,0|2,0:0|0:0,0:0:0:0:
137,123,94379,2,0,L|80:132,1,44.999998626709,8|8,0:0|0:0,0:0:0:0:
61,214,94879,2,0,L|105:221,1,44.999998626709,8|8,0:0|0:0,0:0:0:0:
141,256,95213,5,2,0:0:0:0:
233,218,95546,2,0,L|243:161,2,50,2|2|2,0:0|0:3|0:0,0:0:0:0:
302,290,96213,2,0,P|336:253|390:234,1,100,4|2,0:3|0:0,0:0:0:0:
469,283,96879,6,0,P|502:238|486:150,1,150,4|2,0:3|0:3,0:0:0:0:
449,115,97545,2,0,P|440:90|439:63,1,50,2|2,0:0|0:3,0:0:0:0:
450,17,97879,1,4,0:3:0:0:
350,4,98212,1,10,0:0:0:0:
273,68,98545,2,0,P|245:66|217:57,1,50,10|10,0:0|0:0,0:0:0:0:
179,35,98879,6,0,P|127:29|82:62,1,100,4|2,0:3|0:0,0:0:0:0:
65,98,99379,1,2,0:3:0:0:
65,98,99545,1,2,0:0:0:0:
105,189,99879,2,0,P|85:238|48:281,1,100,4|2,0:3|0:0,0:0:0:0:
43,322,100379,2,0,L|72:369,1,50
154,312,100879,5,2,0:0:0:0:
221,238,101212,2,0,P|228:212|231:184,2,50,0|8|2,0:0|0:0|0:3,0:0:0:0:
318,261,101879,2,0,P|344:304|351:361,1,100,8|8,0:0|0:0,0:0:0:0:
394,378,102379,2,0,P|418:363|442:358,1,50,8|8,0:0|0:0,0:0:0:0:
500,279,102879,6,0,P|506:232|506:177,1,100,4|2,0:0|0:0,0:0:0:0:
484,142,103379,1,2,0:3:0:0:
484,142,103545,1,2,0:0:0:0:
395,189,103879,1,4,0:3:0:0:
341,104,104212,2,0,L|348:50,2,50,2|2|2,0:0|0:0|0:0,0:0:0:0:
249,143,104878,6,0,P|173:132|159:64,1,150,4|8,0:3|0:0,0:0:0:0:
181,25,105545,1,10,0:0:0:0:
278,48,105878,1,12,0:3:0:0:
370,8,106212,2,0,P|390:27|404:52,1,50,2|2,0:0|0:0,0:0:0:0:
415,94,106545,1,2,0:0:0:0:
473,175,106878,6,0,P|430:199|388:247,1,100,4|2,0:0|0:0,0:0:0:0:
372,280,107378,2,0,L|400:334,2,50,2|2|2,0:3|0:0|0:3,0:0:0:0:
322,285,107878,1,4,0:3:0:0:
234,235,108212,1,2,0:0:0:0:
176,316,108545,1,2,0:0:0:0:
113,238,108878,6,0,P|81:204|27:176,1,100,4|2,0:3|0:0,0:0:0:0:
8,135,109378,2,0,L|16:84,1,50,2|2,0:3|0:0,0:0:0:0:
47,46,109712,1,2,0:3:0:0:
47,46,109878,1,4,0:3:0:0:
126,106,110212,2,0,P|174:100|214:69,1,100,2|2,0:0|0:0,0:0:0:0:
297,124,110878,6,0,P|313:76|359:30,1,100,4|2,0:0|0:0,0:0:0:0:
392,21,111378,1,2,0:3:0:0:
392,21,111545,1,2,0:0:0:0:
454,98,111878,2,0,P|447:147|429:199,1,100,4|2,0:3|0:0,0:0:0:0:
482,280,112545,1,2,0:0:0:0:
426,362,112878,6,0,P|361:306|294:322,1,150,4|2,0:3|0:3,0:0:0:0:
264,348,113545,1,2,0:0:0:0:
180,293,113878,1,2,0:0:0:0:
246,218,114212,1,2,0:0:0:0:
218,122,114545,1,10,0:0:0:0:
180,29,114878,6,0,P|120:72|41:57,1,150,4|2,0:0|0:3,0:0:0:0:
2,41,115544,1,2,0:0:0:0:
14,140,115878,2,0,P|9:192|-3:245,1,100,4|2,0:3|0:0,0:0:0:0:
53,322,116545,6,0,P|97:295|152:287,1,100,2|2,0:0|0:0,0:0:0:0:
176,326,117045,1,2,0:3:0:0:
176,326,117211,2,0,P|200:338|231:342,1,50,2|2,0:0|0:3,0:0:0:0:
271,325,117545,1,2,0:0:0:0:
342,254,117878,1,2,0:0:0:0:
342,254,118045,2,0,B|365:219|365:219|357:159,1,100,0|2,0:0|0:0,0:0:0:0:
377,115,118545,6,0,L|354:67,1,50,6|0,0:0|0:0,0:0:0:0:
311,46,118878,2,0,L|254:55,1,50,2|2,0:0|0:3,0:0:0:0:
222,85,119211,1,2,0:0:0:0:
137,31,119545,1,4,0:3:0:0:
41,60,119878,1,2,0:0:0:0:
3,152,120211,1,2,0:0:0:0:
77,221,120545,6,0,P|97:265|107:321,1,100,4|2,0:3|0:0,0:0:0:0:
144,347,121045,2,0,P|167:339|192:336,1,50,2|2,0:3|0:0,0:0:0:0:
286,369,121545,1,4,0:3:0:0:
331,280,121878,2,0,L|319:230,2,50,2|2|2,0:0|0:0|0:0,0:0:0:0:
405,347,122545,6,0,P|434:355|468:354,1,50,4|0,0:3|0:0,0:0:0:0:
475,310,122878,2,0,P|448:270|439:207,1,100,2|2,0:0|0:0,0:0:0:0:
475,126,123545,1,4,0:3:0:0:
423,40,123878,2,0,L|370:12,2,50,2|2|2,0:0|0:0|0:0,0:0:0:0:
365,121,124544,6,0,P|326:147|266:153,1,100,4|2,0:3|0:0,0:0:0:0:
227,136,125044,2,0,L|217:86,1,50,2|2,0:3|0:0,0:0:0:0:
130,36,125544,1,8,0:0:0:0:
63,110,125878,2,0,L|13:119,2,50,10|10|10,0:0|0:0|0:0,0:0:0:0:
137,176,126544,6,0,P|141:225|121:282,1,100,4|2,0:3|0:0,0:0:0:0:
92,309,127044,1,2,0:3:0:0:
92,309,127211,1,2,0:0:0:0:
178,359,127544,1,4,0:3:0:0:
262,304,127878,2,0,P|309:293|353:324,1,100,2|2,0:0|0:0,0:0:0:0:
436,370,128544,6,0,P|459:330|470:271,1,100,4|2,0:3|0:0,0:0:0:0:
458,228,129044,2,0,L|430:180,1,50,2|2,0:3|0:0,0:0:0:0:
467,90,129544,1,4,0:3:0:0:
373,54,129878,2,0,L|360:0,2,50,2|2|2,0:0|0:0|0:0,0:0:0:0:
291,111,130544,6,0,L|243:93,2,50,4|0|2,0:3|0:0|0:0,0:0:0:0:
316,160,131044,1,2,0:3:0:0:
316,160,131211,1,2,0:0:0:0:
270,248,131544,1,4,0:3:0:0:
170,235,131878,2,0,P|135:202|110:153,1,100,2|2,0:0|0:0,0:0:0:0:
44,82,132544,6,0,P|93:65|136:32,1,100,4|2,0:3|0:0,0:0:0:0:
170,5,133044,2,0,L|221:25,1,50,2|2,0:3|0:0,0:0:0:0:
233,122,133544,1,8,0:0:0:0:
316,67,133878,2,0,L|329:11,2,50,10|10|10,0:0|0:0|0:0,0:0:0:0:
346,114,134378,1,8,0:0:0:0:
346,114,134544,6,0,P|398:67|490:84,1,150,2|0,0:0|0:3,0:0:0:0:
496,117,135211,2,0,L|486:165,1,50,2|2,0:0|0:3,0:0:0:0:
497,214,135544,1,2,0:0:0:0:
435,292,135878,2,0,P|439:316|456:345,2,50,2|2|2,0:0|0:0|0:0,0:0:0:0:
341,257,136544,5,4,0:0:0:0:
256,192,136711,12,8,138544,0:0:0:0:
415,324,144544,6,0,B|437:284|437:284|427:228,1,100,4|2,0:0|0:0,0:0:0:0:
453,187,145044,2,0,L|513:196,2,50,2|0|2,0:3|0:0|0:3,0:0:0:0:
444,137,145544,1,4,0:3:0:0:
370,68,145878,2,0,L|316:60,1,50,2|2,0:0|0:0,0:0:0:0:
274,81,146211,2,0,L|220:89,1,50,2|0,0:0|0:0,0:0:0:0:
175,76,146544,5,4,0:3:0:0:
102,145,146878,1,2,0:0:0:0:
102,145,147044,2,0,B|86:184|86:184|106:248,1,100,2|2,0:3|0:3,0:0:0:0:
120,287,147544,1,4,0:3:0:0:
205,235,147878,2,0,L|258:239,1,50,2|2,0:0|0:0,0:0:0:0:
299,261,148211,1,2,0:0:0:0:
347,173,148544,6,0,P|395:172|438:220,1,100,2|2,0:0|0:0,0:0:0:0:
458,247,149044,2,0,L|504:229,2,50,2|2|2,0:3|0:0|0:3,0:0:0:0:
437,292,149544,1,6,0:3:0:0:
367,364,149878,2,0,L|311:349,1,50,2|2,0:0|0:0,0:0:0:0:
286,312,150211,1,2,0:0:0:0:
196,356,150544,6,0,P|163:320|154:262,1,100,4|2,0:3|0:0,0:0:0:0:
169,223,151044,1,2,0:3:0:0:
95,155,151378,1,2,0:3:0:0:
95,155,151544,2,0,B|135:94|135:94|181:86,1,100,10|8,0:0|0:0,0:0:0:0:
208,72,152044,2,0,L|216:21,2,50,10|10|10,0:0|0:0|0:0,0:0:0:0:
243,114,152544,6,0,P|311:144|405:93,1,165.000005035401,4|2,0:0|0:3,0:0:0:0:
430,73,153211,1,2,0:0:0:0:
485,167,153544,1,4,0:3:0:0:
402,239,153878,2,0,L|391:303,2,55.0000016784668,2|2|2,0:0|0:0|0:0,0:0:0:0:
308,181,154544,6,0,P|254:178|203:212,1,110.000003356934,4|2,0:3|0:0,0:0:0:0:
183,256,155044,1,2,0:3:0:0:
183,256,155211,1,2,0:0:0:0:
91,316,155544,1,4,0:3:0:0:
33,221,155878,2,0,L|28:167,1,55.0000016784668,2|2,0:0|0:0,0:0:0:0:
46,114,156211,1,2,0:0:0:0:
123,35,156544,6,0,P|163:67|224:77,1,110.000003356934,4|2,0:3|0:0,0:0:0:0:
273,63,157044,2,0,L|292:3,2,55.0000016784668,2|2|2,0:3|0:0|0:3,0:0:0:0:
309,103,157544,1,4,0:3:0:0:
258,201,157878,2,0,P|250:252|284:314,1,110.000003356934,2|2,0:0|0:0,0:0:0:0:
322,344,158378,1,0,0:0:0:0:
322,344,158544,6,0,B|387:309|387:309|432:329,1,110.000003356934,4|2,0:3|0:0,0:0:0:0:
472,307,159044,2,0,L|486:245,1,55.0000016784668,2|2,0:3|0:0,0:0:0:0:
452,213,159378,1,2,0:3:0:0:
452,213,159544,1,4,0:3:0:0:
377,132,159878,2,0,L|368:77,2,55.0000016784668,10|8|10,0:0|0:0|0:0,0:0:0:0:
292,201,160544,6,0,P|229:181|237:84,1,165.000005035401,4|2,0:0|0:3,0:0:0:0:
261,49,161211,1,2,0:0:0:0:
156,15,161544,2,0,L|99:24,1,55.0000016784668,4|0,0:3|0:0,0:0:0:0:
65,65,161878,2,0,L|74:122,1,55.0000016784668,2|2,0:0|0:0,0:0:0:0:
115,155,162211,1,2,0:0:0:0:
37,233,162544,6,0,P|61:281|123:309,1,110.000003356934,4|2,0:3|0:0,0:0:0:0:
159,280,163044,1,2,0:3:0:0:
159,280,163211,1,2,0:0:0:0:
238,356,163544,2,0,P|276:320|340:318,1,110.000003356934,4|2,0:3|0:0,0:0:0:0:
372,278,164044,2,0,L|361:222,1,55.0000016784668,2|2,0:0|0:0,0:0:0:0:
463,181,164544,6,0,P|487:125|451:74,1,110.000003356934,4|2,0:3|0:0,0:0:0:0:
418,58,165044,2,0,L|402:-7,2,55.0000016784668,2|2|2,0:3|0:0|0:3,0:0:0:0:
372,89,165544,1,4,0:3:0:0:
268,51,165878,2,0,B|196:62|196:62|172:104,1,110.000003356934,2|2,0:0|0:0,0:0:0:0:
199,150,166378,1,2,0:0:0:0:
199,150,166544,6,0,P|192:205|148:250,1,110.000003356934,4|2,0:3|0:0,0:0:0:0:
107,269,167044,1,2,0:3:0:0:
107,269,167211,1,2,0:0:0:0:
8,219,167544,1,4,0:3:0:0:
56,117,167878,2,0,L|121:104,1,55.0000016784668,2|2,0:0|0:0,0:0:0:0:
143,62,168211,1,2,0:0:0:0:
246,26,168544,6,0,P|300:20|343:69,1,110.000003356934,0|2,0:0|0:0,0:0:0:0:
371,99,169044,2,0,L|433:106,2,55.0000016784668,2|2|2,0:3|0:0|0:3,0:0:0:0:
344,147,169544,1,4,0:3:0:0:
416,230,169878,2,0,P|416:263|409:294,1,55.0000016784668,2|2,0:0|0:0,0:0:0:0:
379,328,170211,1,2,0:0:0:0:
274,363,170544,6,0,P|235:323|180:309,1,110.000003356934,4|2,0:3|0:0,0:0:0:0:
138,340,171044,1,2,0:3:0:0:
138,340,171211,2,0,L|74:354,1,55.0000016784668,2|2,0:0|0:3,0:0:0:0:
39,319,171544,2,0,P|74:269|65:207,1,110.000003356934,2|2,0:1|0:1,0:0:0:0:
48,171,172044,2,0,L|55:116,1,55.0000016784668,0|2,0:0|0:1,0:0:0:0:
115,24,172544,6,0,P|157:56|227:48,1,110.000003356934,4|2,0:3|0:0,0:0:0:0:
262,32,173044,1,2,0:3:0:0:
262,32,173211,1,2,0:0:0:0:
346,102,173544,1,4,0:3:0:0:
452,71,173878,2,0,L|467:18,2,55.0000016784668,2|2|2,0:0|0:0|0:0,0:0:0:0:
485,175,174544,6,0,P|441:194|409:251,1,110.000003356934,4|2,0:3|0:0,0:0:0:0:
406,302,175044,1,2,0:3:0:0:
406,302,175211,1,2,0:0:0:0:
298,356,175544,1,4,0:3:0:0:
227,271,175878,2,0,L|171:284,2,55.0000016784668,2|2|2,0:0|0:0|0:0,0:0:0:0:
308,196,176544,6,0,P|325:144|302:79,1,110.000003356934,4|2,0:3|0:0,0:0:0:0:
274,51,177044,1,2,0:0:0:0:
181,110,177378,1,2,0:3:0:0:
181,110,177544,2,0,P|122:104|81:72,1,110.000003356934,4|2,0:3|0:0,0:0:0:0:
32,97,178044,2,0,P|23:120|18:150,1,55.0000016784668,2|2,0:0|0:0,0:0:0:0:
41,257,178544,5,4,0:3:0:0:
132,326,178878,1,2,0:0:0:0:
132,326,179044,2,0,P|173:286|238:278,1,110.000003356934,2|2,0:0|0:3,0:0:0:0:
274,297,179544,1,4,0:3:0:0:
360,229,179878,2,0,P|369:200|372:167,1,55.0000016784668,2|2,0:0|0:0,0:0:0:0:
333,135,180211,2,0,P|304:144|271:147,1,55.0000016784668,2|0,0:0|0:0,0:0:0:0:
238,110,180544,5,4,0:3:0:0:
156,183,180878,2,0,P|144:215|139:244,2,55.0000016784668,2|2|2,0:0|0:3|0:0,0:0:0:0:
113,157,181378,1,2,0:3:0:0:
113,157,181544,2,0,P|88:111|101:49,1,110.000003356934,4|2,0:3|0:0,0:0:0:0:
198,13,182211,2,0,L|254:30,1,55.0000016784668,2|0,0:0|0:0,0:0:0:0:
272,74,182544,5,4,0:3:0:0:
366,39,182878,1,0,0:0:0:0:
444,101,183211,1,0,0:0:0:0:
391,186,183544,2,0,P|374:229|373:286,2,100,4|0|0,0:3|0:0|0:0,0:0:0:0:
358,101,184544,6,0,P|250:56|267:163,1,269.999991760254,4|0,0:3|0:0,0:0:0:0:
263,160,187544,5,0,0:0:0:0:
46,346,203543,6,0,P|23:294|88:222,1,165.000005035401,4|2,0:0|0:3,0:0:0:0:
130,257,204210,2,0,L|184:269,1,55.0000016784668,2|2,0:0|0:3,0:0:0:0:
210,317,204543,1,4,0:3:0:0:
299,253,204877,2,0,L|288:190,2,55.0000016784668,2|2|2,0:0|0:0|0:0,0:0:0:0:
390,313,205543,6,0,P|427:265|499:267,1,110.000003356934,4|2,0:3|0:0,0:0:0:0:
503,211,206043,1,2,0:3:0:0:
503,211,206210,2,0,L|454:168,1,55.0000016784668,2|2,0:0|0:3,0:0:0:0:
417,141,206543,1,4,0:3:0:0:
350,53,206877,2,0,P|351:25|359:-4,2,55.0000016784668,2|2|2,0:0|0:0|0:0,0:0:0:0:
241,78,207543,6,0,P|201:120|213:180,1,110.000003356934,4|2,0:3|0:0,0:0:0:0:
227,225,208043,1,2,0:3:0:0:
227,225,208210,2,0,L|176:243,1,55.0000016784668,2|2,0:0|0:3,0:0:0:0:
140,286,208543,1,4,0:3:0:0:
34,255,208877,2,0,L|15:314,2,55.0000016784668,2|2|2,0:0|0:3|0:0,0:0:0:0:
32,204,209377,1,2,0:3:0:0:
32,204,209543,6,0,P|62:149|114:136,1,110.000003356934,4|2,0:3|0:0,0:0:0:0:
145,98,210043,2,0,L|135:42,2,55.0000016784668,2|2|0,0:0|0:0|0:0,0:0:0:0:
197,115,210543,1,4,0:3:0:0:
288,53,210877,2,0,L|350:66,1,55.0000016784668,10|8,0:0|0:0,0:0:0:0:
382,101,211210,1,10,0:0:0:0:
491,90,211543,6,0,P|461:180|468:256,1,165.000005035401,4|2,0:0|0:3,0:0:0:0:
490,298,212210,1,2,0:0:0:0:
405,362,212543,2,0,P|359:322|294:329,1,110.000003356934,4|2,0:3|0:0,0:0:0:0:
269,355,213043,2,0,L|207:369,1,55.0000016784668,2|2,0:0|0:0,0:0:0:0:
143,283,213543,5,4,0:3:0:0:
214,198,213877,2,0,L|203:145,2,55.0000016784668,2|2|2,0:0|0:3|0:0,0:0:0:0:
247,250,214377,1,2,0:3:0:0:
247,250,214543,2,0,P|308:210|363:214,1,110.000003356934,4|2,0:3|0:0,0:0:0:0:
391,245,215043,1,2,0:0:0:0:
391,245,215210,1,2,0:0:0:0:
492,202,215543,6,0,P|492:146|457:100,1,110.000003356934,4|2,0:3|0:0,0:0:0:0:
425,61,216043,2,0,L|440:6,2,55.0000016784668,2|2|2,0:3|0:0|0:3,0:0:0:0:
373,80,216543,1,4,0:3:0:0:
267,46,216877,2,0,P|238:50|211:60,2,55.0000016784668,2|2|2,0:0|0:0|0:0,0:0:0:0:
294,152,217543,6,0,P|292:211|268:264,1,110.000003356934,4|2,0:3|0:0,0:0:0:0:
235,297,218043,2,0,P|216:282|172:270,1,55.0000016784668,2|2,0:3|0:0,0:0:0:0:
139,299,218377,1,2,0:3:0:0:
139,299,218543,2,0,B|112:254|112:254|128:195,1,110.000003356934,8|10,0:0|0:0,0:0:0:0:
95,153,219043,2,0,L|31:167,1,55.0000016784668,10|2,0:0|0:0,0:0:0:0:
15,57,219543,6,0,B|117:12|117:12|165:45,1,165.000005035401,4|2,0:0|0:3,0:0:0:0:
202,79,220210,1,2,0:0:0:0:
302,33,220543,2,0,P|340:72|350:140,1,110.000003356934,4|2,0:3|0:0,0:0:0:0:
327,174,221043,2,0,L|268:190,1,55.0000016784668,2|2,0:0|0:0,0:0:0:0:
213,280,221543,5,4,0:3:0:0:
316,317,221877,2,0,L|334:379,2,55.0000016784668,2|2|2,0:0|0:3|0:0,0:0:0:0:
346,272,222377,1,2,0:3:0:0:
346,272,222543,2,0,P|393:301|457:302,1,110.000003356934,4|2,0:3|0:0,0:0:0:0:
488,268,223043,2,0,L|499:211,1,55.0000016784668,2|2,0:0|0:0,0:0:0:0:
405,154,223543,6,0,P|382:104|375:45,1,110.000003356934,4|2,0:3|0:0,0:0:0:0:
327,20,224043,1,2,0:3:0:0:
327,20,224210,2,0,L|272:34,1,55.0000016784668,2|2,0:0|0:3,0:0:0:0:
239,76,224543,2,0,P|198:40|136:50,1,110.000003356934,4|2,0:3|0:0,0:0:0:0:
112,88,225043,2,0,L|56:76,1,55.0000016784668,2|2,0:0|0:0,0:0:0:0:
6,173,225543,6,0,P|41:204|55:276,1,110.000003356934,4|2,0:3|0:0,0:0:0:0:
35,314,226043,1,2,0:3:0:0:
35,314,226210,1,2,0:0:0:0:
128,371,226543,2,0,L|187:355,1,55.0000016784668,4|8,0:3|0:0,0:0:0:0:
228,328,226877,1,10,0:0:0:0:
228,328,227043,2,0,P|267:368|342:365,1,110.000003356934,10|8,0:0|0:0,0:0:0:0:
344,325,227543,6,0,P|317:252|372:167,1,165.000005035401,4|2,0:0|0:3,0:0:0:0:
405,156,228210,1,2,0:0:0:0:
493,220,228543,1,4,0:3:0:0:
480,329,228877,2,0,L|424:349,1,55.0000016784668,2|2,0:0|0:0,0:0:0:0:
377,325,229210,1,2,0:0:0:0:
275,366,229543,6,0,P|262:313|229:263,1,110.000003356934,4|2,0:3|0:0,0:0:0:0:
198,223,230043,2,0,L|140:235,2,55.0000016784668,2|2|2,0:3|0:0|0:3,0:0:0:0:
229,177,230543,1,4,0:3:0:0:
168,84,230877,2,0,P|188:33|251:33,1,110.000003356934,2|2,0:0|0:0,0:0:0:0:
328,87,231543,6,0,P|381:88|444:72,1,110.000003356934,4|2,0:3|0:0,0:0:0:0:
476,112,232043,2,0,L|460:174,1,55.0000016784668,2|2,0:3|0:0,0:0:0:0:
467,224,232377,1,2,0:3:0:0:
467,224,232543,2,0,P|419:197|362:189,1,110.000003356934,4|2,0:3|0:0,0:0:0:0:
325,227,233043,2,0,P|303:240|270:248,1,55.0000016784668,2|2,0:0|0:0,0:0:0:0:
184,183,233543,5,4,0:3:0:0:
97,251,233877,2,0,L|87:313,2,55.0000016784668,2|2|2,0:0|0:3|0:0,0:0:0:0:
59,218,234377,1,2,0:3:0:0:
59,218,234543,2,0,P|33:181|41:115,1,110.000003356934,2|2,0:0|0:0,0:0:0:0:
124,49,235210,1,8,0:0:0:0:
162,152,235543,6,0,P|235:179|327:199,1,165.000005035401,4|2,0:0|0:3,0:0:0:0:
367,169,236210,1,2,0:0:0:0:
310,74,236543,2,0,P|349:32|414:29,1,110.000003356934,4|2,0:3|0:0,0:0:0:0:
447,50,237043,2,0,L|464:109,1,55.0000016784668,2|2,0:0|0:0,0:0:0:0:
486,210,237543,5,4,0:3:0:0:
430,305,237877,2,0,L|368:322,1,55.0000016784668,2|2,0:0|0:3,0:0:0:0:
337,280,238210,1,2,0:0:0:0:
268,365,238543,2,0,P|231:321|229:259,1,110.000003356934,4|2,0:3|0:0,0:0:0:0:
202,220,239043,2,0,L|141:204,2,55.0000016784668,2|2|0,0:0|0:0|0:0,0:0:0:0:
242,182,239543,5,4,0:3:0:0:
217,74,239877,2,0,L|177:34,1,55.0000016784668,2|2,0:0|0:3,0:0:0:0:
123,41,240210,2,0,P|90:92|32:110,1,110.000003356934,2|2,0:0|0:0,0:0:0:0:
11,214,240877,2,2,L|32:279,1,55.0000016784668,2|0,0:0|0:0,0:1:0:0:
47,317,241210,1,2,0:0:0:0:
145,365,241543,6,0,P|172:319|175:252,1,110.000003356934,4|2,0:3|0:0,0:0:0:0:
137,224,242043,1,2,0:3:0:0:
137,224,242210,1,2,0:0:0:0:
145,114,242543,2,0,P|190:84|257:100,1,110.000003356934,4|10,0:3|0:0,0:0:0:0:
283,133,243044,1,10,0:0:0:0:
283,133,243210,2,0,P|273:162|280:193,1,55.0000016784668,10|8,0:0|0:0,0:0:0:0:
317,222,243543,6,0,P|396:208|452:276,1,165.000005035401,4|2,0:0|0:3,0:0:0:0:
460,319,244210,1,2,0:0:0:0:
366,380,244543,2,0,P|316:369|257:346,1,110.000003356934,4|2,0:3|0:0,0:0:0:0:
210,326,245043,2,0,P|183:334|158:349,1,55.0000016784668,2|2,0:0|0:0,0:0:0:0:
108,325,245377,1,0,0:0:0:0:
108,325,245543,6,0,P|86:280|88:214,1,110.000003356934,4|2,0:3|0:0,0:0:0:0:
86,165,246043,2,0,P|66:146|41:129,2,55.0000016784668,2|2|2,0:3|0:0|0:3,0:0:0:0:
137,144,246543,1,4,0:3:0:0:
225,78,246877,2,0,L|234:13,2,55.0000016784668,2|2|2,0:0|0:3|0:0,0:0:0:0:
305,153,247543,6,0,B|363:159|363:159|411:127,1,110.000003356934,4|2,0:0|0:0,0:0:0:0:
449,96,248043,1,2,0:3:0:0:
503,191,248377,1,2,0:3:0:0:
503,191,248543,2,0,P|481:243|492:312,1,110.000003356934,4|2,0:3|0:0,0:0:0:0:
403,368,249210,2,0,P|377:352|353:345,1,55.0000016784668,2|0,0:0|0:0,0:0:0:0:
299,355,249543,6,0,P|321:306|320:248,1,110.000003356934,4|2,0:3|0:0,0:0:0:0:
284,218,250043,1,2,0:3:0:0:
284,218,250210,1,2,0:0:0:0:
179,252,250543,2,0,L|115:163,1,110.000003356934,4|6,0:3|0:3,0:0:0:0:
180,75,251210,2,0,L|239:92,1,55.0000016784668,8|8,0:0|0:0,0:0:0:0:
284,108,251543,5,2,0:0:0:0:
256,192,251710,12,0,254043,0:0:0:0:
