osu file format v14

[General]
AudioFilename: audio.mp3
AudioLeadIn: 0
PreviewTime: 49585
Countdown: 0
SampleSet: Soft
StackLeniency: 0.4
Mode: 0
LetterboxInBreaks: 0
WidescreenStoryboard: 1

[Editor]
Bookmarks: 32585
DistanceSpacing: 1.2
BeatDivisor: 4
GridSize: 4
TimelineZoom: 1.9

[Metadata]
Title:Phronesis
TitleUnicode:Phronesis
Artist:RURUTIA
ArtistUnicode:ルルティア
Creator:Lavender
Version:Shu's Easy
Source:ソフィーのアトリエ ~不思議な本の錬金術士~
Tags:Atelier Sophie: The Alchemist of the Mysterious Book Opening gust jrpg koeitecmo NISA Shurelia Karen Kagamine Ren
BeatmapID:1247677
BeatmapSetID:542224

[Difficulty]
HPDrainRate:2.5
CircleSize:2.5
OverallDifficulty:2.5
ApproachRate:3
SliderMultiplier:0.8
SliderTickRate:1

[Events]
//Background and Video events
Video,0,"sophie.flv"
0,0,"002.jpg",0,0
//Break Periods
//Storyboard Layer 0 (Background)
//Storyboard Layer 1 (Fail)
//Storyboard Layer 2 (Pass)
//Storyboard Layer 3 (Foreground)
//Storyboard Sound Samples

[TimingPoints]
257,333.333333333333,5,2,1,15,1,0
1923,333.333333333333,6,2,1,17,1,0
3923,333.333333333333,5,2,1,20,1,0
5589,333.333333333333,6,2,1,24,1,0
7589,333.333333333333,5,2,1,26,1,0
9255,333.333333333333,6,2,1,25,1,0
11254,333.333333333333,5,2,1,25,1,0
12920,333.333333333333,3,2,1,30,1,0
15921,333.333333333333,6,2,1,40,1,0
27920,333.333333333333,5,2,1,40,1,0
29586,333.333333333333,6,2,1,40,1,0
49585,-100,6,2,1,48,0,1
65252,-100,6,2,1,48,0,0
65585,-100,6,2,1,48,0,1
81585,-100,6,2,1,48,0,0
85419,-100,6,2,1,10,0,0

[Colours]
Combo1 : 255,128,255
Combo2 : 172,255,255
Combo3 : 142,255,142
Combo4 : 255,255,111

[HitObjects]
99,84,257,6,0,P|79:160|96:238,1,160,0|0,0:0|0:0,0:0:0:0:
168,299,1256,2,0,P|207:295|247:299,1,80,0|0,0:0|0:0,0:0:0:0:
324,355,1923,2,0,P|335:279|287:217,1,160,0|0,0:0|0:0,0:0:0:0:
192,208,2922,2,0,P|232:141|308:125,1,160,0|0,0:0|0:0,0:0:0:0:
396,163,3922,6,0,P|404:125|393:87,1,80,0|0,0:0|0:0,0:0:0:0:
310,35,4589,1,0,0:0:0:0:
215,52,4922,2,0,P|177:59|137:53,1,80,0|0,0:0|0:0,0:0:0:0:
60,108,5589,2,0,P|44:185|62:263,1,160,0|0,0:0|0:0,0:0:0:0:
139,323,6588,1,0,0:0:0:0:
228,364,6922,2,0,P|235:324|228:285,1,80,0|0,0:0|0:0,0:0:0:0:
152,228,7588,5,0,0:0:0:0:
416,112,8588,2,0,P|423:72|415:33,1,80,0|0,0:0|0:0,0:0:0:0:
328,76,9255,2,0,L|208:76,2,120,0|0|0,0:0|0:0|0:0,0:0:0:0:
340,172,10588,1,0,0:0:0:0:
388,256,10921,1,0,0:0:0:0:
467,308,11254,6,0,P|389:320|309:312,1,160
220,348,12254,2,0,P|211:309|219:269,1,80,0|0,0:0|0:0,0:0:0:0:
288,204,12921,1,0,0:0:0:0:
384,220,13254,2,0,P|423:224|463:220,1,80
504,132,13919,1,0,0:0:0:0:
464,44,14254,2,0,P|424:40|384:44,1,80
344,132,14919,1,0,0:0:0:0:
280,60,15254,2,0,P|240:64|200:58,1,80
108,84,15921,6,0,P|92:161|107:240,1,160,6|2,0:0|0:0,0:0:0:0:
180,300,16921,2,0,P|257:318|336:305,1,160,0|0,1:0|0:0,0:0:0:0:
424,269,17920,2,0,P|431:309|424:347,2,80,0|8|0,0:0|0:0|0:0,0:0:0:0:
343,215,18920,2,0,P|276:174|237:105,1,160,0|0,1:0|0:0,0:0:0:0:
312,44,19920,6,0,L|152:44,1,160,2|0,0:0|0:0,0:0:0:0:
72,96,20920,2,0,P|63:135|71:175,1,80,0|0,1:0|0:0,0:0:0:0:
160,136,21587,1,0,0:0:0:0:
144,232,21920,2,0,L|120:349,2,120,2|2|0,0:0|0:0|1:0,0:0:0:0:
224,288,23254,1,10,0:0:0:0:
268,204,23587,1,10,0:0:0:0:
324,280,23920,6,0,P|394:304|435:242,1,160,2|0,0:0|0:0,0:0:0:0:
428,144,24920,2,0,L|268:144,1,160,0|0,1:0|0:0,0:0:0:0:
180,184,25920,2,0,P|172:145|179:105,2,80,2|0|0,0:0|0:0|0:0,0:0:0:0:
264,232,26920,2,0,L|104:232,1,160,0|2,1:0|0:0,0:0:0:0:
56,316,27919,6,0,P|76:240|61:162,1,160,2|0,0:0|0:0,0:0:0:0:
28,72,28919,2,0,P|61:50|100:43,1,80,0|0,1:0|0:0,0:0:0:0:
152,124,29586,1,2,0:0:0:0:
224,64,29919,2,0,P|263:71|296:92,1,80,2|2,0:0|0:0,0:0:0:0:
372,36,30586,2,0,P|392:91|380:149,1,120,2|2,0:0|0:0,0:0:0:0:
276,248,31585,6,0,P|236:251|196:248,1,80,2|0,0:0|0:0,0:0:0:0:
116,196,32252,1,2,0:0:0:0:
27,231,32585,2,0,P|19:193|28:154,1,80,0|0,1:0|0:0,0:0:0:0:
108,104,33252,1,0,0:0:0:0:
196,144,33585,2,0,P|236:152|275:144,2,80,2|0|2,0:0|0:0|0:0,0:0:0:0:
236,56,34585,2,0,P|313:55|368:110,1,160,0|0,1:0|0:0,0:0:0:0:
347,204,35585,6,0,P|339:242|347:282,1,80,2|0,0:0|0:0,0:0:0:0:
412,352,36252,1,2,0:0:0:0:
476,280,36585,2,0,P|483:240|475:201,2,80,0|0|0,1:0|0:0|0:0,0:0:0:0:
412,352,37585,2,0,L|252:352,1,160,2|0,0:0|0:0,0:0:0:0:
168,304,38585,2,0,B|108:284|60:304|60:304|24:268,1,160,0|0,1:0|0:0,0:0:0:0:
28,171,39585,6,0,P|49:138|85:123,2,80,2|0|2,0:0|0:0|0:0,0:0:0:0:
116,208,40585,2,0,P|174:159|169:82,1,160,0|0,1:0|0:0,0:0:0:0:
92,24,41585,2,0,B|251:24,1,160,2|2,0:0|0:0,0:0:0:0:
315,96,42585,2,0,P|291:170|316:245,1,160,0|0,1:0|0:0,0:0:0:0:
396,300,43585,6,0,P|435:307|474:302,2,80,2|0|2,0:0|0:0|0:0,0:0:0:0:
308,340,44585,2,0,P|269:347|230:343,1,80,0|0,1:0|0:0,0:0:0:0:
136,316,45252,1,0,0:0:0:0:
51,267,45585,2,0,B|36:211|36:211|51:150,2,120,2|2|0,0:0|0:0|1:0,0:0:0:0:
136,220,46919,2,0,L|152:141,1,80
92,68,47585,6,0,B|156:28|224:72|224:72|252:56|252:56|281:83|314:71,1,240
484,304,49585,6,0,P|408:324|332:301,1,160,6|2,0:0|0:0,0:0:0:0:
256,244,50585,2,0,P|180:221|103:241,1,160,0|2,1:0|0:0,0:0:0:0:
16,280,51585,2,0,P|9:242|17:203,2,80,2|0|2,0:0|0:0|0:0,0:0:0:0:
92,336,52585,2,0,P|167:358|244:338,1,160,0|2,1:0|0:0,0:0:0:0:
328,288,53585,6,0,L|328:128,1,160,2|2,0:0|0:0,0:0:0:0:
368,40,54585,2,0,P|328:32|289:39,1,80,0|0,1:0|0:0,0:0:0:0:
216,100,55252,1,2,0:0:0:0:
131,56,55585,2,0,P|120:93|126:132,2,80,2|0|2,0:0|0:0|0:0,0:0:0:0:
216,100,56585,2,0,P|214:177|152:222,1,160,0|2,1:0|0:0,0:0:0:0:
72,276,57585,6,0,L|232:276,1,160,2|2,0:0|0:0,0:0:0:0:
316,232,58585,2,0,P|355:228|395:232,1,80,0|0,1:0|0:0,0:0:0:0:
464,299,59252,1,2,0:0:0:0:
396,368,59585,2,0,P|356:372|316:368,2,80,2|0|2,0:0|0:0|0:0,0:0:0:0:
464,299,60585,2,0,P|432:228|456:154,1,160,0|0,1:0|0:0,0:0:0:0:
503,67,61585,6,0,P|427:47|350:64,1,160,2|2,0:0|0:0,0:0:0:0:
263,108,62585,2,0,P|228:126|199:153,1,80,0|0,1:0|0:0,0:0:0:0:
132,224,63252,1,2,0:0:0:0:
92,312,63585,2,0,P|130:319|170:312,2,80,2|0|2,0:0|0:0|0:0,0:0:0:0:
28,244,64585,2,0,B|20:164|20:164|28:84,1,160,0|2,1:0|0:0,0:0:0:0:
112,132,65585,6,0,P|189:147|267:130,1,160,6|2,0:0|0:0,0:0:0:0:
332,60,66585,2,0,P|409:42|487:58,1,160,0|2,1:0|0:0,0:0:0:0:
508,152,67585,2,0,P|515:190|509:230,2,80,2|0|2,0:0|0:0|0:0,0:0:0:0:
420,188,68585,2,0,B|380:220|380:248|380:248|360:260|360:260|348:304|326:310,1,160,0|2,1:0|0:0,0:0:0:0:
232,312,69585,6,0,B|210:305|198:261|198:261|178:249|178:249|178:221|138:189,1,160,2|2,0:0|0:0,0:0:0:0:
104,100,70585,2,0,P|143:96|182:104,1,80,0|0,1:0|0:0,0:0:0:0:
252,168,71252,1,2,0:0:0:0:
308,92,71585,2,0,L|308:-4,2,80,2|0|2,0:0|0:0|0:0,0:0:0:0:
376,160,72585,2,0,B|384:220|356:268|368:319,1,160,0|2,1:0|0:0,0:0:0:0:
280,356,73585,6,0,B|200:368|200:368|121:357,1,160,2|2,0:0|0:0,0:0:0:0:
56,288,74585,2,0,B|44:208|44:208|54:129,1,160,0|2,1:0|0:0,0:0:0:0:
128,64,75585,2,0,B|148:28|148:28|183:7,2,80,2|0|2,0:0|0:0|0:0,0:0:0:0:
148,156,76585,2,0,B|228:179|228:179|304:176,1,160,0|2,1:0|0:0,0:0:0:0:
364,100,77585,6,0,L|360:259,1,160,2|2,0:0|0:0,0:0:0:0:
292,328,78585,2,0,P|253:331|213:328,1,80,0|0,1:0|0:0,0:0:0:0:
132,276,79252,1,2,0:0:0:0:
44,236,79585,2,0,P|37:274|44:314,2,80,2|0|2,0:0|0:0|0:0,0:0:0:0:
128,188,80585,2,0,B|144:136|100:92|100:92|154:92,1,160,0|2,1:0|0:0,0:0:0:0:
256,192,81585,12,0,85419,0:0:0:0:
