osu file format v14

[General]
AudioFilename: audio.mp3
AudioLeadIn: 0
PreviewTime: 49585
Countdown: 0
SampleSet: Soft
StackLeniency: 0.4
Mode: 0
LetterboxInBreaks: 0
WidescreenStoryboard: 0

[Editor]
DistanceSpacing: 0.8
BeatDivisor: 4
GridSize: 4
TimelineZoom: 1.5

[Metadata]
Title:Phronesis
TitleUnicode:Phronesis
Artist:RURUTIA
ArtistUnicode:ルルティア
Creator:Lavender
Version:Normal
Source:ソフィーのアトリエ ~不思議な本の錬金術士~
Tags:Atelier Sophie: The Alchemist of the Mysterious Book Opening gust jrpg koeitecmo NISA Shurelia Karen Kagamine Ren
BeatmapID:1149884
BeatmapSetID:542224

[Difficulty]
HPDrainRate:4
CircleSize:3.8
OverallDifficulty:4
ApproachRate:5
SliderMultiplier:1
SliderTickRate:1

[Events]
//Background and Video events
Video,0,"sophie.flv"
0,0,"002.jpg",0,0
//Break Periods
//Storyboard Layer 0 (Background)
//Storyboard Layer 1 (Fail)
//Storyboard Layer 2 (Pass)
//Storyboard Layer 3 (Foreground)
//Storyboard Sound Samples

[TimingPoints]
257,333.333333333333,5,2,1,20,1,0
1923,333.333333333333,6,2,1,20,1,0
3923,333.333333333333,5,2,1,20,1,0
5589,333.333333333333,6,2,1,20,1,0
7589,333.333333333333,5,2,1,25,1,0
9255,333.333333333333,6,2,1,25,1,0
11254,333.333333333333,5,2,1,25,1,0
12920,333.333333333333,3,2,1,25,1,0
15921,333.333333333333,6,2,1,35,1,0
27920,333.333333333333,5,2,1,35,1,0
29586,333.333333333333,6,2,1,35,1,0
49585,-100,6,2,1,50,0,1
85419,-100,6,2,1,10,0,0

[Colours]
Combo1 : 255,128,255
Combo2 : 172,255,255
Combo3 : 142,255,142
Combo4 : 255,255,111

[HitObjects]
177,89,257,6,0,L|71:87,2,100,0|0|0,0:0|0:0|0:0,0:0:0:0:
242,134,1256,2,0,P|252:181|231:226,1,100,0|0,0:0|0:0,0:0:0:0:
178,286,1923,6,0,P|245:257|310:290,1,150,0|0,0:0|0:0,0:0:0:0:
340,317,2589,2,0,L|389:308,1,50
413,276,2922,2,0,P|402:228|423:183,2,100,0|0|0,0:0|0:0|0:0,0:0:0:0:
484,238,3923,6,0,P|504:193|494:145,1,100,0|0,0:0|0:0,0:0:0:0:
424,104,4589,1,0,0:0:0:0:
353,142,4922,2,0,L|254:156,1,100,0|0,0:0|0:0,0:0:0:0:
203,218,5589,6,0,P|217:146|174:86,1,150,0|0,0:0|0:0,0:0:0:0:
136,76,6255,1,0,0:0:0:0:
63,110,6588,2,0,L|48:208,1,100,0|0,0:0|0:0,0:0:0:0:
116,251,7255,1,0,0:0:0:0:
182,293,7589,6,0,P|230:280|276:296,1,100,0|0,0:0|0:0,0:0:0:0:
336,243,8255,1,0,0:0:0:0:
336,243,8588,2,0,L|342:143,1,100,0|0,0:0|0:0,0:0:0:0:
397,85,9255,6,0,P|329:112|264:80,1,150,0|0,0:0|0:0,0:0:0:0:
233,54,9921,2,0,L|183:61,1,50,0|0,0:0|0:0,0:0:0:0:
144,69,10254,1,0,0:0:0:0:
93,131,10588,2,0,L|43:126,2,50,0|0|0,0:0|0:0|0:0,0:0:0:0:
156,178,11254,6,0,P|169:225|151:270,1,100,0|0,0:0|0:0,0:0:0:0:
95,328,11921,1,0,0:0:0:0:
152,383,12254,2,0,L|251:371,1,100,0|0,0:0|0:0,0:0:0:0:
295,304,12921,1,0,0:0:0:0:
338,236,13254,2,0,L|438:225,1,100,0|0,0:0|0:0,0:0:0:0:
498,172,13919,6,0,P|507:123|487:78,1,100
429,133,14586,2,0,P|380:142|335:122,1,100,0|0,0:0|0:0,0:0:0:0:
278,65,15254,2,0,L|128:78,1,150,0|0,0:0|0:0,0:0:0:0:
97,102,15921,6,0,P|83:149|103:194,1,100,2|0,0:0|0:0,0:0:0:0:
171,236,16587,1,2,0:0:0:0:
171,236,16921,2,0,P|190:281|177:328,2,100,0|0|0,1:0|0:0|0:0,0:0:0:0:
212,167,17920,6,0,P|283:182|343:140,1,150,0|8,0:0|0:0,0:0:0:0:
360,104,18587,1,0,0:0:0:0:
422,154,18920,2,0,L|416:253,1,100,0|0,1:0|0:0,0:0:0:0:
468,314,19587,1,0,0:0:0:0:
400,357,19920,6,0,P|347:307|275:318,1,150,2|0,0:0|0:0,0:0:0:0:
248,347,20587,2,0,L|198:338,1,50,0|0,0:0|0:0,0:0:0:0:
173,306,20920,2,0,L|74:323,2,100,0|0|0,1:0|0:0|0:0,0:0:0:0:
230,250,21920,6,0,P|246:203|230:156,1,100,2|0,0:0|0:0,0:0:0:0:
262,83,22587,2,0,L|312:74,1,50,2|0,0:0|0:0,0:0:0:0:
335,42,22920,2,0,L|433:24,1,100,0|10,1:0|0:0,0:0:0:0:
507,55,23587,1,10,0:0:0:0:
470,126,23920,6,0,P|488:172|476:220,1,100,2|0,0:0|0:0,0:0:0:0:
421,278,24587,1,0,0:0:0:0:
421,278,24920,2,0,L|271:265,1,150,0|0,1:0|0:0,0:0:0:0:
238,288,25587,1,0,0:0:0:0:
171,243,25920,6,0,P|188:172|147:112,1,150,2|0,0:0|0:0,0:0:0:0:
111,95,26587,2,0,L|160:87,1,50,0|0,0:0|0:0,0:0:0:0:
190,61,26920,1,0,1:0:0:0:
264,89,27254,1,2,0:0:0:0:
339,114,27587,2,0,L|388:119,1,50,2|2,0:0|0:0,0:0:0:0:
422,140,27920,6,0,P|440:185|429:233,1,100,2|0,0:0|0:0,0:0:0:0:
383,298,28586,1,0,0:0:0:0:
307,269,28920,2,0,L|207:280,1,100,0|0,1:0|0:0,0:0:0:0:
175,353,29586,6,0,P|130:295|149:226,1,150,2|0,0:0|0:0,0:0:0:0:
172,192,30252,2,0,L|122:196,1,50,2|0,0:0|0:0,0:0:0:0:
96,166,30586,1,2,0:0:0:0:
171,72,31086,2,0,P|217:89|265:77,1,100,2|0,0:0|0:0,0:0:0:0:
292,48,31585,6,0,L|391:60,1,100,2|0,0:0|0:0,0:0:0:0:
434,127,32252,1,2,0:0:0:0:
388,192,32585,2,0,P|318:174|264:222,1,150,0|0,1:0|0:0,0:0:0:0:
253,261,33252,1,0,0:0:0:0:
305,320,33585,6,0,P|235:337|181:289,1,150,2|2,0:0|0:0,0:0:0:0:
170,251,34252,1,2,0:0:0:0:
104,205,34585,1,0,1:0:0:0:
147,137,34919,2,0,L|197:129,2,50,0|0|0,0:0|0:0|0:0,0:0:0:0:
66,133,35585,6,0,P|24:193|47:261,1,150,2|2,0:0|0:0,0:0:0:0:
78,288,36252,2,0,L|128:280,1,50,2|0,0:0|0:0,0:0:0:0:
160,301,36585,6,0,P|229:320|287:277,1,150,0|0,1:0|0:0,0:0:0:0:
299,238,37252,1,0,0:0:0:0:
366,195,37585,5,2,0:0:0:0:
433,152,37919,1,0,0:0:0:0:
363,116,38252,1,0,0:0:0:0:
292,80,38585,2,0,P|224:103|159:70,1,150,0|0,1:0|0:0,0:0:0:0:
129,41,39252,2,0,L|79:50,1,50,0|0,0:0|0:0,0:0:0:0:
52,78,39585,6,0,P|30:148|67:211,1,150,2|2,0:0|0:0,0:0:0:0:
103,228,40252,1,2,0:0:0:0:
132,302,40585,2,0,L|231:292,1,100,0|0,1:0|0:0,0:0:0:0:
261,218,41252,1,0,0:0:0:0:
322,267,41585,6,0,P|388:234|455:262,1,150,2|2,0:0|0:0,0:0:0:0:
482,292,42252,2,0,L|478:242,1,50,2|0,0:0|0:0,0:0:0:0:
477,202,42585,1,0,1:0:0:0:
420,145,42919,2,0,P|371:156|325:139,1,100,0|0,0:0|0:0,0:0:0:0:
273,78,43585,6,0,L|174:93,1,100,2|0,0:0|0:0,0:0:0:0:
131,161,44252,1,2,0:0:0:0:
131,161,44585,2,0,L|32:145,2,100,0|0|0,1:0|0:0|0:0,0:0:0:0:
193,208,45585,6,0,P|263:228|322:186,1,150,2|2,0:0|0:0,0:0:0:0:
348,155,46252,2,0,L|401:161,1,50,2|0,0:0|0:0,0:0:0:0:
431,181,46585,2,0,P|414:134|427:87,2,100,0|0|0,1:0|0:0|0:0,0:0:0:0:
477,246,47585,5,0,0:0:0:0:
477,245,48585,2,0,P|414:167|395:265,1,250,0|0,0:0|0:0,0:0:0:0:
366,293,49585,6,0,P|301:258|234:285,1,150,6|2,0:0|0:0,0:0:0:0:
203,310,50252,2,0,L|153:303,1,50,2|0,0:0|0:0,0:0:0:0:
117,321,50585,2,0,P|102:274|120:228,1,100,0|0,1:0|0:0,0:0:0:0:
178,174,51252,1,2,0:0:0:0:
246,215,51585,6,0,P|313:241|377:206,1,150,2|2,0:0|0:0,0:0:0:0:
400,173,52252,1,2,0:0:0:0:
413,94,52585,2,0,L|511:76,2,100,0|2|2,1:0|0:0|0:0,0:0:0:0:
345,50,53585,6,0,P|280:84|211:58,1,150,2|2,0:0|0:0,0:0:0:0:
180,32,54252,2,0,L|130:41,1,50,2|2,0:0|0:0,0:0:0:0:
92,52,54585,1,0,1:0:0:0:
41,114,54919,1,0,0:0:0:0:
92,175,55252,2,0,L|141:184,1,50,2|0,0:0|0:0,0:0:0:0:
166,215,55585,6,0,P|235:192|297:230,1,150,2|2,0:0|0:0,0:0:0:0:
320,263,56252,2,0,L|369:255,1,50,2|2,0:0|0:0,0:0:0:0:
402,232,56585,2,0,P|413:184|397:137,2,100,0|0|2,1:0|0:0|0:0,0:0:0:0:
350,293,57585,6,0,L|200:283,1,150,2|2,0:0|0:0,0:0:0:0:
173,253,58252,1,2,0:0:0:0:
112,304,58585,2,0,P|94:259|106:211,1,100,0|0,1:0|0:0,0:0:0:0:
161,153,59252,1,2,0:0:0:0:
126,81,59585,6,0,L|26:72,2,100,2|0|2,0:0|0:0|0:0,0:0:0:0:
193,37,60585,2,0,P|257:70|326:44,1,150,0|0,1:0|0:0,0:0:0:0:
354,16,61252,2,0,L|362:65,1,50,0|0,0:0|0:0,0:0:0:0:
369,104,61585,6,0,P|331:165|363:229,1,150,2|2,0:0|0:0,0:0:0:0:
395,253,62252,2,0,L|345:260,1,50,2|2,0:0|0:0,0:0:0:0:
327,296,62585,1,0,1:0:0:0:
268,350,62919,2,0,L|169:334,1,100,0|2,0:0|0:0,0:0:0:0:
116,273,63585,6,0,P|145:206|113:141,1,150,2|2,0:0|0:0,0:0:0:0:
79,119,64252,2,0,L|128:109,1,50,2|2,0:0|0:0,0:0:0:0:
145,73,64585,2,0,P|211:102|276:70,1,150,0|2,1:0|0:0,0:0:0:0:
299,36,65252,2,0,L|308:85,1,50,2|2,0:0|0:0,0:0:0:0:
316,124,65585,5,6,0:0:0:0:
383,169,65919,2,0,L|432:160,2,50,0|2|2,0:0|0:0|0:0,0:0:0:0:
338,236,66585,2,0,L|356:334,2,100,0|0|2,1:0|0:0|0:0,0:0:0:0:
271,190,67585,6,0,P|201:213|139:176,1,150,2|2,0:0|0:0,0:0:0:0:
117,142,68252,2,0,L|109:191,1,50,2|2,0:0|0:0,0:0:0:0:
84,222,68585,2,0,L|99:320,1,100,0|0,1:0|0:0,0:0:0:0:
169,359,69252,1,2,0:0:0:0:
231,309,69585,6,0,P|301:329|360:287,1,150,2|2,0:0|0:0,0:0:0:0:
377,250,70252,2,0,L|426:242,1,50,2|2,0:0|0:0,0:0:0:0:
466,236,70585,1,0,1:0:0:0:
511,170,70919,1,0,0:0:0:0:
454,113,71252,1,2,0:0:0:0:
397,55,71585,6,0,P|328:80|264:45,1,150,2|2,0:0|0:0,0:0:0:0:
234,19,72252,2,0,L|229:68,1,50,2|2,0:0|0:0,0:0:0:0:
196,91,72585,2,0,P|220:159|185:223,1,150,0|2,1:0|0:0,0:0:0:0:
152,246,73252,2,0,L|201:255,1,50,2|0,0:0|0:0,0:0:0:0:
240,263,73585,5,2,0:0:0:0:
285,330,73919,2,0,L|276:379,2,50,0|2|2,0:0|0:0|0:0,0:0:0:0:
352,285,74585,2,0,L|450:303,2,100,0|0|2,1:0|0:0|0:0,0:0:0:0:
306,218,75585,6,0,P|329:148|292:86,1,150,2|2,0:0|0:0,0:0:0:0:
255,69,76252,2,0,L|205:77,1,50,2|2,0:0|0:0,0:0:0:0:
183,110,76585,2,0,L|84:93,2,100,0|0|2,1:0|0:0|0:0,0:0:0:0:
235,170,77585,6,0,L|382:144,1,150,2|2,0:0|0:0,0:0:0:0:
413,170,78252,2,0,L|412:219,1,50,2|2,0:0|0:0,0:0:0:0:
411,260,78585,1,0,1:0:0:0:
358,320,78919,1,0,0:0:0:0:
283,290,79252,2,0,L|233:298,1,50,2|0,0:0|0:0,0:0:0:0:
201,321,79585,6,0,P|209:272|184:231,1,100,2|0,0:0|0:0,0:0:0:0:
163,153,80252,1,2,0:0:0:0:
98,200,80585,2,0,P|135:231|184:230,1,100,0|0,1:0|0:0,0:0:0:0:
251,187,81252,1,2,0:0:0:0:
290,117,81585,5,6,0:0:0:0:
256,192,81669,12,0,85419,0:0:0:0:
