osu file format v14

[General]
AudioFilename: audio.mp3
AudioLeadIn: 0
PreviewTime: 49585
Countdown: 0
SampleSet: Soft
StackLeniency: 0
Mode: 0
LetterboxInBreaks: 0
WidescreenStoryboard: 0

[Editor]
DistanceSpacing: 1.2
BeatDivisor: 4
GridSize: 4
TimelineZoom: 1.5

[Metadata]
Title:Phronesis
TitleUnicode:Phronesis
Artist:RURUTIA
ArtistUnicode:ルルティア
Creator:Lavender
Version:Insane
Source:ソフィーのアトリエ ~不思議な本の錬金術士~
Tags:Atelier Sophie: The Alchemist of the Mysterious Book Opening gust jrpg koeitecmo NISA Shurelia Karen Kagamine Ren
BeatmapID:1149570
BeatmapSetID:542224

[Difficulty]
HPDrainRate:6
CircleSize:4
OverallDifficulty:8
ApproachRate:9
SliderMultiplier:1
SliderTickRate:1

[Events]
//Background and Video events
Video,0,"sophie.flv"
0,0,"002.jpg",0,0
//Break Periods
//Storyboard Layer 0 (Background)
//Storyboard Layer 1 (Fail)
//Storyboard Layer 2 (Pass)
//Storyboard Layer 3 (Foreground)
//Storyboard Sound Samples

[TimingPoints]
257,333.333333333333,5,2,1,20,1,0
257,-133.333333333333,5,2,1,20,0,0
1923,333.333333333333,6,2,1,20,1,0
1923,-133.333333333333,6,2,1,20,0,0
3923,333.333333333333,5,2,1,20,1,0
3923,-133.333333333333,5,2,1,20,0,0
5589,333.333333333333,6,2,1,20,1,0
5589,-133.333333333333,6,2,1,20,0,0
6922,-125,6,2,1,20,0,0
7255,-111.111111111111,6,2,1,20,0,0
7589,333.333333333333,5,2,1,25,1,0
9255,333.333333333333,6,2,1,25,1,0
11254,333.333333333333,5,2,1,25,1,0
12920,333.333333333333,3,2,1,25,1,0
15253,-83.3333333333333,6,2,1,35,0,0
15586,-71.4285714285714,6,2,1,35,0,0
15921,333.333333333333,6,2,1,35,1,0
15921,-71.4285714285714,6,2,1,35,0,0
21337,-71.4285714285714,6,2,1,5,0,0
21587,-71.4285714285714,6,2,1,35,0,0
21670,-71.4285714285714,6,2,1,5,0,0
21920,-71.4285714285714,6,2,1,35,0,0
27920,333.333333333333,5,2,1,35,1,0
27920,-71.4285714285714,5,2,1,35,0,0
29586,333.333333333333,6,2,1,35,1,0
29586,-71.4285714285714,6,2,1,35,0,0
48085,-133.333333333333,6,2,1,35,0,0
49585,-66.6666666666667,6,2,1,50,0,1
65419,-66.6666666666667,6,2,1,50,0,0
65585,-66.6666666666667,6,2,1,50,0,1
70669,-66.6666666666667,6,2,1,5,0,1
70919,-66.6666666666667,6,2,1,50,0,1
71002,-66.6666666666667,6,2,1,5,0,1
71252,-66.6666666666667,6,2,1,50,0,1
71335,-66.6666666666667,6,2,1,5,0,1
71585,-66.6666666666667,6,2,1,50,0,1
85419,-66.6666666666667,6,2,1,10,0,0

[Colours]
Combo1 : 255,128,255
Combo2 : 172,255,255
Combo3 : 142,255,142
Combo4 : 255,255,111

[HitObjects]
75,291,257,6,0,P|111:300|147:294,1,75.000002861023
212,244,923,1,0,0:0:0:0:
326,335,1256,2,0,P|288:331|256:313,1,75.000002861023
226,162,1923,6,0,L|239:88,1,75.000002861023
295,28,2422,1,0,0:0:0:0:
345,93,2589,2,0,L|382:91,1,37.5000014305115
469,128,2922,2,0,P|460:91|470:55,2,75.000002861023
496,206,3923,6,0,L|421:209,1,75.0000028610231
364,268,4589,1,0,0:0:0:0:
496,332,4922,2,0,L|421:328,1,75.0000028610231
280,267,5589,6,0,P|226:257|176:281,1,112.500004291535
158,305,6255,1,0,0:0:0:0:
50,200,6588,1,0,0:0:0:0:
169,91,6922,2,0,L|208:95,1,40
258,157,7255,2,0,L|302:152,1,44.999998626709
363,99,7505,1,0,0:0:0:0:
363,99,7589,6,0,P|380:144|370:193,1,100
321,268,8088,1,0,0:0:0:0:
321,268,8255,2,0,L|271:262,1,50
194,309,8588,2,0,L|144:303,1,50
274,353,8922,1,0,0:0:0:0:
191,218,9255,6,0,P|174:173|184:124,1,100
224,42,9755,1,0,0:0:0:0:
224,42,9921,2,0,L|174:46,1,50
99,96,10254,1,0,0:0:0:0:
258,166,10588,2,0,L|307:159,2,50
117,267,11254,6,0,P|165:259|210:280,1,100
266,350,11754,1,0,0:0:0:0:
266,350,11921,2,0,L|315:340,1,50
384,283,12254,2,0,P|369:235|384:188,2,100
304,144,13254,2,0,B|256:152|256:152|205:144,1,100
128,283,13919,2,0,P|142:235|127:188,2,100
72,353,14754,5,0,0:0:0:0:
72,353,14836,1,0,0:0:0:0:
72,353,14919,2,0,L|134:362,1,50
210,298,15254,2,0,L|269:289,1,59.9999981689454
334,180,15586,2,0,L|397:151,1,69.9999978637696
480,22,15921,6,0,P|416:48|353:22,1,139.999995727539,2|0,0:0|0:0,0:0:0:0:
295,83,16421,1,2,0:0:0:0:
237,144,16587,2,0,L|167:135,1,69.9999978637696,2|2,0:0|0:0,0:0:0:0:
276,325,16921,2,0,P|313:268|295:202,1,139.999995727539,0|0,1:0|0:0,0:0:0:0:
237,144,17421,1,0,0:0:0:0:
387,197,17587,2,0,L|457:188,1,69.9999978637696
228,255,17920,5,0,0:0:0:0:
165,95,18087,1,8,0:0:0:0:
165,95,18170,1,8,0:0:0:0:
165,95,18254,1,8,0:0:0:0:
227,162,18420,1,8,0:0:0:0:
147,265,18587,2,0,L|78:252,1,69.9999978637696,0|8,0:0|0:0,0:0:0:0:
25,184,18920,2,0,B|106:140|149:219|227:162,1,209.999993591309,0|0,1:0|0:0,0:0:0:0:
293,111,19587,2,0,L|362:120,1,69.9999978637696
428,169,19920,6,0,P|437:202|429:236,1,69.9999978637696,2|0,0:0|0:0,0:0:0:0:
281,321,20254,1,0,0:0:0:0:
273,185,20420,1,0,0:0:0:0:
359,290,20587,1,0,0:0:0:0:
228,255,20754,1,0,0:0:0:0:
355,206,20920,2,0,B|406:220|406:220|456:206,1,104.999996795654,0|0,1:0|0:0,0:0:0:0:
495,189,21254,2,0,L|492:223,1,34.9999989318848
406,99,21587,2,0,L|406:134,1,34.9999989318848
316,189,21920,6,0,B|247:170|247:170|181:189,1,139.999995727539,2|0,0:0|0:0,0:0:0:0:
101,216,22420,1,2,0:0:0:0:
101,216,22587,2,0,L|107:146,1,69.9999978637696,2|0,0:0|0:0,0:0:0:0:
160,81,22920,5,0,1:0:0:0:
165,271,23087,1,8,0:0:0:0:
165,271,23170,1,8,0:0:0:0:
165,271,23254,1,10,0:0:0:0:
181,188,23420,1,8,0:0:0:0:
149,354,23587,1,10,0:0:0:0:
101,216,23753,1,10,0:0:0:0:
246,244,23920,6,0,P|311:261|368:224,1,139.999995727539,2|0,0:0|0:0,0:0:0:0:
411,152,24420,1,0,0:0:0:0:
411,152,24587,2,0,L|420:221,1,69.9999978637696
230,325,24920,2,0,B|215:222|215:222|245:243,1,139.999995727539,0|0,1:0|0:0,0:0:0:0:
310,297,25420,1,0,0:0:0:0:
150,353,25587,2,0,L|80:343,1,69.9999978637696
16,287,25920,6,0,P|45:226|19:163,1,139.999995727539,2|0,0:0|0:0,0:0:0:0:
67,94,26420,1,0,0:0:0:0:
136,142,26587,2,0,L|205:133,1,69.9999978637696
273,83,26920,2,0,L|274:65,4,17.4999994659424,0|0|0|0|0,1:0|0:0|0:0|0:0|0:0,0:0:0:0:
217,215,27254,5,2,0:0:0:0:
205,133,27420,1,0,0:0:0:0:
306,263,27587,5,2,0:0:0:0:
320,164,27753,1,2,0:0:0:0:
256,338,27920,6,0,L|116:326,1,139.999995727539,2|0,0:0|0:0,0:0:0:0:
70,213,28420,1,0,0:0:0:0:
146,246,28586,2,0,P|153:213|146:179,1,69.9999978637696
98,109,28920,1,0,1:0:0:0:
414,109,29253,1,0,0:0:0:0:
396,326,29586,6,0,L|256:338,1,139.999995727539,2|2,0:0|0:0,0:0:0:0:
80,265,30086,1,0,0:0:0:0:
80,265,30252,2,0,L|137:305,1,69.9999978637696,2|0,0:0|0:0,0:0:0:0:
182,377,30586,1,2,0:0:0:0:
182,377,30752,1,2,0:0:0:0:
258,81,31086,1,2,0:0:0:0:
258,81,31252,2,0,L|232:182,1,104.999996795654,2|0,0:0|0:0,0:0:0:0:
211,265,31585,5,2,0:0:0:0:
150,207,31752,1,0,0:0:0:0:
291,239,31919,2,0,P|326:240|360:230,1,69.9999978637696,0|2,0:0|0:0,0:0:0:0:
466,327,32252,2,0,P|437:309|403:302,1,69.9999978637696,2|2,0:0|0:0,0:0:0:0:
464,98,32585,6,0,P|434:160|443:228,1,139.999995727539,0|0,1:0|0:0,0:0:0:0:
322,325,33085,1,0,0:0:0:0:
322,325,33252,2,0,L|252:317,1,69.9999978637696
190,374,33585,6,0,P|220:311|210:243,1,139.999995727539,2|0,0:0|0:0,0:0:0:0:
146,189,34085,1,2,0:0:0:0:
146,189,34252,2,0,L|76:196,1,69.9999978637696,2|0,0:0|0:0,0:0:0:0:
103,113,34585,5,0,1:0:0:0:
249,145,34752,2,0,L|245:179,2,34.9999989318848
184,91,35085,1,0,0:0:0:0:
313,91,35252,2,0,L|382:83,1,69.9999978637696
502,200,35585,5,2,0:0:0:0:
442,141,35752,1,0,0:0:0:0:
420,222,35919,2,0,P|416:255|426:289,1,69.9999978637696,0|2,0:0|0:0,0:0:0:0:
350,377,36252,2,0,P|354:343|344:310,1,69.9999978637696,2|0,0:0|0:0,0:0:0:0:
277,258,36585,6,0,P|210:273|155:233,1,139.999995727539,0|0,1:0|0:0,0:0:0:0:
109,163,37085,1,0,0:0:0:0:
32,198,37252,2,0,P|22:231|28:265,1,69.9999978637696
230,190,37585,2,0,P|239:156|233:122,1,69.9999978637696,2|0,0:0|0:0,0:0:0:0:
125,16,37919,2,0,P|150:40|183:53,1,69.9999978637696
327,12,38252,2,0,P|293:20|266:43,1,69.9999978637696
450,116,38585,6,0,L|485:113,2,34.9999989318848,0|0|0,1:0|0:0|0:0,0:0:0:0:
334,94,38919,1,0,0:0:0:0:
403,47,39085,1,0,0:0:0:0:
381,163,39252,2,0,L|367:231,1,69.9999978637696
288,256,39585,5,2,0:0:0:0:
412,368,39752,1,0,0:0:0:0:
271,337,39919,1,0,0:0:0:0:
429,287,40085,1,2,0:0:0:0:
350,312,40252,1,2,0:0:0:0:
350,312,40585,6,0,P|286:285|220:305,1,139.999995727539,0|0,1:0|0:0,0:0:0:0:
163,367,41085,1,0,0:0:0:0:
163,367,41252,2,0,L|93:355,1,69.9999978637696
0,161,41585,6,0,P|63:134|129:154,1,139.999995727539,2|0,0:0|0:0,0:0:0:0:
187,215,42085,1,2,0:0:0:0:
187,215,42252,2,0,L|256:203,1,69.9999978637696,2|0,0:0|0:0,0:0:0:0:
409,134,42585,5,0,1:0:0:0:
329,244,42752,1,0,0:0:0:0:
329,244,42835,1,0,0:0:0:0:
329,244,42919,1,0,0:0:0:0:
458,202,43085,1,0,0:0:0:0:
329,160,43252,1,0,0:0:0:0:
409,270,43418,1,0,0:0:0:0:
256,203,43585,5,2,0:0:0:0:
256,286,43751,1,0,0:0:0:0:
256,182,43919,1,0,0:0:0:0:
256,306,44085,1,2,0:0:0:0:
256,161,44252,2,0,L|186:166,1,69.9999978637696,2|0,0:0|0:0,0:0:0:0:
13,254,44585,6,0,P|68:215|134:231,1,139.999995727539,0|0,1:0|0:0,0:0:0:0:
171,306,45085,1,0,0:0:0:0:
97,367,45252,2,0,L|84:298,1,69.9999978637696
245,367,45585,6,0,L|271:229,1,139.999995727539,2|0,0:0|0:0,0:0:0:0:
306,22,46085,1,2,0:0:0:0:
321,105,46252,2,0,L|333:173,1,69.9999978637696,2|0,0:0|0:0,0:0:0:0:
442,279,46585,5,0,1:0:0:0:
424,259,46668,1,0,0:0:0:0:
401,248,46751,1,0,0:0:0:0:
375,247,46835,1,0,0:0:0:0:
351,257,46919,5,0,0:0:0:0:
191,201,47085,1,0,0:0:0:0:
333,174,47252,1,0,0:0:0:0:
208,284,47419,1,0,0:0:0:0:
271,229,47585,1,0,0:0:0:0:
271,229,48085,6,0,L|196:221,1,75.0000028610231
135,260,48585,2,0,L|321:279,1,187.500007152558
386,216,49585,6,0,P|366:146|407:86,1,150.000005722046,6|2,0:0|0:0,0:0:0:0:
483,37,50085,1,2,0:0:0:0:
285,108,50252,2,0,L|210:100,1,75.0000028610231,2|0,0:0|0:0,0:0:0:0:
92,254,50585,2,0,L|167:247,1,75.0000028610231,0|0,1:0|0:0,0:0:0:0:
234,187,50918,1,0,0:0:0:0:
234,187,51085,1,2,0:0:0:0:
305,239,51252,2,0,P|315:276|306:312,1,75.0000028610231,2|0,0:0|0:0,0:0:0:0:
372,178,51585,6,0,B|365:73|365:73|398:103,1,150.000005722046,2|0,0:0|0:0,0:0:0:0:
457,170,52085,1,2,0:0:0:0:
372,268,52252,2,0,P|336:261|306:240,1,75.0000028610231,2|0,0:0|0:0,0:0:0:0:
242,95,52585,2,0,P|254:130|251:168,1,75.0000028610231,0|0,1:0|0:0,0:0:0:0:
215,251,52919,1,2,0:0:0:0:
42,235,53085,1,2,0:0:0:0:
124,289,53252,2,0,L|130:214,1,75.0000028610231,2|0,0:0|0:0,0:0:0:0:
239,18,53585,6,0,L|250:167,1,150.000005722046,2|0,0:0|0:0,0:0:0:0:
358,312,54085,1,2,0:0:0:0:
340,157,54252,1,2,0:0:0:0:
215,251,54419,1,2,0:0:0:0:
393,230,54585,6,0,P|428:165|406:96,1,150.000005722046,0|0,1:0|0:0,0:0:0:0:
250,167,55085,1,2,0:0:0:0:
366,325,55252,2,0,L|440:316,1,75.0000028610231,2|0,0:0|0:0,0:0:0:0:
290,373,55585,6,0,L|140:356,1,150.000005722046,2|0,0:0|0:0,0:0:0:0:
18,257,56085,1,2,0:0:0:0:
163,201,56252,1,2,0:0:0:0:
50,341,56419,1,2,0:0:0:0:
75,187,56585,5,0,1:0:0:0:
195,285,56752,1,0,0:0:0:0:
195,285,56835,1,0,0:0:0:0:
195,285,56919,1,0,0:0:0:0:
155,135,57085,1,2,0:0:0:0:
100,280,57252,1,2,0:0:0:0:
229,195,57419,1,2,0:0:0:0:
357,279,57585,6,0,P|426:300|486:259,1,150.000005722046,2|0,0:0|0:0,0:0:0:0:
319,197,58085,1,2,0:0:0:0:
294,343,58252,2,0,L|219:334,1,75.0000028610231,2|2,0:0|0:0,0:0:0:0:
33,306,58585,2,0,L|108:298,1,75.0000028610231,0|0,1:0|0:0,0:0:0:0:
185,250,58919,1,0,0:0:0:0:
185,250,59085,1,2,0:0:0:0:
106,135,59252,2,0,P|96:170|105:207,1,75.0000028610231,2|0,0:0|0:0,0:0:0:0:
266,292,59585,6,0,B|332:268|346:317|413:286,1,150.000005722046,2|0,0:0|0:0,0:0:0:0:
304,372,60085,1,2,0:0:0:0:
369,209,60252,1,2,0:0:0:0:
487,345,60419,1,2,0:0:0:0:
275,200,60585,6,0,P|238:208|202:199,1,75.0000028610231,0|0,1:0|0:0,0:0:0:0:
203,32,60919,2,0,P|239:24|275:33,1,75.0000028610231
239,116,61253,1,0,0:0:0:0:
239,116,61585,6,0,L|164:115,1,75.0000028610231,2|0,0:0|0:0,0:0:0:0:
24,209,61919,1,0,0:0:0:0:
112,189,62085,1,2,0:0:0:0:
85,275,62252,1,2,0:0:0:0:
51,123,62418,1,2,0:0:0:0:
104,363,62585,6,0,P|172:337|237:371,1,150.000005722046,0|0,1:0|0:0,0:0:0:0:
412,308,63085,1,2,0:0:0:0:
327,377,63252,2,0,L|322:302,1,75.0000028610231,2|0,0:0|0:0,0:0:0:0:
422,158,63585,6,0,L|412:307,1,150.000005722046,2|0,0:0|0:0,0:0:0:0:
351,102,64085,1,2,0:0:0:0:
510,174,64252,1,2,0:0:0:0:
274,225,64419,1,2,0:0:0:0:
422,158,64585,5,0,1:0:0:0:
322,302,64752,1,0,0:0:0:0:
322,302,64835,1,0,0:0:0:0:
322,302,64919,1,0,0:0:0:0:
247,143,65085,1,2,0:0:0:0:
414,260,65252,1,2,0:0:0:0:
239,245,65419,1,2,0:0:0:0:
339,101,65585,6,0,L|326:250,1,150.000005722046,6|0,0:0|0:0,0:0:0:0:
299,336,66085,1,2,0:0:0:0:
299,335,66252,2,0,P|335:328|373:326,1,75.0000028610231,2|2,0:0|0:0,0:0:0:0:
211,330,66585,2,0,P|174:324|137:321,1,75.0000028610231,0|0,1:0|0:0,0:0:0:0:
110,189,66919,1,0,0:0:0:0:
65,268,67085,1,2,0:0:0:0:
189,232,67252,2,0,P|200:197|195:160,1,75.0000028610231,2|0,0:0|0:0,0:0:0:0:
127,97,67585,6,0,P|199:114|267:85,1,150.000005722046,2|0,0:0|0:0,0:0:0:0:
427,168,68085,1,2,0:0:0:0:
272,176,68252,1,2,0:0:0:0:
342,37,68419,1,2,0:0:0:0:
347,127,68585,2,0,L|351:201,1,75.0000028610231,0|0,1:0|0:0,0:0:0:0:
351,202,68835,1,0,0:0:0:0:
351,202,68919,1,0,0:0:0:0:
433,360,69085,1,2,0:0:0:0:
464,275,69252,2,0,P|427:271|392:281,1,75.0000028610231,2|0,0:0|0:0,0:0:0:0:
311,325,69585,6,0,P|241:347|172:320,1,150.000005722046,2|0,0:0|0:0,0:0:0:0:
107,187,70085,1,2,0:0:0:0:
93,276,70252,1,2,0:0:0:0:
79,365,70419,1,2,0:0:0:0:
107,187,70585,6,0,L|69:181,1,37.5000014305115,0|0,1:0|0:0,0:0:0:0:
263,127,70919,2,0,L|226:122,1,37.5000014305115
419,67,71252,2,0,L|381:61,1,37.5000014305115,2|0,0:0|0:0,0:0:0:0:
263,126,71585,6,0,P|241:196|279:258,1,150.000005722046,2|0,0:0|0:0,0:0:0:0:
404,352,72085,1,2,0:0:0:0:
333,186,72251,1,2,0:0:0:0:
225,330,72418,1,2,0:0:0:0:
403,246,72585,5,0,1:0:0:0:
240,155,72752,1,0,0:0:0:0:
240,155,72835,1,0,0:0:0:0:
240,155,72919,2,0,L|234:230,1,75.0000028610231,0|2,0:0|0:0,0:0:0:0:
468,169,73252,2,0,L|461:94,1,75.0000028610231,2|0,0:0|0:0,0:0:0:0:
373,140,73585,6,0,P|310:177|240:155,1,150.000005722046,2|0,0:0|0:0,0:0:0:0:
175,93,74085,1,2,0:0:0:0:
113,158,74252,2,0,L|39:170,1,75.0000028610231,2|2,0:0|0:0,0:0:0:0:
119,291,74585,6,0,P|189:313|251:275,1,150.000005722046,0|0,1:0|0:0,0:0:0:0:
179,221,75085,1,2,0:0:0:0:
321,329,75252,2,0,L|394:316,1,75.0000028610231,2|0,0:0|0:0,0:0:0:0:
469,367,75585,6,0,P|425:308|443:238,1,150.000005722046,2|0,0:0|0:0,0:0:0:0:
402,89,76085,1,2,0:0:0:0:
347,233,76252,1,2,0:0:0:0:
476,148,76419,1,2,0:0:0:0:
322,140,76585,6,0,L|247:135,1,75.0000028610231,0|0,1:0|0:0,0:0:0:0:
230,150,76835,1,0,0:0:0:0:
212,164,76919,2,0,L|138:160,1,75.0000028610231,0|2,0:0|0:0,0:0:0:0:
6,314,77252,2,0,L|80:310,1,75.0000028610231,2|0,0:0|0:0,0:0:0:0:
134,381,77585,6,0,P|171:318|149:249,1,150.000005722046,2|0,0:0|0:0,0:0:0:0:
338,251,78085,1,2,0:0:0:0:
258,294,78252,1,2,0:0:0:0:
259,203,78419,1,2,0:0:0:0:
416,298,78585,6,0,L|486:272,1,75.0000028610231,0|0,1:0|0:0,0:0:0:0:
338,251,78919,2,0,L|325:324,1,75.0000028610231,0|2,0:0|0:0,0:0:0:0:
419,206,79252,2,0,L|361:158,1,75.0000028610231,2|0,0:0|0:0,0:0:0:0:
259,203,79585,6,0,P|189:225|127:187,1,150.000005722046,2|0,0:0|0:0,0:0:0:0:
71,116,80085,1,2,0:0:0:0:
32,296,80252,2,0,L|106:289,1,75.0000028610231,2|2,0:0|0:0,0:0:0:0:
199,133,80585,5,0,1:0:0:0:
319,273,80752,1,0,0:0:0:0:
319,273,80835,1,0,0:0:0:0:
319,273,80919,1,0,0:0:0:0:
329,143,81085,1,2,0:0:0:0:
188,262,81252,2,0,L|114:269,1,75.0000028610231,2|0,0:0|0:0,0:0:0:0:
54,336,81585,5,6,0:0:0:0:
256,192,81669,12,0,85419,0:0:0:0:
