osu file format v14

[General]
AudioFilename: audio.mp3
AudioLeadIn: 0
PreviewTime: 49585
Countdown: 0
SampleSet: Soft
StackLeniency: 0.2
Mode: 0
LetterboxInBreaks: 0
WidescreenStoryboard: 1

[Editor]
Bookmarks: 72252,81585
DistanceSpacing: 1.2
BeatDivisor: 4
GridSize: 32
TimelineZoom: 1.5

[Metadata]
Title:Phronesis
TitleUnicode:Phronesis
Artist:RURUTIA
ArtistUnicode:ルルティア
Creator:Krowzin
Version:Together
Source:ソフィーのアトリエ ~不思議な本の錬金術士~
Tags:Atelier Sophie: The Alchemist of the Mysterious Book Opening
BeatmapID:1329152
BeatmapSetID:571149

[Difficulty]
HPDrainRate:6.5
CircleSize:3.6
OverallDifficulty:7.5
ApproachRate:8.5
SliderMultiplier:1
SliderTickRate:1

[Events]
//Background and Video events
0,0,"AS-Banner.jpg",0,0
//Break Periods
//Storyboard Layer 0 (Background)
//Storyboard Layer 1 (Fail)
//Storyboard Layer 2 (Pass)
//Storyboard Layer 3 (Foreground)
//Storyboard Sound Samples

[TimingPoints]
257,333.333333333333,5,2,1,15,1,0
257,-133.333333333333,5,2,1,12,0,0
1923,333.333333333333,6,2,1,15,1,0
1923,-133.333333333333,6,2,1,12,0,0
3923,333.333333333333,5,2,1,15,1,0
3923,-133.333333333333,5,2,1,12,0,0
5589,333.333333333333,6,2,1,15,1,0
5589,-133.333333333333,6,2,1,12,0,0
6922,-125,6,2,1,12,0,0
7255,-111.111111111111,6,2,1,12,0,0
7588,-100,6,2,1,12,0,0
7589,333.333333333333,5,2,1,15,1,0
9255,333.333333333333,6,2,1,15,1,0
13254,-90.9090909090909,6,2,1,22,0,0
15254,-83.3333333333333,6,2,1,30,0,0
15588,-71.4285714285714,6,2,1,30,0,0
15921,333.333333333333,6,2,1,30,1,0
15921,-64.5161290322581,6,2,1,30,0,0
27920,333.333333333333,5,2,1,30,1,0
27920,-60.6060606060606,5,2,1,30,0,0
29586,333.333333333333,6,2,1,30,1,0
29586,-60.6060606060606,6,2,1,30,0,0
48085,-133.333333333333,6,2,1,30,0,0
49585,-57.1428571428571,6,2,1,30,0,0
70585,-50,6,2,1,30,0,0
71169,-57.1428571428571,6,2,1,30,0,0

[Colours]
Combo1 : 255,128,255
Combo2 : 172,255,255
Combo3 : 142,255,142
Combo4 : 255,255,111

[HitObjects]
383,219,257,6,0,P|399:175|395:135,1,75.0000028610231
374,57,923,1,0,0:0:0:0:
353,140,1256,1,0,0:0:0:0:
383,219,1590,1,0,0:0:0:0:
350,298,1923,6,0,P|315:312|278:313,1,75.0000028610231
363,325,2422,2,0,P|328:339|291:340,1,75.0000028610231
207,327,2922,2,0,L|205:289,1,37.5000014305115
270,232,3256,5,0,0:0:0:0:
301,153,3589,1,0,0:0:0:0:
271,72,3923,1,0,0:0:0:0:
207,132,4256,6,0,L|131:107,1,75.0000028610231
119,137,4922,2,0,L|190:160,1,75.0000028610231
263,203,5589,2,0,L|191:226,1,75.0000028610231
126,254,6088,2,0,L|161:265,1,37.5000014305115
243,294,6588,1,0,0:0:0:0:
348,337,6922,6,0,L|303:351,1,40
406,266,7255,2,0,L|356:252,1,44.999998626709
478,196,7505,1,0,0:0:0:0:
478,196,7589,2,0,L|411:121,1,100
349,34,8088,5,0,0:0:0:0:
277,144,8255,2,0,P|304:149|328:163,1,50
258,278,8588,2,0,P|220:287|158:266,1,100
101,208,9088,1,0,0:0:0:0:
132,360,9255,6,0,P|155:328|161:263,1,100
75,291,9755,2,0,L|26:278,1,50
101,208,10088,1,0,0:0:0:0:
21,144,10254,2,0,L|114:109,1,100
190,69,10754,1,0,0:0:0:0:
119,23,10921,1,0,0:0:0:0:
223,147,11254,1,0,0:0:0:0:
367,53,11588,6,0,P|387:38|412:33,1,50
379,81,11921,2,0,P|398:67|423:61,1,50
439,138,12254,2,0,P|399:107|351:96,1,100
323,262,12921,1,0,0:0:0:0:
456,110,13254,6,0,P|416:79|356:67,1,110.000003356934
216,252,13921,2,0,P|255:282|315:293,1,110.000003356934
410,250,14421,1,0,0:0:0:0:
322,153,14588,1,0,0:0:0:0:
207,283,14754,1,0,0:0:0:0:
207,283,14838,1,0,0:0:0:0:
207,283,14921,6,0,L|202:354,1,55.0000016784668
337,124,15254,2,0,L|333:64,1,59.9999981689454
428,279,15588,2,0,L|423:348,1,69.9999978637696
204,151,15921,6,0,P|136:124|54:164,1,155.000001182556
2,270,16421,1,0,0:0:0:0:
106,349,16587,2,0,P|144:353|178:336,1,77.5000005912781
258,87,16921,6,0,P|288:153|248:223,1,155.000001182556
132,156,17421,1,0,0:0:0:0:
274,61,17587,2,0,L|351:69,1,77.5000005912781
408,230,17920,6,0,L|400:153,1,77.5000005912781
482,292,18170,1,0,0:0:0:0:
482,292,18254,1,0,0:0:0:0:
375,368,18420,1,0,0:0:0:0:
258,306,18587,2,0,P|240:271|245:233,1,77.5000005912781
203,176,18920,6,0,B|187:269|258:306|258:306|290:268|271:233,1,232.500001773834
125,124,19587,2,0,P|107:158|112:196,1,77.5000005912781
281,150,19920,2,0,P|297:115|291:78,1,77.5000005912781
173,16,20254,5,0,0:0:0:0:
95,122,20420,1,0,0:0:0:0:
173,228,20587,1,0,0:0:0:0:
77,94,20754,1,0,0:0:0:0:
149,309,20920,6,0,P|102:275|89:218,1,116.250000886917,0|0,2:0|2:0,2:0:0:0:
204,138,21254,2,0,L|288:151,1,77.5000005912781,0|0,2:0|2:0,2:0:0:0:
262,233,21504,1,0,0:0:0:0:
262,233,21587,2,0,P|255:269|229:307,1,77.5000005912781,0|0,2:0|2:0,2:0:0:0:
370,131,21920,6,0,L|217:108,1,155.000001182556,0|0,2:0|2:0,2:0:0:0:
439,200,22420,1,0,0:0:0:0:
439,200,22587,2,0,P|460:167|467:130,1,77.5000005912781,0|0,2:0|2:0,2:0:0:0:
255,7,22920,2,0,P|233:39|226:76,1,77.5000005912781,0|0,2:0|2:0,2:0:0:0:
326,77,23170,1,0,0:0:0:0:
326,77,23254,1,0,0:0:0:0:
455,39,23420,1,0,0:0:0:0:
306,208,23587,5,0,0:0:0:0:
150,46,23754,1,0,0:0:0:0:
25,199,23920,2,0,P|78:240|187:220,1,155.000001182556
111,150,24420,1,0,0:0:0:0:
92,123,24587,6,0,P|56:136|30:165,1,77.5000005912781
235,345,24920,2,0,P|221:262|156:236,1,155.000001182556
93,312,25420,1,0,0:0:0:0:
258,368,25587,2,0,P|293:378|360:363,1,77.5000005912781
430,226,25920,6,0,B|387:250|387:250|350:187|403:106,1,155.000001182556
449,35,26420,1,0,0:0:0:0:
355,129,26587,2,0,P|309:135|274:124,1,77.5000005912781
107,95,26920,6,0,P|118:20|212:39,1,155.000001182556
251,146,27420,1,0,0:0:0:0:
187,265,27587,1,0,0:0:0:0:
0,260,27754,1,0,0:0:0:0:
318,62,27920,6,0,P|245:31|175:69,1,165.000001573563
408,158,28420,1,0,0:0:0:0:
408,158,28586,2,0,L|420:64,1,82.5000007867813
251,146,28920,2,0,L|262:227,1,82.5000007867813
450,263,29253,2,0,P|411:249|372:260,1,82.5000007867813,0|0,0:3|0:3,0:3:0:0:
233,323,29586,6,0,B|287:360|339:327|339:327|349:245,1,165.000001573563
257,175,30086,1,0,0:0:0:0:
165,115,30252,1,0,0:0:0:0:
105,208,30419,1,0,0:0:0:0:
273,69,30586,6,0,B|335:83|357:139|357:139|422:150,1,165.000001573563,0|0,0:3|0:3,0:3:0:0:
222,184,31086,2,0,L|141:201,2,82.5000007867813
13,148,31586,1,0,0:0:0:0:
100,298,31752,1,0,0:0:0:0:
244,160,31919,2,0,P|289:152|330:162,1,82.5000007867813
436,321,32252,2,0,P|391:329|350:319,1,82.5000007867813
415,176,32585,6,0,B|422:139|402:106|402:106|432:59|438:14,1,165.000001573563
286,69,33086,1,0,0:0:0:0:
318,67,33252,2,0,L|224:73,1,82.5000007867813
80,19,33585,2,0,B|87:56|67:89|67:89|63:135|103:181,1,165.000001573563
207,237,34085,1,0,0:0:0:0:
175,232,34251,2,0,L|280:249,1,82.5000007867813
306,43,34585,2,0,P|228:72|202:146,1,165.000001573563
267,309,35085,1,0,0:0:0:0:
392,247,35252,2,0,P|405:206|402:160,1,82.5000007867813
434,52,35585,5,0,0:0:0:0:
512,154,35752,1,0,0:0:0:0:
465,276,35919,2,0,L|461:364,1,82.5000007867813
361,231,36252,2,0,L|364:148,1,82.5000007867813
234,324,36585,6,0,B|185:335|147:310|147:310|150:259|195:227,1,165.000001573563
260,154,37085,1,0,0:0:0:0:
324,307,37252,2,0,P|321:350|302:387,1,82.5000007867813
371,145,37585,6,0,P|323:142|279:158,1,82.5000007867813
294,14,37919,2,0,P|257:45|238:88,1,82.5000007867813
196,210,38252,2,0,P|193:167|174:130,1,82.5000007867813
33,0,38585,5,0,0:0:0:0:
152,139,38752,1,0,0:0:0:0:
166,174,38835,1,0,0:0:0:0:
168,211,38918,1,0,0:0:0:0:
72,347,39085,1,0,0:0:0:0:
3,224,39252,1,0,0:0:0:0:
59,95,39419,1,0,0:0:0:0:
114,274,39585,6,0,P|151:293|192:290,1,82.5000007867813
294,191,39919,1,0,0:0:0:0:
214,305,40085,1,0,0:0:0:0:
331,383,40252,2,0,P|371:385|408:367,1,82.5000007867813
378,181,40585,6,0,P|328:113|232:133,1,165.000001573563
210,210,41085,1,0,0:0:0:0:
296,301,41252,2,0,L|370:266,1,82.5000007867813
510,139,41585,6,0,P|426:126|375:206,1,165.000001573563
395,288,42085,1,0,0:0:0:0:
395,288,42252,2,0,L|469:322,1,82.5000007867813
245,384,42585,2,0,P|205:280|245:217,1,165.000001573563
304,110,43085,1,0,0:0:0:0:
435,59,43252,1,0,0:0:0:0:
496,185,43419,1,0,0:0:0:0:
317,81,43585,5,0,0:0:0:0:
216,218,43752,1,0,0:0:0:0:
186,60,43919,1,0,0:0:0:0:
88,194,44086,1,0,0:0:0:0:
190,27,44252,2,0,P|129:11|79:48,1,82.5000007867813
1,224,44585,6,0,P|55:280|140:270,1,165.000001573563
165,128,45085,1,0,0:0:0:0:
8,267,45252,2,0,L|29:346,1,82.5000007867813
294,384,45585,6,0,L|354:156,1,165.000001573563
215,295,46085,1,0,0:0:0:0:
325,384,46252,2,0,L|346:305,1,82.5000007867813
422,183,46585,5,0,0:0:0:0:
383,196,46668,1,0,0:0:0:0:
342,192,46751,1,0,0:0:0:0:
307,171,46835,1,0,0:0:0:0:
285,137,46918,1,0,0:0:0:0:
271,39,47085,1,0,0:0:0:0:
384,0,47252,1,0,0:0:0:0:
512,117,47419,1,0,0:0:0:0:
370,106,47585,5,0,0:0:0:0:
336,105,48085,1,0,0:0:0:0:
306,101,48419,1,0,0:0:0:0:
186,129,48585,2,0,L|374:140,1,187.500007152558
282,237,49585,6,0,P|184:215|183:147,1,175.00000166893
370,106,50085,1,0,0:0:0:0:
484,264,50252,2,0,P|493:315|482:369,1,87.500000834465
266,349,50585,2,0,P|257:298|268:244,1,87.500000834465
432,190,50919,1,0,0:0:0:0:
357,318,51085,1,0,0:0:0:0:
179,154,51252,2,0,L|267:150,1,87.500000834465
100,13,51585,6,0,B|103:111|103:111|86:141|87:177|109:204,1,175.00000166893
201,71,52085,1,0,0:0:0:0:
5,141,52252,2,0,P|6:190|20:232,1,87.500000834465
153,315,52585,1,0,0:0:0:0:
179,154,52752,1,0,0:0:0:0:
179,154,52835,1,0,0:0:0:0:
179,154,52919,1,0,0:0:0:0:
310,241,53085,1,0,0:0:0:0:
334,119,53252,2,0,P|335:75|323:34,1,87.500000834465
399,323,53585,6,0,B|320:310|310:240|310:240|248:239,1,175.00000166893
405,228,54085,1,0,0:0:0:0:
405,228,54252,2,0,L|509:231,1,87.500000834465
354,384,54585,6,0,L|139:380,1,175.00000166893
101,299,55085,1,0,0:0:0:0:
245,236,55252,1,0,0:0:0:0:
83,188,55419,1,0,0:0:0:0:
298,171,55585,6,0,P|188:174|163:253,1,175.00000166893
203,349,56085,1,0,0:0:0:0:
369,220,56252,2,0,P|385:166|356:108,1,87.500000834465
213,62,56585,1,0,0:0:0:0:
206,91,56668,1,0,0:0:0:0:
210,121,56751,1,0,0:0:0:0:
245,236,56919,5,0,0:0:0:0:
383,344,57085,1,0,0:0:0:0:
485,172,57252,1,0,0:0:0:0:
326,59,57419,1,0,0:0:0:0:
229,266,57585,6,0,P|151:227|135:126,1,175.00000166893
337,189,58085,1,0,0:0:0:0:
335,222,58252,2,0,L|327:321,1,87.500000834465
106,241,58585,2,0,L|98:141,1,87.500000834465
94,56,58919,1,0,0:0:0:0:
232,163,59085,1,0,0:0:0:0:
71,246,59252,2,0,L|63:146,1,87.500000834465
274,358,59585,6,0,P|351:381|419:290,1,175.00000166893
411,186,60085,1,0,0:0:0:0:
333,291,60252,1,0,0:0:0:0:
495,284,60419,1,0,0:0:0:0:
471,126,60585,6,0,P|394:103|326:194,1,175.00000166893
257,229,61085,1,0,0:0:0:0:
250,197,61252,2,0,P|236:155|202:129,1,87.500000834465
96,354,61585,6,0,P|62:277|107:175,1,175.00000166893
182,106,62085,2,0,L|223:93,1,43.7500004172325
282,197,62252,2,0,L|324:207,1,43.7500004172325
274,320,62419,2,0,L|305:350,1,43.7500004172325
286,167,62585,6,0,L|456:126,1,175.00000166893
398,49,63085,1,0,0:0:0:0:
257,147,63252,2,0,P|238:188|238:233,1,87.500000834465
413,276,63585,6,0,P|343:227|262:251,1,175.00000166893
194,318,64085,1,0,0:0:0:0:
116,213,64252,1,0,0:0:0:0:
292,147,64419,1,0,0:0:0:0:
45,124,64585,6,0,P|13:55|100:30,1,175.00000166893
310,177,65085,1,0,0:0:0:0:
87,226,65252,1,0,0:0:0:0:
286,384,65419,1,0,0:0:0:0:
263,107,65585,6,0,P|342:99|394:190,1,175.00000166893
289,278,66085,1,0,0:0:0:0:
159,155,66252,2,0,P|146:111|166:59,1,87.500000834465
310,177,66585,2,0,P|323:221|303:273,1,87.500000834465
195,365,66919,1,0,0:0:0:0:
120,251,67085,1,0,0:0:0:0:
341,171,67252,2,0,P|354:215|334:267,1,87.500000834465
451,83,67585,6,0,P|359:63|256:90,1,175.00000166893
204,214,68085,1,0,0:0:0:0:
340,286,68252,2,0,P|394:297|454:281,1,87.500000834465
181,192,68585,6,0,P|161:276|176:362,1,175.00000166893
261,300,69085,1,0,0:0:0:0:
372,208,69252,2,0,P|383:153|367:93,1,87.500000834465
150,100,69585,6,0,P|170:22|249:35,1,175.00000166893
239,131,70085,1,0,0:0:0:0:
150,236,70252,1,0,0:0:0:0:
58,136,70419,1,0,0:0:0:0:
112,324,70585,6,0,P|125:276|118:227,1,100
88,148,70919,2,0,P|63:104|23:75,1,100
262,150,71252,1,0,0:0:0:0:
322,274,71419,1,0,0:0:0:0:
172,358,71585,6,0,P|102:301|131:214,1,175.00000166893
249,117,72085,1,0,0:0:0:0:
249,117,72252,2,0,P|296:101|344:104,1,87.500000834465
331,303,72585,5,0,0:0:0:0:
133,270,72752,1,0,0:0:0:0:
133,270,72835,1,0,0:0:0:0:
133,270,72919,2,0,L|121:169,1,87.500000834465
279,100,73252,2,0,L|289:186,1,87.500000834465
114,59,73585,6,0,P|36:93|5:172,1,175.00000166893
134,236,74085,1,0,0:0:0:0:
250,118,74252,2,0,P|272:68|244:2,1,87.500000834465
119,148,74585,2,0,P|96:197|124:263,1,87.500000834465
216,323,74919,1,0,0:0:0:0:
326,224,75085,1,0,0:0:0:0:
87,139,75252,2,0,P|64:188|92:254,1,87.500000834465
233,353,75585,6,0,P|188:272|193:180,1,175.00000166893
238,50,76085,1,0,0:0:0:0:
379,3,76252,2,0,P|432:18|470:60,1,87.500000834465
403,189,76585,6,0,P|358:108|363:16,1,175.00000166893
509,138,77085,1,0,0:0:0:0:
504,171,77252,2,0,P|469:197|427:206,1,87.500000834465
271,45,77585,6,0,P|215:62|225:179,1,175.00000166893
306,281,78085,1,0,0:0:0:0:
432,202,78252,1,0,0:0:0:0:
420,57,78419,1,0,0:0:0:0:
267,77,78585,6,0,L|292:159,1,87.500000834465
234,80,78919,2,0,L|260:164,1,87.500000834465
318,310,79252,1,0,0:0:0:0:
453,182,79419,1,0,0:0:0:0:
234,178,79585,2,0,P|155:141|144:47,1,175.00000166893
302,71,80085,1,0,0:0:0:0:
347,203,80252,2,0,P|355:245|342:287,1,87.500000834465
226,383,80585,5,0,0:0:0:0:
380,290,80752,1,0,0:0:0:0:
393,248,80835,1,0,0:0:0:0:
384,205,80918,1,0,0:0:0:0:
279,44,81085,1,0,0:0:0:0:
124,285,81252,6,0,P|111:243|119:200,1,87.500000834465
256,192,81585,1,0,0:0:0:0:
256,192,81669,12,0,85419,0:0:0:0:
