osu file format v14

[General]
AudioFilename: audio.mp3
AudioLeadIn: 0
PreviewTime: 49585
Countdown: 0
SampleSet: Soft
StackLeniency: 0.2
Mode: 0
LetterboxInBreaks: 0
WidescreenStoryboard: 0

[Editor]
DistanceSpacing: 2
BeatDivisor: 4
GridSize: 32
TimelineZoom: 1.5

[Metadata]
Title:Phronesis
TitleUnicode:Phronesis
Artist:RURUTIA
ArtistUnicode:ルルティア
Creator:Krowzin
Version:Expressive
Source:ソフィーのアトリエ ~不思議な本の錬金術士~
Tags:Atelier Sophie: The Alchemist of the Mysterious Book Opening lince cosmico
BeatmapID:1329156
BeatmapSetID:571149

[Difficulty]
HPDrainRate:6
CircleSize:4.2
OverallDifficulty:7
ApproachRate:9
SliderMultiplier:1
SliderTickRate:1

[Events]
//Background and Video events
0,0,"AS-Banner.jpg",0,0
//Break Periods
//Storyboard Layer 0 (Background)
//Storyboard Layer 1 (Fail)
//Storyboard Layer 2 (Pass)
//Storyboard Layer 3 (Foreground)
//Storyboard Sound Samples

[TimingPoints]
257,333.333333333333,5,2,1,15,1,0
257,-133.333333333333,5,2,1,12,0,0
1923,333.333333333333,6,2,1,15,1,0
1923,-117.647058823529,6,2,1,12,0,0
3923,333.333333333333,5,2,1,15,1,0
3923,-133.333333333333,5,2,1,12,0,0
5589,333.333333333333,6,2,1,15,1,0
5589,-133.333333333333,6,2,1,12,0,0
6922,-125,6,2,1,12,0,0
7255,-111.111111111111,6,2,1,12,0,0
7588,-100,6,2,1,12,0,0
7589,333.333333333333,5,2,1,15,1,0
9255,333.333333333333,6,2,1,15,1,0
13254,-90.9090909090909,6,2,1,22,0,0
15254,-83.3333333333333,6,2,1,30,0,0
15588,-71.4285714285714,6,2,1,30,0,0
15921,333.333333333333,6,2,1,30,1,0
15921,-64.5161290322581,6,2,1,30,0,0
27920,333.333333333333,5,2,1,30,1,0
27920,-60.6060606060606,5,2,1,30,0,0
29586,333.333333333333,6,2,1,30,1,0
29586,-60.6060606060606,6,2,1,30,0,0
30586,-86.9565217391304,6,2,1,30,0,0
31086,-60.6060606060606,6,2,1,30,0,0
48085,-133.333333333333,6,2,1,30,0,0
49585,-57.1428571428571,6,2,1,50,0,1
61252,-86.9565217391304,6,2,1,50,0,1
61585,-57.1428571428571,6,2,1,50,0,1
81585,-57.1428571428571,6,2,1,30,0,0
85419,-57.1428571428571,6,2,1,10,0,0

[Colours]
Combo1 : 255,128,255
Combo2 : 172,255,255
Combo3 : 142,255,142
Combo4 : 255,255,111

[HitObjects]
116,91,257,6,0,P|122:131|123:178,1,75.0000028610231
225,252,923,1,0,0:0:0:0:
332,89,1256,2,0,P|326:126|325:163,1,75.0000028610231
201,273,1923,6,0,P|248:243|321:253,1,127.50000243187
372,314,2589,1,0,0:0:0:0:
372,314,2756,1,0,0:0:0:0:
438,261,2922,2,0,P|423:183|428:89,1,170.000003242493
427,92,3923,6,0,P|390:100|346:99,1,75.0000028610231
236,2,4589,1,0,0:0:0:0:
230,151,4922,2,0,P|251:118|266:77,1,75.0000028610231
132,157,5589,6,0,L|139:278,1,112.500004291535
142,298,6255,1,0,0:0:0:0:
142,298,6588,5,0,0:0:0:0:
280,216,6922,2,0,P|274:257|274:303,1,80
484,184,7589,6,0,P|438:189|385:180,1,100
334,95,8088,1,0,0:0:0:0:
280,216,8255,2,0,P|292:193|317:168,1,50
301,309,8588,2,0,P|276:312|249:308,1,50
365,247,8922,1,0,0:0:0:0:
365,247,9255,6,0,P|288:220|226:263,1,150
177,334,9921,2,0,P|148:335|123:330,1,50
43,178,10254,2,0,P|52:207|56:260,1,75
68,149,10588,2,0,P|59:178|55:231,1,75
38,125,10921,1,0,0:0:0:0:
38,125,11088,1,0,0:0:0:0:
150,210,11254,5,0,0:0:0:0:
150,210,11588,1,0,0:0:0:0:
226,146,11754,2,0,P|232:122|236:90,1,50
243,244,12088,1,0,0:0:0:0:
243,244,12254,2,0,P|294:256|345:239,1,100
401,165,12754,1,0,0:0:0:0:
472,318,12921,6,0,P|444:286|434:238,1,75
451,234,13254,2,8,P|413:248|357:238,1,82.5000025177003
316,155,13588,2,0,P|339:195|349:234,1,82.5000025177003
245,341,13921,6,0,L|253:232,1,110.000003356934
189,142,14421,1,0,0:0:0:0:
110,280,14588,2,0,L|177:275,1,55.0000016784668
100,129,14921,6,0,P|101:157|111:182,1,55.0000016784668
253,232,15254,2,0,P|219:225|180:228,1,59.9999981689454
61,328,15588,2,0,P|91:307|111:277,1,69.9999978637696
99,94,15921,5,0,0:0:0:0:
99,94,16254,2,0,P|138:101|181:100,1,77.5000005912781
249,30,16587,1,0,0:0:0:0:
219,182,16754,1,0,0:0:0:0:
219,182,16921,6,0,B|296:204|292:151|383:177,1,155.000001182556
378,328,17421,2,0,P|353:301|332:243,1,77.5000005912781
370,173,17754,1,0,0:0:0:0:
276,295,17920,6,0,L|189:302,1,77.5000005912781
200,308,18170,1,0,0:0:0:0:
201,315,18254,1,0,0:0:0:0:
68,214,18420,1,0,0:0:0:0:
170,223,18587,1,0,0:0:0:0:
44,314,18754,1,0,0:0:0:0:
51,119,18920,6,0,P|90:122|126:137,1,77.5000005912781
200,308,19254,2,0,P|172:280|157:231,1,77.5000005912781
273,72,19587,2,0,P|264:119|206:181,1,116.250000886917
222,171,19920,6,0,P|282:169|324:253,1,155.000001182556
253,381,20420,1,0,0:0:0:0:
253,381,20587,2,0,P|288:363|329:356,1,77.5000005912781
478,378,20920,6,0,P|472:339|472:294,1,77.5000005912781
502,147,21254,2,0,L|428:175,1,77.5000005912781
430,182,21504,1,0,0:0:0:0:
431,189,21587,1,0,0:0:0:0:
431,189,21920,6,0,P|367:183|273:187,1,155.000001182556
166,88,22420,2,0,P|204:82|245:83,1,77.5000005912781
140,200,22754,1,0,0:0:0:0:
232,6,22920,6,0,L|245:101,1,77.5000005912781
249,86,23170,1,0,0:0:0:0:
256,89,23254,1,0,0:0:0:0:
225,240,23420,1,0,0:0:0:0:
359,161,23587,2,0,P|320:161|270:172,1,77.5000005912781
169,313,23920,6,0,P|221:332|310:275,1,155.000001182556
193,151,24420,2,0,P|192:189|202:237,2,77.5000005912781
299,55,24920,6,0,B|267:67|267:67|211:63,1,77.5000005912781
85,0,25254,2,0,B|94:32|94:32|88:83,1,77.5000005912781
0,199,25587,2,0,B|29:194|29:194|82:203,1,77.5000005912781
175,345,25920,6,0,P|171:265|192:179,1,155.000001182556
299,55,26420,1,0,0:0:0:0:
374,202,26587,2,0,P|333:195|288:192,1,77.5000005912781
196,310,26920,5,0,0:0:0:0:
181,155,27087,1,0,0:0:0:0:
231,302,27254,5,0,0:0:0:0:
211,70,27420,1,0,0:0:0:0:
121,239,27587,1,0,0:0:0:0:
287,154,27754,1,0,0:0:0:0:
96,92,27920,6,0,L|109:278,1,165.000001573563
262,315,28420,2,0,P|306:315|348:324,2,82.5000007867813
89,381,28920,2,0,P|127:344|117:234,1,165.000001573563
121,239,29420,1,0,0:0:0:0:
273,152,29586,6,0,P|259:210|264:325,1,165.000001573563
420,362,30086,1,0,0:0:0:0:
375,214,30252,2,0,P|417:221|468:218,1,82.5000007867813
415,18,30586,6,0,P|409:71|423:143,1,115.000002193451
418,131,31086,2,0,P|372:121|281:197,1,165.000001573563
259,348,31585,6,0,P|284:312|306:262,1,82.5000007867813
175,178,31919,2,0,P|181:218|199:256,1,82.5000007867813
281,112,32252,1,0,0:0:0:0:
281,112,32585,2,0,P|236:127|116:106,1,165.000001573563
73,41,33086,1,0,0:0:0:0:
94,203,33252,2,0,P|54:196|1:196,1,82.5000007867813
123,317,33585,6,0,P|163:306|292:309,1,165.000001573563
344,365,34085,1,0,0:0:0:0:
381,204,34252,2,0,P|339:211|289:208,1,82.5000007867813
319,45,34585,6,0,P|335:89|333:137,1,82.5000007867813
249,273,34919,2,0,P|269:236|305:206,1,82.5000007867813
472,233,35252,2,0,P|432:225|382:198,1,82.5000007867813
319,45,35585,6,0,P|265:55|151:48,1,165.000001573563
249,184,36085,2,0,P|290:182|343:189,1,82.5000007867813
255,334,36419,1,0,0:0:0:0:
126,175,36585,2,0,P|170:174|241:272,1,165.000001573563
148,266,37085,1,0,0:0:0:0:
195,93,37252,1,0,0:0:0:0:
195,93,37585,6,0,P|267:106|379:104,1,165.000001573563
487,2,38085,1,0,0:0:0:0:
507,166,38252,2,0,P|467:158|420:158,1,82.5000007867813
308,274,38585,2,0,P|348:266|395:266,1,82.5000007867813
395,271,38835,1,0,0:0:0:0:
400,277,38919,1,0,0:0:0:0:
252,349,39085,5,0,0:0:0:0:
291,188,39252,1,0,0:0:0:0:
131,230,39419,1,0,0:0:0:0:
252,349,39585,6,0,B|336:383|329:323|431:357,1,165.000001573563
471,196,40085,2,0,P|467:243|477:293,2,82.5000007867813
510,44,40585,6,0,P|463:55|420:56,1,82.5000007867813
270,5,40919,2,0,P|278:62|277:140,1,123.750001180172
268,150,41252,2,0,B|218:161|218:161|141:137,1,123.750001180172
132,120,41585,6,0,P|143:191|128:286,1,165.000001573563
76,346,42085,1,0,0:0:0:0:
237,379,42252,2,0,L|226:274,1,82.5000007867813
271,129,42585,6,0,P|314:128|356:140,1,82.5000007867813
414,292,42919,2,0,P|399:253|399:204,1,82.5000007867813
502,84,43252,2,0,P|472:119|435:138,1,82.5000007867813
271,129,43585,6,0,P|272:85|268:36,1,82.5000007867813
201,198,43919,1,0,0:0:0:0:
278,226,44085,1,0,0:0:0:0:
350,186,44252,1,0,0:0:0:0:
350,186,44585,6,0,P|354:253|365:318,1,123.750001180172
377,329,44919,2,0,P|312:315|239:324,1,123.750001180172
237,336,45252,2,0,P|235:293|222:248,1,82.5000007867813
115,141,45585,6,0,P|191:152|274:127,1,165.000001573563
368,1,46085,2,0,P|361:44|368:92,2,82.5000007867813
465,124,46585,2,0,P|475:168|466:222,1,82.5000007867813
348,304,46919,1,0,0:0:0:0:
322,149,47085,1,0,0:0:0:0:
361,272,47252,1,0,0:0:0:0:
394,193,47418,1,0,0:0:0:0:
229,246,47585,5,0,0:0:0:0:
229,246,48585,2,0,P|156:247|166:135,1,206.250007867813
158,138,49585,6,0,P|96:153|0:106,1,175.00000166893
94,43,50085,1,0,0:0:0:0:
152,243,50252,2,0,P|110:237|54:239,1,87.500000834465
197,338,50585,2,0,P|246:297|260:258,1,87.500000834465
213,114,50919,2,0,P|224:164|248:197,1,87.500000834465
401,248,51252,2,0,P|355:227|313:226,1,87.500000834465
197,338,51585,6,0,P|243:364|246:275,1,175.00000166893
104,205,52085,2,0,L|119:308,1,87.500000834465
182,137,52419,1,0,0:0:0:0:
254,277,52585,6,0,B|345:309|336:241|459:270,1,175.00000166893
394,359,53085,1,0,0:0:0:0:
299,190,53252,2,0,P|344:196|401:188,1,87.500000834465
251,92,53585,6,0,P|211:124|209:252,1,175.00000166893
313,363,54085,1,0,0:0:0:0:
388,214,54252,2,0,L|296:219,1,87.500000834465
204,355,54585,5,0,0:0:0:0:
387,307,54752,1,0,0:0:0:0:
286,232,54919,5,0,0:0:0:0:
317,382,55085,1,0,0:0:0:0:
323,142,55252,5,0,0:0:0:0:
273,312,55419,1,0,0:0:0:0:
472,188,55585,6,0,P|423:199|390:314,1,175.00000166893
261,196,56085,2,0,P|219:193|168:202,2,87.500000834465
273,312,56585,5,0,0:0:0:0:
242,104,56752,1,0,0:0:0:0:
283,284,56919,5,0,0:0:0:0:
174,200,57085,1,0,0:0:0:0:
328,130,57252,5,0,0:0:0:0:
157,73,57419,1,0,0:0:0:0:
372,17,57585,6,0,P|361:100|367:210,1,175.00000166893
446,335,58085,1,0,0:0:0:0:
283,284,58252,2,0,L|386:273,1,87.500000834465
233,370,58585,2,0,P|196:333|183:288,1,87.500000834465
215,136,58919,2,0,P|207:182|184:222,1,87.500000834465
25,336,59252,2,0,P|52:278|113:258,1,131.250001251698
133,276,59585,6,0,P|121:210|130:98,1,175.00000166893
304,105,60085,2,0,P|305:154|290:195,2,87.500000834465
154,12,60585,5,0,0:0:0:0:
215,136,60752,1,0,0:0:0:0:
247,20,60919,5,0,0:0:0:0:
106,121,61085,1,0,0:0:0:0:
292,190,61252,2,0,P|305:148|304:105,1,87.500000834465
286,86,61585,6,0,P|376:107|469:104,1,175.00000166893
507,33,62085,1,0,0:0:0:0:
476,205,62252,2,0,P|428:197|380:199,1,87.500000834465
288,341,62585,5,0,0:0:0:0:
292,220,62752,1,0,0:0:0:0:
395,287,62919,5,0,0:0:0:0:
220,278,63085,1,0,0:0:0:0:
313,129,63252,1,0,0:0:0:0:
313,129,63585,6,0,P|234:140|126:135,1,175.00000166893
24,3,64085,2,0,P|50:55|52:88,1,87.500000834465
13,255,64419,1,0,0:0:0:0:
13,255,64502,1,0,0:0:0:0:
13,255,64585,6,0,P|67:242|114:246,1,87.500000834465
210,379,64919,2,0,P|187:344|181:291,1,87.500000834465
248,138,65252,2,0,P|223:175|181:205,1,87.500000834465
24,107,65585,6,0,B|86:101|155:115|155:115|138:133|100:144,1,175.00000166893
96,223,66085,1,0,0:0:0:0:
197,31,66252,2,0,P|229:63|254:120,1,87.500000834465
197,267,66585,6,0,B|283:231|279:296|367:273,1,175.00000166893
399,66,67085,1,0,0:0:0:0:
331,192,67252,2,0,P|400:192|450:248,1,131.250001251698
446,258,67585,6,0,P|449:177|478:80,1,175.00000166893
302,95,68085,2,0,P|343:108|396:108,2,87.500000834465
154,0,68585,5,0,0:0:0:0:
185,194,68752,1,0,0:0:0:0:
210,91,68919,5,0,0:0:0:0:
86,214,69085,1,0,0:0:0:0:
255,257,69252,1,0,0:0:0:0:
185,194,69419,1,0,0:0:0:0:
247,356,69585,6,0,P|332:364|429:346,1,175.00000166893
507,193,70085,2,0,P|425:200|325:183,1,175.00000166893
231,13,70585,2,0,P|252:57|257:116,1,87.500000834465
133,219,70919,5,0,0:0:0:0:
162,83,71085,1,0,0:0:0:0:
213,300,71252,2,0,P|170:294|117:297,1,87.500000834465
264,188,71585,6,0,P|310:181|443:202,1,175.00000166893
501,361,72085,2,0,P|479:317|475:258,1,87.500000834465
510,152,72419,1,0,0:0:0:0:
399,286,72585,2,0,L|298:278,1,87.500000834465
312,287,72835,1,0,0:0:0:0:
312,295,72919,1,0,0:0:0:0:
164,172,73085,5,0,0:0:0:0:
260,220,73252,1,0,0:0:0:0:
121,283,73418,1,0,0:0:0:0:
257,46,73585,6,0,P|249:130|262:232,1,175.00000166893
415,298,74085,1,0,0:0:0:0:
458,128,74252,2,0,P|413:129|368:142,1,87.500000834465
307,303,74585,6,0,P|339:268|354:221,1,87.500000834465
265,77,74919,2,0,P|288:120|320:147,1,87.500000834465
489,175,75252,2,0,P|444:162|391:163,1,87.500000834465
289,330,75585,6,0,B|355:331|426:325|426:325|403:373,1,175.00000166893
321,199,76085,1,0,0:0:0:0:
283,358,76252,2,0,P|239:360|191:355,1,87.500000834465
131,192,76585,6,0,P|138:235|141:286,1,87.500000834465
237,100,76919,2,0,P|229:143|227:186,1,87.500000834465
309,341,77252,2,0,P|374:326|458:337,1,131.250001251698
458,347,77585,6,0,P|447:291|456:170,1,175.00000166893
483,90,78085,1,0,0:0:0:0:
367,221,78252,2,0,P|321:211|260:215,1,87.500000834465
153,331,78585,2,0,P|185:296|186:209,1,131.250001251698
168,198,78919,1,0,0:0:0:0:
27,151,79085,1,0,0:0:0:0:
34,330,79252,2,0,P|56:292|69:251,1,87.500000834465
37,59,79585,6,0,P|81:75|216:64,1,175.00000166893
348,170,80085,2,0,P|395:160|445:168,2,87.500000834465
237,305,80585,2,0,P|246:266|245:213,1,87.500000834465
237,215,80835,1,0,0:0:0:0:
228,211,80919,1,0,0:0:0:0:
335,267,81085,1,0,0:0:0:0:
281,51,81252,2,0,P|270:95|268:138,1,87.500000834465
351,290,81585,5,0,0:0:0:0:
256,192,81669,12,0,85419,0:0:0:0:
