osu file format v14

[General]
AudioFilename: .mp3
AudioLeadIn: 0
PreviewTime: 2205
Countdown: 0
SampleSet: Normal
StackLeniency: 0.2
Mode: 0
LetterboxInBreaks: 0
WidescreenStoryboard: 1

[Editor]
Bookmarks: 146167
DistanceSpacing: 3
BeatDivisor: 4
GridSize: 32
TimelineZoom: 1

[Metadata]
Title:Densetsu no Matsuri
TitleUnicode:伝説の祭り
Artist:RUMI
ArtistUnicode:RUMI
Creator:Net0
Version:Oni
Source:太鼓の達人
Tags:Masako Ohgami Kenichiro Kubo JhowM Taiko no Tatsujin Doka! to Oomori Nanadaime taikosu
BeatmapID:1641637
BeatmapSetID:781683

[Difficulty]
HPDrainRate:5
CircleSize:4
OverallDifficulty:7
ApproachRate:8
SliderMultiplier:1.4
SliderTickRate:1

[Events]
//Background and Video events
0,0,"Touhouisthebestanime.jpg",0,0
//Break Periods
//Storyboard Layer 0 (Background)
//Storyboard Layer 1 (Fail)
//Storyboard Layer 2 (Pass)
//Storyboard Layer 3 (Foreground)
//Storyboard Sound Samples

[TimingPoints]
2205,476.190476190476,4,1,1,80,1,0
4109,441.176470588235,4,1,1,80,1,0
6756,441.176470588235,4,1,1,80,1,0
21756,441.176470588235,4,1,1,80,1,0
34108,-83.3333333333333,4,1,1,80,0,0
35873,-80,4,1,1,80,0,0
37638,-76.9230769230769,4,1,1,80,0,0
39403,-74.0740740740741,4,1,1,80,0,0
41167,-71.4285714285714,4,1,1,80,0,0
42932,-68.9655172413793,4,1,1,80,0,0
44697,-66.6666666666667,4,1,1,80,0,0
46461,-64.5161290322581,4,1,1,80,0,0
48226,-62.5,4,1,1,80,0,0
49991,-100,4,1,1,80,0,0
69403,-76.9230769230769,4,1,1,80,0,1
81755,-76.9230769230769,4,1,1,80,0,0
82638,-100,4,1,1,80,0,0
98520,441.176470588235,4,1,1,80,1,0
110872,-83.3333333333333,4,1,1,80,0,0
112637,-80,4,1,1,80,0,0
114402,-76.9230769230769,4,1,1,80,0,0
116167,-74.0740740740741,4,1,1,80,0,0
117931,-71.4285714285714,4,1,1,80,0,0
119696,-68.9655172413793,4,1,1,80,0,0
121461,-66.6666666666667,4,1,1,80,0,0
123225,-64.5161290322581,4,1,1,80,0,0
124990,-62.5,4,1,1,80,0,0
126755,-100,4,1,1,80,0,0
146167,-76.9230769230769,4,1,1,80,0,1
167343,-76.9230769230769,4,1,1,80,0,0

[Colours]
Combo1 : 140,0,0
Combo2 : 217,173,0

[HitObjects]
256,192,2205,5,4,0:0:0:0:
256,192,2681,1,4,0:0:0:0:
256,192,3157,1,4,0:0:0:0:
256,192,3633,1,4,0:0:0:0:
256,192,4109,5,4,0:0:0:0:
160,96,4329,1,0,0:0:0:0:
64,192,4550,1,0,0:0:0:0:
160,288,4770,1,8,0:0:0:0:
256,192,4991,5,8,0:0:0:0:
352,96,5211,1,0,0:0:0:0:
448,192,5432,1,0,0:0:0:0:
352,288,5653,1,0,0:0:0:0:
256,192,5873,5,8,0:0:0:0:
256,288,6094,1,8,0:0:0:0:
256,96,6314,1,0,0:0:0:0:
256,288,6535,5,0,0:0:0:0:
256,320,6645,5,0,0:0:0:0:
256,352,6756,5,12,0:0:0:0:
160,352,6976,1,0,0:0:0:0:
64,352,7197,1,8,0:0:0:0:
64,256,7417,1,0,0:0:0:0:
160,256,7638,1,8,0:0:0:0:
160,160,7858,1,0,0:0:0:0:
64,160,8079,1,8,0:0:0:0:
64,128,8189,1,8,0:0:0:0:
64,96,8300,1,8,0:0:0:0:
64,0,8520,5,0,0:0:0:0:
160,0,8741,1,0,0:0:0:0:
160,96,8961,1,8,0:0:0:0:
256,96,9182,1,0,0:0:0:0:
256,0,9403,1,8,0:0:0:0:
352,0,9623,1,8,0:0:0:0:
352,96,9844,1,0,0:0:0:0:
352,128,9954,1,0,0:0:0:0:
352,160,10064,1,8,0:0:0:0:
352,192,10175,1,8,0:0:0:0:
352,224,10285,5,4,0:0:0:0:
352,224,10505,1,8,0:0:0:0:
352,320,10726,1,4,0:0:0:0:
352,320,10947,1,8,0:0:0:0:
448,320,11167,1,4,0:0:0:0:
448,320,11388,1,8,0:0:0:0:
448,224,11608,1,4,0:0:0:0:
448,224,11829,1,8,0:0:0:0:
352,352,12050,5,4,0:0:0:0:
192,352,12270,1,8,0:0:0:0:
352,192,12711,1,8,0:0:0:0:
192,32,13153,1,8,0:0:0:0:
192,192,13594,1,8,0:0:0:0:
352,32,13814,5,0,0:0:0:0:
192,32,14035,1,8,0:0:0:0:
352,160,14476,1,8,0:0:0:0:
192,352,14917,1,8,0:0:0:0:
352,352,15358,1,8,0:0:0:0:
192,192,15579,5,0,0:0:0:0:
352,352,15800,1,8,0:0:0:0:
192,192,16241,1,8,0:0:0:0:
352,32,16682,1,8,0:0:0:0:
192,192,17123,1,8,0:0:0:0:
352,32,17344,5,0,0:0:0:0:
352,192,17564,1,8,0:0:0:0:
352,352,18005,1,8,0:0:0:0:
192,352,18447,1,8,0:0:0:0:
32,352,18888,1,0,0:0:0:0:
32,320,18998,1,0,0:0:0:0:
32,288,19108,5,8,0:0:0:0:
32,192,19329,1,8,0:0:0:0:
32,192,19439,1,8,0:0:0:0:
32,192,19550,1,8,0:0:0:0:
128,192,19770,1,8,0:0:0:0:
128,192,19880,1,8,0:0:0:0:
128,192,19991,1,8,0:0:0:0:
128,288,20211,1,8,0:0:0:0:
128,288,20322,1,8,0:0:0:0:
128,288,20432,1,8,0:0:0:0:
32,288,20653,1,8,0:0:0:0:
32,288,20763,1,8,0:0:0:0:
32,288,20873,5,8,0:0:0:0:
32,288,20983,1,0,0:0:0:0:
32,256,21094,1,0,0:0:0:0:
32,224,21204,1,0,0:0:0:0:
32,192,21314,1,8,0:0:0:0:
128,192,21535,1,0,0:0:0:0:
32,96,21755,5,0,0:0:0:0:
128,96,22086,1,0,0:0:0:0:
128,96,22197,1,0,0:0:0:0:
128,192,22417,1,8,0:0:0:0:
128,192,22638,1,0,0:0:0:0:
224,288,22969,1,0,0:0:0:0:
224,288,23079,1,0,0:0:0:0:
224,192,23300,1,8,0:0:0:0:
320,192,23520,5,0,0:0:0:0:
416,192,23851,1,0,0:0:0:0:
416,192,23961,1,0,0:0:0:0:
416,288,24182,1,8,0:0:0:0:
416,288,24403,1,0,0:0:0:0:
512,384,24733,1,0,0:0:0:0:
512,384,24844,1,0,0:0:0:0:
512,288,25064,1,8,0:0:0:0:
416,384,25285,5,0,0:0:0:0:
512,192,25616,1,0,0:0:0:0:
512,192,25726,1,0,0:0:0:0:
416,288,25947,1,8,0:0:0:0:
416,288,26167,1,0,0:0:0:0:
416,96,26388,1,0,0:0:0:0:
416,96,26498,1,0,0:0:0:0:
416,96,26608,1,0,0:0:0:0:
512,192,26829,1,8,0:0:0:0:
512,0,27050,5,0,0:0:0:0:
416,0,27380,1,0,0:0:0:0:
416,0,27491,1,0,0:0:0:0:
416,96,27711,1,8,0:0:0:0:
416,96,27932,1,0,0:0:0:0:
320,192,28263,1,0,0:0:0:0:
320,192,28373,1,0,0:0:0:0:
320,96,28594,1,8,0:0:0:0:
224,96,28814,5,0,0:0:0:0:
128,96,29145,1,0,0:0:0:0:
128,96,29255,1,0,0:0:0:0:
128,192,29476,1,8,0:0:0:0:
128,192,29697,1,0,0:0:0:0:
32,288,30028,1,0,0:0:0:0:
32,288,30138,1,0,0:0:0:0:
32,192,30358,1,8,0:0:0:0:
128,288,30579,5,0,0:0:0:0:
224,96,30910,1,0,0:0:0:0:
224,96,31020,1,0,0:0:0:0:
128,192,31241,1,8,0:0:0:0:
128,192,31461,1,0,0:0:0:0:
128,0,31792,1,0,0:0:0:0:
128,0,31903,1,0,0:0:0:0:
32,96,32123,1,8,0:0:0:0:
224,288,32344,5,0,0:0:0:0:
224,96,32675,1,0,0:0:0:0:
224,96,32785,1,0,0:0:0:0:
224,288,33005,1,0,0:0:0:0:
224,192,33226,1,0,0:0:0:0:
224,192,33336,1,8,0:0:0:0:
224,384,33557,1,8,0:0:0:0:
224,384,33667,1,8,0:0:0:0:
224,192,33888,1,0,0:0:0:0:
384,288,34108,5,8,0:0:0:0:
384,288,34219,1,0,0:0:0:0:
480,288,34439,1,0,0:0:0:0:
480,288,34550,1,8,0:0:0:0:
480,192,34770,1,8,0:0:0:0:
384,192,34991,1,0,0:0:0:0:
384,96,35211,1,0,0:0:0:0:
384,96,35322,1,0,0:0:0:0:
384,96,35432,1,8,0:0:0:0:
480,96,35653,1,0,0:0:0:0:
288,288,35873,5,8,0:0:0:0:
288,288,35983,1,0,0:0:0:0:
288,192,36204,1,0,0:0:0:0:
288,192,36314,1,8,0:0:0:0:
192,192,36535,1,8,0:0:0:0:
192,288,36755,1,0,0:0:0:0:
96,288,36976,1,0,0:0:0:0:
96,288,37086,1,0,0:0:0:0:
96,288,37197,1,0,0:0:0:0:
96,192,37417,1,0,0:0:0:0:
288,384,37638,5,8,0:0:0:0:
288,384,37748,1,0,0:0:0:0:
192,384,37969,1,0,0:0:0:0:
192,384,38079,1,8,0:0:0:0:
192,288,38300,1,8,0:0:0:0:
288,288,38520,1,0,0:0:0:0:
384,288,38741,1,0,0:0:0:0:
384,288,38851,1,0,0:0:0:0:
384,288,38961,1,8,0:0:0:0:
384,384,39182,1,0,0:0:0:0:
192,192,39403,5,8,0:0:0:0:
192,192,39513,1,0,0:0:0:0:
96,192,39733,1,0,0:0:0:0:
96,192,39844,1,8,0:0:0:0:
192,96,40064,1,8,0:0:0:0:
192,96,40175,1,0,0:0:0:0:
192,96,40285,1,0,0:0:0:0:
96,96,40505,1,0,0:0:0:0:
192,0,40726,1,8,0:0:0:0:
96,0,40947,1,8,0:0:0:0:
288,192,41167,5,8,0:0:0:0:
288,192,41278,1,0,0:0:0:0:
416,192,41498,1,0,0:0:0:0:
416,192,41608,1,8,0:0:0:0:
416,64,41829,1,8,0:0:0:0:
288,64,42050,1,0,0:0:0:0:
288,192,42270,1,0,0:0:0:0:
288,224,42380,1,0,0:0:0:0:
288,256,42491,1,8,0:0:0:0:
416,320,42711,1,0,0:0:0:0:
160,320,42932,5,8,0:0:0:0:
160,320,43042,1,0,0:0:0:0:
160,192,43263,1,0,0:0:0:0:
160,192,43373,1,8,0:0:0:0:
32,192,43594,1,8,0:0:0:0:
32,320,43814,1,0,0:0:0:0:
160,320,44035,1,0,0:0:0:0:
192,320,44145,1,0,0:0:0:0:
224,320,44255,1,0,0:0:0:0:
384,384,44476,1,0,0:0:0:0:
256,160,44697,5,8,0:0:0:0:
256,160,44807,1,0,0:0:0:0:
256,32,45028,1,0,0:0:0:0:
256,32,45138,1,8,0:0:0:0:
384,32,45358,1,8,0:0:0:0:
384,160,45579,1,0,0:0:0:0:
256,160,45800,1,0,0:0:0:0:
192,160,45910,1,0,0:0:0:0:
128,160,46020,1,8,0:0:0:0:
32,32,46241,1,0,0:0:0:0:
32,320,46461,5,8,0:0:0:0:
32,320,46572,1,0,0:0:0:0:
192,320,46792,1,0,0:0:0:0:
192,320,46903,1,8,0:0:0:0:
352,320,47123,1,8,0:0:0:0:
512,320,47344,1,0,0:0:0:0:
512,160,47564,1,0,0:0:0:0:
512,96,47675,1,0,0:0:0:0:
512,32,47785,1,8,0:0:0:0:
352,192,48005,1,0,0:0:0:0:
352,64,48226,5,12,0:0:0:0:
160,320,48667,5,4,0:0:0:0:
160,64,49108,5,12,0:0:0:0:
352,320,49550,5,4,0:0:0:0:
256,192,49991,5,12,0:0:0:0:
0,320,50322,1,8,0:0:0:0:
0,320,50432,1,8,0:0:0:0:
128,256,50653,1,0,0:0:0:0:
256,192,50873,1,0,0:0:0:0:
256,192,50983,1,0,0:0:0:0:
384,256,51204,1,0,0:0:0:0:
384,256,51314,1,0,0:0:0:0:
512,320,51535,1,8,0:0:0:0:
256,192,51755,5,4,0:0:0:0:
384,128,52086,1,0,0:0:0:0:
384,128,52197,1,0,0:0:0:0:
256,64,52417,1,8,0:0:0:0:
384,0,52638,1,0,0:0:0:0:
384,0,52748,1,8,0:0:0:0:
512,64,52969,1,8,0:0:0:0:
512,64,53079,1,0,0:0:0:0:
384,128,53300,1,8,0:0:0:0:
384,256,53520,5,0,0:0:0:0:
512,192,53851,1,8,0:0:0:0:
512,192,53961,1,0,0:0:0:0:
512,320,54182,1,8,0:0:0:0:
256,320,54403,1,0,0:0:0:0:
256,320,55285,5,0,0:0:0:0:
160,352,55726,1,0,0:0:0:0:
64,320,56167,1,0,0:0:0:0:
0,256,56608,1,0,0:0:0:0:
32,160,57050,1,0,0:0:0:0:
128,128,57491,1,0,0:0:0:0:
224,160,57932,1,0,0:0:0:0:
288,224,58153,1,8,0:0:0:0:
320,224,58263,1,8,0:0:0:0:
352,224,58373,1,0,0:0:0:0:
384,224,58483,1,0,0:0:0:0:
416,224,58594,1,8,0:0:0:0:
256,320,58814,5,0,0:0:0:0:
192,256,59255,1,0,0:0:0:0:
224,160,59697,1,0,0:0:0:0:
320,128,60138,1,0,0:0:0:0:
416,160,60579,1,0,0:0:0:0:
448,256,61020,1,0,0:0:0:0:
384,320,61461,1,0,0:0:0:0:
256,320,61682,1,8,0:0:0:0:
224,320,61792,1,8,0:0:0:0:
192,320,61903,1,8,0:0:0:0:
160,320,62013,1,0,0:0:0:0:
128,320,62123,1,8,0:0:0:0:
128,64,62344,5,4,0:0:0:0:
128,192,62785,1,0,0:0:0:0:
128,320,63226,1,0,0:0:0:0:
256,320,63667,1,0,0:0:0:0:
256,192,64108,1,0,0:0:0:0:
256,64,64550,1,0,0:0:0:0:
384,64,64991,1,0,0:0:0:0:
448,128,65211,1,0,0:0:0:0:
448,160,65322,1,0,0:0:0:0:
448,192,65432,1,8,0:0:0:0:
448,224,65542,1,8,0:0:0:0:
448,256,65653,1,0,0:0:0:0:
384,320,65873,5,0,0:0:0:0:
256,320,66094,1,8,0:0:0:0:
256,288,66204,1,0,0:0:0:0:
256,256,66314,1,8,0:0:0:0:
256,320,66535,5,0,0:0:0:0:
128,320,66756,1,8,0:0:0:0:
128,288,66866,1,0,0:0:0:0:
128,256,66976,1,8,0:0:0:0:
128,320,67197,5,0,0:0:0:0:
256,192,67417,1,8,0:0:0:0:
256,128,67528,1,0,0:0:0:0:
256,64,67638,1,8,0:0:0:0:
256,192,67858,5,0,0:0:0:0:
384,192,68079,1,8,0:0:0:0:
384,128,68189,1,0,0:0:0:0:
384,64,68299,1,8,0:0:0:0:
384,192,68520,5,0,0:0:0:0:
128,64,68741,1,8,0:0:0:0:
128,128,68851,1,8,0:0:0:0:
128,192,68961,1,8,0:0:0:0:
128,64,69182,5,0,0:0:0:0:
256,192,69403,5,4,0:0:0:0:
320,64,69623,1,0,0:0:0:0:
352,32,69733,1,8,0:0:0:0:
384,0,69844,1,0,0:0:0:0:
512,0,70064,1,0,0:0:0:0:
512,128,70285,1,0,0:0:0:0:
384,128,70505,1,0,0:0:0:0:
352,160,70616,1,8,0:0:0:0:
320,192,70726,1,8,0:0:0:0:
448,192,70947,1,0,0:0:0:0:
320,320,71167,5,0,0:0:0:0:
192,320,71388,1,0,0:0:0:0:
192,192,71608,1,0,0:0:0:0:
192,160,71719,1,0,0:0:0:0:
320,160,71939,1,0,0:0:0:0:
320,192,72050,1,0,0:0:0:0:
288,320,72270,1,0,0:0:0:0:
256,320,72380,1,8,0:0:0:0:
224,320,72491,1,0,0:0:0:0:
192,224,72711,1,8,0:0:0:0:
320,128,72932,5,12,0:0:0:0:
192,64,73153,1,0,0:0:0:0:
160,32,73263,1,8,0:0:0:0:
128,0,73373,1,0,0:0:0:0:
0,0,73594,1,0,0:0:0:0:
0,128,73814,1,0,0:0:0:0:
128,128,74035,1,0,0:0:0:0:
160,160,74145,1,8,0:0:0:0:
192,192,74255,1,8,0:0:0:0:
64,192,74476,1,0,0:0:0:0:
192,320,74697,5,0,0:0:0:0:
320,320,74917,1,0,0:0:0:0:
320,192,75138,1,0,0:0:0:0:
320,160,75248,1,0,0:0:0:0:
192,160,75469,1,0,0:0:0:0:
192,200,75579,1,0,0:0:0:0:
320,64,75800,1,0,0:0:0:0:
288,64,75910,1,8,0:0:0:0:
256,64,76020,1,8,0:0:0:0:
224,64,76130,1,8,0:0:0:0:
192,64,76241,1,0,0:0:0:0:
256,224,76461,5,12,0:0:0:0:
320,320,76682,1,0,0:0:0:0:
352,352,76792,1,8,0:0:0:0:
384,384,76903,1,0,0:0:0:0:
384,256,77123,1,8,0:0:0:0:
256,192,77344,1,0,0:0:0:0:
160,288,77564,1,0,0:0:0:0:
128,320,77675,1,8,0:0:0:0:
96,352,77785,1,0,0:0:0:0:
96,224,78005,1,8,0:0:0:0:
256,160,78226,5,0,0:0:0:0:
384,256,78447,1,8,0:0:0:0:
416,288,78557,1,8,0:0:0:0:
448,320,78667,1,0,0:0:0:0:
448,192,78888,1,8,0:0:0:0:
256,128,79108,1,0,0:0:0:0:
96,224,79329,1,8,0:0:0:0:
64,256,79439,1,0,0:0:0:0:
32,288,79550,1,0,0:0:0:0:
256,352,79770,1,8,0:0:0:0:
384,256,79991,5,4,0:0:0:0:
384,256,80211,1,4,0:0:0:0:
128,256,80432,1,4,0:0:0:0:
128,256,80653,1,4,0:0:0:0:
256,64,80873,1,12,0:0:0:0:
256,64,81094,5,0,0:0:0:0:
256,128,81204,1,0,0:0:0:0:
256,192,81314,1,0,0:0:0:0:
256,320,81535,1,0,0:0:0:0:
256,256,81645,1,0,0:0:0:0:
260,195,81755,5,8,0:0:0:0:
260,195,81866,1,0,0:0:0:0:
256,96,82086,1,8,0:0:0:0:
256,96,82197,1,0,0:0:0:0:
256,0,82417,1,0,0:0:0:0:
160,96,82638,1,0,0:0:0:0:
160,0,82858,1,8,0:0:0:0:
160,192,83079,1,8,0:0:0:0:
64,96,83300,5,0,0:0:0:0:
64,96,83410,1,8,0:0:0:0:
64,96,83520,1,0,0:0:0:0:
64,192,83741,1,8,0:0:0:0:
64,192,83851,1,8,0:0:0:0:
64,192,83961,1,0,0:0:0:0:
64,288,84182,1,0,0:0:0:0:
160,192,84403,1,0,0:0:0:0:
160,288,84623,1,8,0:0:0:0:
160,96,84844,1,8,0:0:0:0:
256,192,85064,5,0,0:0:0:0:
256,192,85175,1,8,0:0:0:0:
256,192,85285,1,8,0:0:0:0:
256,192,85395,1,0,0:0:0:0:
256,288,85616,1,8,0:0:0:0:
256,288,85726,1,0,0:0:0:0:
256,384,85947,1,0,0:0:0:0:
352,288,86167,1,0,0:0:0:0:
352,192,86388,1,8,0:0:0:0:
352,384,86608,1,8,0:0:0:0:
448,384,86829,5,8,0:0:0:0:
448,384,86939,1,8,0:0:0:0:
448,384,87050,1,0,0:0:0:0:
448,288,87270,1,8,0:0:0:0:
448,288,87380,1,0,0:0:0:0:
448,288,87491,1,0,0:0:0:0:
352,192,87711,1,8,0:0:0:0:
352,192,87822,1,8,0:0:0:0:
352,192,87932,1,0,0:0:0:0:
448,96,88153,1,8,0:0:0:0:
448,96,88263,1,8,0:0:0:0:
448,96,88373,1,0,0:0:0:0:
256,96,88594,1,8,0:0:0:0:
256,96,88704,1,0,0:0:0:0:
256,96,88814,1,12,0:0:0:0:
256,192,89035,5,0,0:0:0:0:
256,224,89145,1,0,0:0:0:0:
256,256,89255,1,8,0:0:0:0:
256,352,89476,1,0,0:0:0:0:
160,352,89697,1,0,0:0:0:0:
64,352,89917,1,8,0:0:0:0:
64,352,90028,1,0,0:0:0:0:
64,352,90138,1,8,0:0:0:0:
160,256,90358,5,0,0:0:0:0:
160,224,90469,1,0,0:0:0:0:
160,192,90579,1,8,0:0:0:0:
64,192,90800,1,0,0:0:0:0:
64,224,90910,1,0,0:0:0:0:
64,256,91020,1,8,0:0:0:0:
64,352,91241,1,0,0:0:0:0:
160,352,91461,1,0,0:0:0:0:
160,256,91682,1,8,0:0:0:0:
160,256,91792,1,0,0:0:0:0:
160,256,91903,1,8,0:0:0:0:
256,256,92123,5,0,0:0:0:0:
256,224,92233,1,0,0:0:0:0:
256,192,92344,1,8,0:0:0:0:
352,192,92564,1,0,0:0:0:0:
352,224,92675,1,0,0:0:0:0:
352,256,92785,1,8,0:0:0:0:
448,256,93005,1,0,0:0:0:0:
448,224,93116,1,0,0:0:0:0:
448,184,93226,1,0,0:0:0:0:
352,352,93447,1,8,0:0:0:0:
352,352,93557,1,0,0:0:0:0:
352,352,93667,1,8,0:0:0:0:
288,224,93888,5,0,0:0:0:0:
256,224,93998,1,0,0:0:0:0:
224,224,94108,1,0,0:0:0:0:
96,64,94329,1,8,0:0:0:0:
128,64,94439,1,0,0:0:0:0:
160,64,94550,1,0,0:0:0:0:
192,64,94660,1,0,0:0:0:0:
224,64,94770,1,8,0:0:0:0:
256,64,94880,1,0,0:0:0:0:
288,64,94991,1,8,0:0:0:0:
320,64,95101,1,0,0:0:0:0:
352,64,95211,1,8,0:0:0:0:
384,64,95322,1,0,0:0:0:0:
416,64,95432,1,8,0:0:0:0:
512,64,95653,5,0,0:0:0:0:
512,96,95763,1,0,0:0:0:0:
512,128,95873,1,8,0:0:0:0:
384,160,96094,1,8,0:0:0:0:
384,160,96204,1,8,0:0:0:0:
384,160,96314,1,8,0:0:0:0:
512,160,96535,1,8,0:0:0:0:
512,192,96645,1,8,0:0:0:0:
512,224,96755,1,8,0:0:0:0:
384,256,96976,1,8,0:0:0:0:
384,256,97086,1,8,0:0:0:0:
384,256,97197,1,8,0:0:0:0:
512,256,97417,1,8,0:0:0:0:
512,320,97528,1,8,0:0:0:0:
512,384,97638,1,4,0:0:0:0:
256,192,98300,5,8,0:0:0:0:
256,192,98520,5,4,0:0:0:0:
256,96,98740,1,0,0:0:0:0:
160,96,98961,1,8,0:0:0:0:
160,96,99071,1,8,0:0:0:0:
160,96,99181,1,0,0:0:0:0:
128,96,99292,1,0,0:0:0:0:
96,96,99402,1,8,0:0:0:0:
96,192,99622,1,0,0:0:0:0:
96,192,99733,1,8,0:0:0:0:
96,192,99843,1,0,0:0:0:0:
96,288,100064,1,8,0:0:0:0:
256,192,100284,1,0,0:0:0:0:
256,96,100505,5,8,0:0:0:0:
256,96,100946,5,8,0:0:0:0:
256,96,101387,5,8,0:0:0:0:
256,96,101828,5,8,0:0:0:0:
352,96,102049,5,0,0:0:0:0:
256,288,102270,1,0,0:0:0:0:
448,256,102490,1,0,0:0:0:0:
448,256,102600,1,0,0:0:0:0:
448,256,102711,1,8,0:0:0:0:
448,288,102821,1,8,0:0:0:0:
448,320,102931,1,0,0:0:0:0:
352,288,103152,1,0,0:0:0:0:
256,224,103372,1,8,0:0:0:0:
256,256,103483,1,0,0:0:0:0:
256,288,103593,1,8,0:0:0:0:
256,320,103703,1,8,0:0:0:0:
256,352,103814,5,0,0:0:0:0:
160,288,104034,1,0,0:0:0:0:
64,256,104255,1,8,0:0:0:0:
64,256,104365,1,8,0:0:0:0:
64,256,104475,1,0,0:0:0:0:
64,288,104586,1,0,0:0:0:0:
64,320,104696,1,8,0:0:0:0:
160,384,104917,1,0,0:0:0:0:
256,160,105137,1,8,0:0:0:0:
256,128,105247,1,0,0:0:0:0:
256,96,105358,1,8,0:0:0:0:
256,64,105468,1,8,0:0:0:0:
256,32,105578,5,0,0:0:0:0:
352,96,105799,1,0,0:0:0:0:
448,128,106020,1,8,0:0:0:0:
448,128,106130,1,8,0:0:0:0:
448,128,106240,1,8,0:0:0:0:
448,96,106350,1,0,0:0:0:0:
448,64,106461,1,8,0:0:0:0:
352,0,106681,1,0,0:0:0:0:
160,0,106902,1,8,0:0:0:0:
256,192,107122,1,8,0:0:0:0:
64,192,107343,1,0,0:0:0:0:
256,192,107564,5,8,0:0:0:0:
256,192,108005,5,8,0:0:0:0:
256,192,108446,5,8,0:0:0:0:
256,192,108887,5,8,0:0:0:0:
352,384,109108,5,0,0:0:0:0:
160,384,109328,1,0,0:0:0:0:
256,256,109549,1,8,0:0:0:0:
256,224,109659,1,0,0:0:0:0:
256,192,109770,1,8,0:0:0:0:
256,160,109880,1,8,0:0:0:0:
260,132,109990,5,0,0:0:0:0:
260,132,110100,1,8,0:0:0:0:
384,256,110321,1,8,0:0:0:0:
384,256,110431,1,8,0:0:0:0:
128,256,110652,1,0,0:0:0:0:
416,224,110872,5,8,0:0:0:0:
416,216,110983,1,0,0:0:0:0:
416,208,111093,1,8,0:0:0:0:
416,200,111203,1,8,0:0:0:0:
416,192,111314,1,0,0:0:0:0:
416,184,111424,1,0,0:0:0:0:
416,176,111534,1,8,0:0:0:0:
416,168,111645,1,8,0:0:0:0:
416,160,111755,1,0,0:0:0:0:
416,160,111975,1,0,0:0:0:0:
416,160,112196,1,8,0:0:0:0:
320,144,112637,5,0,0:0:0:0:
320,156,112747,1,0,0:0:0:0:
320,168,112858,1,0,0:0:0:0:
320,180,112968,1,0,0:0:0:0:
320,192,113078,1,8,0:0:0:0:
320,204,113189,1,0,0:0:0:0:
320,216,113299,1,8,0:0:0:0:
320,228,113409,1,8,0:0:0:0:
320,240,113519,1,0,0:0:0:0:
320,240,113740,1,0,0:0:0:0:
320,240,113961,1,8,0:0:0:0:
192,256,114402,5,8,0:0:0:0:
192,240,114513,1,0,0:0:0:0:
192,224,114623,1,8,0:0:0:0:
192,208,114733,1,0,0:0:0:0:
192,192,114844,1,8,0:0:0:0:
192,176,114954,1,8,0:0:0:0:
192,160,115064,1,0,0:0:0:0:
192,144,115175,1,0,0:0:0:0:
192,128,115285,1,8,0:0:0:0:
199,135,115505,1,0,0:0:0:0:
199,135,115615,1,0,0:0:0:0:
199,135,115726,1,8,0:0:0:0:
96,96,116167,5,8,0:0:0:0:
96,120,116278,1,8,0:0:0:0:
96,144,116388,1,0,0:0:0:0:
96,168,116498,1,0,0:0:0:0:
96,192,116609,1,8,0:0:0:0:
96,216,116719,1,8,0:0:0:0:
96,240,116829,1,0,0:0:0:0:
96,264,116940,1,0,0:0:0:0:
96,288,117050,1,8,0:0:0:0:
96,384,117269,1,8,0:0:0:0:
96,384,117380,1,8,0:0:0:0:
96,384,117491,1,0,0:0:0:0:
96,384,117600,1,0,0:0:0:0:
384,352,117931,5,8,0:0:0:0:
352,352,118042,1,0,0:0:0:0:
320,352,118152,1,8,0:0:0:0:
288,352,118262,1,0,0:0:0:0:
256,352,118373,1,8,0:0:0:0:
224,352,118483,1,8,0:0:0:0:
192,352,118593,1,0,0:0:0:0:
160,352,118704,1,0,0:0:0:0:
128,352,118814,1,8,0:0:0:0:
416,352,119034,1,8,0:0:0:0:
416,352,119144,1,0,0:0:0:0:
416,352,119255,1,8,0:0:0:0:
96,256,119695,5,0,0:0:0:0:
136,256,119806,1,0,0:0:0:0:
176,256,119916,1,8,0:0:0:0:
216,256,120026,1,8,0:0:0:0:
256,256,120137,1,0,0:0:0:0:
296,256,120247,1,0,0:0:0:0:
336,256,120357,1,8,0:0:0:0:
376,256,120468,1,0,0:0:0:0:
416,256,120578,1,8,0:0:0:0:
256,336,120799,1,8,0:0:0:0:
256,352,120908,1,0,0:0:0:0:
256,368,121019,1,8,0:0:0:0:
448,128,121461,5,8,0:0:0:0:
400,128,121572,1,0,0:0:0:0:
352,128,121682,1,8,0:0:0:0:
304,128,121792,1,8,0:0:0:0:
256,128,121903,1,0,0:0:0:0:
208,128,122013,1,0,0:0:0:0:
160,128,122123,1,8,0:0:0:0:
112,128,122234,1,8,0:0:0:0:
64,128,122344,1,8,0:0:0:0:
448,128,122564,1,8,0:0:0:0:
256,352,122785,1,8,0:0:0:0:
0,32,123225,5,8,0:0:0:0:
64,32,123336,1,0,0:0:0:0:
128,32,123446,1,8,0:0:0:0:
192,32,123556,1,8,0:0:0:0:
256,32,123667,1,0,0:0:0:0:
320,32,123777,1,0,0:0:0:0:
384,32,123887,1,0,0:0:0:0:
448,32,123998,1,0,0:0:0:0:
512,32,124108,1,8,0:0:0:0:
256,192,124328,1,8,0:0:0:0:
0,32,124549,1,0,0:0:0:0:
512,32,124769,1,0,0:0:0:0:
256,192,124990,5,12,0:0:0:0:
512,352,125431,5,4,0:0:0:0:
0,352,125872,5,12,0:0:0:0:
256,192,126314,5,4,0:0:0:0:
256,192,126755,5,12,0:0:0:0:
384,320,127086,5,0,0:0:0:0:
416,352,127196,1,8,0:0:0:0:
256,192,127417,1,0,0:0:0:0:
128,320,127637,1,0,0:0:0:0:
96,352,127747,1,8,0:0:0:0:
256,192,127968,1,8,0:0:0:0:
256,128,128078,1,0,0:0:0:0:
256,256,128299,1,0,0:0:0:0:
256,320,128409,1,0,0:0:0:0:
256,384,128519,1,12,0:0:0:0:
256,0,128850,5,0,0:0:0:0:
256,0,128961,1,0,0:0:0:0:
352,96,129181,1,8,0:0:0:0:
448,192,129402,1,0,0:0:0:0:
448,192,129512,1,8,0:0:0:0:
352,288,129733,1,8,0:0:0:0:
352,288,129843,1,0,0:0:0:0:
256,192,130064,1,8,0:0:0:0:
160,96,130284,5,0,0:0:0:0:
160,96,130394,1,0,0:0:0:0:
64,192,130615,1,8,0:0:0:0:
64,192,130725,1,0,0:0:0:0:
160,288,130946,1,8,0:0:0:0:
256,192,131167,1,0,0:0:0:0:
256,192,132049,5,4,0:0:0:0:
320,128,132269,1,0,0:0:0:0:
192,128,132490,1,8,0:0:0:0:
256,64,132711,1,0,0:0:0:0:
384,64,132931,1,0,0:0:0:0:
384,192,133152,1,0,0:0:0:0:
352,160,133262,1,0,0:0:0:0:
320,128,133372,1,8,0:0:0:0:
448,128,133593,1,8,0:0:0:0:
256,192,133814,5,0,0:0:0:0:
320,256,134034,1,8,0:0:0:0:
192,256,134255,1,0,0:0:0:0:
256,320,134475,1,8,0:0:0:0:
128,320,134696,1,0,0:0:0:0:
128,192,134917,1,8,0:0:0:0:
160,224,135027,1,8,0:0:0:0:
192,256,135137,1,8,0:0:0:0:
64,256,135358,1,8,0:0:0:0:
256,192,135578,5,0,0:0:0:0:
192,128,135799,1,0,0:0:0:0:
192,256,136019,1,8,0:0:0:0:
128,192,136240,1,0,0:0:0:0:
128,64,136461,1,0,0:0:0:0:
256,64,136681,1,0,0:0:0:0:
224,96,136792,1,0,0:0:0:0:
192,128,136902,1,8,0:0:0:0:
192,0,137122,1,8,0:0:0:0:
256,192,137343,5,0,0:0:0:0:
320,128,137564,1,8,0:0:0:0:
320,256,137784,1,0,0:0:0:0:
384,192,138005,1,8,0:0:0:0:
384,320,138225,1,0,0:0:0:0:
256,320,138446,1,8,0:0:0:0:
288,288,138556,1,8,0:0:0:0:
320,256,138667,1,8,0:0:0:0:
320,384,138887,1,8,0:0:0:0:
256,192,139108,5,4,0:0:0:0:
192,256,139328,1,0,0:0:0:0:
160,224,139439,1,0,0:0:0:0:
128,192,139549,1,8,0:0:0:0:
64,96,139769,1,0,0:0:0:0:
192,96,139990,1,0,0:0:0:0:
128,192,140211,1,0,0:0:0:0:
96,224,140321,1,0,0:0:0:0:
64,256,140431,1,8,0:0:0:0:
64,96,140652,1,8,0:0:0:0:
256,192,140872,5,0,0:0:0:0:
320,128,141093,1,8,0:0:0:0:
352,160,141203,1,8,0:0:0:0:
384,192,141314,1,8,0:0:0:0:
448,256,141534,1,8,0:0:0:0:
448,128,141755,1,0,0:0:0:0:
384,192,141975,1,0,0:0:0:0:
352,224,142086,1,0,0:0:0:0:
320,256,142196,1,8,0:0:0:0:
448,256,142417,1,8,0:0:0:0:
256,192,142637,5,0,0:0:0:0:
256,96,142858,1,8,0:0:0:0:
256,64,142968,1,0,0:0:0:0:
256,32,143078,1,8,0:0:0:0:
256,192,143299,5,0,0:0:0:0:
256,288,143519,1,8,0:0:0:0:
256,320,143630,1,0,0:0:0:0:
256,352,143740,1,8,0:0:0:0:
256,192,143961,5,0,0:0:0:0:
384,192,144181,1,8,0:0:0:0:
448,192,144292,1,8,0:0:0:0:
512,192,144402,1,8,0:0:0:0:
256,192,144622,5,0,0:0:0:0:
128,192,144843,1,8,0:0:0:0:
64,192,144953,1,8,0:0:0:0:
0,192,145064,1,8,0:0:0:0:
192,128,145284,5,8,0:0:0:0:
224,64,145394,1,8,0:0:0:0:
256,0,145505,1,0,0:0:0:0:
288,64,145615,1,8,0:0:0:0:
320,128,145725,1,8,0:0:0:0:
256,384,145946,1,8,0:0:0:0:
256,384,146167,5,4,0:0:0:0:
320,256,146387,1,0,0:0:0:0:
384,288,146497,1,0,0:0:0:0:
448,320,146608,1,8,0:0:0:0:
512,192,146828,1,8,0:0:0:0:
384,128,147049,1,0,0:0:0:0:
288,320,147269,1,8,0:0:0:0:
224,288,147379,1,8,0:0:0:0:
160,256,147490,1,0,0:0:0:0:
224,128,147711,1,8,0:0:0:0:
320,0,147931,5,0,0:0:0:0:
352,192,148152,1,8,0:0:0:0:
320,256,148262,1,8,0:0:0:0:
288,320,148372,1,8,0:0:0:0:
160,256,148593,1,0,0:0:0:0:
224,128,148814,1,8,0:0:0:0:
96,64,149034,1,0,0:0:0:0:
64,128,149144,1,0,0:0:0:0:
32,192,149255,1,8,0:0:0:0:
96,384,149475,1,8,0:0:0:0:
288,320,149696,5,0,0:0:0:0:
160,256,149917,1,0,0:0:0:0:
96,224,150027,1,0,0:0:0:0:
32,192,150137,1,8,0:0:0:0:
96,64,150358,1,8,0:0:0:0:
224,128,150578,1,0,0:0:0:0:
128,320,150799,1,8,0:0:0:0:
192,352,150909,1,8,0:0:0:0:
256,384,151019,1,0,0:0:0:0:
320,256,151240,1,8,0:0:0:0:
384,128,151461,5,0,0:0:0:0:
448,320,151681,1,8,0:0:0:0:
384,288,151792,1,8,0:0:0:0:
320,256,151902,1,8,0:0:0:0:
192,192,152122,1,8,0:0:0:0:
384,128,152343,1,0,0:0:0:0:
352,192,152453,1,0,0:0:0:0:
320,256,152564,1,8,0:0:0:0:
256,224,152674,1,8,0:0:0:0:
192,192,152784,1,0,0:0:0:0:
384,128,153005,1,8,0:0:0:0:
0,256,153225,5,4,0:0:0:0:
64,128,153446,1,8,0:0:0:0:
128,160,153556,1,0,0:0:0:0:
192,192,153667,1,8,0:0:0:0:
352,192,153887,1,8,0:0:0:0:
256,64,154108,1,8,0:0:0:0:
192,32,154218,1,0,0:0:0:0:
128,0,154328,1,8,0:0:0:0:
96,64,154439,1,8,0:0:0:0:
64,128,154549,1,0,0:0:0:0:
256,64,154769,1,8,0:0:0:0:
128,320,154990,5,0,0:0:0:0:
320,256,155211,1,8,0:0:0:0:
352,192,155321,1,8,0:0:0:0:
384,128,155431,1,0,0:0:0:0:
448,256,155652,1,8,0:0:0:0:
384,384,155872,1,8,0:0:0:0:
256,320,156093,1,8,0:0:0:0:
224,256,156203,1,0,0:0:0:0:
256,192,156314,1,8,0:0:0:0:
288,128,156424,1,8,0:0:0:0:
256,64,156534,1,8,0:0:0:0:
160,128,156755,5,8,0:0:0:0:
352,256,156975,1,0,0:0:0:0:
384,256,157086,1,0,0:0:0:0:
416,256,157196,1,8,0:0:0:0:
160,128,157417,1,8,0:0:0:0:
128,128,157527,1,0,0:0:0:0:
96,128,157637,1,8,0:0:0:0:
416,128,157858,1,8,0:0:0:0:
96,256,158078,1,0,0:0:0:0:
256,128,158299,1,8,0:0:0:0:
256,192,158409,1,8,0:0:0:0:
256,256,158519,1,0,0:0:0:0:
160,256,158740,5,8,0:0:0:0:
128,256,158850,1,8,0:0:0:0:
96,256,158961,1,0,0:0:0:0:
352,128,159181,1,8,0:0:0:0:
384,128,159292,1,8,0:0:0:0:
416,128,159402,1,8,0:0:0:0:
96,192,159622,1,8,0:0:0:0:
64,192,159733,1,8,0:0:0:0:
32,192,159843,1,8,0:0:0:0:
448,192,160064,1,8,0:0:0:0:
448,192,160174,1,8,0:0:0:0:
448,192,160284,5,4,0:0:0:0:
448,320,160505,1,8,0:0:0:0:
380,320,160615,1,0,0:0:0:0:
312,320,160725,1,8,0:0:0:0:
320,192,160946,1,8,0:0:0:0:
320,64,161167,1,0,0:0:0:0:
448,64,161387,1,8,0:0:0:0:
480,128,161497,1,8,0:0:0:0:
512,192,161608,1,0,0:0:0:0:
480,256,161718,1,0,0:0:0:0:
448,320,161828,1,8,0:0:0:0:
256,192,162049,5,0,0:0:0:0:
64,320,162269,1,8,0:0:0:0:
32,256,162380,1,8,0:0:0:0:
0,192,162490,1,0,0:0:0:0:
64,64,162711,1,0,0:0:0:0:
32,128,162822,1,0,0:0:0:0:
0,192,162932,1,8,0:0:0:0:
128,192,163152,1,0,0:0:0:0:
256,192,163372,1,8,0:0:0:0:
320,192,163483,1,8,0:0:0:0:
384,192,163593,1,8,0:0:0:0:
448,192,163703,1,0,0:0:0:0:
512,192,163814,5,12,0:0:0:0:
448,320,164034,5,4,0:0:0:0:
384,192,164255,5,12,0:0:0:0:
320,320,164475,5,4,0:0:0:0:
256,192,164696,5,12,0:0:0:0:
320,64,164917,1,0,0:0:0:0:
320,32,165027,1,8,0:0:0:0:
448,32,165247,1,0,0:0:0:0:
448,64,165357,1,8,0:0:0:0:
512,192,165578,5,12,0:0:0:0:
448,320,165799,1,0,0:0:0:0:
448,352,165909,1,8,0:0:0:0:
320,352,166129,1,0,0:0:0:0:
320,320,166239,1,8,0:0:0:0:
256,64,166461,5,4,0:0:0:0:
256,192,166681,5,8,0:0:0:0:
256,320,166902,5,8,0:0:0:0:
256,192,167122,5,0,0:0:0:0:
256,128,167233,5,0,0:0:0:0:
256,64,167343,5,12,0:0:0:0:
