osu file format v14

[General]
AudioFilename: audio.mp3
AudioLeadIn: 0
PreviewTime: 129
Countdown: 0
SampleSet: Normal
StackLeniency: 0.7
Mode: 3
LetterboxInBreaks: 0
SpecialStyle: 0
WidescreenStoryboard: 0

[Editor]
DistanceSpacing: 1.1
BeatDivisor: 8
GridSize: 4
TimelineZoom: 1.4

[Metadata]
Title:I AM STANDING (TV Size)
TitleUnicode:I AM STANDING (TV Size)
Artist:RUANN
ArtistUnicode:RUANN
Creator:Mat
Version:Saviour
Source:3月のライオン 第2シリーズ
Tags:
BeatmapID:2016112
BeatmapSetID:962905

[Difficulty]
HPDrainRate:7.6
CircleSize:4
OverallDifficulty:8.4
ApproachRate:5
SliderMultiplier:1.4
SliderTickRate:1

[Events]
//Background and Video events
0,0,"lion.jpg",0,0
//Break Periods
//Storyboard Layer 0 (Background)
//Storyboard Layer 1 (Fail)
//Storyboard Layer 2 (Pass)
//Storyboard Layer 3 (Foreground)
//Storyboard Sound Samples

[TimingPoints]
1509,459.770114942529,4,1,0,20,1,0
56681,-100,4,1,0,20,0,1
80589,-100,4,1,0,20,0,0

[HitObjects]
448,192,1509,5,0,0:0:0:0:
320,192,1509,1,0,0:0:0:0:
64,192,1738,1,0,0:0:0:0:
192,192,1968,1,0,0:0:0:0:
64,192,2198,1,0,0:0:0:0:
320,192,2428,1,0,0:0:0:0:
64,192,2658,1,0,0:0:0:0:
448,192,2888,1,0,0:0:0:0:
64,192,3118,1,0,0:0:0:0:
192,192,3348,1,0,0:0:0:0:
64,192,3577,1,0,0:0:0:0:
320,192,3807,1,0,0:0:0:0:
64,192,4037,1,0,0:0:0:0:
192,192,4267,1,0,0:0:0:0:
448,192,4267,1,0,0:0:0:0:
320,192,4497,1,0,0:0:0:0:
192,192,4727,1,0,0:0:0:0:
320,192,4957,1,0,0:0:0:0:
64,192,5187,1,0,0:0:0:0:
320,192,5417,1,0,0:0:0:0:
448,192,5646,1,0,0:0:0:0:
320,192,5876,1,0,0:0:0:0:
192,192,6106,1,0,0:0:0:0:
320,192,6336,1,0,0:0:0:0:
64,192,6566,1,0,0:0:0:0:
320,192,6796,1,0,0:0:0:0:
448,192,7026,1,0,0:0:0:0:
64,192,7026,1,0,0:0:0:0:
192,192,7256,1,0,0:0:0:0:
320,192,7486,1,0,0:0:0:0:
192,192,7715,1,0,0:0:0:0:
448,192,7945,1,0,0:0:0:0:
192,192,8175,1,0,0:0:0:0:
64,192,8405,1,0,0:0:0:0:
320,192,8405,1,0,0:0:0:0:
448,192,8635,1,0,0:0:0:0:
320,192,8865,1,0,0:0:0:0:
448,192,9095,1,0,0:0:0:0:
192,192,9325,1,0,0:0:0:0:
448,192,9554,1,0,0:0:0:0:
64,192,9784,1,0,0:0:0:0:
192,192,9784,1,0,0:0:0:0:
448,192,10014,1,0,0:0:0:0:
64,192,10014,128,0,10091:0:0:0:0:
320,192,10244,1,0,0:0:0:0:
192,192,10244,128,0,10397:0:0:0:0:
448,192,10474,1,0,0:0:0:0:
64,192,10474,128,0,10627:0:0:0:0:
192,192,10704,1,0,0:0:0:0:
320,192,10704,128,0,10857:0:0:0:0:
448,192,10934,1,0,0:0:0:0:
192,192,10934,128,0,11087:0:0:0:0:
64,192,11164,1,0,0:0:0:0:
320,192,11164,128,0,11317:0:0:0:0:
448,192,11394,1,0,0:0:0:0:
64,192,11394,128,0,11547:0:0:0:0:
320,192,11623,1,0,0:0:0:0:
192,192,11623,128,0,11777:0:0:0:0:
448,192,11853,1,0,0:0:0:0:
320,192,11853,128,0,12007:0:0:0:0:
64,192,12083,1,0,0:0:0:0:
192,192,12083,128,0,12236:0:0:0:0:
448,192,12313,1,0,0:0:0:0:
320,192,12313,128,0,12466:0:0:0:0:
64,192,12543,1,0,0:0:0:0:
192,192,12620,1,0,0:0:0:0:
320,192,12696,1,0,0:0:0:0:
64,192,12773,1,0,0:0:0:0:
192,192,12849,1,0,0:0:0:0:
448,192,12926,1,0,0:0:0:0:
320,192,13003,1,0,0:0:0:0:
192,192,13079,1,0,0:0:0:0:
64,192,13156,1,0,0:0:0:0:
448,192,13233,1,0,0:0:0:0:
192,192,13309,1,0,0:0:0:0:
448,192,13386,1,0,0:0:0:0:
192,192,13463,1,0,0:0:0:0:
64,192,13539,1,0,0:0:0:0:
320,192,13616,1,0,0:0:0:0:
448,192,13692,1,0,0:0:0:0:
64,192,13769,1,0,0:0:0:0:
192,192,13846,1,0,0:0:0:0:
448,192,13922,1,0,0:0:0:0:
320,192,13980,1,0,0:0:0:0:
192,192,14037,1,0,0:0:0:0:
64,192,14095,1,0,0:0:0:0:
320,192,14152,1,0,0:0:0:0:
192,192,14210,1,0,0:0:0:0:
64,192,14267,1,0,0:0:0:0:
320,192,14325,1,0,0:0:0:0:
448,192,14382,1,0,0:0:0:0:
192,192,14440,1,0,0:0:0:0:
64,192,14497,1,0,0:0:0:0:
448,192,14612,1,0,0:0:0:0:
320,192,14689,1,0,0:0:0:0:
192,192,14765,1,0,0:0:0:0:
320,192,14842,1,0,0:0:0:0:
192,192,14918,1,0,0:0:0:0:
64,192,14995,1,0,0:0:0:0:
320,192,15072,1,0,0:0:0:0:
448,192,15148,1,0,0:0:0:0:
192,192,15225,1,0,0:0:0:0:
320,192,15302,1,0,0:0:0:0:
192,192,15378,1,0,0:0:0:0:
64,192,15455,1,0,0:0:0:0:
448,192,15531,1,0,0:0:0:0:
64,192,15608,1,0,0:0:0:0:
448,192,15685,1,0,0:0:0:0:
64,192,15761,1,0,0:0:0:0:
320,192,15838,1,0,0:0:0:0:
448,192,15915,1,0,0:0:0:0:
192,192,15991,1,0,0:0:0:0:
320,192,16068,1,0,0:0:0:0:
192,192,16145,1,0,0:0:0:0:
320,192,16221,1,0,0:0:0:0:
192,192,16298,1,0,0:0:0:0:
448,192,16374,1,0,0:0:0:0:
64,192,16451,1,0,0:0:0:0:
448,192,16681,1,0,0:0:0:0:
320,192,16738,1,0,0:0:0:0:
192,192,16796,1,0,0:0:0:0:
448,192,16853,1,0,0:0:0:0:
64,192,16911,1,0,0:0:0:0:
192,192,16968,1,0,0:0:0:0:
320,192,17026,1,0,0:0:0:0:
448,192,17083,1,0,0:0:0:0:
64,192,17371,1,0,0:0:0:0:
192,192,17428,1,0,0:0:0:0:
448,192,17486,1,0,0:0:0:0:
64,192,17543,1,0,0:0:0:0:
320,192,17600,1,0,0:0:0:0:
448,192,17658,1,0,0:0:0:0:
192,192,17715,1,0,0:0:0:0:
64,192,17773,5,0,0:0:0:0:
448,192,18060,1,0,0:0:0:0:
320,192,18137,1,0,0:0:0:0:
192,192,18213,1,0,0:0:0:0:
320,192,18290,1,0,0:0:0:0:
192,192,18367,1,0,0:0:0:0:
64,192,18443,1,0,0:0:0:0:
320,192,18520,1,0,0:0:0:0:
448,192,18597,1,0,0:0:0:0:
192,192,18673,1,0,0:0:0:0:
320,192,18750,1,0,0:0:0:0:
448,192,18827,1,0,0:0:0:0:
192,192,18903,1,0,0:0:0:0:
64,192,18980,1,0,0:0:0:0:
320,192,19056,1,0,0:0:0:0:
192,192,19133,1,0,0:0:0:0:
448,192,19210,1,0,0:0:0:0:
320,192,19286,1,0,0:0:0:0:
192,192,19363,1,0,0:0:0:0:
64,192,19440,1,0,0:0:0:0:
320,192,19516,1,0,0:0:0:0:
448,192,19593,1,0,0:0:0:0:
192,192,19669,1,0,0:0:0:0:
64,192,19746,1,0,0:0:0:0:
448,192,19899,1,0,0:0:0:0:
320,192,19976,1,0,0:0:0:0:
192,192,20053,1,0,0:0:0:0:
320,192,20129,1,0,0:0:0:0:
448,192,20206,1,0,0:0:0:0:
64,192,20282,1,0,0:0:0:0:
192,192,20359,1,0,0:0:0:0:
320,192,20436,1,0,0:0:0:0:
448,192,20589,1,0,0:0:0:0:
64,192,20666,1,0,0:0:0:0:
320,192,20819,1,0,0:0:0:0:
192,192,20895,1,0,0:0:0:0:
64,192,20972,1,0,0:0:0:0:
320,192,21049,1,0,0:0:0:0:
192,192,21125,1,0,0:0:0:0:
448,192,21202,1,0,0:0:0:0:
320,192,21279,1,0,0:0:0:0:
64,192,21509,1,0,0:0:0:0:
192,192,21738,1,0,0:0:0:0:
64,192,21968,1,0,0:0:0:0:
448,192,22198,1,0,0:0:0:0:
64,192,22428,1,0,0:0:0:0:
320,192,22658,1,0,0:0:0:0:
192,192,22888,1,0,0:0:0:0:
448,192,23118,1,0,0:0:0:0:
192,192,23348,1,0,0:0:0:0:
448,192,23577,1,0,0:0:0:0:
320,192,23654,1,0,0:0:0:0:
192,192,23731,1,0,0:0:0:0:
448,192,23807,1,0,0:0:0:0:
320,192,23884,1,0,0:0:0:0:
64,192,24037,1,0,0:0:0:0:
64,192,24267,1,0,0:0:0:0:
192,192,24344,1,0,0:0:0:0:
448,192,24420,1,0,0:0:0:0:
64,192,24497,1,0,0:0:0:0:
320,192,24574,1,0,0:0:0:0:
448,192,24650,1,0,0:0:0:0:
192,192,24727,1,0,0:0:0:0:
64,192,24804,1,0,0:0:0:0:
320,192,24880,1,0,0:0:0:0:
192,192,24957,1,0,0:0:0:0:
320,192,25033,1,0,0:0:0:0:
448,192,25110,1,0,0:0:0:0:
64,192,25187,1,0,0:0:0:0:
192,192,25263,1,0,0:0:0:0:
448,192,25340,1,0,0:0:0:0:
320,192,25417,1,0,0:0:0:0:
192,192,25493,1,0,0:0:0:0:
64,192,25570,1,0,0:0:0:0:
320,192,25646,1,0,0:0:0:0:
192,192,25723,1,0,0:0:0:0:
64,192,25800,1,0,0:0:0:0:
320,192,25876,1,0,0:0:0:0:
448,192,25953,1,0,0:0:0:0:
64,192,26030,1,0,0:0:0:0:
320,192,26106,1,0,0:0:0:0:
192,192,26183,1,0,0:0:0:0:
64,192,26259,1,0,0:0:0:0:
448,192,26336,1,0,0:0:0:0:
320,192,26413,1,0,0:0:0:0:
448,192,26489,1,0,0:0:0:0:
64,192,26566,1,0,0:0:0:0:
192,192,26643,1,0,0:0:0:0:
320,192,26719,1,0,0:0:0:0:
192,192,26796,1,0,0:0:0:0:
320,192,26872,1,0,0:0:0:0:
448,192,26949,1,0,0:0:0:0:
192,192,27026,1,0,0:0:0:0:
64,192,27102,1,0,0:0:0:0:
320,192,27179,1,0,0:0:0:0:
448,192,27256,1,0,0:0:0:0:
192,192,27332,1,0,0:0:0:0:
320,192,27409,1,0,0:0:0:0:
64,192,27486,1,0,0:0:0:0:
448,192,27562,1,0,0:0:0:0:
320,192,27639,1,0,0:0:0:0:
64,192,27715,1,0,0:0:0:0:
192,192,27773,1,0,0:0:0:0:
320,192,27830,1,0,0:0:0:0:
448,192,27888,1,0,0:0:0:0:
192,192,27945,1,0,0:0:0:0:
320,192,28003,1,0,0:0:0:0:
448,192,28060,1,0,0:0:0:0:
192,192,28118,1,0,0:0:0:0:
64,192,28175,1,0,0:0:0:0:
320,192,28233,1,0,0:0:0:0:
192,192,28290,1,0,0:0:0:0:
448,192,28405,1,0,0:0:0:0:
320,192,28482,1,0,0:0:0:0:
64,192,28558,1,0,0:0:0:0:
448,192,28635,1,0,0:0:0:0:
64,192,28712,1,0,0:0:0:0:
448,192,28788,1,0,0:0:0:0:
320,192,28865,1,0,0:0:0:0:
192,192,28941,1,0,0:0:0:0:
64,192,29018,1,0,0:0:0:0:
320,192,29095,1,0,0:0:0:0:
448,192,29171,1,0,0:0:0:0:
320,192,29248,1,0,0:0:0:0:
192,192,29325,1,0,0:0:0:0:
64,192,29401,1,0,0:0:0:0:
320,192,29478,1,0,0:0:0:0:
192,192,29554,1,0,0:0:0:0:
448,192,29784,1,0,0:0:0:0:
64,192,29784,1,0,0:0:0:0:
320,192,30014,1,0,0:0:0:0:
64,192,30244,1,0,0:0:0:0:
448,192,30474,1,0,0:0:0:0:
320,192,30474,1,0,0:0:0:0:
64,192,30704,1,0,0:0:0:0:
448,192,30934,1,0,0:0:0:0:
320,192,31010,1,0,0:0:0:0:
192,192,31087,1,0,0:0:0:0:
320,192,31164,1,0,0:0:0:0:
192,192,31240,1,0,0:0:0:0:
64,192,31317,1,0,0:0:0:0:
320,192,31394,1,0,0:0:0:0:
448,192,31470,1,0,0:0:0:0:
64,192,31547,1,0,0:0:0:0:
192,192,31623,1,0,0:0:0:0:
448,192,31853,1,0,0:0:0:0:
320,192,31930,1,0,0:0:0:0:
192,192,32007,1,0,0:0:0:0:
448,192,32083,1,0,0:0:0:0:
320,192,32160,1,0,0:0:0:0:
64,192,32236,1,0,0:0:0:0:
448,192,32313,1,0,0:0:0:0:
192,192,32390,1,0,0:0:0:0:
320,192,32466,1,0,0:0:0:0:
448,192,32543,1,0,0:0:0:0:
64,192,32543,1,0,0:0:0:0:
320,192,32773,1,0,0:0:0:0:
64,192,33003,1,0,0:0:0:0:
192,192,33003,128,0,33156:0:0:0:0:
448,192,33233,1,0,0:0:0:0:
320,192,33233,128,0,33386:0:0:0:0:
64,192,33463,1,0,0:0:0:0:
448,192,33463,128,0,33616:0:0:0:0:
192,192,33692,1,0,0:0:0:0:
320,192,33692,128,0,33846:0:0:0:0:
64,192,33922,1,0,0:0:0:0:
192,192,33922,128,0,34076:0:0:0:0:
320,192,34152,1,0,0:0:0:0:
448,192,34152,128,0,34305:0:0:0:0:
64,192,34382,1,0,0:0:0:0:
192,192,34382,128,0,34535:0:0:0:0:
448,192,34612,1,0,0:0:0:0:
320,192,34612,1,0,0:0:0:0:
64,192,34689,1,0,0:0:0:0:
192,192,34765,1,0,0:0:0:0:
448,192,34842,1,0,0:0:0:0:
320,192,34918,1,0,0:0:0:0:
192,192,34995,1,0,0:0:0:0:
320,192,35072,1,0,0:0:0:0:
64,192,35148,1,0,0:0:0:0:
448,192,35302,1,0,0:0:0:0:
320,192,35302,1,0,0:0:0:0:
192,192,35378,1,0,0:0:0:0:
64,192,35455,1,0,0:0:0:0:
320,192,35531,1,0,0:0:0:0:
448,192,35608,1,0,0:0:0:0:
64,192,35761,1,0,0:0:0:0:
192,192,35838,1,0,0:0:0:0:
448,192,35915,1,0,0:0:0:0:
320,192,35991,1,0,0:0:0:0:
64,192,35991,1,0,0:0:0:0:
192,192,36068,1,0,0:0:0:0:
448,192,36145,1,0,0:0:0:0:
320,192,36221,1,0,0:0:0:0:
64,192,36298,1,0,0:0:0:0:
320,192,36451,1,0,0:0:0:0:
192,192,36528,1,0,0:0:0:0:
448,192,36604,1,0,0:0:0:0:
64,192,36681,1,0,0:0:0:0:
320,192,36681,1,0,0:0:0:0:
192,192,36758,1,0,0:0:0:0:
448,192,36834,1,0,0:0:0:0:
192,192,36911,1,0,0:0:0:0:
448,192,36987,1,0,0:0:0:0:
64,192,37064,1,0,0:0:0:0:
192,192,37141,1,0,0:0:0:0:
320,192,37256,1,0,0:0:0:0:
448,192,37371,1,0,0:0:0:0:
192,192,37371,1,0,0:0:0:0:
64,192,37447,1,0,0:0:0:0:
320,192,37524,1,0,0:0:0:0:
192,192,37600,1,0,0:0:0:0:
448,192,37677,1,0,0:0:0:0:
320,192,37754,1,0,0:0:0:0:
64,192,37830,1,0,0:0:0:0:
192,192,37907,1,0,0:0:0:0:
320,192,37984,1,0,0:0:0:0:
448,192,38060,1,0,0:0:0:0:
64,192,38060,1,0,0:0:0:0:
192,192,38137,1,0,0:0:0:0:
320,192,38213,1,0,0:0:0:0:
64,192,38290,1,0,0:0:0:0:
448,192,38367,1,0,0:0:0:0:
320,192,38443,1,0,0:0:0:0:
64,192,38520,1,0,0:0:0:0:
192,192,38597,1,0,0:0:0:0:
320,192,38673,1,0,0:0:0:0:
448,192,38750,1,0,0:0:0:0:
192,192,38750,1,0,0:0:0:0:
64,192,38827,1,0,0:0:0:0:
320,192,38903,1,0,0:0:0:0:
192,192,38980,1,0,0:0:0:0:
448,192,39056,1,0,0:0:0:0:
320,192,39133,1,0,0:0:0:0:
64,192,39210,1,0,0:0:0:0:
192,192,39267,1,0,0:0:0:0:
320,192,39325,1,0,0:0:0:0:
448,192,39382,1,0,0:0:0:0:
64,192,39440,1,0,0:0:0:0:
192,192,39440,1,0,0:0:0:0:
320,192,39497,1,0,0:0:0:0:
448,192,39554,1,0,0:0:0:0:
192,192,39612,1,0,0:0:0:0:
64,192,39669,1,0,0:0:0:0:
320,192,39727,1,0,0:0:0:0:
192,192,39784,1,0,0:0:0:0:
448,192,39899,1,0,0:0:0:0:
320,192,40014,1,0,0:0:0:0:
64,192,40129,1,0,0:0:0:0:
448,192,40129,1,0,0:0:0:0:
192,192,40206,1,0,0:0:0:0:
320,192,40282,1,0,0:0:0:0:
64,192,40359,1,0,0:0:0:0:
192,192,40436,1,0,0:0:0:0:
448,192,40589,1,0,0:0:0:0:
320,192,40666,1,0,0:0:0:0:
192,192,40742,1,0,0:0:0:0:
448,192,40819,1,0,0:0:0:0:
64,192,40819,1,0,0:0:0:0:
320,192,40895,1,0,0:0:0:0:
448,192,40972,1,0,0:0:0:0:
192,192,41049,1,0,0:0:0:0:
64,192,41125,1,0,0:0:0:0:
448,192,41279,1,0,0:0:0:0:
320,192,41355,1,0,0:0:0:0:
192,192,41432,1,0,0:0:0:0:
448,192,41509,1,0,0:0:0:0:
64,192,41509,1,0,0:0:0:0:
192,192,41585,1,0,0:0:0:0:
320,192,41662,1,0,0:0:0:0:
64,192,41738,1,0,0:0:0:0:
192,192,41815,1,0,0:0:0:0:
448,192,41892,1,0,0:0:0:0:
320,192,41968,1,0,0:0:0:0:
192,192,42045,1,0,0:0:0:0:
448,192,42198,1,0,0:0:0:0:
64,192,42198,1,0,0:0:0:0:
192,192,42275,1,0,0:0:0:0:
320,192,42351,1,0,0:0:0:0:
192,192,42428,1,0,0:0:0:0:
64,192,42505,1,0,0:0:0:0:
320,192,42581,1,0,0:0:0:0:
192,192,42658,1,0,0:0:0:0:
448,192,42735,1,0,0:0:0:0:
64,192,42888,1,0,0:0:0:0:
192,192,42888,1,0,0:0:0:0:
320,192,42964,1,0,0:0:0:0:
448,192,43041,1,0,0:0:0:0:
192,192,43118,1,0,0:0:0:0:
320,192,43194,1,0,0:0:0:0:
64,192,43348,1,0,0:0:0:0:
320,192,43424,1,0,0:0:0:0:
192,192,43501,1,0,0:0:0:0:
64,192,43577,1,0,0:0:0:0:
448,192,43577,1,0,0:0:0:0:
320,192,43654,1,0,0:0:0:0:
192,192,43731,1,0,0:0:0:0:
448,192,43807,1,0,0:0:0:0:
320,192,43884,1,0,0:0:0:0:
64,192,44037,1,0,0:0:0:0:
192,192,44114,1,0,0:0:0:0:
320,192,44190,1,0,0:0:0:0:
448,192,44267,1,0,0:0:0:0:
64,192,44267,1,0,0:0:0:0:
192,192,44325,1,0,0:0:0:0:
320,192,44382,1,0,0:0:0:0:
64,192,44440,1,0,0:0:0:0:
192,192,44497,1,0,0:0:0:0:
448,192,44554,1,0,0:0:0:0:
320,192,44612,1,0,0:0:0:0:
192,192,44669,1,0,0:0:0:0:
448,192,44727,1,0,0:0:0:0:
320,192,44784,1,0,0:0:0:0:
64,192,44957,1,0,0:0:0:0:
192,192,44957,1,0,0:0:0:0:
448,192,45033,1,0,0:0:0:0:
320,192,45110,1,0,0:0:0:0:
448,192,45187,1,0,0:0:0:0:
192,192,45302,1,0,0:0:0:0:
64,192,45417,1,0,0:0:0:0:
320,192,45417,1,0,0:0:0:0:
448,192,45646,1,0,0:0:0:0:
192,192,45646,1,0,0:0:0:0:
320,192,45723,1,0,0:0:0:0:
64,192,45800,1,0,0:0:0:0:
448,192,45876,1,0,0:0:0:0:
320,192,45953,1,0,0:0:0:0:
192,192,46030,1,0,0:0:0:0:
320,192,46106,1,0,0:0:0:0:
192,192,46183,1,0,0:0:0:0:
448,192,46336,1,0,0:0:0:0:
320,192,46336,1,0,0:0:0:0:
64,192,46413,1,0,0:0:0:0:
192,192,46489,1,0,0:0:0:0:
320,192,46566,1,0,0:0:0:0:
64,192,46643,1,0,0:0:0:0:
320,192,46796,1,0,0:0:0:0:
192,192,46872,1,0,0:0:0:0:
448,192,46949,1,0,0:0:0:0:
192,192,47026,1,0,0:0:0:0:
64,192,47026,1,0,0:0:0:0:
320,192,47102,1,0,0:0:0:0:
448,192,47179,1,0,0:0:0:0:
64,192,47256,1,0,0:0:0:0:
192,192,47332,1,0,0:0:0:0:
320,192,47409,1,0,0:0:0:0:
192,192,47486,1,0,0:0:0:0:
320,192,47562,1,0,0:0:0:0:
448,192,47715,1,0,0:0:0:0:
64,192,47715,1,0,0:0:0:0:
192,192,47792,1,0,0:0:0:0:
320,192,47869,1,0,0:0:0:0:
64,192,47945,1,0,0:0:0:0:
192,192,48022,1,0,0:0:0:0:
448,192,48175,1,0,0:0:0:0:
320,192,48290,1,0,0:0:0:0:
64,192,48405,1,0,0:0:0:0:
192,192,48405,1,0,0:0:0:0:
320,192,48482,1,0,0:0:0:0:
448,192,48558,1,0,0:0:0:0:
192,192,48635,1,0,0:0:0:0:
320,192,48712,1,0,0:0:0:0:
64,192,48788,1,0,0:0:0:0:
192,192,48865,1,0,0:0:0:0:
448,192,48941,1,0,0:0:0:0:
320,192,49018,1,0,0:0:0:0:
448,192,49095,1,0,0:0:0:0:
64,192,49095,1,0,0:0:0:0:
192,192,49171,1,0,0:0:0:0:
320,192,49248,1,0,0:0:0:0:
192,192,49325,1,0,0:0:0:0:
320,192,49401,1,0,0:0:0:0:
448,192,49554,1,0,0:0:0:0:
320,192,49631,1,0,0:0:0:0:
192,192,49708,1,0,0:0:0:0:
64,192,49784,1,0,0:0:0:0:
320,192,49784,1,0,0:0:0:0:
448,192,49861,1,0,0:0:0:0:
192,192,49938,1,0,0:0:0:0:
64,192,50014,1,0,0:0:0:0:
448,192,50091,1,0,0:0:0:0:
64,192,50168,1,0,0:0:0:0:
448,192,50244,1,0,0:0:0:0:
64,192,50474,1,0,0:0:0:0:
320,192,50474,1,0,0:0:0:0:
448,192,50531,1,0,0:0:0:0:
192,192,50589,1,0,0:0:0:0:
320,192,50646,1,0,0:0:0:0:
448,192,50704,1,0,0:0:0:0:
192,192,50761,1,0,0:0:0:0:
64,192,50819,1,0,0:0:0:0:
320,192,50876,1,0,0:0:0:0:
448,192,50934,1,0,0:0:0:0:
64,192,50991,1,0,0:0:0:0:
192,192,51049,1,0,0:0:0:0:
320,192,51106,1,0,0:0:0:0:
448,192,51164,1,0,0:0:0:0:
64,192,51164,1,0,0:0:0:0:
192,192,51221,1,0,0:0:0:0:
320,192,51279,1,0,0:0:0:0:
64,192,51336,1,0,0:0:0:0:
192,192,51394,1,0,0:0:0:0:
448,192,51451,1,0,0:0:0:0:
320,192,51509,1,0,0:0:0:0:
192,192,51566,1,0,0:0:0:0:
448,192,51623,1,0,0:0:0:0:
320,192,51681,1,0,0:0:0:0:
64,192,51853,1,0,0:0:0:0:
192,192,51853,1,0,0:0:0:0:
320,192,51911,1,0,0:0:0:0:
448,192,51968,1,0,0:0:0:0:
192,192,52026,1,0,0:0:0:0:
64,192,52083,1,0,0:0:0:0:
320,192,52141,1,0,0:0:0:0:
192,192,52198,1,0,0:0:0:0:
448,192,52256,1,0,0:0:0:0:
320,192,52313,1,0,0:0:0:0:
64,192,52371,1,0,0:0:0:0:
192,192,52428,1,0,0:0:0:0:
320,192,52486,1,0,0:0:0:0:
448,192,52543,1,0,0:0:0:0:
64,192,52543,1,0,0:0:0:0:
192,192,52600,1,0,0:0:0:0:
320,192,52658,1,0,0:0:0:0:
448,192,52715,1,0,0:0:0:0:
192,192,52773,1,0,0:0:0:0:
64,192,52830,1,0,0:0:0:0:
320,192,52888,1,0,0:0:0:0:
192,192,52945,1,0,0:0:0:0:
64,192,53003,1,0,0:0:0:0:
448,192,53060,1,0,0:0:0:0:
320,192,53118,1,0,0:0:0:0:
192,192,53175,1,0,0:0:0:0:
64,192,53233,1,0,0:0:0:0:
320,192,53233,1,0,0:0:0:0:
448,192,53290,1,0,0:0:0:0:
192,192,53348,1,0,0:0:0:0:
320,192,53405,1,0,0:0:0:0:
448,192,53463,1,0,0:0:0:0:
64,192,53520,1,0,0:0:0:0:
192,192,53577,1,0,0:0:0:0:
320,192,53635,1,0,0:0:0:0:
64,192,53692,1,0,0:0:0:0:
192,192,53750,1,0,0:0:0:0:
448,192,53807,1,0,0:0:0:0:
320,192,53865,1,0,0:0:0:0:
192,192,53922,1,0,0:0:0:0:
64,192,53980,1,0,0:0:0:0:
320,192,54037,1,0,0:0:0:0:
192,192,54095,1,0,0:0:0:0:
448,192,54152,1,0,0:0:0:0:
320,192,54210,1,0,0:0:0:0:
192,192,54267,1,0,0:0:0:0:
64,192,54325,1,0,0:0:0:0:
448,192,54382,1,0,0:0:0:0:
192,192,54612,1,0,0:0:0:0:
64,192,54842,1,0,0:0:0:0:
192,192,55072,1,0,0:0:0:0:
448,192,55302,1,0,0:0:0:0:
320,192,55302,1,0,0:0:0:0:
192,192,55378,1,0,0:0:0:0:
64,192,55455,1,0,0:0:0:0:
448,192,55531,1,0,0:0:0:0:
320,192,55531,1,0,0:0:0:0:
64,192,55608,1,0,0:0:0:0:
192,192,55685,1,0,0:0:0:0:
320,192,55761,1,0,0:0:0:0:
448,192,55761,1,0,0:0:0:0:
192,192,55838,1,0,0:0:0:0:
64,192,55915,1,0,0:0:0:0:
448,192,55991,1,0,0:0:0:0:
192,192,55991,1,0,0:0:0:0:
320,192,56068,1,0,0:0:0:0:
64,192,56145,1,0,0:0:0:0:
448,192,56221,1,0,0:0:0:0:
192,192,56221,1,0,0:0:0:0:
320,192,56298,1,0,0:0:0:0:
448,192,56374,1,0,0:0:0:0:
64,192,56451,1,0,0:0:0:0:
192,192,56451,1,0,0:0:0:0:
320,192,56528,1,0,0:0:0:0:
448,192,56604,1,0,0:0:0:0:
192,192,56681,1,0,0:0:0:0:
64,192,56681,1,0,0:0:0:0:
320,192,56758,1,0,0:0:0:0:
448,192,56834,1,0,0:0:0:0:
192,192,56911,1,0,0:0:0:0:
64,192,56987,1,0,0:0:0:0:
320,192,57064,1,0,0:0:0:0:
192,192,57141,1,0,0:0:0:0:
448,192,57217,1,0,0:0:0:0:
64,192,57371,1,0,0:0:0:0:
192,192,57428,1,0,0:0:0:0:
320,192,57486,1,0,0:0:0:0:
448,192,57543,1,0,0:0:0:0:
192,192,57600,1,0,0:0:0:0:
320,192,57658,1,0,0:0:0:0:
448,192,57715,1,0,0:0:0:0:
64,192,57830,1,0,0:0:0:0:
192,192,57907,1,0,0:0:0:0:
320,192,57984,1,0,0:0:0:0:
64,192,58060,1,0,0:0:0:0:
192,192,58118,1,0,0:0:0:0:
448,192,58175,1,0,0:0:0:0:
320,192,58233,1,0,0:0:0:0:
192,192,58290,1,0,0:0:0:0:
64,192,58348,1,0,0:0:0:0:
448,192,58520,1,0,0:0:0:0:
320,192,58577,1,0,0:0:0:0:
192,192,58635,1,0,0:0:0:0:
448,192,58692,1,0,0:0:0:0:
320,192,58750,1,0,0:0:0:0:
64,192,58807,1,0,0:0:0:0:
192,192,58865,1,0,0:0:0:0:
448,192,58922,1,0,0:0:0:0:
64,192,58980,1,0,0:0:0:0:
320,192,59037,1,0,0:0:0:0:
448,192,59095,1,0,0:0:0:0:
64,192,59210,1,0,0:0:0:0:
192,192,59210,1,0,0:0:0:0:
320,192,59286,1,0,0:0:0:0:
448,192,59363,1,0,0:0:0:0:
192,192,59440,1,0,0:0:0:0:
64,192,59440,1,0,0:0:0:0:
448,192,59516,1,0,0:0:0:0:
320,192,59593,1,0,0:0:0:0:
64,192,59669,1,0,0:0:0:0:
192,192,59669,1,0,0:0:0:0:
448,192,59746,1,0,0:0:0:0:
192,192,59823,1,0,0:0:0:0:
64,192,59899,1,0,0:0:0:0:
320,192,59899,1,0,0:0:0:0:
448,192,59976,1,0,0:0:0:0:
192,192,60053,1,0,0:0:0:0:
64,192,60129,1,0,0:0:0:0:
448,192,60129,1,0,0:0:0:0:
320,192,60206,1,0,0:0:0:0:
192,192,60282,1,0,0:0:0:0:
320,192,60359,1,0,0:0:0:0:
448,192,60359,1,0,0:0:0:0:
64,192,60436,1,0,0:0:0:0:
192,192,60512,1,0,0:0:0:0:
320,192,60589,1,0,0:0:0:0:
448,192,60589,1,0,0:0:0:0:
192,192,60666,1,0,0:0:0:0:
64,192,60742,1,0,0:0:0:0:
448,192,60819,1,0,0:0:0:0:
320,192,60819,1,0,0:0:0:0:
192,192,60895,1,0,0:0:0:0:
64,192,60972,1,0,0:0:0:0:
448,192,61049,1,0,0:0:0:0:
192,192,61049,1,0,0:0:0:0:
320,192,61125,1,0,0:0:0:0:
192,192,61202,1,0,0:0:0:0:
64,192,61279,1,0,0:0:0:0:
448,192,61279,1,0,0:0:0:0:
320,192,61355,1,0,0:0:0:0:
192,192,61432,1,0,0:0:0:0:
448,192,61509,1,0,0:0:0:0:
64,192,61509,1,0,0:0:0:0:
320,192,61585,1,0,0:0:0:0:
192,192,61662,1,0,0:0:0:0:
320,192,61738,1,0,0:0:0:0:
192,192,61815,1,0,0:0:0:0:
64,192,61968,1,0,0:0:0:0:
448,192,61968,1,0,0:0:0:0:
320,192,62045,1,0,0:0:0:0:
192,192,62122,1,0,0:0:0:0:
320,192,62198,1,0,0:0:0:0:
448,192,62198,1,0,0:0:0:0:
64,192,62275,1,0,0:0:0:0:
192,192,62351,1,0,0:0:0:0:
448,192,62428,1,0,0:0:0:0:
64,192,62428,1,0,0:0:0:0:
320,192,62505,1,0,0:0:0:0:
192,192,62581,1,0,0:0:0:0:
320,192,62658,1,0,0:0:0:0:
448,192,62658,1,0,0:0:0:0:
64,192,62735,1,0,0:0:0:0:
192,192,62811,1,0,0:0:0:0:
64,192,62888,1,0,0:0:0:0:
448,192,62888,1,0,0:0:0:0:
320,192,62964,1,0,0:0:0:0:
448,192,63041,1,0,0:0:0:0:
64,192,63118,1,0,0:0:0:0:
192,192,63233,1,0,0:0:0:0:
320,192,63348,1,0,0:0:0:0:
448,192,63348,1,0,0:0:0:0:
192,192,63424,1,0,0:0:0:0:
64,192,63501,1,0,0:0:0:0:
320,192,63577,1,0,0:0:0:0:
448,192,63577,1,0,0:0:0:0:
192,192,63654,1,0,0:0:0:0:
320,192,63731,1,0,0:0:0:0:
448,192,63807,1,0,0:0:0:0:
64,192,63807,1,0,0:0:0:0:
192,192,63884,1,0,0:0:0:0:
320,192,63961,1,0,0:0:0:0:
64,192,64037,1,0,0:0:0:0:
448,192,64037,1,0,0:0:0:0:
192,192,64114,1,0,0:0:0:0:
64,192,64190,1,0,0:0:0:0:
320,192,64267,1,0,0:0:0:0:
448,192,64267,1,0,0:0:0:0:
192,192,64344,1,0,0:0:0:0:
64,192,64420,1,0,0:0:0:0:
448,192,64497,1,0,0:0:0:0:
320,192,64497,1,0,0:0:0:0:
192,192,64574,1,0,0:0:0:0:
448,192,64650,1,0,0:0:0:0:
64,192,64727,1,0,0:0:0:0:
320,192,64727,1,0,0:0:0:0:
192,192,64804,1,0,0:0:0:0:
320,192,64880,1,0,0:0:0:0:
64,192,64957,1,0,0:0:0:0:
448,192,64957,1,0,0:0:0:0:
192,192,65033,1,0,0:0:0:0:
64,192,65187,1,0,0:0:0:0:
448,192,65187,1,0,0:0:0:0:
320,192,65263,1,0,0:0:0:0:
192,192,65340,1,0,0:0:0:0:
64,192,65417,1,0,0:0:0:0:
448,192,65417,1,0,0:0:0:0:
320,192,65493,1,0,0:0:0:0:
64,192,65570,1,0,0:0:0:0:
448,192,65646,1,0,0:0:0:0:
192,192,65646,1,0,0:0:0:0:
320,192,65723,1,0,0:0:0:0:
192,192,65800,1,0,0:0:0:0:
64,192,65876,1,0,0:0:0:0:
448,192,65991,1,0,0:0:0:0:
192,192,66106,1,0,0:0:0:0:
64,192,66106,1,0,0:0:0:0:
320,192,66183,1,0,0:0:0:0:
448,192,66259,1,0,0:0:0:0:
64,192,66336,1,0,0:0:0:0:
320,192,66336,1,0,0:0:0:0:
192,192,66413,1,0,0:0:0:0:
448,192,66489,1,0,0:0:0:0:
192,192,66566,1,0,0:0:0:0:
448,192,66643,1,0,0:0:0:0:
320,192,66719,1,0,0:0:0:0:
192,192,66796,1,0,0:0:0:0:
64,192,66872,1,0,0:0:0:0:
320,192,66949,1,0,0:0:0:0:
192,192,67026,1,0,0:0:0:0:
64,192,67026,1,0,0:0:0:0:
448,192,67141,1,0,0:0:0:0:
320,192,67256,1,0,0:0:0:0:
64,192,67256,1,0,0:0:0:0:
192,192,67371,1,0,0:0:0:0:
448,192,67486,1,0,0:0:0:0:
320,192,67486,1,0,0:0:0:0:
192,192,67562,1,0,0:0:0:0:
64,192,67639,1,0,0:0:0:0:
448,192,67715,1,0,0:0:0:0:
320,192,67715,1,0,0:0:0:0:
192,192,67792,1,0,0:0:0:0:
320,192,67869,1,0,0:0:0:0:
448,192,67945,1,0,0:0:0:0:
192,192,68022,1,0,0:0:0:0:
320,192,68099,1,0,0:0:0:0:
64,192,68175,1,0,0:0:0:0:
448,192,68252,1,0,0:0:0:0:
64,192,68405,1,0,0:0:0:0:
320,192,68405,1,0,0:0:0:0:
192,192,68482,1,0,0:0:0:0:
448,192,68558,1,0,0:0:0:0:
320,192,68635,1,0,0:0:0:0:
64,192,68712,1,0,0:0:0:0:
192,192,68788,1,0,0:0:0:0:
448,192,68865,1,0,0:0:0:0:
320,192,68865,1,0,0:0:0:0:
192,192,68941,1,0,0:0:0:0:
64,192,69095,1,0,0:0:0:0:
448,192,69095,1,0,0:0:0:0:
320,192,69152,1,0,0:0:0:0:
192,192,69210,1,0,0:0:0:0:
448,192,69267,1,0,0:0:0:0:
320,192,69325,1,0,0:0:0:0:
64,192,69382,1,0,0:0:0:0:
192,192,69440,1,0,0:0:0:0:
448,192,69554,1,0,0:0:0:0:
64,192,69554,1,0,0:0:0:0:
192,192,69612,1,0,0:0:0:0:
320,192,69669,1,0,0:0:0:0:
448,192,69727,1,0,0:0:0:0:
192,192,69784,1,0,0:0:0:0:
64,192,69842,1,0,0:0:0:0:
320,192,69899,1,0,0:0:0:0:
192,192,69957,1,0,0:0:0:0:
448,192,70014,1,0,0:0:0:0:
320,192,70072,1,0,0:0:0:0:
64,192,70129,1,0,0:0:0:0:
192,192,70187,1,0,0:0:0:0:
448,192,70244,1,0,0:0:0:0:
320,192,70244,1,0,0:0:0:0:
192,192,70302,1,0,0:0:0:0:
64,192,70359,1,0,0:0:0:0:
448,192,70474,1,0,0:0:0:0:
320,192,70474,1,0,0:0:0:0:
192,192,70531,1,0,0:0:0:0:
64,192,70589,1,0,0:0:0:0:
64,192,70704,1,0,0:0:0:0:
192,192,70704,1,0,0:0:0:0:
320,192,70761,1,0,0:0:0:0:
448,192,70819,1,0,0:0:0:0:
64,192,70934,1,0,0:0:0:0:
192,192,70934,1,0,0:0:0:0:
448,192,70991,1,0,0:0:0:0:
320,192,71049,1,0,0:0:0:0:
64,192,71164,1,0,0:0:0:0:
448,192,71164,1,0,0:0:0:0:
320,192,71221,1,0,0:0:0:0:
192,192,71279,1,0,0:0:0:0:
64,192,71394,1,0,0:0:0:0:
448,192,71394,1,0,0:0:0:0:
192,192,71451,1,0,0:0:0:0:
320,192,71509,1,0,0:0:0:0:
64,192,71623,1,0,0:0:0:0:
448,192,71623,1,0,0:0:0:0:
320,192,71681,1,0,0:0:0:0:
192,192,71738,1,0,0:0:0:0:
64,192,71796,1,0,0:0:0:0:
448,192,71853,1,0,0:0:0:0:
320,192,71853,1,0,0:0:0:0:
192,192,71930,1,0,0:0:0:0:
64,192,72007,1,0,0:0:0:0:
320,192,72083,1,0,0:0:0:0:
448,192,72083,1,0,0:0:0:0:
192,192,72160,1,0,0:0:0:0:
320,192,72236,1,0,0:0:0:0:
448,192,72313,1,0,0:0:0:0:
64,192,72313,1,0,0:0:0:0:
192,192,72390,1,0,0:0:0:0:
320,192,72466,1,0,0:0:0:0:
64,192,72543,1,0,0:0:0:0:
448,192,72543,1,0,0:0:0:0:
192,192,72620,1,0,0:0:0:0:
320,192,72696,1,0,0:0:0:0:
448,192,72773,1,0,0:0:0:0:
64,192,72773,1,0,0:0:0:0:
192,192,72849,1,0,0:0:0:0:
320,192,72926,1,0,0:0:0:0:
192,192,73003,1,0,0:0:0:0:
320,192,73079,1,0,0:0:0:0:
448,192,73156,1,0,0:0:0:0:
192,192,73233,1,0,0:0:0:0:
64,192,73233,1,0,0:0:0:0:
320,192,73309,1,0,0:0:0:0:
448,192,73386,1,0,0:0:0:0:
64,192,73463,1,0,0:0:0:0:
448,192,73539,1,0,0:0:0:0:
64,192,73616,1,0,0:0:0:0:
320,192,73692,1,0,0:0:0:0:
192,192,73692,1,0,0:0:0:0:
448,192,73922,1,0,0:0:0:0:
64,192,73922,1,0,0:0:0:0:
320,192,73980,1,0,0:0:0:0:
192,192,74037,1,0,0:0:0:0:
64,192,74152,1,0,0:0:0:0:
448,192,74152,1,0,0:0:0:0:
192,192,74210,1,0,0:0:0:0:
320,192,74267,1,0,0:0:0:0:
64,192,74382,1,0,0:0:0:0:
192,192,74382,1,0,0:0:0:0:
320,192,74459,1,0,0:0:0:0:
448,192,74535,1,0,0:0:0:0:
64,192,74612,1,0,0:0:0:0:
192,192,74612,1,0,0:0:0:0:
448,192,74689,1,0,0:0:0:0:
320,192,74765,1,0,0:0:0:0:
448,192,74842,1,0,0:0:0:0:
64,192,74842,1,0,0:0:0:0:
192,192,74918,1,0,0:0:0:0:
320,192,74995,1,0,0:0:0:0:
64,192,75072,1,0,0:0:0:0:
448,192,75072,1,0,0:0:0:0:
192,192,75148,1,0,0:0:0:0:
64,192,75225,1,0,0:0:0:0:
320,192,75302,1,0,0:0:0:0:
448,192,75302,1,0,0:0:0:0:
192,192,75378,1,0,0:0:0:0:
320,192,75455,1,0,0:0:0:0:
448,192,75531,1,0,0:0:0:0:
64,192,75531,1,0,0:0:0:0:
192,192,75608,1,0,0:0:0:0:
320,192,75685,1,0,0:0:0:0:
448,192,75761,1,0,0:0:0:0:
192,192,75761,1,0,0:0:0:0:
64,192,75838,1,0,0:0:0:0:
192,192,75991,1,0,0:0:0:0:
448,192,75991,1,0,0:0:0:0:
320,192,76068,1,0,0:0:0:0:
448,192,76221,1,0,0:0:0:0:
64,192,76221,1,0,0:0:0:0:
320,192,76298,1,0,0:0:0:0:
192,192,76374,1,0,0:0:0:0:
64,192,76451,1,0,0:0:0:0:
320,192,76451,1,0,0:0:0:0:
448,192,76528,1,0,0:0:0:0:
192,192,76604,1,0,0:0:0:0:
448,192,76681,1,0,0:0:0:0:
64,192,76681,1,0,0:0:0:0:
320,192,76758,1,0,0:0:0:0:
192,192,76834,1,0,0:0:0:0:
64,192,76911,1,0,0:0:0:0:
448,192,76911,1,0,0:0:0:0:
320,192,76987,1,0,0:0:0:0:
192,192,77064,1,0,0:0:0:0:
320,192,77141,1,0,0:0:0:0:
448,192,77141,1,0,0:0:0:0:
64,192,77217,1,0,0:0:0:0:
192,192,77294,1,0,0:0:0:0:
64,192,77371,1,0,0:0:0:0:
448,192,77371,1,0,0:0:0:0:
320,192,77447,1,0,0:0:0:0:
192,192,77524,1,0,0:0:0:0:
320,192,77600,1,0,0:0:0:0:
192,192,77677,1,0,0:0:0:0:
64,192,77754,1,0,0:0:0:0:
448,192,77830,1,0,0:0:0:0:
64,192,77907,1,0,0:0:0:0:
448,192,77984,1,0,0:0:0:0:
320,192,78060,1,0,0:0:0:0:
192,192,78137,1,0,0:0:0:0:
64,192,78213,1,0,0:0:0:0:
448,192,78290,1,0,0:0:0:0:
320,192,78367,1,0,0:0:0:0:
64,192,78520,1,0,0:0:0:0:
192,192,78520,1,0,0:0:0:0:
320,192,78635,1,0,0:0:0:0:
448,192,78750,1,0,0:0:0:0:
64,192,78750,1,0,0:0:0:0:
192,192,78827,1,0,0:0:0:0:
64,192,78980,1,0,0:0:0:0:
448,192,78980,1,0,0:0:0:0:
320,192,79056,1,0,0:0:0:0:
192,192,79133,1,0,0:0:0:0:
64,192,79210,1,0,0:0:0:0:
320,192,79210,1,0,0:0:0:0:
448,192,79286,1,0,0:0:0:0:
64,192,79440,1,0,0:0:0:0:
192,192,79440,1,0,0:0:0:0:
448,192,79516,1,0,0:0:0:0:
192,192,79593,1,0,0:0:0:0:
64,192,79669,1,0,0:0:0:0:
320,192,79669,1,0,0:0:0:0:
448,192,79746,1,0,0:0:0:0:
64,192,79899,1,0,0:0:0:0:
320,192,79899,1,0,0:0:0:0:
192,192,79976,1,0,0:0:0:0:
448,192,80053,1,0,0:0:0:0:
64,192,80129,1,0,0:0:0:0:
192,192,80129,1,0,0:0:0:0:
320,192,80187,1,0,0:0:0:0:
448,192,80244,1,0,0:0:0:0:
192,192,80302,1,0,0:0:0:0:
320,192,80359,1,0,0:0:0:0:
64,192,80417,1,0,0:0:0:0:
192,192,80474,1,0,0:0:0:0:
448,192,80531,1,0,0:0:0:0:
320,192,80589,1,0,0:0:0:0:
64,192,80819,1,0,0:0:0:0:
192,192,80819,1,0,0:0:0:0:
448,192,80895,1,0,0:0:0:0:
320,192,80972,1,0,0:0:0:0:
192,192,81049,1,0,0:0:0:0:
64,192,81125,1,0,0:0:0:0:
320,192,81202,1,0,0:0:0:0:
192,192,81279,1,0,0:0:0:0:
448,192,81355,1,0,0:0:0:0:
64,192,81432,1,0,0:0:0:0:
320,192,81509,1,0,0:0:0:0:
448,192,81509,1,0,0:0:0:0:
192,192,81566,1,0,0:0:0:0:
64,192,81623,1,0,0:0:0:0:
320,192,81681,1,0,0:0:0:0:
448,192,81738,1,0,0:0:0:0:
192,192,81796,1,0,0:0:0:0:
320,192,81853,1,0,0:0:0:0:
448,192,81911,1,0,0:0:0:0:
192,192,81968,1,0,0:0:0:0:
64,192,82026,1,0,0:0:0:0:
320,192,82169,1,0,0:0:0:0:
448,192,82169,1,0,0:0:0:0:
64,192,82198,1,0,0:0:0:0:
192,192,82198,1,0,0:0:0:0:
64,192,82428,1,0,0:0:0:0:
192,192,82428,1,0,0:0:0:0:
320,192,82505,1,0,0:0:0:0:
64,192,82658,1,0,0:0:0:0:
448,192,82658,1,0,0:0:0:0:
320,192,82735,1,0,0:0:0:0:
192,192,82811,1,0,0:0:0:0:
64,192,82888,1,0,0:0:0:0:
448,192,82888,1,0,0:0:0:0:
320,192,82964,1,0,0:0:0:0:
448,192,83041,1,0,0:0:0:0:
64,192,83118,1,0,0:0:0:0:
192,192,83194,1,0,0:0:0:0:
320,192,83271,1,0,0:0:0:0:
192,192,83348,1,0,0:0:0:0:
320,192,83424,1,0,0:0:0:0:
64,192,83501,1,0,0:0:0:0:
448,192,83577,1,0,0:0:0:0:
320,192,83654,1,0,0:0:0:0:
192,192,83731,1,0,0:0:0:0:
64,192,83807,1,0,0:0:0:0:
320,192,83884,1,0,0:0:0:0:
192,192,83961,1,0,0:0:0:0:
448,192,84037,1,0,0:0:0:0:
320,192,84114,1,0,0:0:0:0:
64,192,84190,1,0,0:0:0:0:
192,192,84267,1,0,0:0:0:0:
320,192,84344,1,0,0:0:0:0:
448,192,84420,1,0,0:0:0:0:
64,192,84497,1,0,0:0:0:0:
192,192,84574,1,0,0:0:0:0:
320,192,84650,1,0,0:0:0:0:
64,192,84727,1,0,0:0:0:0:
448,192,84804,1,0,0:0:0:0:
320,192,84880,1,0,0:0:0:0:
192,192,84957,1,0,0:0:0:0:
64,192,85033,1,0,0:0:0:0:
320,192,85110,1,0,0:0:0:0:
192,192,85187,1,0,0:0:0:0:
64,192,85263,1,0,0:0:0:0:
320,192,85340,1,0,0:0:0:0:
448,192,85417,1,0,0:0:0:0:
64,192,85493,1,0,0:0:0:0:
192,192,85570,1,0,0:0:0:0:
320,192,85646,1,0,0:0:0:0:
