osu file format v14

[General]
AudioFilename: audio.mp3
AudioLeadIn: 0
PreviewTime: 59602
Countdown: 1
SampleSet: None
StackLeniency: 0.4
Mode: 0
LetterboxInBreaks: 0
WidescreenStoryboard: 1

[Editor]
DistanceSpacing: 0.9
BeatDivisor: 8
GridSize: 8
TimelineZoom: 3.099999

[Metadata]
Title:Mili
TitleUnicode:Mili
Artist:RTRT
ArtistUnicode:RTRT
Creator:Astahrath
Version:Re:make; RSI
Source:
Tags:
BeatmapID:2621247
BeatmapSetID:958254

[Difficulty]
HPDrainRate:4
CircleSize:3.8
OverallDifficulty:8.1
ApproachRate:9.8
SliderMultiplier:2.6
SliderTickRate:2

[Events]
//Background and Video events
0,0,"unknown.png",0,0
//Break Periods
2,89290,95752
//Storyboard Layer 0 (Background)
//Storyboard Layer 1 (Fail)
//Storyboard Layer 2 (Pass)
//Storyboard Layer 3 (Foreground)
//Storyboard Layer 4 (Overlay)
//Storyboard Sound Samples

[TimingPoints]
0,454.545454545455,4,3,1,19,1,0
0,-100,4,3,1,19,0,0
7272,-100,4,3,1,22,0,0
9034,-200,4,3,1,22,0,0
11306,-200,4,3,1,15,0,0
11761,-142.857142857143,4,3,1,21,0,0
12215,-125,4,3,1,24,0,0
12670,-100,4,3,1,27,0,0
13125,-83.3333333333333,4,3,1,30,0,0
13977,-33.3333333333333,4,3,1,20,0,1
14659,-40,4,3,1,19,0,1
14715,-100,4,3,1,48,0,0
14943,-100,4,3,1,48,0,1
15056,-100,4,3,1,48,0,0
15170,-47.6190476190476,4,3,1,48,0,0
15511,-125,4,3,1,48,0,0
15795,-166.666666666667,4,3,1,48,0,0
15852,-71.4285714285715,4,3,1,48,0,1
16079,-90.9090909090909,4,3,1,48,0,0
16761,-55.5555555555556,4,3,1,48,0,1
16988,-52.6315789473684,4,3,1,48,0,0
17670,-90.9090909090909,4,3,1,48,0,1
17784,-90.9090909090909,4,3,1,48,0,0
18238,-166.666666666667,4,3,1,48,0,0
18579,-166.666666666667,4,3,1,48,0,1
18693,-166.666666666667,4,3,1,48,0,0
18806,-62.5,4,3,1,48,0,0
18920,-52.6315789473684,4,3,1,48,0,0
19488,-125,4,3,1,48,0,1
19602,-125,4,3,1,48,0,0
19715,-55.5555555555556,4,3,1,48,0,0
20056,-76.9230769230769,4,3,1,43,0,0
20170,-62.5,4,3,1,45,0,0
20284,-52.6315789473684,4,3,1,47,0,0
20397,-76.9230769230769,4,3,1,56,0,1
20511,-66.6666666666667,4,3,1,58,0,0
20625,-58.8235294117647,4,3,1,60,0,0
20738,-47.6190476190476,4,3,1,48,0,0
21534,-76.9230769230769,4,3,1,60,0,1
21761,-76.9230769230769,4,3,1,48,0,0
22215,-76.9230769230769,4,3,1,60,0,1
22329,-76.9230769230769,4,3,1,48,0,1
22556,-76.9230769230769,4,3,1,48,0,0
23125,-76.9230769230769,4,3,1,48,0,1
23238,-76.9230769230769,4,3,1,48,0,0
24034,-76.9230769230769,4,3,1,48,0,1
24147,-76.9230769230769,4,3,1,48,0,0
24943,-76.9230769230769,4,3,1,48,0,1
25056,-76.9230769230769,4,3,1,48,0,0
25852,-76.9230769230769,4,3,1,48,0,1
26079,-76.9230769230769,4,3,1,48,0,0
26761,-76.9230769230769,4,3,1,48,0,1
26875,-76.9230769230769,4,3,1,48,0,0
27670,-76.9230769230769,4,3,1,48,0,1
27784,-76.9230769230769,4,3,1,48,0,0
28409,-25,4,3,1,48,0,0
28522,-25,4,3,1,48,0,1
28579,-200,4,3,1,48,0,0
32215,-111.111111111111,4,3,1,48,0,1
32613,-111.111111111111,4,3,1,48,0,0
32670,-111.111111111111,4,3,1,48,0,1
33522,-111.111111111111,4,3,1,48,0,1
36250,-111.111111111111,4,3,1,48,0,0
36306,-111.111111111111,4,3,1,48,0,1
37215,-200,4,3,1,48,0,1
39204,-200,4,3,1,48,0,0
39261,-200,4,3,1,48,0,1
39431,-200,4,3,1,48,0,0
39488,-200,4,3,1,48,0,1
39886,-200,4,3,1,48,0,0
39943,-200,4,3,1,48,0,1
43806,-100,4,3,1,35,0,0
44261,-100,4,3,1,35,0,0
48806,-83.3333333333333,4,3,1,35,0,1
48977,-83.3333333333333,4,3,1,35,0,0
49034,-66.6666666666667,4,3,1,35,0,1
50113,-66.6666666666667,4,3,1,35,0,0
50170,-66.6666666666667,4,3,1,35,0,1
50340,-66.6666666666667,4,3,1,35,0,0
50397,-66.6666666666667,4,3,1,35,0,1
50795,-66.6666666666667,4,3,1,35,0,0
50852,-66.6666666666667,4,3,1,35,0,1
52613,-66.6666666666667,4,3,1,35,0,0
52670,-66.6666666666667,4,3,1,35,0,1
54431,-66.6666666666667,4,3,1,35,0,0
54488,-66.6666666666667,4,3,1,35,0,1
57215,-90.9090909090909,4,3,1,35,0,0
58352,-90.9090909090909,4,3,1,43,0,0
59488,-90.9090909090909,4,3,1,48,0,0
59943,-90.9090909090909,4,3,1,48,0,1
60056,-90.9090909090909,4,3,1,48,0,0
60738,-90.9090909090909,4,3,1,48,0,1
61079,-90.9090909090909,4,3,1,48,0,0
66761,-58.8235294117647,4,3,1,48,0,0
66988,-25,4,3,1,48,0,0
67215,-25,4,3,1,48,0,1
67329,-25,4,3,1,48,0,0
67556,-83.3333333333333,4,3,1,48,0,0
67727,-83.3333333333333,4,3,1,48,0,1
67897,-83.3333333333333,4,3,1,48,0,0
68579,-83.3333333333333,4,3,1,48,0,1
68806,-83.3333333333333,4,3,1,48,0,0
69545,-83.3333333333333,4,3,1,48,0,1
69659,-83.3333333333333,4,3,1,48,0,0
70397,-83.3333333333333,4,3,1,48,0,1
70511,-83.3333333333333,4,3,1,48,0,0
70852,-83.3333333333333,4,3,1,48,0,1
70965,-83.3333333333333,4,3,1,48,0,0
71306,-83.3333333333333,4,3,1,48,0,1
71420,-83.3333333333333,4,3,1,48,0,0
72215,-83.3333333333333,4,3,1,48,0,1
73579,-55.5555555555556,4,3,1,48,0,0
74034,-32.258064516129,4,3,1,48,0,1
74431,-32.258064516129,4,3,1,48,0,0
74488,-32.258064516129,4,3,1,48,0,1
74772,-32.258064516129,4,3,1,48,0,0
74829,-32.258064516129,4,3,1,48,0,1
75000,-32.258064516129,4,3,1,48,0,0
75056,-32.258064516129,4,3,1,48,0,1
75227,-32.258064516129,4,3,1,48,0,0
75284,-32.258064516129,4,3,1,48,0,1
75511,-55.5555555555556,4,3,1,48,0,0
75625,-52.6315789473684,4,3,1,50,0,0
75738,-50,4,3,1,52,0,0
75852,-47.6190476190476,4,3,1,54,0,0
75965,-45.4545454545455,4,3,1,56,0,0
76079,-43.4782608695652,4,3,1,58,0,0
76306,-55.5555555555556,4,3,1,48,0,0
79943,-55.5555555555556,4,3,1,48,0,1
81250,-55.5555555555556,4,3,1,48,0,1
81704,-55.5555555555556,4,3,1,48,0,0
81761,-55.5555555555556,4,3,1,48,0,1
82159,-55.5555555555556,4,3,1,48,0,0
82215,-55.5555555555556,4,3,1,48,0,1
82386,-55.5555555555556,4,3,1,48,0,0
83125,-55.5555555555556,4,3,1,48,0,1
83295,-55.5555555555556,4,3,1,48,0,0
84034,-55.5555555555556,4,3,1,48,0,1
85340,-55.5555555555556,4,3,1,48,0,0
85397,-83.3333333333333,4,3,1,48,0,0
86761,-83.3333333333333,4,3,1,48,0,1
86875,-83.3333333333333,4,3,1,48,0,0
87670,-83.3333333333333,4,3,1,48,0,1
87897,-83.3333333333333,4,3,1,48,0,0
99034,-125,4,3,1,48,0,0
102102,-125,4,3,1,60,0,0
102670,-125,4,3,1,48,0,0
103579,-125,4,3,1,48,0,1
104431,-125,4,3,1,48,0,0
110852,-1000,4,3,1,48,0,0
112215,-142.857142857143,4,3,1,48,0,0
113750,-142.857142857143,4,3,1,48,0,0
113806,-111.111111111111,4,3,1,48,0,1
113977,-111.111111111111,4,3,1,48,0,0
114034,-76.923076923077,4,3,1,48,0,1
114431,-76.923076923077,4,3,1,48,0,0
115397,-71.4285714285714,4,3,1,48,0,0
115625,-66.6666666666667,4,3,1,48,0,0
115852,-62.5,4,3,1,48,0,0
116079,-58.8235294117647,4,3,1,48,0,0
116761,-125,4,3,1,48,0,0
119943,-25,4,3,1,48,0,0
120852,-52.6315789473684,4,3,1,48,0,0
122670,-52.6315789473684,4,3,1,48,0,1
123352,-50,4,3,1,48,0,0
123636,-45.4545454545455,4,3,1,48,0,1
124659,-45.4545454545455,4,3,1,48,0,0
124715,-45.4545454545455,4,3,1,48,0,1
124886,-45.4545454545455,4,3,1,48,0,0
124943,-45.4545454545455,4,3,1,48,0,1
125397,-45.4545454545455,4,3,1,48,0,0
129943,-71.4285714285714,4,3,1,48,0,0
130852,-58.8235294117647,4,3,1,48,0,0
131761,-76.9230769230769,4,3,1,48,0,0
132215,-66.6666666666667,4,3,1,48,0,0
133125,-66.6666666666667,4,3,1,56,0,0
133579,-66.6666666666667,4,3,1,56,0,1
133806,-90.9090909090909,4,3,1,48,0,1
137159,-90.9090909090909,4,3,1,48,0,0
137215,-90.9090909090909,4,3,1,48,0,1
137613,-90.9090909090909,4,3,1,48,0,1
140795,-90.9090909090909,4,3,1,48,0,0
140852,-90.9090909090909,4,3,1,48,0,1
141079,-90.9090909090909,4,3,1,48,0,1
144431,-90.9090909090909,4,3,1,46,0,0
144488,-90.9090909090909,4,3,1,46,0,1
144715,-90.9090909090909,4,3,1,46,0,0
147215,-90.9090909090909,4,3,1,50,0,0
147443,-83.3333333333333,4,3,1,50,0,0
147670,-76.9230769230769,4,3,1,50,0,0
147897,-71.4285714285714,4,3,1,50,0,0
148125,-90.9090909090909,4,3,1,48,0,1
149034,-90.9090909090909,4,3,1,40,0,0
149943,-125,4,3,1,34,0,0
150170,-111.111111111111,4,3,1,36,0,0
150397,-100,4,3,1,38,0,0
150625,-90.9090909090909,4,3,1,40,0,0
150852,-83.3333333333333,4,3,1,42,0,0
151079,-76.9230769230769,4,3,1,44,0,0
151306,-71.4285714285714,4,3,1,46,0,0
151534,-66.6666666666667,4,3,1,48,0,0
151761,-66.6666666666667,4,3,1,40,0,0
153579,-125,4,3,1,34,0,0
153806,-111.111111111111,4,3,1,36,0,0
154034,-100,4,3,1,38,0,0
154261,-90.9090909090909,4,3,1,40,0,0
154488,-83.3333333333333,4,3,1,42,0,0
154715,-76.9230769230769,4,3,1,44,0,0
154943,-71.4285714285714,4,3,1,46,0,0
155170,-66.6666666666667,4,3,1,48,0,0
155397,-125,4,3,1,40,0,1
158977,-125,4,3,1,48,0,0
159034,-125,4,3,1,48,0,1
160852,-76.9230769230769,4,3,1,48,0,0
162159,-76.9230769230769,4,3,1,48,0,0
162215,-25,4,3,1,48,0,1
163125,-25,4,3,1,48,0,0
164943,-50,4,3,1,48,0,1
165056,-50,4,3,1,48,0,0
165852,-50,4,3,1,48,0,1
165965,-50,4,3,1,48,0,0
167670,-50,4,3,1,48,0,1
167784,-50,4,3,1,48,0,0
172215,-50,4,3,1,48,0,1
172329,-50,4,3,1,48,0,0
173125,-50,4,3,1,48,0,1
173238,-50,4,3,1,48,0,0
173920,-50,4,3,1,48,0,1
174147,-50,4,3,1,48,0,0
174488,-50,4,3,1,48,0,1
174602,-55.5555555555556,4,3,1,48,0,1
174715,-62.5,4,3,1,48,0,1
174829,-71.4285714285714,4,3,1,48,0,1
174943,-71.4285714285714,4,3,1,48,0,0
176761,-33.3333333333333,4,3,1,48,0,1
176931,-33.3333333333333,4,3,1,48,0,0
176988,-33.3333333333333,4,3,1,48,0,1
178750,-33.3333333333333,4,3,1,48,0,0
178806,-33.3333333333333,4,3,1,48,0,1
179147,-40,4,3,1,48,0,0
179261,-40,4,3,1,48,0,1
182215,-45.4545454545455,4,3,1,48,0,1
182329,-35.7142857142857,4,3,1,48,0,1
182443,-29.4117647058824,4,3,1,48,0,1
182556,-25,4,3,1,48,0,1
182784,-50,4,3,1,48,0,0
183806,-50,4,3,1,48,0,1
184488,-50,4,3,1,48,0,0
184943,-45.4545454545455,4,3,1,48,0,0
185056,-41.6666666666667,4,3,1,48,0,0
185170,-38.4615384615385,4,3,1,48,0,0
185284,-35.7142857142857,4,3,1,48,0,0
186079,-25,4,3,1,48,0,0
186306,-25,4,3,1,48,0,1
187272,-25,4,3,1,48,0,0
187329,-25,4,3,1,48,0,1
188125,-33.3333333333333,4,3,1,48,0,0
189034,-33.3333333333333,4,3,1,48,0,1
190397,-33.3333333333333,4,3,1,48,0,0
190852,-33.3333333333333,4,3,1,48,0,1
193125,-37.037037037037,4,3,1,48,0,0
193352,-41.6666666666667,4,3,1,48,0,0
193522,-25,4,3,1,48,0,0
193579,-47.6190476190476,4,3,1,48,0,1
193806,-47.6190476190476,4,3,1,48,0,0
194034,-47.6190476190476,4,3,1,48,0,1
194147,-47.6190476190476,4,3,1,48,0,0
194261,-33.3333333333333,4,3,1,48,0,0
194943,-55.5555555555556,4,3,1,48,0,1
195056,-55.5555555555556,4,3,1,48,0,0
195852,-55.5555555555556,4,3,1,48,0,1
195965,-55.5555555555556,4,3,1,48,0,0
196761,-55.5555555555556,4,3,1,48,0,1
196875,-55.5555555555556,4,3,1,48,0,0
197670,-55.5555555555556,4,3,1,48,0,1
197784,-55.5555555555556,4,3,1,48,0,0
198579,-55.5555555555556,4,3,1,48,0,1
198693,-55.5555555555556,4,3,1,48,0,0
199147,-50,4,3,1,48,0,0
199261,-50,4,3,1,48,0,0
199375,-50,4,3,1,48,0,0
199487,-25,4,3,1,48,0,0
199488,-25,4,3,1,48,0,1
199602,-25,4,3,1,48,0,0
199715,-25,4,3,1,48,0,0
200397,-25,4,3,1,48,0,1
200511,-50,4,3,1,48,0,0
200625,-50,4,3,1,48,0,1
200852,-50,4,3,1,48,0,0
201306,-50,4,3,1,48,0,1
201420,-50,4,3,1,48,0,0
202215,-50,4,3,1,48,0,1
202329,-50,4,3,1,48,0,0
203125,-50,4,3,1,48,0,1
203238,-50,4,3,1,48,0,0
204034,-50,4,3,1,48,0,1
204147,-50,4,3,1,48,0,0
204943,-50,4,3,1,48,0,1
205056,-50,4,3,1,48,0,0
205852,-50,4,3,1,48,0,1
205965,-50,4,3,1,48,0,0
206761,-50,4,3,1,48,0,1
206875,-50,4,3,1,48,0,0
207443,-25,4,3,1,48,0,0
207726,-50,4,3,1,48,0,0

[Colours]
Combo1 : 66,108,140
Combo2 : 242,30,6
Combo3 : 248,190,71
Combo4 : 56,199,245
Combo5 : 82,106,116
Combo6 : 239,186,186

[HitObjects]
120,142,0,6,4,B|150:151|150:151|184:144,1,65
176,88,227,6,8,B|137:81|137:81|110:94,1,65
40,128,454,5,2,0:0:0:0:
56,112,568,5,2,0:0:0:0:
40,200,681,5,2,0:0:0:0:
32,184,795,5,2,0:0:0:0:
176,232,909,2,10,P|192:240|200:288,1,65
96,320,1136,5,2,0:0:0:0:
88,328,1250,1,2,0:0:0:0:
224,288,1363,5,2,0:0:0:0:
232,280,1477,1,2,0:0:0:0:
80,336,1590,5,2,0:0:0:0:
240,272,1704,1,2,0:0:0:0:
336,376,1818,6,10,P|320:360|320:304,1,65
416,288,2045,5,2,0:0:0:0:
416,288,2159,1,2,0:0:0:0:
416,352,2272,1,2,0:0:0:0:
416,224,2386,1,2,0:0:0:0:
416,352,2500,1,2,0:0:0:0:
416,224,2613,1,2,0:0:0:0:
248,312,2727,2,10,P|264:280|304:272,1,65
224,152,2954,5,2,0:0:0:0:
248,152,3068,1,2,0:0:0:0:
160,120,3181,1,2,0:0:0:0:
192,64,3295,1,2,0:0:0:0:
256,72,3409,1,2,0:0:0:0:
288,128,3522,1,2,0:0:0:0:
80,112,3636,6,10,P|48:136|45:176,1,65
160,176,3864,5,2,0:0:0:0:
160,176,3977,1,2,0:0:0:0:
112,240,4090,1,2,0:0:0:0:
112,240,4204,1,2,0:0:0:0:
184,280,4318,1,2,0:0:0:0:
64,328,4431,1,2,0:0:0:0:
216,320,4545,2,10,L|208:256,1,65
208,144,4772,5,2,0:0:0:0:
208,144,4886,1,2,0:0:0:0:
208,16,5000,5,2,0:0:0:0:
120,8,5113,1,2,0:0:0:0:
72,72,5227,1,6,0:0:0:0:
80,152,5340,1,6,0:0:0:0:
160,192,5454,2,14,L|232:184,1,65
344,160,5681,1,6,0:0:0:0:
480,144,5795,2,14,L|408:160,1,65
296,168,6022,1,2,0:0:0:0:
232,240,6136,5,2,0:0:0:0:
264,280,6250,1,2,0:0:0:0:
240,328,6363,2,14,P|216:320|192:288,1,65
160,184,6590,2,14,P|168:160|192:128,1,65
264,168,6818,1,2,0:0:0:0:
256,248,6931,1,6,0:0:0:0:
200,352,7045,2,14,L|200:272,1,65
200,192,7215,1,6,0:0:0:0:
200,192,7670,5,4,0:0:0:0:
200,192,8125,5,4,0:0:0:0:
200,192,8579,5,4,0:0:0:0:
352,104,9034,6,10,L|336:136,3,32.5
480,152,9488,2,10,L|519:167,1,32.5
312,232,9715,2,10,L|272:256,1,32.5
488,312,9943,1,4,0:0:0:0:
200,272,10397,5,4,0:0:0:0:
200,272,10852,2,10,L|200:248,1,16.25
344,192,11306,6,14,L|304:208,3,32.5
248,96,11761,6,14,L|224:136,3,45.4999986114502
352,368,12215,6,14,L|320:312,3,52
0,280,12670,6,14,L|64:240,3,65
512,120,13125,6,14,L|440:88,3,77.999997619629
0,384,13579,5,14,0:0:0:0:
488,336,13977,6,12,P|452:249|288:128,1,292.50001115799
24,40,14261,6,12,P|40:120|128:202,1,195.00000743866
160,384,14488,6,12,P|230:363|312:264,1,195.00000743866
352,96,14715,5,14,0:0:0:0:
336,216,14829,1,14,0:0:0:0:
256,80,14943,1,14,0:0:0:0:
416,160,15056,1,14,0:0:0:0:
144,80,15170,1,14,0:0:0:0:
128,160,15284,2,14,P|160:216|240:200,1,136.499995834351
272,128,15511,5,4,0:0:0:0:
192,240,15625,2,4,P|208:264|232:272,1,52
336,120,15852,2,4,P|320:168|296:200,1,90.9999972229005
168,224,16079,2,4,P|176:192|216:168,1,71.5000021820069
424,192,16306,5,6,0:0:0:0:
424,192,16420,1,6,0:0:0:0:
424,192,16534,1,6,0:0:0:0:
400,288,16647,1,6,0:0:0:0:
304,296,16761,6,6,P|261:253|264:192,1,116.999996429443
272,16,16988,2,6,P|240:16|168:80,1,123.499996702194
128,256,17215,5,14,0:0:0:0:
176,152,17329,1,14,0:0:0:0:
240,248,17443,1,14,0:0:0:0:
176,152,17556,1,14,0:0:0:0:
216,296,17670,5,14,0:0:0:0:
292,242,17784,1,14,0:0:0:0:
269,148,17897,1,14,0:0:0:0:
177,142,18011,1,14,0:0:0:0:
376,328,18125,6,10,L|288:336,1,71.5000021820069
192,368,18352,2,12,L|232:344,1,38.9999988098145
240,264,18579,5,12,0:0:0:0:
336,184,18693,1,12,0:0:0:0:
176,160,18806,6,4,P|161:197|136:216,1,52
80,336,18920,2,6,P|75:299|112:224,1,123.499996702194
344,184,19147,5,12,0:0:0:0:
224,72,19261,1,12,0:0:0:0:
224,24,19375,1,12,0:0:0:0:
232,272,19488,5,12,0:0:0:0:
192,168,19602,1,12,0:0:0:0:
296,152,19715,2,14,B|320:176|328:208|328:208|312:264,1,116.999996429443
408,192,19942,5,12,0:0:0:0:
440,208,20056,1,12,0:0:0:0:
448,240,20170,1,12,0:0:0:0:
440,264,20284,1,12,0:0:0:0:
360,304,20397,6,12,B|344:288|344:288|336:256,1,42.2499980659486
312,280,20511,2,12,B|320:240|320:240|352:232,1,48.750001859665
288,232,20625,2,14,B|328:232|328:232|352:256,1,55.2500010538101
320,184,20738,2,12,B|344:208|344:208|344:248,1,68.2499979171754
248,184,20852,5,8,0:0:0:0:
208,256,20965,1,2,0:0:0:0:
200,80,21079,1,8,0:0:0:0:
272,128,21193,1,2,0:0:0:0:
152,168,21306,1,8,0:0:0:0:
128,80,21420,1,6,0:0:0:0:
288,40,21534,6,14,L|240:88,1,42.2499980659486
261,46,21761,5,10,0:0:0:0:
318,116,21875,1,10,0:0:0:0:
439,11,21988,1,10,0:0:0:0:
393,75,22102,1,10,0:0:0:0:
488,144,22215,6,14,L|456:184,1,42.2499980659486
448,288,22329,1,14,0:0:0:0:
360,256,22443,1,14,0:0:0:0:
376,160,22556,2,14,B|424:176|424:176|432:216,1,84.4999961318971
424,280,22784,5,4,0:0:0:0:
424,280,22897,1,4,0:0:0:0:
416,280,23011,1,4,0:0:0:0:
328,312,23125,5,14,0:0:0:0:
288,232,23238,1,14,0:0:0:0:
232,304,23352,1,14,0:0:0:0:
272,376,23465,1,14,0:0:0:0:
344,168,23579,6,12,P|376:152|393:84,1,84.4999961318971
312,96,23806,6,12,P|256:118|248:168,1,84.4999961318971
312,208,24034,5,14,0:0:0:0:
312,208,24147,1,14,0:0:0:0:
248,80,24261,2,6,P|216:94|190:147,1,84.4999961318971
248,264,24488,5,6,0:0:0:0:
328,312,24602,1,6,0:0:0:0:
256,360,24715,1,6,0:0:0:0:
176,328,24829,1,6,0:0:0:0:
288,280,24943,5,14,0:0:0:0:
384,216,25056,1,14,0:0:0:0:
280,160,25170,1,14,0:0:0:0:
168,200,25284,1,14,0:0:0:0:
120,256,25397,6,12,L|132:210,1,42.2499980659486
112,128,25511,1,12,0:0:0:0:
40,176,25625,2,10,L|0:256,1,84.4999961318971
40,352,25852,6,14,L|88:344,1,42.2499980659486
168,320,25965,1,14,0:0:0:0:
200,216,26079,1,10,0:0:0:0:
328,352,26193,2,10,L|248:288,1,84.4999961318971
280,176,26420,5,14,0:0:0:0:
232,144,26534,1,14,0:0:0:0:
328,208,26647,1,14,0:0:0:0:
496,264,26761,6,6,L|456:241,1,42.2499980659486
451,241,26875,2,6,L|400:224,1,42.2499980659486
400,224,26988,2,6,L|359:216,1,42.2499980659486
144,240,27215,5,4,0:0:0:0:
144,240,27329,1,4,0:0:0:0:
208,112,27443,5,4,0:0:0:0:
248,256,27556,1,4,0:0:0:0:
64,288,27670,2,14,L|96:216,1,42.2499980659486
144,152,27784,1,4,0:0:0:0:
184,184,27897,1,4,0:0:0:0:
184,232,28011,1,4,0:0:0:0:
437,48,28181,6,12,L|408:80,1,42.2499980659486
240,96,28295,6,12,L|288:88,1,42.2499980659486
312,184,28409,6,12,B|336:184|336:184|312:184|312:184|336:168|336:168|312:168|312:168|336:152|336:152|312:152|312:152|336:136|336:136|312:136|312:136|336:120|336:120|312:120|312:120,1,260
248,24,28579,6,8,P|317:23|376:48,1,130
152,304,29943,5,2,0:0:0:0:
272,344,30397,5,2,0:0:0:0:
472,328,30852,5,10,0:0:0:0:
104,142,31534,6,8,P|121:136|136:136,1,32.5
344,128,31761,2,8,P|324:107|312:96,1,32.5
272,72,31988,1,8,0:0:0:0:
82,74,32102,1,14,0:0:0:0:
294,343,32215,2,10,L|285:316,1,29.2499991073609
48,240,32670,5,4,0:0:0:0:
234,77,33579,5,4,0:0:0:0:
182,42,34488,5,4,0:0:0:0:
240,224,35170,5,8,0:0:0:0:
136,352,35397,1,8,0:0:0:0:
136,352,35852,5,0,0:0:0:0:
400,336,36306,5,14,0:0:0:0:
48,256,36988,1,0,0:0:0:0:
368,152,37215,2,2,L|312:192,1,65
208,288,37670,1,2,0:0:0:0:
264,48,38125,5,12,0:0:0:0:
128,304,38806,5,0,0:0:0:0:
160,184,39034,1,0,0:0:0:0:
384,120,39261,6,12,L|345:137,1,32.5
32,152,39488,2,14,L|48:144,1,16.25
376,280,39943,5,4,0:0:0:0:
120,264,40852,5,0,0:0:0:0:
400,224,41761,5,0,0:0:0:0:
88,312,42670,5,0,0:0:0:0:
128,248,43125,5,8,0:0:0:0:
365,143,43579,5,8,0:0:0:0:
240,288,43806,1,10,0:0:0:0:
160,208,43920,1,10,0:0:0:0:
304,232,44034,2,10,P|264:216|256:200,1,32.5
152,80,44261,5,8,0:0:0:0:
144,336,44488,1,8,0:0:0:0:
304,192,44715,5,14,0:0:0:0:
232,120,44829,1,2,0:0:0:0:
208,216,44943,1,14,0:0:0:0:
264,296,45170,5,8,0:0:0:0:
256,128,45397,1,12,0:0:0:0:
176,344,45625,5,2,0:0:0:0:
432,288,45738,1,2,0:0:0:0:
304,248,45852,1,14,0:0:0:0:
432,288,46079,5,8,0:0:0:0:
432,288,46306,1,8,0:0:0:0:
304,248,46534,2,10,L|368:288,1,65
168,272,46761,6,14,B|216:256|216:256|264:224|272:176,1,130
160,104,47215,2,8,L|200:112,2,32.5
288,88,47443,1,8,0:0:0:0:
256,168,47556,1,12,0:0:0:0:
344,192,47670,2,14,P|337:229|312:240,1,65
304,296,47897,1,12,0:0:0:0:
376,304,48011,2,12,P|333:334|192:312,1,195
320,184,48465,1,8,0:0:0:0:
136,264,48579,6,14,L|160:184,1,65
408,184,48806,2,10,P|439:212|440:256,1,77.999997619629
136,224,49034,2,10,P|174:301|328:360,1,243.750009298325
472,312,49488,5,14,0:0:0:0:
344,248,49943,5,8,0:0:0:0:
160,352,50170,5,14,0:0:0:0:
432,240,50397,1,14,0:0:0:0:
352,208,50852,5,8,0:0:0:0:
184,264,51079,1,8,0:0:0:0:
256,312,51193,1,8,0:0:0:0:
200,368,51306,1,14,0:0:0:0:
232,48,51534,5,8,0:0:0:0:
240,232,51647,2,8,P|198:245|152:224,1,97.50000371933
184,144,51875,1,8,0:0:0:0:
176,248,51988,2,8,P|204:278|256:312,1,97.50000371933
304,352,52215,5,14,0:0:0:0:
232,96,52443,1,8,0:0:0:0:
432,280,52670,2,10,P|464:232|464:184,2,97.50000371933
424,328,52954,2,8,P|361:308|352:288,1,48.750001859665
296,264,53125,5,14,0:0:0:0:
496,184,53409,5,6,0:0:0:0:
496,192,53465,1,6,0:0:0:0:
368,96,53579,1,6,0:0:0:0:
368,128,53636,1,6,0:0:0:0:
128,248,53806,2,10,P|200:296|224:281,1,97.50000371933
288,240,54034,5,14,0:0:0:0:
264,176,54147,1,2,0:0:0:0:
344,296,54261,2,10,B|304:320|304:320|288:312|288:312|248:312,1,97.50000371933
160,360,54488,1,14,0:0:0:0:
320,200,54715,1,2,0:0:0:0:
320,200,54829,1,2,0:0:0:0:
160,360,54943,5,14,0:0:0:0:
248,152,55227,2,10,B|256:208|256:208|224:256,1,97.50000371933
176,184,55397,2,10,B|168:120|168:120|200:88,1,97.50000371933
344,232,55625,1,8,0:0:0:0:
328,240,55738,1,8,0:0:0:0:
312,248,55852,1,14,0:0:0:0:
224,336,56079,1,10,0:0:0:0:
192,336,56193,1,10,0:0:0:0:
208,312,56306,1,10,0:0:0:0:
272,184,56534,5,8,0:0:0:0:
304,280,56761,5,14,0:0:0:0:
432,256,56988,5,8,0:0:0:0:
420,132,57215,6,8,P|391:231|320:328,1,214.500006546021
144,144,57670,6,8,P|170:105|336:48,1,214.500006546021
328,184,58125,5,6,0:0:0:0:
328,184,58238,1,6,0:0:0:0:
208,176,58352,2,4,P|250:147|256:128,1,71.5000021820069
248,104,58522,2,4,L|208:72,1,35.7500010910034
192,64,58636,2,12,L|160:88,1,35.7500010910034
88,264,59034,6,4,B|57:242|57:242|40:208,1,71.5000021820069
384,304,59261,2,4,L|344:328,1,35.7500010910034
264,56,59488,1,4,0:0:0:0:
312,288,59943,5,4,0:0:0:0:
160,328,60170,5,4,0:0:0:0:
144,288,60284,1,4,0:0:0:0:
200,264,60397,5,10,0:0:0:0:
224,304,60511,1,10,0:0:0:0:
208,344,60625,1,14,0:0:0:0:
144,328,60738,2,4,P|179:342|256:352,1,107.25000327301
296,288,61079,5,4,0:0:0:0:
336,200,61193,1,4,0:0:0:0:
176,208,61306,2,12,B|192:160|192:160|236:147,1,71.5000021820069
376,120,61534,2,12,P|402:150|400:184,1,71.5000021820069
248,272,61761,5,6,0:0:0:0:
144,272,61875,1,12,0:0:0:0:
48,272,61988,1,6,0:0:0:0:
144,168,62102,1,12,0:0:0:0:
224,344,62215,5,6,0:0:0:0:
232,216,62329,1,12,0:0:0:0:
352,224,62443,1,6,0:0:0:0:
352,352,62556,1,12,0:0:0:0:
456,312,62670,6,14,L|408:344,2,35.7500010910034
352,280,62897,1,14,0:0:0:0:
400,200,63011,1,14,0:0:0:0:
256,256,63125,2,14,P|287:282|299:279,1,35.7500010910034
320,200,63239,2,14,L|292:173,1,35.7500010910034
376,144,63352,2,14,P|354:116|318:99,1,71.5000021820069
144,112,63579,6,4,P|136:148|144:176,1,35.7500010910034
168,208,63693,1,4,0:0:0:0:
336,304,63920,5,12,0:0:0:0:
192,352,64034,6,4,P|232:360|271:324,1,71.5000021820069
112,256,64261,1,12,0:0:0:0:
264,176,64375,2,4,P|309:197|328:216,2,71.5000021820069
296,336,64715,2,4,P|272:328|253:315,1,35.7500010910034
272,248,64829,1,4,0:0:0:0:
384,256,64943,5,0,0:0:0:0:
280,104,65056,2,14,L|272:176,1,71.5000021820069
280,256,65397,1,4,0:0:0:0:
272,296,65511,1,4,0:0:0:0:
240,288,65625,1,4,0:0:0:0:
184,200,65738,1,4,0:0:0:0:
344,304,65852,2,14,P|350:266|344:232,1,71.5000021820069
168,336,66079,2,4,P|144:320|136:272,1,71.5000021820069
272,312,66306,1,4,0:0:0:0:
352,232,66420,1,4,0:0:0:0:
384,128,66534,1,4,0:0:0:0:
368,32,66647,1,4,0:0:0:0:
368,32,66761,6,14,B|360:80|360:80|288:136,1,110.50000210762
128,248,66988,2,14,B|144:176|144:176|200:136,1,130
336,192,67215,5,4,0:0:0:0:
272,136,67329,1,4,0:0:0:0:
352,120,67443,1,4,0:0:0:0:
400,184,67556,1,4,0:0:0:0:
131,224,67670,6,14,B|141:263|141:263|160:304,1,77.999997619629
240,320,67897,1,12,0:0:0:0:
248,232,68011,1,12,0:0:0:0:
184,184,68125,2,12,B|160:144|160:144|120:128,1,77.999997619629
24,224,68352,2,4,B|8:264|8:264|8:312,1,77.999997619629
200,328,68579,6,14,B|232:288|232:288|232:248,1,77.999997619629
352,112,68806,2,4,B|384:136|384:136|392:184,1,77.999997619629
312,192,69034,5,6,0:0:0:0:
344,280,69147,1,12,0:0:0:0:
424,248,69261,1,6,0:0:0:0:
400,168,69375,1,12,0:0:0:0:
504,264,69488,5,14,0:0:0:0:
432,344,69602,1,12,0:0:0:0:
232,328,69715,1,6,0:0:0:0:
216,288,69829,1,12,0:0:0:0:
160,152,69943,5,14,0:0:0:0:
40,208,70056,1,14,0:0:0:0:
40,88,70170,1,14,0:0:0:0:
176,240,70284,1,14,0:0:0:0:
328,272,70397,2,14,B|320:248|320:248|296:240,2,38.9999988098145
208,320,70568,2,14,B|224:336|224:336|264:304,2,38.9999988098145
184,224,70852,5,14,0:0:0:0:
160,312,70965,1,4,0:0:0:0:
80,352,71079,1,4,0:0:0:0:
208,368,71193,1,4,0:0:0:0:
336,248,71306,5,14,0:0:0:0:
312,144,71420,1,12,0:0:0:0:
416,240,71534,1,12,0:0:0:0:
424,144,71647,1,12,0:0:0:0:
216,64,71761,6,4,B|176:64|176:64|144:96,1,77.999997619629
72,296,71988,6,4,B|128:264|128:264|136:232,1,77.999997619629
48,48,72215,6,14,B|32:88|32:88|64:128,1,77.999997619629
280,152,72443,6,4,B|264:200|264:200|225:209,1,77.999997619629
200,136,72670,5,6,0:0:0:0:
200,136,72784,1,12,0:0:0:0:
272,88,72897,5,6,0:0:0:0:
272,88,73011,1,12,0:0:0:0:
360,152,73125,5,14,0:0:0:0:
368,200,73238,1,12,0:0:0:0:
352,248,73352,2,4,P|328:272|272:280,1,77.999997619629
224,336,73579,1,0,0:0:0:0:
192,336,73693,1,0,0:0:0:0:
120,208,73806,1,14,0:0:0:0:
256,208,73920,1,14,0:0:0:0:
304,336,74034,1,14,0:0:0:0:
224,88,74488,5,14,0:0:0:0:
208,224,74602,1,14,0:0:0:0:
400,264,74715,5,14,0:0:0:0:
336,192,74829,1,14,0:0:0:0:
200,288,74943,5,14,0:0:0:0:
272,208,75056,1,14,0:0:0:0:
304,112,75170,5,14,0:0:0:0:
240,216,75284,1,14,0:0:0:0:
483,235,75511,6,14,B|472:176|472:176|427:222,1,116.999996429443
423,275,75738,6,14,B|360:280|360:280|415:220,1,130
358,236,75965,6,14,B|352:160|352:160|412:211,1,143.000004364014
216,248,76306,5,4,0:0:0:0:
120,144,76420,1,4,0:0:0:0:
256,152,76534,1,4,0:0:0:0:
312,256,76647,1,12,0:0:0:0:
240,344,76761,2,14,P|160:336|136:304,1,116.999996429443
64,152,76988,2,2,B|128:176|128:176|144:232,1,116.999996429443
352,272,77215,5,6,0:0:0:0:
232,184,77329,1,6,0:0:0:0:
392,224,77443,1,6,0:0:0:0:
216,296,77556,1,6,0:0:0:0:
312,128,77670,5,14,0:0:0:0:
320,296,77784,1,14,0:0:0:0:
184,352,77897,1,14,0:0:0:0:
184,184,78011,1,14,0:0:0:0:
88,224,78125,6,6,B|112:256|112:256|128:224|128:224|88:224|88:224|136:248,3,116.999996429443
208,256,78579,5,14,0:0:0:0:
256,176,78693,1,12,0:0:0:0:
344,184,78806,1,12,0:0:0:0:
328,280,78920,2,12,B|288:280|288:280|256:264|256:264|208:184,1,116.999996429443
288,152,79147,1,4,0:0:0:0:
336,216,79261,1,4,0:0:0:0:
320,296,79375,1,4,0:0:0:0:
224,352,79488,6,14,B|184:320|184:320|228:257,1,116.999996429443
48,248,79715,6,4,B|72:184|72:184|166:143,1,116.999996429443
272,320,79943,5,12,0:0:0:0:
288,160,80056,2,12,P|264:207|208:240,1,116.999996429443
400,152,80285,5,12,0:0:0:0:
168,352,80398,2,14,P|164:320|208:248,1,116.999996429443
392,312,80625,1,12,0:0:0:0:
216,104,80738,6,12,P|233:115|264:224,1,116.999996429443
88,288,80965,1,14,0:0:0:0:
344,296,81079,2,6,P|331:317|248:320,1,116.999996429443
136,120,81306,2,6,B|176:128|176:128|185:145,1,58.4999982147217
136,120,81534,5,12,0:0:0:0:
376,224,81761,5,12,0:0:0:0:
288,104,81875,1,12,0:0:0:0:
328,32,81988,5,12,0:0:0:0:
248,200,82102,1,12,0:0:0:0:
8,312,82215,6,14,P|89:295|91:311,1,116.999996429443
136,368,82443,2,2,P|200:320|192:280,1,116.999996429443
336,304,82670,1,2,0:0:0:0:
272,160,82784,1,4,0:0:0:0:
432,184,82897,2,14,B|400:240|400:240|346:234,1,116.999996429443
200,256,83125,6,14,P|211:235|256:200,2,58.4999982147217
384,344,83352,1,14,0:0:0:0:
344,248,83465,1,12,0:0:0:0:
312,256,83579,1,12,0:0:0:0:
296,280,83693,1,12,0:0:0:0:
296,312,83806,1,12,0:0:0:0:
312,336,83920,1,6,0:0:0:0:
296,160,84034,5,14,0:0:0:0:
224,224,84147,1,6,0:0:0:0:
216,320,84261,1,6,0:0:0:0:
280,376,84375,1,6,0:0:0:0:
312,88,84488,5,12,0:0:0:0:
432,184,84602,1,12,0:0:0:0:
312,88,84715,1,12,0:0:0:0:
432,184,84829,1,12,0:0:0:0:
248,176,84943,5,14,0:0:0:0:
384,288,85056,1,14,0:0:0:0:
360,144,85170,1,14,0:0:0:0:
192,120,85284,1,14,0:0:0:0:
288,352,85397,2,14,L|320:304,1,38.9999988098145
384,344,85625,5,10,0:0:0:0:
464,200,85852,5,10,0:0:0:0:
472,224,85965,1,10,0:0:0:0:
456,248,86079,1,10,0:0:0:0:
424,248,86193,1,10,0:0:0:0:
304,248,86306,5,12,0:0:0:0:
264,176,86420,1,12,0:0:0:0:
184,176,86534,1,12,0:0:0:0:
136,232,86647,1,12,0:0:0:0:
224,128,86761,5,14,0:0:0:0:
304,128,86875,1,12,0:0:0:0:
368,176,86988,2,14,P|352:224|310:229,1,77.999997619629
200,256,87215,2,12,P|168:240|160:208,1,38.9999988098145
440,264,87556,5,12,0:0:0:0:
304,312,87670,2,14,P|336:336|384:344,1,77.999997619629
384,200,87897,2,4,B|394:171|394:171|368:136|368:136|352:144,1,77.999997619629
288,184,88125,1,6,0:0:0:0:
352,264,88238,1,6,0:0:0:0:
456,248,88352,1,6,0:0:0:0:
480,144,88465,1,6,0:0:0:0:
120,344,88579,6,14,B|160:365|160:365|200:368,1,77.999997619629
368,336,88806,2,14,B|336:352|336:352|280:336,1,77.999997619629
144,224,89034,2,14,L|168:256,1,38.9999988098145
289,160,96306,5,4,0:0:0:0:
80,192,96590,2,4,B|224:120|224:120,2,155.999995239258
383,326,97215,5,4,0:0:0:0:
432,160,97443,6,0,L|464:96,2,38.9999988098145
384,96,97670,6,0,L|360:136,2,38.9999988098145
304,96,97897,5,0,0:0:0:0:
200,312,98125,5,4,0:0:0:0:
296,248,98352,1,4,0:0:0:0:
224,304,98579,2,4,P|221:275|240:224,1,77.999997619629
171,188,98806,2,4,P|216:209|241:236,1,77.999997619629
394,258,99034,6,6,L|392:192,3,52
203,200,99488,2,6,L|215:141,3,52
214,291,99943,6,4,P|158:275|128:240,1,104
384,248,100397,6,4,B|336:208|279:231,1,104
192,104,100852,6,4,P|179:154|192:208,1,104
192,288,101306,1,0,0:0:0:0:
192,184,101534,1,0,0:0:0:0:
288,72,101761,2,8,P|304:104|304:136,3,52
384,144,102215,2,8,P|376:176|345:199,3,52
264,80,102670,5,12,0:0:0:0:
192,208,102897,1,4,0:0:0:0:
56,256,103125,1,4,0:0:0:0:
280,344,103579,5,4,0:0:0:0:
288,216,103693,1,4,0:0:0:0:
384,320,103806,1,4,0:0:0:0:
368,176,103920,5,6,0:0:0:0:
288,320,104034,1,6,0:0:0:0:
200,160,104261,5,4,0:0:0:0:
160,280,104488,6,4,B|112:272|112:272|64:176,1,156
136,360,104943,2,4,B|72:328|72:328|72:312|72:312|24:256,1,156
232,152,105397,2,4,B|240:184|248:184|248:184|248:208,1,52
184,208,105625,1,0,0:0:0:0:
464,344,105852,5,4,0:0:0:0:
432,320,105965,1,4,0:0:0:0:
416,360,106079,1,4,0:0:0:0:
48,280,106306,6,4,P|62:303|104:320,1,52
496,208,106534,2,8,B|480:176|480:176|448:160,1,52
144,176,106761,1,14,0:0:0:0:
304,312,107215,5,4,0:0:0:0:
360,248,107443,2,8,P|392:240|416:248,1,52
272,240,107670,2,10,P|280:200|304:184,1,52
224,328,107897,2,10,P|184:312|168:288,3,52
80,304,108352,1,2,0:0:0:0:
40,200,108579,1,8,0:0:0:0:
120,128,108806,1,2,0:0:0:0:
232,328,109034,6,4,L|247:261,1,52
96,352,109261,1,4,0:0:0:0:
312,256,109488,5,4,0:0:0:0:
296,176,109602,1,4,0:0:0:0:
392,264,109715,1,4,0:0:0:0:
432,184,109943,2,8,L|376:160,1,52
96,288,110170,2,10,L|136:240,1,52
368,80,110397,2,8,L|352:144,1,52
280,352,110852,6,0,L|288:344,1,9.75
216,192,111079,6,0,L|208:200,1,9.75
384,184,111306,6,0,L|376:192,1,9.75
256,96,111534,6,0,L|248:104,1,9.75
160,288,111761,6,0,P|168:288|176:280,1,19.5
388,32,112215,6,12,P|369:47|368:72,1,45.4999986114502
200,40,112443,2,12,P|188:58|192:80,1,45.4999986114502
69,134,112670,2,12,P|72:152|88:160,2,22.7499993057251
104,344,113125,5,4,0:0:0:0:
112,312,113238,1,4,0:0:0:0:
136,336,113352,1,4,0:0:0:0:
352,312,113579,5,4,0:0:0:0:
248,320,113806,6,12,L|256:280,1,29.2499991073609
360,48,114034,2,14,B|347:31|347:31|320:24,1,42.2499980659486
160,328,114488,5,4,0:0:0:0:
256,232,114715,5,4,0:0:0:0:
392,304,114943,5,4,0:0:0:0:
456,184,115170,5,4,0:0:0:0:
160,56,115397,2,0,P|171:87|152:152,1,90.9999972229005
80,184,115625,1,0,0:0:0:0:
304,224,115852,1,0,0:0:0:0:
432,64,116079,2,0,P|456:128|400:176,1,110.50000210762
183,367,116306,5,4,0:0:0:0:
360,280,116761,6,4,B|328:304|328:304|320:344|320:344|368:360|368:360|400:344,1,156
168,280,117215,2,4,B|208:240|208:240|216:200|216:200|200:160|200:160|176:160,1,156
0,32,117670,2,4,L|2:58,1,26
120,280,118125,5,12,0:0:0:0:
272,160,118352,5,4,0:0:0:0:
328,272,118465,1,4,0:0:0:0:
392,136,118579,1,4,0:0:0:0:
240,80,118806,1,4,0:0:0:0:
280,288,119034,1,4,0:0:0:0:
208,248,119261,5,4,0:0:0:0:
296,128,119375,1,4,0:0:0:0:
344,264,119488,1,4,0:0:0:0:
280,320,119715,5,4,0:0:0:0:
160,344,119943,2,4,B|156:314|160:312|128:296|128:296|112:312|112:312|98:330|98:330|112:344|104:352|112:352|120:344|120:344,2,130
176,152,120170,5,4,0:0:0:0:
248,208,120284,1,4,0:0:0:0:
176,152,120397,1,4,0:0:0:0:
200,288,120625,6,6,P|165:322|152:248,2,130
400,232,120852,2,6,P|365:266|280:280,1,123.499996702194
232,256,121079,2,6,P|201:211|240:160,1,123.499996702194
328,120,121306,1,6,0:0:0:0:
360,208,121420,1,0,0:0:0:0:
320,288,121534,1,4,0:0:0:0:
88,328,121761,5,4,0:0:0:0:
128,152,121988,5,4,0:0:0:0:
128,152,122102,1,4,0:0:0:0:
120,152,122215,1,4,0:0:0:0:
248,336,122443,6,4,B|216:280|216:280|182:337,1,123.499996702194
336,176,122670,2,4,B|280:144|280:144|344:96,1,123.499996702194
152,240,122897,1,2,0:0:0:0:
400,128,123125,1,14,0:0:0:0:
226,8,123352,6,4,P|297:11|364:173,1,260
296,384,123636,2,4,P|258:299|375:164,1,286.000008728028
192,56,124034,5,4,0:0:0:0:
272,32,124488,5,4,0:0:0:0:
48,320,124715,6,4,B|72:248|72:248|144:208,1,143.000004364014
504,152,124943,2,10,B|488:216|488:216|400:256,1,143.000004364014
216,288,125397,5,4,0:0:0:0:
296,88,125625,5,4,0:0:0:0:
336,256,125738,1,4,0:0:0:0:
352,224,125852,1,14,0:0:0:0:
88,184,126079,5,4,0:0:0:0:
152,192,126193,2,4,P|194:218|176:312,1,143.000004364014
88,152,126420,1,4,0:0:0:0:
48,272,126534,2,4,P|99:310|176:272,1,143.000004364014
208,136,126761,2,4,P|168:144|128:224,1,71.5000021820069
96,352,126988,2,4,P|183:325|192:272,1,143.000004364014
208,136,127215,1,4,0:0:0:0:
288,240,127443,5,4,0:0:0:0:
384,264,127556,2,14,B|328:224|328:224|312:344,1,143.000004364014
328,344,127727,1,4,0:0:0:0:
64,288,127897,6,4,B|140:263|140:263|188:287|188:287|252:207,1,214.500006546021
396,106,128125,2,4,B|340:146|340:146|284:146|284:146|236:226,1,214.500006546021
237,222,128352,1,12,0:0:0:0:
256,48,128579,6,14,L|256:120|260:108|260:108|256:120,1,71.5000021820069
304,280,128806,1,2,0:0:0:0:
208,368,128920,2,4,B|139:373|139:373|165:298,1,143.000004364014
304,280,129090,1,14,0:0:0:0:
384,192,129261,5,0,0:0:0:0:
272,248,129488,5,4,0:0:0:0:
224,136,129602,1,4,0:0:0:0:
128,240,129715,1,12,0:0:0:0:
112,144,129829,1,6,0:0:0:0:
24,240,129942,1,12,0:0:0:0:
104,328,130056,1,6,0:0:0:0:
200,272,130170,1,6,0:0:0:0:
248,360,130283,1,12,0:0:0:0:
352,360,130397,1,6,0:0:0:0:
344,248,130511,1,12,0:0:0:0:
360,152,130624,1,6,0:0:0:0:
456,184,130738,1,12,0:0:0:0:
288,288,130852,2,4,P|263:232|312:168,1,110.50000210762
384,264,131079,1,4,0:0:0:0:
72,168,131306,6,4,B|152:144|152:144|184:176,1,110.50000210762
80,320,131534,1,4,0:0:0:0:
352,80,131761,6,4,P|260:56|169:162,1,211.249990329743
192,288,132215,2,4,P|206:326|312:272,1,195.00000743866
80,288,132897,5,4,0:0:0:0:
256,192,133125,12,4,133579,0:0:0:0:
344,304,133806,5,4,0:0:0:0:
208,352,134034,5,4,0:0:0:0:
96,248,134261,5,4,0:0:0:0:
200,136,134488,5,4,0:0:0:0:
248,288,134715,5,4,0:0:0:0:
256,176,134943,5,4,0:0:0:0:
272,64,135170,5,4,0:0:0:0:
256,200,135397,5,4,0:0:0:0:
312,328,135625,5,4,0:0:0:0:
440,320,135852,5,4,0:0:0:0:
440,320,136079,5,4,0:0:0:0:
352,368,136306,5,4,0:0:0:0:
192,312,136534,5,4,0:0:0:0:
144,152,136761,5,4,0:0:0:0:
224,160,136988,5,4,0:0:0:0:
40,352,137215,6,4,B|8:320|8:320|16:280,1,71.5000021820069
192,312,137443,5,4,0:0:0:0:
173,217,137670,6,4,P|147:165|149:102,1,107.25000327301
0,208,137897,6,4,P|46:167|176:224,1,214.500006546021
145,116,138352,2,4,P|201:142|264:88,2,143.000004364014
232,272,139034,5,4,0:0:0:0:
88,352,139261,1,4,0:0:0:0:
104,208,139488,1,4,0:0:0:0:
216,352,139715,5,4,0:0:0:0:
32,192,139943,1,4,0:0:0:0:
208,32,140170,1,4,0:0:0:0:
296,304,140397,1,4,0:0:0:0:
24,104,140625,1,4,0:0:0:0:
360,256,140852,6,6,B|336:248|336:248|312:232|312:232|288:224,1,71.5000021820069
344,96,141079,5,4,0:0:0:0:
256,304,141306,1,4,0:0:0:0:
200,152,141534,1,4,0:0:0:0:
152,336,141761,5,4,0:0:0:0:
248,184,141988,1,4,0:0:0:0:
152,336,142215,1,4,0:0:0:0:
248,184,142443,2,4,B|208:176|208:176|176:144,1,71.5000021820069
368,112,142670,2,4,B|328:96|328:96|274:103,1,71.5000021820069
136,288,142897,2,4,B|176:288|176:288|211:270,1,71.5000021820069
304,280,143125,5,4,0:0:0:0:
224,160,143352,1,4,0:0:0:0:
224,160,143579,1,4,0:0:0:0:
304,280,143806,1,4,0:0:0:0:
224,160,144034,1,4,0:0:0:0:
112,336,144261,1,4,0:0:0:0:
376,248,144488,6,6,P|368:286|328:320,1,71.5000021820069
272,200,144715,2,6,P|320:184|344:200,1,71.5000021820069
400,192,144943,1,4,0:0:0:0:
416,304,145170,1,4,0:0:0:0:
264,344,145397,1,4,0:0:0:0:
112,256,145625,1,4,0:0:0:0:
368,336,145852,1,4,0:0:0:0:
340,45,146079,5,4,0:0:0:0:
336,216,146306,6,4,P|334:250|304:288,1,71.5000021820069
200,328,146534,6,4,P|170:338|120:336,1,71.5000021820069
40,256,146761,6,4,P|22:226|24:184,1,71.5000021820069
88,80,146988,6,4,P|109:48|144:32,1,71.5000021820069
384,152,147215,6,4,P|354:170|312:176,1,71.5000021820069
120,104,147443,6,4,P|161:98|200:112,1,77.999997619629
240,272,147670,6,4,P|200:257|176:216,1,84.4999961318971
344,104,147897,6,4,P|384:120|416:160,1,90.9999972229005
445,266,148125,6,4,P|402:317|88:152,1,500.500015274048
184,288,149034,5,4,0:0:0:0:
312,288,149261,1,4,0:0:0:0:
312,288,149488,1,4,0:0:0:0:
440,216,149715,1,4,0:0:0:0:
272,96,149943,6,4,B|256:120|256:120|234:145,1,52
88,120,150170,6,4,B|96:144|96:144|120:176,1,58.4999982147217
304,208,150397,6,4,B|283:172|283:172|288:144,1,65
104,216,150625,6,4,B|104:256|104:256|128:296,1,71.5000021820069
336,96,150852,6,4,B|352:136|352:136|336:176,1,77.999997619629
168,80,151079,6,4,B|200:40|200:40|240:40,1,84.4999961318971
384,152,151306,6,4,B|360:192|360:192|320:216,1,90.9999972229005
464,320,151534,6,4,B|424:352|424:352|376:352,1,97.50000371933
256,336,151761,5,4,0:0:0:0:
304,200,151988,5,4,0:0:0:0:
216,88,152215,5,4,0:0:0:0:
136,32,152443,5,4,0:0:0:0:
64,96,152556,6,2,P|16:128|24:200,2,97.50000371933
96,208,152897,5,4,0:0:0:0:
104,128,153125,5,4,0:0:0:0:
264,80,153352,5,4,0:0:0:0:
136,272,153579,2,4,B|160:304|160:304|192:312,1,52
384,256,153806,2,4,P|352:264|328:288,1,58.4999982147217
472,344,154034,2,4,P|480:312|472:264,1,65
408,128,154261,2,4,P|383:160|376:208,1,71.5000021820069
352,336,154488,2,4,P|336:280|312:256,1,77.999997619629
192,120,154715,2,4,P|187:162|203:218,1,84.4999961318971
392,208,154943,2,4,P|366:260|320:288,1,90.9999972229005
272,56,155170,2,4,P|296:24|368:0,1,97.50000371933
248,240,155397,5,4,0:0:0:0:
112,176,155625,1,4,0:0:0:0:
120,208,155738,1,12,0:0:0:0:
104,232,155852,1,6,0:0:0:0:
232,112,156079,5,4,0:0:0:0:
272,120,156193,1,12,0:0:0:0:
296,160,156306,1,6,0:0:0:0:
264,312,156534,5,4,0:0:0:0:
256,264,156647,1,12,0:0:0:0:
216,232,156761,1,6,0:0:0:0:
384,232,156988,6,8,L|359:249,2,26
400,352,157215,1,6,0:0:0:0:
224,200,157443,5,4,0:0:0:0:
256,272,157556,1,12,0:0:0:0:
112,232,157670,1,6,0:0:0:0:
272,352,157897,5,4,0:0:0:0:
248,256,158011,1,12,0:0:0:0:
168,312,158125,1,6,0:0:0:0:
352,304,158352,5,4,0:0:0:0:
360,192,158465,1,12,0:0:0:0:
440,256,158579,1,6,0:0:0:0:
320,240,158693,1,4,0:0:0:0:
416,192,158806,1,12,0:0:0:0:
408,312,158920,1,6,0:0:0:0:
296,312,159034,2,10,B|240:288|240:288|176:344|176:344|112:288|80:264|80:248|72:240|72:240|80:216|104:208|120:184|128:184|144:184|168:160|176:160|184:160|232:200|240:208|248:208|248:208|280:168|280:152|272:144|304:120|328:112|328:112|360:112|360:112|352:80|344:64|336:40|312:32|296:24|280:32,1,780
32,296,160852,6,4,B|40:184|40:184|88:160|96:176|112:224|112:232|160:272|184:264|184:176|176:152|176:144|176:144|208:112|232:96|256:136|264:216|272:232|280:264|280:280|288:296|328:312|376:280|376:272|376:264|368:232|376:176|376:136|384:112|416:96|448:112|480:168|504:248|480:272,1,929.499957450869
320,216,162215,2,0,B|280:224|280:224|264:240|264:240|240:240|240:240|224:256|224:256|192:264|192:264|96:312,1,130
208,312,162670,5,4,0:0:0:0:
224,192,162783,1,4,0:0:0:0:
48,312,162897,1,4,0:0:0:0:
408,192,163125,6,4,B|368:240|368:240|272:288,1,130
376,120,163352,1,4,0:0:0:0:
120,272,163579,5,12,0:0:0:0:
192,128,163693,1,12,0:0:0:0:
256,232,163806,1,12,0:0:0:0:
120,160,163920,1,12,0:0:0:0:
304,176,164034,1,12,0:0:0:0:
232,304,164147,1,12,0:0:0:0:
216,160,164261,2,14,B|144:160|144:96|144:96|224:16|280:48,1,260
280,48,164488,6,4,B|256:158|193:208|193:208|124:234,1,260
240,336,164943,6,14,P|209:283|272:272,1,130
312,344,165170,1,12,0:0:0:0:
232,240,165284,2,12,P|264:208|344:208,1,130
416,328,165511,2,12,P|429:255|392:208,1,130
328,272,165738,1,12,0:0:0:0:
398,212,165852,1,14,0:0:0:0:
408,128,165965,1,12,0:0:0:0:
328,80,166079,2,12,P|262:100|240:168,1,130
360,176,166306,5,4,0:0:0:0:
272,216,166420,1,4,0:0:0:0:
176,256,166534,1,4,0:0:0:0:
96,296,166647,1,4,0:0:0:0:
64,104,166761,5,14,0:0:0:0:
144,152,166875,1,12,0:0:0:0:
224,200,166988,1,12,0:0:0:0:
304,240,167102,1,12,0:0:0:0:
320,224,167215,5,6,0:0:0:0:
192,120,167329,1,6,0:0:0:0:
200,336,167443,1,6,0:0:0:0:
320,224,167556,1,6,0:0:0:0:
80,304,167670,6,14,P|40:344|32:392,1,65
216,256,167784,2,6,P|200:216|184:192,1,65
48,136,167897,2,6,P|32:176|72:232,1,65
192,80,168011,2,6,B|184:40|128:24,1,65
104,0,168125,1,14,0:0:0:0:
144,240,168522,6,14,P|216:248|264:208,1,130
320,88,168749,1,2,0:0:0:0:
200,128,168863,1,4,0:0:0:0:
256,256,168977,2,12,P|272:160|128:96,1,260
168,272,169375,5,4,0:0:0:0:
224,256,169488,1,14,0:0:0:0:
264,312,169602,1,4,0:0:0:0:
224,376,169715,1,6,0:0:0:0:
144,376,169829,1,4,0:0:0:0:
368,72,169943,6,4,P|432:56|504:136,1,130
32,248,170170,2,4,P|8:200|80:112,1,130
208,104,170397,1,14,0:0:0:0:
240,232,170511,1,4,0:0:0:0:
128,296,170625,1,4,0:0:0:0:
96,168,170738,1,4,0:0:0:0:
400,280,170852,6,14,B|344:248|344:248|312:320,3,130
224,128,171306,2,4,P|184:208|176:320,1,195
286,308,171534,2,12,P|286:228|208:125,1,195
0,39,171761,6,14,P|32:183|176:208,1,260
296,256,172102,1,4,0:0:0:0:
192,312,172215,1,14,0:0:0:0:
200,168,172329,1,6,0:0:0:0:
336,232,172443,1,12,0:0:0:0:
296,80,172556,1,12,0:0:0:0:
112,64,172784,5,14,0:0:0:0:
216,136,172897,1,14,0:0:0:0:
304,272,173011,5,14,0:0:0:0:
184,192,173125,1,14,0:0:0:0:
104,360,173238,6,14,P|112:322|192:272,1,130
296,344,173465,1,14,0:0:0:0:
248,216,173579,1,4,0:0:0:0:
224,256,173693,1,12,0:0:0:0:
248,288,173806,1,14,0:0:0:0:
368,264,173920,1,14,0:0:0:0:
192,320,174034,6,4,P|177:261|256:208,1,130
336,144,174261,1,4,0:0:0:0:
240,208,174375,1,4,0:0:0:0:
337,152,174488,6,6,B|360:168|360:168|376:208,1,65
361,120,174602,6,6,B|392:120|392:120|424:141,1,58.4999982147217
360,80,174715,6,6,B|368:56|368:56|400:48,1,52
317,66,174829,6,6,B|304:40|304:40|316:13,1,45.4999986114502
136,200,174943,5,14,0:0:0:0:
288,120,175056,1,6,0:0:0:0:
128,96,175170,1,6,0:0:0:0:
280,208,175284,1,6,0:0:0:0:
56,264,175397,2,14,L|48:208,1,45.4999986114502
224,312,175852,5,14,0:0:0:0:
224,200,175965,1,4,0:0:0:0:
168,120,176079,1,4,0:0:0:0:
80,80,176193,1,4,0:0:0:0:
208,64,176306,5,14,0:0:0:0:
288,176,176420,1,12,0:0:0:0:
280,336,176647,1,12,0:0:0:0:
400,352,176761,6,14,B|440:312|424:240,1,97.50000371933
328,192,176875,1,14,0:0:0:0:
328,192,176988,6,14,P|293:250|304:344,1,97.50000371933
400,352,177102,1,14,0:0:0:0:
112,304,177215,6,6,B|176:216|176:216|144:120,1,195.00000743866
416,208,177443,6,6,P|328:272|280:376,1,195.00000743866
232,256,177670,5,14,0:0:0:0:
280,160,177784,1,4,0:0:0:0:
392,184,177897,2,14,P|366:76|272:72,1,195.00000743866
184,152,178125,5,14,0:0:0:0:
320,64,178238,1,14,0:0:0:0:
312,240,178352,1,14,0:0:0:0:
160,256,178465,1,14,0:0:0:0:
112,104,178579,2,14,B|144:56|144:56|208:48,1,97.50000371933
424,232,178806,5,14,0:0:0:0:
424,232,178863,5,14,0:0:0:0:
424,232,178920,5,14,0:0:0:0:
424,232,178977,5,14,0:0:0:0:
424,232,179034,5,14,0:0:0:0:
344,328,179261,5,6,0:0:0:0:
280,208,179375,1,6,0:0:0:0:
160,224,179488,1,14,0:0:0:0:
128,120,179602,1,6,0:0:0:0:
8,168,179715,1,6,0:0:0:0:
88,328,179829,2,6,P|96:208|62:167,2,162.5
248,96,180170,5,4,0:0:0:0:
216,112,180284,1,4,0:0:0:0:
208,152,180397,1,14,0:0:0:0:
232,184,180511,1,4,0:0:0:0:
272,200,180625,1,14,0:0:0:0:
304,184,180738,1,4,0:0:0:0:
312,144,180852,2,4,B|302:111|302:111|308:68|308:68|359:42|359:42|387:57,1,162.5
448,128,181080,5,12,0:0:0:0:
416,176,181193,1,12,0:0:0:0:
256,304,181306,1,12,0:0:0:0:
160,256,181420,1,12,0:0:0:0:
96,176,181534,1,12,0:0:0:0:
104,80,181647,1,12,0:0:0:0:
208,200,181761,5,14,0:0:0:0:
296,96,181875,1,14,0:0:0:0:
320,256,181988,1,14,0:0:0:0:
224,88,182102,1,14,0:0:0:0:
416,184,182215,6,14,B|376:160|376:160|368:120,1,71.5000021820069
328,264,182329,2,6,B|296:232|296:232|297:170,1,90.9999972229005
208,304,182443,2,6,B|180:256|180:256|192:194,1,110.50000210762
96,352,182556,2,6,B|72:288|72:288|96:224,1,130
104,192,182670,1,14,0:0:0:0:
320,184,182897,5,12,0:0:0:0:
296,64,183010,1,12,0:0:0:0:
224,128,183124,1,4,0:0:0:0:
264,248,183238,1,14,0:0:0:0:
144,232,183351,1,14,0:0:0:0:
392,304,183465,2,12,P|360:232|296:216,1,130
272,328,183693,2,12,P|312:360|408:360,1,130
272,240,183920,5,12,0:0:0:0:
288,144,184034,1,14,0:0:0:0:
384,200,184147,1,12,0:0:0:0:
384,288,184261,1,12,0:0:0:0:
312,352,184375,1,12,0:0:0:0:
368,64,184488,6,4,L|336:128,1,65
322,59,184602,6,4,L|339:124,1,65
280,88,184715,6,4,L|337:129,1,65
112,344,184943,6,14,L|112:248,1,71.5000021820069
56,327,185056,6,4,L|112:271,1,77.999997619629
28,289,185170,6,4,L|126:268,1,84.4999961318971
27,233,185284,6,4,L|115:273,1,90.9999972229005
152,136,185397,6,6,P|168:240|232:304,1,181.999994445801
109,270,185568,2,12,P|240:320|288:304,1,181.999994445801
400,88,185852,6,6,P|300:73|222:124,1,181.999994445801
248,23,186022,2,12,P|186:117|207:222,1,181.999994445801
280,320,186306,5,14,0:0:0:0:
336,136,186420,1,6,0:0:0:0:
440,320,186534,1,6,0:0:0:0:
256,232,186647,1,6,0:0:0:0:
208,104,186761,1,14,0:0:0:0:
240,288,186875,1,14,0:0:0:0:
384,168,186988,1,14,0:0:0:0:
368,344,187102,1,14,0:0:0:0:
48,104,187329,6,12,P|184:88|320:192,1,260
371,363,187556,2,14,P|332:340|308:113,1,260
53,204,187784,2,12,P|253:180|318:84,1,260
192,296,188125,5,14,0:0:0:0:
208,216,188238,1,6,0:0:0:0:
264,152,188352,1,6,0:0:0:0:
344,144,188465,1,6,0:0:0:0:
312,224,188579,5,14,0:0:0:0:
304,120,188693,1,14,0:0:0:0:
224,56,188806,1,14,0:0:0:0:
128,48,188920,1,14,0:0:0:0:
256,296,189034,5,6,0:0:0:0:
224,88,189147,1,6,0:0:0:0:
112,224,189261,1,6,0:0:0:0:
344,200,189375,1,6,0:0:0:0:
160,368,189488,6,14,P|233:315|313:215,1,195.00000743866
136,56,189715,2,14,P|64:72|16:208,1,195.00000743866
208,256,189943,5,6,0:0:0:0:
272,168,190056,1,4,0:0:0:0:
352,240,190170,1,6,0:0:0:0:
432,328,190284,1,4,0:0:0:0:
456,112,190397,6,14,P|443:196|344:256,3,195.00000743866
200,232,190852,1,4,0:0:0:0:
216,112,190965,1,6,0:0:0:0:
256,240,191079,1,4,0:0:0:0:
272,120,191193,1,6,0:0:0:0:
288,352,191306,6,14,B|184:328|184:328|112:248,1,195.00000743866
376,128,191534,5,12,0:0:0:0:
240,248,191647,1,14,0:0:0:0:
336,88,191761,6,4,P|284:156|120:96,1,195.00000743866
24,184,191988,2,14,P|176:279|320:280,1,292.50001115799
344,304,192329,5,6,0:0:0:0:
280,240,192443,1,12,0:0:0:0:
224,296,192556,1,6,0:0:0:0:
264,368,192670,1,12,0:0:0:0:
416,64,192784,5,6,0:0:0:0:
352,136,192897,1,12,0:0:0:0:
392,224,193011,1,6,0:0:0:0:
224,240,193125,6,4,P|141:272|128:160,1,175.500000669479
312,152,193352,2,4,P|329:240|272:328,1,155.999995239258
168,192,193579,2,4,P|136:128|208:72,1,136.499995834351
360,128,193806,5,4,0:0:0:0:
360,96,193920,1,14,0:0:0:0:
232,232,194034,1,4,0:0:0:0:
240,272,194147,1,14,0:0:0:0:
56,176,194261,1,4,0:0:0:0:
72,312,194375,1,14,0:0:0:0:
160,184,194602,5,12,0:0:0:0:
208,160,194715,1,4,0:0:0:0:
256,168,194829,1,12,0:0:0:0:
240,304,194943,5,4,0:0:0:0:
240,256,195056,1,12,0:0:0:0:
272,216,195170,1,4,0:0:0:0:
272,216,195284,1,12,0:0:0:0:
176,88,195397,6,4,P|113:119|93:164,3,116.999996429443
168,176,195852,1,14,0:0:0:0:
248,96,195965,1,6,0:0:0:0:
248,96,196079,1,14,0:0:0:0:
288,184,196193,1,6,0:0:0:0:
200,288,196306,5,12,0:0:0:0:
136,208,196420,1,4,0:0:0:0:
112,344,196534,1,12,0:0:0:0:
256,360,196647,1,4,0:0:0:0:
296,192,196761,5,14,0:0:0:0:
376,312,196875,1,14,0:0:0:0:
176,168,196988,1,14,0:0:0:0:
408,176,197102,1,14,0:0:0:0:
144,208,197215,2,14,P|123:161|56:152,1,116.999996429443
240,168,197443,2,4,P|282:195|352:176,1,116.999996429443
320,120,197670,5,14,0:0:0:0:
288,224,197784,1,4,0:0:0:0:
376,224,197897,1,6,0:0:0:0:
272,64,198011,1,4,0:0:0:0:
328,280,198238,5,6,0:0:0:0:
240,192,198352,1,6,0:0:0:0:
72,240,198465,5,6,0:0:0:0:
168,304,198579,1,14,0:0:0:0:
372,142,198693,5,6,0:0:0:0:
400,256,198806,2,6,P|363:321|312:336,1,116.999996429443
256,160,199147,6,12,B|296:168|296:168|320:144,1,65
224,192,199261,2,12,B|260:218|260:218|283:206,1,65
192,224,199375,2,12,B|224:264|224:264|266:259,1,65
144,232,199488,6,14,B|124:166|124:166|60:134,1,130
120,264,199602,2,14,B|96:208|96:208|0:192,1,130
104,304,199715,2,14,B|64:248|64:248|-28:246,1,130
400,224,199943,5,4,0:0:0:0:
368,256,200056,1,4,0:0:0:0:
232,336,200170,1,4,0:0:0:0:
208,232,200284,1,4,0:0:0:0:
352,152,200397,5,4,0:0:0:0:
272,16,200511,2,12,P|296:24|360:64,1,65
512,168,200625,2,14,P|472:168|432:136,1,65
208,96,200852,5,12,0:0:0:0:
144,168,200965,1,6,0:0:0:0:
168,264,201079,1,12,0:0:0:0:
256,304,201193,1,6,0:0:0:0:
400,208,201306,6,14,L|336:256,1,65
352,336,201420,1,6,0:0:0:0:
448,352,201534,1,12,0:0:0:0:
480,256,201647,2,6,B|472:200|472:200|408:128,1,130
368,208,201875,5,12,0:0:0:0:
360,304,201988,1,6,0:0:0:0:
280,344,202102,1,12,0:0:0:0:
248,184,202215,5,14,0:0:0:0:
176,296,202329,1,12,0:0:0:0:
248,184,202443,1,6,0:0:0:0:
176,296,202556,2,6,P|256:288|288:248,1,130
376,192,202784,1,14,0:0:0:0:
384,256,202897,1,12,0:0:0:0:
328,232,203011,1,6,0:0:0:0:
160,152,203125,5,14,0:0:0:0:
184,32,203238,1,14,0:0:0:0:
312,24,203352,2,14,P|348:60|360:136,1,130
352,232,203579,5,12,0:0:0:0:
240,288,203693,1,12,0:0:0:0:
232,360,203806,1,12,0:0:0:0:
176,192,203920,1,12,0:0:0:0:
312,136,204034,5,14,0:0:0:0:
360,272,204147,1,14,0:0:0:0:
400,72,204261,1,14,0:0:0:0:
216,80,204375,1,14,0:0:0:0:
160,240,204488,6,14,P|112:235|64:304,1,130
128,296,204715,1,14,0:0:0:0:
152,360,204829,1,14,0:0:0:0:
288,280,204943,5,14,0:0:0:0:
376,232,205056,1,14,0:0:0:0:
376,352,205170,2,6,P|336:344|311:320,1,65
280,168,205284,1,14,0:0:0:0:
200,128,205511,5,6,0:0:0:0:
144,224,205625,1,6,0:0:0:0:
96,312,205738,1,6,0:0:0:0:
280,96,205852,6,14,P|288:152|264:176,1,65
112,168,205965,2,14,P|136:136|160:128,1,65
232,280,206079,2,14,P|192:280|176:240,1,65
320,136,206306,5,12,0:0:0:0:
416,144,206420,1,6,0:0:0:0:
208,80,206534,5,12,0:0:0:0:
168,184,206647,1,6,0:0:0:0:
384,320,206761,5,14,0:0:0:0:
312,248,206875,1,6,0:0:0:0:
104,272,206988,5,12,0:0:0:0:
216,296,207102,1,6,0:0:0:0:
352,112,207215,6,12,L|288:88,1,65
32,64,207329,6,12,L|96:80,1,65
208,208,207443,6,14,B|200:200|200:200|216:200|216:200|200:184|200:184|216:184|216:184|200:168|200:168|216:168|216:168|200:152|200:152|216:152|216:152|200:136|200:136|216:136|216:136|200:120|200:120|216:120|216:120|200:104|200:104|216:104|216:104,1,260
