osu file format v14

[General]
AudioFilename: audio.mp3
AudioLeadIn: 0
PreviewTime: 130378
Countdown: 1
SampleSet: Soft
StackLeniency: 0.7
Mode: 0
LetterboxInBreaks: 0
WidescreenStoryboard: 0

[Editor]
Bookmarks: 269329,269919,270509,271099,271689
DistanceSpacing: 0.5
BeatDivisor: 4
GridSize: 32
TimelineZoom: 1.5

[Metadata]
Title:The First Star
TitleUnicode:The First Star
Artist:RSP
ArtistUnicode:RSP
Creator:Reform
Version:Expert
Source:
Tags:Kujinn Real Street Performance Project アールエスピー DICE j-pop jpop japanese female vocals vocalists
BeatmapID:2270770
BeatmapSetID:1085908

[Difficulty]
HPDrainRate:5.5
CircleSize:4
OverallDifficulty:9.2
ApproachRate:9.2
SliderMultiplier:1.85
SliderTickRate:1

[Events]
//Background and Video events
0,0,"BG.jpg",0,0
//Break Periods
2,173809,183825
//Storyboard Layer 0 (Background)
//Storyboard Layer 1 (Fail)
//Storyboard Layer 2 (Pass)
//Storyboard Layer 3 (Foreground)
//Storyboard Layer 4 (Overlay)
//Storyboard Sound Samples

[TimingPoints]
1025,337.078651685393,4,2,1,45,1,0
1025,-153.846153846153,4,2,1,45,0,0
11811,-153.846153846153,4,2,1,55,0,0
22598,-105.263157894736,4,2,1,75,0,0
44171,-117.647058823528,4,2,1,65,0,0
73833,-117.647058823528,4,2,1,75,0,0
74845,-181.818181818178,4,2,1,75,0,0
76530,-86.9565217391295,4,2,1,85,0,1
98103,-105.263157894736,4,2,1,45,0,0
106193,-105.263157894736,4,2,1,65,0,0
130463,-86.9565217391298,4,2,1,85,0,1
173609,-117.647058823528,4,2,1,55,0,0
185744,-79.9999999999994,4,2,1,55,0,0
187429,-117.647058823528,4,2,1,55,0,0
188440,-79.9999999999994,4,2,1,55,0,0
190125,-117.647058823528,4,2,1,55,0,0
191137,-79.9999999999994,4,2,1,55,0,0
192485,-117.647058823528,4,2,1,55,0,0
195182,-181.818181818178,4,2,1,45,0,0
204620,-181.818181818178,4,2,1,55,0,0
205968,-133.333333333331,4,2,1,55,0,0
214058,-95.238095238094,4,2,1,75,0,0
216755,-86.9565217391297,4,2,1,85,0,1
249114,-153.846153846151,4,2,1,45,0,0
259901,-117.647058823528,4,2,1,65,0,0
269339,-200,4,2,1,65,0,0
269423,-200,4,2,1,5,0,0

[Colours]
Combo1 : 232,194,125
Combo2 : 216,138,126
Combo3 : 185,95,85

[HitObjects]
95,28,1025,6,0,P|102:85|113:174,1,120.249994495392,6|2,0:0|0:0,0:0:0:0:
163,216,1530,2,0,P|205:226|249:237,1,60.1249972476961,2|0,0:0|0:0,0:0:0:0:
94,280,1867,2,0,P|52:290|8:301,1,60.1249972476961,2|0,0:0|0:0,0:0:0:0:
163,352,2204,6,0,P|211:361|274:311,1,120.249994495392,2|0,0:0|0:0,0:0:0:0:
312,238,2710,1,2,0:0:0:0:
312,238,2878,2,0,L|321:168,1,60.1249972476961,2|0,0:0|0:0,0:0:0:0:
385,308,3216,2,0,L|392:367,1,60.1249972476961,2|0,0:0|0:0,0:0:0:0:
485,220,3553,6,0,P|464:173|492:85,1,120.249994495392,2|0,0:0|0:0,0:0:0:0:
502,32,4058,1,2,0:0:0:0:
502,32,4227,2,0,L|434:19,1,60.1249972476961,2|0,0:0|0:0,0:0:0:0:
361,85,4564,2,0,L|301:96,1,60.1249972476961,2|0,0:0|0:0,0:0:0:0:
235,45,4901,1,2,0:0:0:0:
235,45,5069,6,0,P|250:88|267:180,1,120.249994495392
350,195,5575,2,0,P|335:238|318:330,1,120.249994495392
254,369,6081,1,0,0:0:0:0:
44,190,6418,5,0,0:0:0:0:
44,190,6755,2,0,P|84:186|119:168,1,60.1249972476961,2|0,0:0|0:0,0:0:0:0:
162,118,7092,2,0,P|202:122|237:140,1,60.1249972476961,2|0,0:0|0:0,0:0:0:0:
309,188,7429,1,0,0:0:0:0:
309,188,7598,6,0,L|326:44,1,120.249994495392,2|2,0:0|0:0,0:0:0:0:
391,13,8103,2,0,P|426:28|460:29,1,60.1249972476961,2|2,0:0|0:0,0:0:0:0:
501,90,8440,2,0,P|474:102|444:107,1,60.1249972476961,2|2,0:0|0:0,0:0:0:0:
382,171,8777,1,2,0:0:0:0:
382,171,9114,6,0,L|396:290,1,120.249994495392,2|2,0:0|0:0,0:0:0:0:
335,356,9620,2,0,P|302:342|262:341,1,60.1249972476961,2|0,0:0|0:0,0:0:0:0:
187,370,9957,1,2,0:0:0:0:
187,370,10126,2,0,P|157:365|130:353,1,60.1249972476961,2|0,0:0|0:0,0:0:0:0:
53,315,10463,6,0,P|65:266|72:183,1,120.249994495392
166,190,10968,1,0,0:0:0:0:
166,190,11137,2,0,P|152:132|148:72,1,120.249994495392,2|0,0:0|0:0,0:0:0:0:
344,17,11811,5,0,1:2:0:0:
456,137,12148,1,2,0:0:0:0:
456,137,12317,2,0,P|417:143|388:153,1,60.1249972476961,2|0,0:0|0:0,0:0:0:0:
297,222,12654,2,0,P|336:228|365:238,1,60.1249972476961,2|0,0:0|0:0,0:0:0:0:
429,306,12991,1,2,0:0:0:0:
429,306,13159,5,2,1:2:0:0:
252,367,13496,1,2,0:0:0:0:
252,367,13665,2,0,P|255:325|266:284,1,60.1249972476961,2|0,1:2|0:0,0:0:0:0:
171,191,14002,2,0,P|176:220|177:250,1,60.1249972476961,2|8,0:0|0:0,0:0:0:0:
250,153,14339,1,2,0:0:0:0:
250,153,14508,6,0,P|215:115|131:124,1,120.249994495392,0|2,1:2|0:0,0:0:0:0:
70,150,15013,2,0,P|105:188|189:179,1,120.249994495392,2|0,0:0|0:0,0:0:0:0:
238,245,15519,1,0,0:0:0:0:
310,205,15687,1,2,0:0:0:0:
377,264,15856,6,0,L|390:327,1,60.1249972476961,0|0,1:2|0:0,0:0:0:0:
454,224,16193,2,0,L|466:165,1,60.1249972476961,2|0,0:0|1:2,0:0:0:0:
363,258,16530,2,0,L|376:321,1,60.1249972476961,2|0,0:0|0:0,0:0:0:0:
440,218,16867,2,0,L|452:159,1,60.1249972476961,2|0,1:2|0:0,0:0:0:0:
400,86,17204,6,0,P|354:109|277:84,1,120.249994495392,0|2,1:2|0:0,0:0:0:0:
110,5,17878,2,0,P|118:64|130:148,1,120.249994495392,2|2,0:0|0:0,0:0:0:0:
74,187,18384,6,0,P|105:203|146:201,1,60.1249972476961,2|0,0:0|1:2,0:0:0:0:
264,229,18721,2,0,P|234:231|208:246,1,60.1249972476961,2|0,0:0|0:0,0:0:0:0:
69,273,19058,2,0,P|100:289|141:287,1,60.1249972476961,2|0,1:2|0:0,0:0:0:0:
259,315,19395,1,2,0:0:0:0:
259,315,19564,2,0,P|229:317|203:332,1,60.1249972476961,8|2,0:0|0:0,0:0:0:0:
372,371,19901,5,0,1:2:0:0:
372,371,20069,1,0,1:2:0:0:
365,217,20238,2,0,L|376:135,1,60.1249972476961,12|0,0:0|0:0,0:0:0:0:
504,324,20575,1,0,1:2:0:0:
504,324,20743,1,0,1:2:0:0:
510,169,20912,2,0,L|499:87,1,60.1249972476961,14|0,0:0|0:0,0:0:0:0:
264,208,21249,6,0,P|307:224|339:240,1,60.1249972476961,10|0,0:0|0:0,0:0:0:0:
178,103,21586,2,0,P|142:132|112:151,1,60.1249972476961,8|0,0:0|0:0,0:0:0:0:
310,83,21923,2,0,P|302:37|300:2,1,60.1249972476961,8|0,0:0|0:0,0:0:0:0:
421,219,22260,1,8,0:0:0:0:
421,219,22429,1,0,0:0:0:0:
196,342,22598,6,0,B|146:359|146:359|86:382|49:346|48:283,1,175.749995306969,4|8,1:2|0:0,0:0:0:0:
121,98,23103,2,0,P|182:84|245:185,1,175.749995306969,0|0,1:2|0:0,0:0:0:0:
114,249,23609,2,0,P|66:237|-7:222,1,87.8749976534844,8|0,0:0|0:0,0:0:0:0:
244,341,23946,6,0,B|298:367|346:341|318:328|363:310|417:333,1,175.749995306969,0|10,1:2|0:0,0:0:0:0:
507,161,24451,2,0,P|485:218|368:209,1,175.749995306969,0|0,1:2|0:0,0:0:0:0:
250,122,24957,2,0,P|257:172|269:250,1,87.8749976534844,10|0,0:0|0:0,0:0:0:0:
482,21,25294,6,0,B|451:66|451:66|316:24,1,175.749995306969,0|10,1:2|0:0,0:0:0:0:
144,116,25800,2,0,L|156:24,1,87.8749976534844,2|0,1:2|0:0,0:0:0:0:
336,212,26137,2,0,L|324:120,1,87.8749976534844,2|8,0:0|0:0,0:0:0:0:
141,256,26474,6,0,P|97:274|41:270,1,87.8749976534844,2|0,0:0|1:2,0:0:0:0:
325,330,26811,2,0,P|369:348|425:344,1,87.8749976534844,2|8,0:0|0:0,0:0:0:0:
241,156,27148,2,0,P|233:232|220:367,1,175.749995306969,2|0,1:2|0:0,0:0:0:0:
148,97,27654,1,8,0:0:0:0:
334,168,27822,1,2,0:0:0:0:
75,159,27991,6,0,P|50:104|124:9,1,175.749995306969,0|8,1:2|0:0,0:0:0:0:
216,224,28496,2,0,P|80:252|20:265,1,175.749995306969,0|0,1:2|0:0,0:0:0:0:
183,105,29002,2,0,P|232:97|269:120,1,87.8749976534844,8|0,0:0|0:0,0:0:0:0:
454,345,29339,6,0,P|462:274|493:157,1,175.749995306969,0|10,1:2|0:0,0:0:0:0:
349,22,29845,2,0,P|371:106|382:194,1,175.749995306969,0|0,1:2|0:0,0:0:0:0:
292,316,30350,2,0,P|238:306|205:277,1,87.8749976534844,8|0,0:0|0:0,0:0:0:0:
97,49,30687,5,0,1:2:0:0:
262,131,30856,1,0,1:2:0:0:
82,279,31024,2,0,P|72:224|62:172,1,87.8749976534844,14|0,0:0|1:2,0:0:0:0:
267,40,31362,1,0,1:2:0:0:
106,119,31530,1,2,1:2:0:0:
287,242,31699,2,0,P|297:187|307:135,1,87.8749976534844,12|2,0:0|0:0,0:0:0:0:
94,0,32036,5,8,0:0:0:0:
325,68,32204,1,2,0:0:0:0:
91,147,32373,1,8,0:0:0:0:
325,54,32541,1,2,1:2:0:0:
264,232,32710,5,10,0:0:0:0:
233,226,32794,1,2,0:0:0:0:
205,212,32878,1,2,0:0:0:0:
184,188,32962,1,2,0:0:0:0:
166,163,33047,1,10,0:0:0:0:
141,145,33131,1,2,0:0:0:0:
111,135,33215,1,2,0:0:0:0:
80,129,33299,1,2,0:0:0:0:
51,135,33384,6,0,B|11:179|11:179|57:331,1,175.749995306969,4|8,1:2|0:0,0:0:0:0:
286,350,33890,2,0,B|237:333|184:355|219:373|158:404|94:369,1,175.749995306969,0|0,1:2|0:0,0:0:0:0:
139,193,34395,2,0,P|193:210|243:225,1,87.8749976534844,8|0,0:0|0:0,0:0:0:0:
440,45,34732,6,0,P|386:29|313:136,1,175.749995306969,0|10,1:2|0:0,0:0:0:0:
372,321,35238,2,0,P|384:261|407:143,1,175.749995306969,0|0,1:2|0:0,0:0:0:0:
182,59,35744,2,0,L|202:167,1,87.8749976534844,10|0,0:0|0:0,0:0:0:0:
67,349,36081,6,0,B|120:369|173:347|138:329|199:298|263:333,1,175.749995306969,0|8,1:2|0:0,0:0:0:0:
198,145,36586,2,0,P|124:144|99:255,1,175.749995306969,0|0,1:2|0:0,0:0:0:0:
327,264,37092,1,8,0:0:0:0:
327,264,37260,6,0,L|309:158,1,87.8749976534844,2|0,0:0|1:2,0:0:0:0:
512,41,37598,2,0,L|497:127,1,87.8749976534844,2|8,0:0|0:0,0:0:0:0:
328,15,37935,2,0,B|261:25|261:25|232:56|232:56|144:68,1,175.749995306969,2|0,1:2|0:0,0:0:0:0:
26,194,38440,2,0,P|82:199|122:220,1,87.8749976534844,8|0,0:0|0:0,0:0:0:0:
238,373,38777,6,0,P|245:309|281:187,1,175.749995306969,0|8,1:2|0:0,0:0:0:0:
474,79,39283,2,0,P|499:163|510:250,1,175.749995306969,0|0,1:2|0:0,0:0:0:0:
371,367,39789,2,0,P|355:316|350:258,1,87.8749976534844,8|0,0:0|0:0,0:0:0:0:
253,58,40126,6,0,P|210:13|90:34,1,175.749995306969,0|8,1:2|0:0,0:0:0:0:
69,196,40631,2,0,P|112:241|232:220,1,175.749995306969,0|0,1:2|0:0,0:0:0:0:
370,133,41137,2,0,P|354:184|349:242,1,87.8749976534844,8|0,0:0|0:0,0:0:0:0:
287,63,41474,5,0,1:2:0:0:
467,149,41642,1,0,1:2:0:0:
254,286,41811,2,0,P|238:235|233:177,1,87.8749976534844,12|0,0:0|1:2,0:0:0:0:
447,69,42148,1,0,1:2:0:0:
278,139,42316,1,0,1:2:0:0:
482,290,42485,2,0,P|498:239|503:181,1,87.8749976534844,12|0,0:0|0:0,0:0:0:0:
357,57,42822,5,8,0:0:0:0:
286,298,42991,1,0,0:0:0:0:
184,84,43159,1,8,0:0:0:0:
404,183,43328,1,0,1:2:0:0:
158,248,43496,1,8,0:0:0:0:
262,28,43665,1,0,0:0:0:0:
322,275,43833,1,8,0:0:0:0:
94,174,44002,1,0,0:0:0:0:
297,135,44171,6,0,P|350:126|390:100,1,78.6250014996529,4|0,1:2|0:0,0:0:0:0:
477,256,44508,2,0,P|441:239|402:235,1,78.6250014996529,10|0,0:0|1:2,0:0:0:0:
293,341,44845,1,2,0:0:0:0:
293,341,45013,2,0,P|300:293|308:241,1,78.6250014996529,2|8,0:0|0:0,0:0:0:0:
181,66,45350,6,0,P|186:104|192:143,1,78.6250014996529,2|0,0:0|1:2,0:0:0:0:
147,252,45687,1,2,0:0:0:0:
147,252,45856,2,0,P|105:260|45:274,1,78.6250014996529,10|2,0:0|1:2,0:0:0:0:
215,325,46193,2,0,P|257:333|317:347,1,78.6250014996529,2|0,0:0|0:0,0:0:0:0:
452,237,46530,6,0,P|430:179|325:182,1,157.250002999306,10|0,0:0|1:2,0:0:0:0:
343,167,47204,2,0,P|348:115|355:72,1,78.6250014996529,10|0,0:0|1:2,0:0:0:0:
203,8,47541,1,2,0:0:0:0:
203,8,47710,2,0,P|208:46|211:86,1,78.6250014996529,2|8,0:0|0:0,0:0:0:0:
98,160,48047,6,0,P|146:168|201:180,1,78.6250014996529,2|0,0:0|1:2,0:0:0:0:
303,259,48384,1,2,0:0:0:0:
303,259,48553,2,0,P|264:265|225:273,1,78.6250014996529,10|2,0:0|1:2,0:0:0:0:
88,354,48890,1,2,0:0:0:0:
122,230,49058,1,2,0:0:0:0:
214,368,49227,6,0,P|263:383|355:326,1,157.250002999306,10|0,0:0|1:2,0:0:0:0:
350,334,49901,2,0,P|405:343|460:357,1,78.6250014996529,10|0,0:0|1:2,0:0:0:0:
500,197,50238,1,2,0:0:0:0:
500,197,50407,2,0,P|445:206|390:220,1,78.6250014996529,2|8,0:0|0:0,0:0:0:0:
310,174,50744,6,0,L|296:78,1,78.6250014996529,2|0,0:0|1:2,0:0:0:0:
156,211,51081,1,2,0:0:0:0:
179,93,51249,2,0,L|193:-3,1,78.6250014996529,10|2,0:0|1:2,0:0:0:0:
236,253,51586,1,2,0:0:0:0:
96,170,51755,1,2,0:0:0:0:
286,160,51923,6,0,P|327:196|320:306,1,157.250002999306,10|0,0:0|1:2,0:0:0:0:
328,293,52598,2,0,P|277:311|228:325,1,78.6250014996529,10|0,0:0|1:2,0:0:0:0:
159,378,52935,1,2,0:0:0:0:
159,378,53103,2,0,P|107:360|58:346,1,78.6250014996529,2|8,0:0|0:0,0:0:0:0:
5,191,53440,6,0,L|19:287,1,78.6250014996529,2|0,0:0|1:2,0:0:0:0:
174,136,53777,1,2,0:0:0:0:
58,31,53946,2,0,L|44:127,1,78.6250014996529,10|2,0:0|1:2,0:0:0:0:
223,247,54283,1,2,0:0:0:0:
197,77,54451,1,10,0:0:0:0:
90,272,54620,1,10,0:0:0:0:
119,135,54789,1,2,0:0:0:0:
225,341,54957,6,0,P|270:328|321:321,1,78.6250014996529,4|0,1:2|0:0,0:0:0:0:
497,369,55294,2,0,P|458:362|420:350,1,78.6250014996529,10|0,0:0|1:2,0:0:0:0:
338,195,55631,1,2,0:0:0:0:
338,195,55800,2,0,P|347:244|359:304,1,78.6250014996529,2|8,0:0|0:0,0:0:0:0:
465,115,56137,6,0,P|472:76|479:37,1,78.6250014996529,2|0,0:0|1:2,0:0:0:0:
337,85,56474,1,2,0:0:0:0:
419,202,56642,2,0,P|474:218|522:231,1,78.6250014996529,10|2,0:0|1:2,0:0:0:0:
245,137,56980,2,0,P|252:175|259:214,1,78.6250014996529,2|0,0:0|0:0,0:0:0:0:
354,48,57317,6,0,P|281:32|182:14,1,157.250002999306,10|0,0:0|1:2,0:0:0:0:
199,16,57991,2,0,P|183:54|191:101,1,78.6250014996529,10|0,0:0|1:2,0:0:0:0:
346,221,58328,1,2,0:0:0:0:
346,221,58496,2,0,P|362:183|354:136,1,78.6250014996529,2|8,0:0|0:0,0:0:0:0:
190,219,58833,6,0,L|96:236,1,78.6250014996529,2|0,0:0|1:2,0:0:0:0:
320,305,59171,1,2,0:0:0:0:
194,359,59339,1,10,0:0:0:0:
273,206,59508,1,2,1:2:0:0:
384,370,59676,1,2,0:0:0:0:
232,290,59845,1,2,0:0:0:0:
444,149,60013,6,0,L|469:329,1,157.250002999306,10|0,0:0|1:2,0:0:0:0:
465,304,60687,2,0,P|422:309|371:273,1,78.6250014996529,10|0,0:0|1:2,0:0:0:0:
263,124,61024,1,2,0:0:0:0:
263,124,61193,2,0,P|306:119|357:155,1,78.6250014996529,2|8,0:0|0:0,0:0:0:0:
217,296,61530,6,0,L|199:205,1,78.6250014996529,2|0,0:0|1:2,0:0:0:0:
424,130,61867,1,2,0:0:0:0:
424,130,62036,2,0,L|408:207,1,78.6250014996529,10|2,0:0|1:2,0:0:0:0:
239,109,62373,1,2,0:0:0:0:
303,302,62541,1,2,0:0:0:0:
350,83,62710,2,0,L|334:5,1,78.6250014996529,10|0,0:0|0:0,0:0:0:0:
128,126,63047,5,0,1:2:0:0:
297,200,63216,1,0,1:2:0:0:
153,32,63384,2,0,P|95:32|57:55,1,78.6250014996529,14|0,0:0|1:2,0:0:0:0:
303,105,63721,1,2,1:2:0:0:
134,179,63890,1,0,1:2:0:0:
279,8,64058,2,0,P|337:8|375:31,1,78.6250014996529,14|0,0:0|0:0,0:0:0:0:
312,331,64395,6,0,P|267:311|232:301,1,78.6250014996529,10|0,0:0|0:0,0:0:0:0:
303,80,64732,1,10,0:0:0:0:
395,255,64901,1,2,1:2:0:0:
124,202,65069,2,0,P|163:173|189:147,1,78.6250014996529,8|0,0:0|0:0,0:0:0:0:
270,275,65407,1,8,0:0:0:0:
270,275,65575,1,0,1:2:0:0:
52,294,65744,6,0,B|10:252|10:252|33:127,1,157.250002999306,6|8,1:2|0:0,0:0:0:0:
94,19,66249,2,0,P|126:63|224:56,1,157.250002999306,0|0,1:2|0:0,0:0:0:0:
438,24,66755,2,0,P|384:40|351:51,1,78.6250014996529,8|0,0:0|0:0,0:0:0:0:
204,155,67092,6,0,P|258:171|291:182,1,78.6250014996529,2|0,1:2|0:0,0:0:0:0:
420,250,67429,1,10,0:0:0:0:
420,250,67598,2,0,L|413:154,1,78.6250014996529,2|0,1:2|0:0,0:0:0:0:
288,21,67935,2,0,L|282:99,1,78.6250014996529,2|8,0:0|0:0,0:0:0:0:
184,222,68272,1,2,0:0:0:0:
29,134,68440,6,0,P|49:71|152:61,1,157.250002999306,0|8,1:2|0:0,0:0:0:0:
266,157,68946,2,0,P|253:236|242:329,1,157.250002999306,0|0,1:2|0:0,0:0:0:0:
71,227,69451,1,8,0:0:0:0:
123,384,69620,1,0,0:0:0:0:
183,174,69789,6,0,P|176:117|168:65,1,78.6250014996529,0|0,1:2|0:0,0:0:0:0:
319,249,70126,1,8,0:0:0:0:
324,83,70294,2,0,P|331:26|339:-26,1,78.6250014996529,0|0,1:2|0:0,0:0:0:0:
418,228,70631,1,2,0:0:0:0:
237,172,70800,1,10,0:0:0:0:
445,125,70968,6,0,P|491:144|513:184,1,78.6250014996529,2|0,0:0|1:2,0:0:0:0:
322,305,71305,1,2,0:0:0:0:
353,151,71474,1,10,0:0:0:0:
483,297,71642,2,0,P|467:347|352:377,1,157.250002999306,2|0,1:2|0:0,0:0:0:0:
258,214,72148,1,8,0:0:0:0:
120,363,72317,6,0,L|107:268,1,78.6250014996529,2|0,0:0|1:2,0:0:0:0:
240,132,72654,1,2,0:0:0:0:
284,299,72822,1,10,0:0:0:0:
96,166,72991,2,0,L|120:-22,1,157.250002999306,2|0,1:2|0:0,0:0:0:0:
363,66,73496,2,0,L|373:143,1,78.6250014996529,8|0,0:0|0:0,0:0:0:0:
102,357,73833,6,0,P|142:328|197:320,1,78.6250014996529,10|0,0:0|0:0,0:0:0:0:
373,271,74171,2,0,P|327:250|293:207,1,78.6250014996529,10|0,0:0|0:0,0:0:0:0:
180,109,74508,2,0,P|185:158|164:209,1,78.6250014996529,10|0,0:0|0:0,0:0:0:0:
445,362,74845,6,0,P|485:331|485:182,1,203.500006210327,14|0,0:0|0:0,0:0:0:0:
364,59,75856,1,0,0:0:0:0:
262,161,76193,1,0,0:0:0:0:
88,17,76530,6,0,B|142:69|142:69|102:205,1,212.750004057884,6|10,1:2|0:0,0:0:0:0:
33,354,77036,2,0,P|80:322|150:337,1,106.375002028942,2|0,1:2|0:0,0:0:0:0:
352,316,77373,2,0,P|299:317|257:286,1,106.375002028942,2|8,0:0|0:0,0:0:0:0:
339,166,77710,1,2,0:0:0:0:
466,310,77878,6,0,P|480:232|492:169,1,106.375002028942,0|0,1:2|0:0,0:0:0:0:
373,57,78216,1,10,0:0:0:0:
204,233,78384,2,0,P|190:155|178:92,1,106.375002028942,2|0,1:2|0:0,0:0:0:0:
443,4,78721,2,0,P|461:70|424:129,1,106.375002028942,2|8,0:0|0:0,0:0:0:0:
204,233,79058,5,2,0:0:0:0:
93,39,79227,2,0,B|152:16|214:40|172:58|242:86|304:52,1,212.750004057884,0|10,1:2|0:0,0:0:0:0:
462,159,79732,2,0,P|470:101|479:34,1,106.375002028942,2|0,1:2|0:0,0:0:0:0:
231,199,80069,1,2,0:0:0:0:
412,304,80238,1,8,0:0:0:0:
362,104,80407,1,2,0:0:0:0:
194,346,80575,6,0,B|130:364|130:364|55:319|90:224,1,212.750004057884,0|8,1:2|0:0,0:0:0:0:
195,32,81081,2,0,P|137:43|70:59,1,106.375002028942,0|0,1:2|0:0,0:0:0:0:
202,252,81418,1,0,0:0:0:0:
328,79,81586,2,0,P|386:90|453:106,1,106.375002028942,8|0,0:0|0:0,0:0:0:0:
341,384,81923,6,0,B|320:332|365:292|365:292|407:255|381:177,1,212.750004057884,0|10,1:2|0:0,0:0:0:0:
273,45,82429,1,0,1:2:0:0:
145,221,82598,2,0,P|127:168|144:108,1,106.375002028942,2|0,0:0|0:0,0:0:0:0:
299,189,82935,1,8,0:0:0:0:
229,337,83103,6,0,P|172:351|90:370,1,106.375002028942,2|0,0:0|1:2,0:0:0:0:
224,129,83440,1,2,0:0:0:0:
324,284,83609,1,10,0:0:0:0:
138,229,83777,1,2,1:2:0:0:
329,140,83946,1,2,0:0:0:0:
229,337,84114,1,2,0:0:0:0:
116,120,84283,2,0,P|126:58|138:-8,1,106.375002028942,10|0,0:0|0:0,0:0:0:0:
442,178,84620,6,0,P|451:230|459:282,1,106.375002028942,2|0,1:2|1:2,0:0:0:0:
242,190,84957,1,14,0:0:0:0:
377,50,85126,2,0,P|449:65|514:78,1,106.375002028942,2|0,1:2|1:2,0:0:0:0:
319,290,85463,1,2,1:2:0:0:
195,77,85631,2,0,P|123:92|58:105,1,106.375002028942,14|0,0:0|0:0,0:0:0:0:
386,227,85968,6,0,P|405:173|383:107,1,106.375002028942,0|0,1:2|0:0,0:0:0:0:
160,219,86305,1,8,0:0:0:0:
344,339,86474,1,8,0:0:0:0:
264,55,86642,5,2,0:0:0:0:
289,47,86727,1,2,0:0:0:0:
315,48,86811,1,10,0:0:0:0:
338,59,86895,1,2,0:0:0:0:
355,79,86980,1,10,0:0:0:0:
377,93,87064,1,2,0:0:0:0:
403,96,87148,1,2,0:0:0:0:
428,87,87232,1,2,0:0:0:0:
450,84,87317,6,0,B|505:134|505:134|453:276,1,212.750004057884,4|10,1:2|0:0,0:0:0:0:
297,89,87822,2,0,P|310:26|359:-7,1,106.375002028942,2|0,1:2|0:0,0:0:0:0:
360,216,88159,2,0,P|306:240|233:211,1,106.375002028942,2|8,0:0|0:0,0:0:0:0:
156,57,88496,1,2,0:0:0:0:
23,181,88665,6,0,P|32:235|47:336,1,106.375002028942,0|0,1:2|0:0,0:0:0:0:
259,111,89002,1,10,0:0:0:0:
221,324,89171,2,0,B|177:352|177:352|112:338,1,106.375002028942,2|0,1:2|0:0,0:0:0:0:
365,171,89508,2,0,B|418:159|418:159|462:187,1,106.375002028942,2|8,0:0|0:0,0:0:0:0:
371,350,89845,1,2,0:0:0:0:
149,254,90013,6,0,L|117:37,1,212.750004057884,0|10,1:2|0:0,0:0:0:0:
411,24,90519,2,0,B|360:68|360:68|212:22,1,212.750004057884,2|0,1:2|0:0,0:0:0:0:
25,210,91024,1,8,0:0:0:0:
227,125,91193,1,2,0:0:0:0:
112,15,91362,6,0,P|94:74|111:128,1,106.375002028942,0|0,1:2|0:0,0:0:0:0:
312,70,91699,1,10,0:0:0:0:
142,187,91867,1,0,1:2:0:0:
346,282,92036,2,0,P|372:228|360:164,1,106.375002028942,2|0,0:0|0:0,0:0:0:0:
177,355,92373,2,0,P|245:371|306:384,1,106.375002028942,10|0,0:0|0:0,0:0:0:0:
90,45,92710,6,0,B|43:25|3:67|15:109|15:109|46:226,1,212.750004057884,0|10,1:2|0:0,0:0:0:0:
249,227,93216,1,0,1:2:0:0:
125,384,93384,2,0,P|90:331|100:271,1,106.375002028942,2|0,0:0|0:0,0:0:0:0:
178,117,93721,1,10,0:0:0:0:
286,328,93890,6,0,P|343:341|404:356,1,106.375002028942,2|0,0:0|1:2,0:0:0:0:
498,123,94227,2,0,P|441:136|380:151,1,106.375002028942,2|8,0:0|0:0,0:0:0:0:
489,313,94564,2,0,P|514:254|497:203,1,106.375002028942,2|0,1:2|0:0,0:0:0:0:
411,55,94901,1,2,0:0:0:0:
269,204,95069,2,0,P|251:155|266:105,1,106.375002028942,8|2,0:0|0:0,0:0:0:0:
395,265,95407,5,0,1:2:0:0:
205,324,95575,1,0,1:2:0:0:
375,101,95744,2,0,P|427:116|507:139,1,106.375002028942,12|0,0:0|1:2,0:0:0:0:
316,361,96081,1,0,1:2:0:0:
220,159,96249,1,0,1:2:0:0:
486,248,96418,2,0,P|484:305|436:351,1,106.375002028942,14|0,0:0|0:0,0:0:0:0:
160,3,96755,5,8,0:0:0:0:
116,238,96923,1,0,1:2:0:0:
308,41,97092,1,8,0:0:0:0:
354,307,97260,1,0,1:2:0:0:
129,80,97429,1,8,0:0:0:0:
85,315,97597,1,0,1:2:0:0:
277,118,97766,1,8,0:0:0:0:
323,384,97934,1,0,1:2:0:0:
102,190,98103,5,4,1:2:0:0:
441,57,100463,5,8,0:0:0:0:
390,291,100800,1,0,1:2:0:0:
69,120,103159,5,8,0:0:0:0:
121,349,103496,1,0,1:2:0:0:
256,192,103665,12,0,105856,0:0:0:0:
365,160,106193,5,0,1:2:0:0:
208,84,106362,1,0,1:2:0:0:
356,294,106530,2,0,P|409:290|448:257,1,87.8749976534844,12|0,0:0|0:0,0:0:0:0:
320,34,106867,1,0,1:2:0:0:
217,208,107036,1,0,1:2:0:0:
477,143,107204,2,0,L|486:53,1,87.8749976534844,14|0,0:0|0:0,0:0:0:0:
241,105,107541,5,10,0:0:0:0:
351,328,107710,1,0,0:0:0:0:
348,67,107878,1,8,0:0:0:0:
236,296,108047,1,0,0:0:0:0:
247,26,108216,1,8,0:0:0:0:
374,270,108384,1,0,0:0:0:0:
389,6,108553,1,8,0:0:0:0:
287,239,108721,1,0,0:0:0:0:
126,18,108890,6,0,P|76:31|23:44,1,87.8749976534844,4|0,1:2|0:0,0:0:0:0:
167,186,109227,2,0,P|185:139|169:82,1,87.8749976534844,10|0,0:0|1:2,0:0:0:0:
37,178,109564,1,2,0:0:0:0:
37,178,109732,2,0,P|49:237|60:291,1,87.8749976534844,2|8,0:0|0:0,0:0:0:0:
160,342,110069,6,0,P|111:356|60:370,1,87.8749976534844,2|0,0:0|1:2,0:0:0:0:
156,193,110407,1,2,0:0:0:0:
262,304,110575,1,10,0:0:0:0:
222,147,110744,1,2,1:2:0:0:
102,278,110912,1,2,0:0:0:0:
134,90,111081,1,2,0:0:0:0:
292,232,111249,6,0,B|342:212|388:240|361:253|417:281|461:261,1,175.749995306969,10|0,0:0|1:2,0:0:0:0:
456,262,111923,2,0,P|462:209|468:161,1,87.8749976534844,10|0,0:0|1:2,0:0:0:0:
321,33,112260,1,2,0:0:0:0:
321,33,112429,2,0,P|315:86|309:134,1,87.8749976534844,2|8,0:0|0:0,0:0:0:0:
253,218,112766,6,0,P|211:241|164:239,1,87.8749976534844,2|0,0:0|1:2,0:0:0:0:
30,171,113103,1,2,0:0:0:0:
183,111,113272,1,10,0:0:0:0:
98,323,113440,2,0,P|89:272|80:224,1,87.8749976534844,2|0,1:2|0:0,0:0:0:0:
243,340,113777,1,2,0:0:0:0:
284,122,113946,6,0,B|334:168|334:168|285:276,1,175.749995306969,10|0,0:0|1:2,0:0:0:0:
289,266,114620,2,0,P|234:283|175:301,1,87.8749976534844,10|0,0:0|1:2,0:0:0:0:
333,167,114957,1,2,0:0:0:0:
333,167,115126,2,0,P|388:183|447:201,1,87.8749976534844,2|8,0:0|0:0,0:0:0:0:
250,73,115463,6,0,P|218:95|203:150,1,87.8749976534844,2|0,0:0|1:2,0:0:0:0:
307,284,115800,1,2,0:0:0:0:
148,229,115968,2,0,L|173:342,1,87.8749976534844,10|2,0:0|1:2,0:0:0:0:
352,212,116305,2,0,L|370:126,1,87.8749976534844,2|0,0:0|0:0,0:0:0:0:
137,236,116642,2,0,L|162:349,1,87.8749976534844,10|0,0:0|0:0,0:0:0:0:
205,48,116980,5,0,1:2:0:0:
272,273,117148,1,0,1:2:0:0:
437,61,117317,2,0,P|398:38|342:45,1,87.8749976534844,14|0,0:0|0:0,0:0:0:0:
171,162,117654,1,2,1:2:0:0:
380,263,117822,1,0,1:2:0:0:
313,61,117991,2,0,L|295:147,1,87.8749976534844,12|0,0:0|0:0,0:0:0:0:
62,370,118328,6,0,P|105:348|159:336,1,87.8749976534844,8|0,0:0|0:0,0:0:0:0:
152,98,118665,1,10,0:0:0:0:
43,274,118833,1,2,1:2:0:0:
280,268,119002,2,0,P|239:241|202:200,1,87.8749976534844,8|0,0:0|0:0,0:0:0:0:
155,356,119339,1,8,0:0:0:0:
155,356,119508,1,0,1:2:0:0:
59,115,119676,6,0,P|114:52|195:72,1,175.749995306969,6|8,1:2|0:0,0:0:0:0:
320,177,120182,2,0,P|401:197|456:134,1,175.749995306969,0|0,1:2|0:0,0:0:0:0:
308,0,120687,2,0,P|294:52|280:109,1,87.8749976534844,8|0,0:0|0:0,0:0:0:0:
159,301,121024,6,0,P|148:258|136:215,1,87.8749976534844,2|0,1:2|0:0,0:0:0:0:
42,111,121362,1,10,0:0:0:0:
42,111,121530,2,0,P|83:84|137:94,1,87.8749976534844,2|0,1:2|0:0,0:0:0:0:
320,196,121867,2,0,P|279:223|225:213,1,87.8749976534844,2|8,0:0|0:0,0:0:0:0:
240,76,122204,1,2,0:0:0:0:
445,173,122373,6,0,B|478:225|478:225|425:359,1,175.749995306969,0|8,1:2|0:0,0:0:0:0:
175,328,122878,2,0,B|219:309|277:332|239:348|298:373|349:348,1,175.749995306969,0|0,1:2|0:0,0:0:0:0:
270,140,123384,2,0,P|226:167|219:228,1,87.8749976534844,8|0,0:0|0:0,0:0:0:0:
449,176,123721,6,0,L|430:-9,1,175.749995306969,0|8,1:2|0:0,0:0:0:0:
361,255,124227,2,0,P|404:281|465:274,1,87.8749976534844,0|0,1:2|0:0,0:0:0:0:
290,53,124564,1,2,0:0:0:0:
210,190,124732,1,10,0:0:0:0:
431,171,124901,6,0,L|446:70,1,87.8749976534844,2|0,0:0|1:2,0:0:0:0:
299,175,125238,1,2,0:0:0:0:
444,268,125407,1,10,0:0:0:0:
309,363,125575,2,0,P|253:373|159:299,1,175.749995306969,2|0,1:2|0:0,0:0:0:0:
266,237,126081,1,8,0:0:0:0:
144,118,126249,6,0,L|128:215,1,87.8749976534844,2|0,0:0|1:2,0:0:0:0:
285,3,126586,1,2,0:0:0:0:
330,165,126755,1,10,0:0:0:0:
163,16,126923,2,0,B|97:29|97:29|69:61|69:61|-6:76,1,175.749995306969,2|0,1:2|0:0,0:0:0:0:
65,273,127429,2,0,P|117:282|182:298,1,87.8749976534844,8|0,0:0|0:0,0:0:0:0:
236,40,127766,6,0,P|227:99|210:137,1,87.8749976534844,10|0,0:0|0:0,0:0:0:0:
430,228,128103,2,0,P|383:190|358:157,1,87.8749976534844,10|0,0:0|0:0,0:0:0:0:
151,289,128440,2,0,P|206:267|248:262,1,87.8749976534844,10|0,0:0|0:0,0:0:0:0:
38,65,128777,6,0,P|-6:148|55:229,1,175.749995306969,14|8,0:0|0:0,0:0:0:0:
151,289,129283,1,2,0:0:0:0:
179,48,129451,2,0,L|167:148,1,87.8749976534844,8|0,0:0|0:0,0:0:0:0:
348,337,129788,2,0,L|337:250,1,87.8749976534844,8|0,0:0|0:0,0:0:0:0:
440,90,130126,1,8,0:0:0:0:
512,219,130294,1,0,0:0:0:0:
183,209,130463,6,0,B|240:232|308:199|260:181|325:147|389:172,1,212.750004057884,6|10,1:2|0:0,0:0:0:0:
368,358,130968,2,0,P|330:312|336:249,1,106.375002028942,2|0,1:2|0:0,0:0:0:0:
459,56,131305,2,0,P|497:102|491:165,1,106.375002028942,2|8,0:0|0:0,0:0:0:0:
290,126,131642,1,2,0:0:0:0:
409,284,131811,6,0,P|468:270|528:257,1,106.375002028942,0|0,1:2|0:0,0:0:0:0:
410,122,132148,1,10,0:0:0:0:
261,227,132317,2,0,P|202:213|142:200,1,106.375002028942,2|0,1:2|0:0,0:0:0:0:
231,22,132654,2,0,L|348:5,1,106.375002028942,2|8,0:0|0:0,0:0:0:0:
77,62,132991,1,2,0:0:0:0:
322,128,133159,6,0,B|373:185|373:185|322:331,1,212.750004057884,0|10,1:2|0:0,0:0:0:0:
213,190,133665,2,0,P|207:130|197:70,1,106.375002028942,2|0,1:2|0:0,0:0:0:0:
434,260,134002,1,2,0:0:0:0:
244,358,134171,1,8,0:0:0:0:
301,171,134339,1,2,0:0:0:0:
471,356,134508,6,0,B|420:382|356:356|393:338|323:303|260:341,1,212.750004057884,0|8,1:2|0:0,0:0:0:0:
70,380,135013,2,0,P|92:330|104:264,1,106.375002028942,0|0,1:2|0:0,0:0:0:0:
43,117,135350,1,0,0:0:0:0:
238,226,135519,2,0,P|226:174|205:125,1,106.375002028942,8|0,0:0|0:0,0:0:0:0:
35,9,135856,6,0,P|78:41|157:28,1,106.375002028942,0|0,1:2|0:0,0:0:0:0:
336,113,136193,2,0,P|283:114|241:146,1,106.375002028942,10|0,0:0|1:2,0:0:0:0:
119,361,136530,2,0,B|178:382|178:382|149:206,1,212.750004057884,2|8,0:0|0:0,0:0:0:0:
0,169,137036,6,0,P|56:156|139:137,1,106.375002028942,2|0,0:0|1:2,0:0:0:0:
285,250,137373,1,2,0:0:0:0:
225,50,137541,1,10,0:0:0:0:
150,240,137710,1,2,1:2:0:0:
323,138,137878,1,2,0:0:0:0:
130,105,138047,1,2,0:0:0:0:
290,334,138216,2,0,P|349:325|389:275,1,106.375002028942,10|0,0:0|0:0,0:0:0:0:
217,39,138553,6,0,P|158:48|118:98,1,106.375002028942,2|0,1:2|1:2,0:0:0:0:
260,246,138890,1,14,0:0:0:0:
413,111,139058,2,0,P|429:35|440:-17,1,106.375002028942,2|0,1:2|1:2,0:0:0:0:
366,302,139395,1,2,1:2:0:0:
238,143,139563,2,0,P|222:67|211:15,1,106.375002028942,14|0,0:0|0:0,0:0:0:0:
388,321,139901,6,0,P|437:346|493:333,1,106.375002028942,0|0,1:2|0:0,0:0:0:0:
319,154,140238,1,8,0:0:0:0:
231,299,140407,1,8,0:0:0:0:
249,58,140575,5,2,0:0:0:0:
280,62,140659,1,2,0:0:0:0:
310,62,140743,1,10,0:0:0:0:
338,52,140827,1,2,0:0:0:0:
361,32,140912,1,10,0:0:0:0:
387,17,140996,1,2,0:0:0:0:
417,12,141080,1,2,0:0:0:0:
447,12,141164,1,2,0:0:0:0:
478,23,141249,6,0,B|533:77|533:77|487:213,1,212.750004057884,4|10,1:2|0:0,0:0:0:0:
279,150,141755,2,0,P|322:112|388:126,1,106.375002028942,2|0,1:2|0:0,0:0:0:0:
261,331,142092,2,0,P|209:330|171:294,1,106.375002028942,2|8,0:0|0:0,0:0:0:0:
279,150,142429,1,2,0:0:0:0:
377,250,142598,6,0,P|389:329|398:386,1,106.375002028942,0|0,1:2|0:0,0:0:0:0:
151,190,142935,1,10,0:0:0:0:
295,44,143103,2,0,P|283:123|274:180,1,106.375002028942,2|0,1:2|0:0,0:0:0:0:
61,278,143440,2,0,P|52:225|44:172,1,106.375002028942,2|8,0:0|0:0,0:0:0:0:
229,291,143777,1,2,0:0:0:0:
40,85,143946,6,0,B|97:80|138:121|138:121|154:72|216:53,1,212.750004057884,0|10,1:2|0:0,0:0:0:0:
388,190,144451,2,0,B|327:222|327:222|352:65,1,212.750004057884,2|0,1:2|0:0,0:0:0:0:
444,281,144957,1,8,0:0:0:0:
232,174,145126,1,2,0:0:0:0:
494,101,145294,6,0,P|473:166|459:227,1,106.375002028942,0|0,1:2|0:0,0:0:0:0:
253,41,145631,1,10,0:0:0:0:
327,220,145800,1,0,1:2:0:0:
459,21,145968,2,0,P|412:-3|361:4,1,106.375002028942,2|0,0:0|0:0,0:0:0:0:
246,205,146305,2,0,P|297:211|344:187,1,106.375002028942,10|0,0:0|0:0,0:0:0:0:
112,19,146642,6,0,B|50:64|50:64|99:219,1,212.750004057884,0|10,1:2|0:0,0:0:0:0:
281,107,147148,1,0,1:2:0:0:
205,328,147317,2,0,B|153:342|153:342|106:311,1,106.375002028942,2|0,0:0|0:0,0:0:0:0:
175,91,147654,1,10,0:0:0:0:
362,270,147822,6,0,B|414:284|414:284|461:253,1,106.375002028942,2|0,0:0|1:2,0:0:0:0:
435,57,148159,2,0,B|383:43|383:43|336:74,1,106.375002028942,2|8,0:0|0:0,0:0:0:0:
218,333,148496,2,0,P|253:282|248:223,1,106.375002028942,2|0,1:2|0:0,0:0:0:0:
95,70,148833,2,0,P|60:121|65:180,1,106.375002028942,2|8,0:0|0:0,0:0:0:0:
278,133,149171,1,2,0:0:0:0:
114,270,149339,5,0,1:2:0:0:
326,309,149508,1,0,1:2:0:0:
165,121,149676,2,0,P|179:178|192:254,1,106.375002028942,12|0,0:0|1:2,0:0:0:0:
424,255,150013,1,0,1:2:0:0:
209,333,150182,1,0,1:2:0:0:
373,106,150350,2,0,P|359:163|346:239,1,106.375002028942,14|0,0:0|0:0,0:0:0:0:
208,76,150687,5,8,0:0:0:0:
306,290,150856,1,0,0:0:0:0:
106,77,151024,1,8,0:0:0:0:
373,106,151193,1,0,0:0:0:0:
125,254,151362,1,8,0:0:0:0:
204,0,151530,1,0,0:0:0:0:
321,274,151699,1,8,0:0:0:0:
54,137,151867,1,0,0:0:0:0:
316,65,152036,6,0,B|375:42|416:83|416:83|459:129|529:99,1,212.750004057884,6|10,1:2|0:0,0:0:0:0:
359,298,152541,2,0,P|332:253|345:188,1,106.375002028942,2|0,1:2|0:0,0:0:0:0:
490,8,152878,2,0,P|517:53|504:118,1,106.375002028942,2|8,0:0|0:0,0:0:0:0:
301,37,153216,1,2,0:0:0:0:
446,209,153384,6,0,P|436:261|426:313,1,106.375002028942,0|0,1:2|0:0,0:0:0:0:
211,146,153721,1,10,0:0:0:0:
378,0,153890,2,0,P|391:69|407:153,1,106.375002028942,2|0,1:2|0:0,0:0:0:0:
255,316,154227,2,0,P|202:321|158:294,1,106.375002028942,2|8,0:0|0:0,0:0:0:0:
26,211,154564,1,2,0:0:0:0:
142,78,154732,6,0,B|142:45|175:25|175:25|231:58|227:134|170:166,1,212.750004057884,0|10,1:2|0:0,0:0:0:0:
26,326,155238,2,0,P|83:303|140:291,1,106.375002028942,2|0,1:2|0:0,0:0:0:0:
327,134,155575,1,2,0:0:0:0:
142,78,155744,1,8,0:0:0:0:
214,253,155912,1,2,0:0:0:0:
353,31,156081,6,0,P|416:23|483:140,1,212.750004057884,0|8,1:2|0:0,0:0:0:0:
355,243,156586,2,0,P|377:313|397:373,1,106.375002028942,0|0,1:2|0:0,0:0:0:0:
492,219,156923,1,0,0:0:0:0:
284,81,157092,2,0,P|267:131|251:182,1,106.375002028942,8|0,0:0|0:0,0:0:0:0:
26,329,157429,6,0,P|84:339|133:305,1,106.375002028942,0|0,1:2|0:0,0:0:0:0:
156,137,157766,2,0,P|109:113|58:124,1,106.375002028942,10|0,0:0|1:2,0:0:0:0:
217,301,158103,2,0,P|276:286|431:270,1,212.750004057884,2|8,0:0|0:0,0:0:0:0:
390,42,158609,6,0,P|356:83|361:151,1,106.375002028942,2|0,0:0|1:2,0:0:0:0:
502,238,158946,1,2,0:0:0:0:
472,88,159114,1,10,0:0:0:0:
334,296,159283,1,2,1:2:0:0:
354,134,159451,1,2,0:0:0:0:
454,337,159620,1,2,0:0:0:0:
242,220,159789,2,0,P|183:230|96:246,1,106.375002028942,10|0,0:0|0:0,0:0:0:0:
234,17,160126,6,0,P|293:27|380:43,1,106.375002028942,2|0,1:2|1:2,0:0:0:0:
307,296,160463,1,14,0:0:0:0:
134,154,160631,2,0,P|125:97|116:38,1,106.375002028942,2|0,1:2|1:2,0:0:0:0:
330,167,160968,1,2,1:2:0:0:
176,311,161137,2,0,B|125:326|125:326|68:301,1,106.375002028942,14|0,0:0|0:0,0:0:0:0:
349,190,161474,6,0,B|400:175|400:175|457:200,1,106.375002028942,0|0,1:2|0:0,0:0:0:0:
182,128,161811,1,8,0:0:0:0:
257,327,161980,1,8,1:2:0:0:
242,51,162148,5,2,0:0:0:0:
271,57,162232,1,2,0:0:0:0:
301,57,162316,1,10,0:0:0:0:
328,42,162400,1,2,0:0:0:0:
349,21,162485,1,10,0:0:0:0:
375,4,162569,1,2,0:0:0:0:
404,0,162653,1,2,0:0:0:0:
435,0,162737,1,2,0:0:0:0:
469,9,162822,6,0,B|504:70|473:108|473:108|430:164|494:228,1,212.750004057884,4|10,1:2|0:0,0:0:0:0:
501,364,163328,2,0,P|445:362|402:308,1,106.375002028942,2|0,1:2|0:0,0:0:0:0:
319,102,163665,2,0,P|375:104|418:158,1,106.375002028942,2|8,0:0|0:0,0:0:0:0:
318,336,164002,1,2,0:0:0:0:
189,217,164171,6,0,P|180:144|170:76,1,106.375002028942,0|0,1:2|0:0,0:0:0:0:
8,291,164508,1,10,0:0:0:0:
34,112,164676,2,0,P|43:39|53:-29,1,106.375002028942,2|0,1:2|0:0,0:0:0:0:
276,173,165013,2,0,P|234:214|180:214,1,106.375002028942,2|8,0:0|0:0,0:0:0:0:
246,32,165350,1,2,0:0:0:0:
451,116,165519,6,0,B|496:177|496:177|439:310,1,212.750004057884,0|10,1:2|0:0,0:0:0:0:
188,216,166024,2,0,B|246:248|313:209|272:193|332:156|411:201,1,212.750004057884,2|0,1:2|0:0,0:0:0:0:
214,112,166530,1,8,0:0:0:0:
341,300,166699,1,2,0:0:0:0:
454,16,166867,6,0,P|438:77|424:139,1,106.375002028942,0|0,1:2|0:0,0:0:0:0:
235,10,167204,1,10,0:0:0:0:
363,226,167373,1,0,1:2:0:0:
350,0,167541,2,0,B|393:36|393:36|455:28,1,106.375002028942,2|0,0:0|0:0,0:0:0:0:
257,142,167878,2,0,B|207:135|207:135|164:171,1,106.375002028942,10|0,0:0|0:0,0:0:0:0:
418,312,168216,6,0,B|483:337|483:337|448:171,1,212.750004057884,0|10,1:2|0:0,0:0:0:0:
316,120,168721,1,0,1:2:0:0:
503,69,168890,2,0,P|474:34|405:28,1,106.375002028942,2|0,0:0|0:0,0:0:0:0:
363,218,169227,1,10,0:0:0:0:
248,17,169395,6,0,P|237:73|221:149,1,106.375002028942,2|0,0:0|1:2,0:0:0:0:
261,354,169732,2,0,P|250:301|239:249,1,106.375002028942,2|8,0:0|0:0,0:0:0:0:
36,168,170069,2,0,P|90:202|149:193,1,106.375002028942,2|0,1:2|0:0,0:0:0:0:
345,84,170407,2,0,P|291:50|232:59,1,106.375002028942,2|8,0:0|0:0,0:0:0:0:
112,105,170744,1,2,0:0:0:0:
396,258,170912,5,0,1:2:0:0:
181,319,171081,1,0,1:2:0:0:
275,138,171249,2,0,P|288:211|300:275,1,106.375002028942,12|0,0:0|1:2,0:0:0:0:
67,233,171586,1,0,1:2:0:0:
285,343,171755,1,0,1:2:0:0:
181,74,171923,1,14,0:0:0:0:
121,324,172092,1,0,0:0:0:0:
362,170,172260,5,4,1:2:0:0:
256,192,172345,12,0,173609,0:0:0:0:
374,278,184395,5,2,1:2:0:0:
374,278,184732,6,0,P|327:264|278:256,1,78.6250014996529,2|2,0:0|0:0,0:0:0:0:
235,173,185069,2,0,P|180:189|77:200,1,157.250002999306,2|2,0:0|0:0,0:0:0:0:
6,281,185575,1,2,0:0:0:0:
62,93,185744,6,0,B|-4:98|-3:30|54:-3|126:48|154:110,1,231.25,2|2,1:2|0:0,0:0:0:0:
261,208,186249,2,0,B|284:261|356:312|413:279|414:211|348:216,1,231.25,2|0,1:2|0:0,0:0:0:0:
198,50,186755,2,0,P|188:125|168:293,1,231.25,2|0,1:2|1:2,0:0:0:0:
169,279,187429,6,0,P|213:284|256:314,1,78.6250014996529,2|0,0:0|0:0,0:0:0:0:
324,362,187766,2,0,P|358:380|438:312,1,157.250002999306,2|2,0:0|0:0,0:0:0:0:
374,231,188272,1,2,0:0:0:0:
502,86,188440,6,2,B|477:145|410:133|410:133|382:49|270:77,1,231.25,2|0,1:2|0:0,0:0:0:0:
201,2,188946,2,0,P|225:91|256:239,1,231.25,2|0,1:2|0:0,0:0:0:0:
114,260,189451,6,0,B|139:319|206:307|206:307|234:223|346:251,1,231.25,2|0,1:2|1:2,0:0:0:0:
296,245,190126,6,0,P|290:296|286:335,1,78.6250014996529,2|0,0:0|0:0,0:0:0:0:
428,272,190463,2,0,P|456:216|429:114,1,157.250002999306,2|2,0:0|0:0,0:0:0:0:
386,46,190968,1,2,0:0:0:0:
287,240,191137,6,0,B|150:262|218:146|58:178,1,231.25,2|0,1:2|0:0,0:0:0:0:
239,26,191642,2,0,B|326:133|192:132|299:255,1,231.25,0|0,1:2|0:0,0:0:0:0:
79,174,192148,2,0,B|128:44|194:161|247:6,1,231.25,2|0,1:2|1:2,0:0:0:0:
152,21,192654,5,8,0:0:0:0:
152,21,192822,2,0,P|103:30|61:37,1,78.6250014996529,2|0,0:0|1:2,0:0:0:0:
0,117,193159,2,0,P|49:126|91:133,1,78.6250014996529,8|0,0:0|0:0,0:0:0:0:
168,187,193496,1,2,0:0:0:0:
77,252,193665,1,8,0:0:0:0:
158,313,193833,5,2,0:0:0:0:
256,192,193918,12,4,195182,0:0:0:0:
350,309,196530,6,0,P|390:312|415:313,1,50.8750015525818,2|0,0:0|0:0,0:0:0:0:
424,229,196867,1,0,0:0:0:0:
424,229,197036,2,0,P|384:226|359:225,1,50.8750015525818,2|0,0:0|0:0,0:0:0:0:
344,141,197373,1,0,0:0:0:0:
344,141,197542,2,0,P|384:144|452:150,1,101.750003105164,2|2,0:0|0:0,0:0:0:0:
39,41,199227,6,0,P|79:38|104:37,1,50.8750015525818,2|0,0:0|0:0,0:0:0:0:
113,121,199564,1,0,0:0:0:0:
113,121,199733,2,0,P|73:124|48:125,1,50.8750015525818,2|0,0:0|0:0,0:0:0:0:
33,209,200070,1,0,0:0:0:0:
33,209,200239,2,0,L|92:203,2,50.8750015525818,2|0|2,0:0|0:0|0:0,0:0:0:0:
476,354,201923,6,0,P|479:314|480:289,1,50.8750015525818,2|0,0:0|0:0,0:0:0:0:
396,280,202260,1,0,0:0:0:0:
396,280,202429,2,0,P|393:320|392:345,1,50.8750015525818,2|0,0:0|0:0,0:0:0:0:
308,360,202766,1,0,0:0:0:0:
308,360,202935,2,0,P|311:320|317:252,1,101.750003105164,2|2,0:0|0:0,0:0:0:0:
262,3,204620,5,10,0:0:0:0:
105,346,204957,1,10,1:2:0:0:
443,151,205294,1,10,1:2:0:0:
99,102,205631,1,10,1:2:0:0:
404,376,205968,6,0,P|363:345|361:257,1,138.750005292893,4|2,1:2|0:0,0:0:0:0:
408,191,206474,2,0,P|447:182|488:174,1,69.3750026464463,2|0,0:0|0:0,0:0:0:0:
490,81,206811,2,0,P|451:72|410:64,1,69.3750026464463,2|0,0:0|0:0,0:0:0:0:
334,114,207148,1,2,0:0:0:0:
290,21,207317,6,0,P|256:27|140:53,1,138.750005292893,0|10,0:0|1:2,0:0:0:0:
89,126,207822,2,0,P|139:135|182:143,1,69.3750026464463,2|0,0:0|0:0,0:0:0:0:
286,213,208159,1,2,0:0:0:0:
286,213,208328,2,0,P|236:222|193:230,1,69.3750026464463,8|2,1:2|0:0,0:0:0:0:
91,384,208665,6,0,P|59:347|77:254,1,138.750005292893,0|2,1:2|0:0,0:0:0:0:
122,188,209171,2,0,P|154:151|136:58,1,138.750005292893,2|0,0:0|0:0,0:0:0:0:
63,0,209676,1,0,0:0:0:0:
74,114,209845,6,0,B|29:149|29:149|58:250,1,138.750005292893,2|0,0:0|0:0,0:0:0:0:
9,305,210350,2,0,P|57:321|101:336,1,69.3750026464463,10|0,1:2|0:0,0:0:0:0:
141,265,210687,2,0,P|173:253|206:242,1,69.3750026464463,2|0,0:0|0:0,0:0:0:0:
285,296,211024,2,0,P|295:342|304:385,1,69.3750026464463,10|0,1:2|0:0,0:0:0:0:
425,289,211362,6,0,P|433:225|446:121,1,138.750005292893,0|2,1:2|0:0,0:0:0:0:
442,151,212036,2,0,P|401:160|361:147,1,69.3750026464463,2|0,0:0|0:0,0:0:0:0:
298,90,212373,1,2,0:0:0:0:
298,90,212541,6,0,P|264:84|230:93,1,69.3750026464463,2|0,0:0|0:0,0:0:0:0:
171,164,212878,2,0,L|158:244,1,69.3750026464463,2|8,0:0|1:2,0:0:0:0:
117,95,213216,2,0,L|105:26,1,69.3750026464463,2|0,0:0|0:0,0:0:0:0:
42,152,213553,1,2,0:0:0:0:
42,152,213721,2,0,L|53:220,1,69.3750026464463,8|2,1:2|0:0,0:0:0:0:
239,284,214058,5,0,1:2:0:0:
72,360,214227,1,0,1:2:0:0:
212,162,214395,2,0,P|263:168|307:199,1,97.1249970359803,12|0,0:0|1:2,0:0:0:0:
197,381,214732,1,0,1:2:0:0:
95,194,214901,1,0,1:2:0:0:
367,274,215069,2,0,P|358:329|348:393,1,97.1249970359803,14|0,0:0|0:0,0:0:0:0:
222,261,215407,5,10,0:0:0:0:
389,16,215744,1,0,0:0:0:0:
441,327,216081,1,0,0:0:0:0:
207,85,216418,1,0,0:0:0:0:
512,134,216755,6,0,B|431:148|431:148|406:180|406:180|278:205,1,212.750004057884,6|10,1:2|0:0,0:0:0:0:
467,340,217260,2,0,P|495:292|480:235,1,106.375002028942,2|0,1:2|0:0,0:0:0:0:
351,21,217598,2,0,P|323:69|338:126,1,106.375002028942,2|8,0:0|0:0,0:0:0:0:
487,77,217935,1,2,0:0:0:0:
362,253,218103,6,0,P|308:236|248:218,1,106.375002028942,0|0,1:2|0:0,0:0:0:0:
406,82,218440,1,10,0:0:0:0:
477,229,218609,2,0,P|462:292|445:355,1,106.375002028942,2|0,1:2|0:0,0:0:0:0:
296,137,218946,2,0,P|285:88|272:30,1,106.375002028942,2|8,0:0|0:0,0:0:0:0:
159,286,219283,1,2,0:0:0:0:
7,176,219451,6,0,B|65:211|126:168|86:149|158:114|216:148,1,212.750004057884,0|10,1:2|0:0,0:0:0:0:
298,310,219957,2,0,P|248:327|196:307,1,106.375002028942,2|0,1:2|0:0,0:0:0:0:
296,70,220294,1,2,0:0:0:0:
370,247,220463,1,8,0:0:0:0:
190,171,220631,1,2,0:0:0:0:
427,93,220800,6,0,B|456:47|456:47|535:133|446:203,1,212.750004057884,0|8,1:2|0:0,0:0:0:0:
340,309,221305,2,0,P|410:328|478:347,1,106.375002028942,0|0,1:2|0:0,0:0:0:0:
317,74,221642,1,0,0:0:0:0:
215,235,221811,2,0,P|145:254|77:273,1,106.375002028942,8|0,0:0|0:0,0:0:0:0:
7,22,222148,6,0,P|48:61|110:59,1,106.375002028942,0|0,1:2|0:0,0:0:0:0:
238,130,222485,2,0,P|186:135|149:172,1,106.375002028942,10|0,0:0|1:2,0:0:0:0:
10,350,222822,2,0,P|85:373|179:272,1,212.750004057884,2|8,0:0|0:0,0:0:0:0:
54,157,223328,6,0,P|63:228|70:286,1,106.375002028942,2|0,0:0|1:2,0:0:0:0:
215,75,223665,1,2,0:0:0:0:
267,269,223833,1,10,0:0:0:0:
141,150,224002,1,2,1:2:0:0:
192,342,224171,1,2,0:0:0:0:
293,157,224339,1,2,0:0:0:0:
372,355,224508,2,0,P|378:302|385:249,1,106.375002028942,10|0,0:0|0:0,0:0:0:0:
303,20,224845,6,0,P|250:13|200:56,1,106.375002028942,2|0,1:2|1:2,0:0:0:0:
269,244,225182,1,14,0:0:0:0:
418,88,225350,2,0,P|471:81|521:124,1,106.375002028942,2|0,1:2|1:2,0:0:0:0:
456,312,225687,1,2,1:2:0:0:
298,134,225856,2,0,P|245:127|195:170,1,106.375002028942,14|0,0:0|0:0,0:0:0:0:
246,330,226193,6,0,P|255:270|266:210,1,106.375002028942,0|0,1:2|0:0,0:0:0:0:
52,93,226530,1,8,0:0:0:0:
249,27,226699,1,8,0:0:0:0:
47,287,226867,5,0,0:0:0:0:
59,251,226951,1,2,0:0:0:0:
81,220,227035,1,10,0:0:0:0:
112,198,227119,1,2,0:0:0:0:
148,187,227204,1,10,0:0:0:0:
186,188,227288,1,2,0:0:0:0:
222,200,227372,1,2,0:0:0:0:
253,222,227456,1,2,0:0:0:0:
290,248,227541,6,0,P|357:266|436:137,1,212.750004057884,4|10,1:2|0:0,0:0:0:0:
285,16,228047,2,0,P|269:73|256:132,1,106.375002028942,2|0,1:2|0:0,0:0:0:0:
197,325,228384,2,0,P|185:273|170:222,1,106.375002028942,2|8,0:0|0:0,0:0:0:0:
88,27,228721,1,2,0:0:0:0:
0,176,228890,6,0,P|57:202|112:185,1,106.375002028942,0|0,1:2|0:0,0:0:0:0:
251,146,229227,1,10,0:0:0:0:
197,325,229395,2,0,P|142:308|77:291,1,106.375002028942,2|0,1:2|0:0,0:0:0:0:
178,99,229732,2,0,P|218:65|270:64,1,106.375002028942,2|8,0:0|0:0,0:0:0:0:
302,264,230069,1,2,0:0:0:0:
431,122,230238,6,0,B|414:197|414:197|440:241|440:241|415:344,1,212.750004057884,0|10,1:2|0:0,0:0:0:0:
137,341,230744,2,0,B|102:289|102:289|259:335,1,212.750004057884,2|0,1:2|0:0,0:0:0:0:
431,226,231249,1,8,0:0:0:0:
278,131,231418,1,2,0:0:0:0:
332,371,231586,6,0,P|341:314|353:246,1,106.375002028942,0|0,1:2|0:0,0:0:0:0:
223,58,231923,1,10,0:0:0:0:
148,252,232092,1,0,1:2:0:0:
350,184,232260,2,0,P|422:168|470:159,1,106.375002028942,2|0,0:0|0:0,0:0:0:0:
179,64,232598,2,0,P|107:48|59:39,1,106.375002028942,10|0,0:0|0:0,0:0:0:0:
402,13,232935,6,0,B|449:-7|489:35|477:77|477:77|446:194,1,212.750004057884,0|10,1:2|0:0,0:0:0:0:
268,102,233440,1,0,1:2:0:0:
353,308,233609,2,0,P|413:320|460:282,1,106.375002028942,2|0,0:0|0:0,0:0:0:0:
356,140,233946,1,10,0:0:0:0:
241,280,234114,6,0,P|229:339|218:391,1,106.375002028942,2|0,0:0|1:2,0:0:0:0:
49,160,234451,2,0,P|61:219|72:271,1,106.375002028942,2|8,0:0|0:0,0:0:0:0:
168,38,234789,2,0,P|213:12|266:14,1,106.375002028942,2|0,1:2|0:0,0:0:0:0:
356,140,235126,1,2,0:0:0:0:
170,277,235294,2,0,P|117:284|69:263,1,106.375002028942,8|2,0:0|0:0,0:0:0:0:
243,95,235631,5,0,1:2:0:0:
363,277,235800,1,0,1:2:0:0:
139,138,235968,2,0,P|155:71|168:12,1,106.375002028942,12|0,0:0|1:2,0:0:0:0:
405,183,236305,1,0,1:2:0:0:
174,271,236474,1,0,1:2:0:0:
278,45,236642,2,0,P|340:41|397:86,1,106.375002028942,14|0,0:0|0:0,0:0:0:0:
276,351,236980,5,8,0:0:0:0:
116,96,237148,1,0,0:0:0:0:
378,244,237317,1,8,0:0:0:0:
87,281,237485,1,0,0:0:0:0:
262,31,237654,1,8,0:0:0:0:
244,337,237822,1,0,0:0:0:0:
36,115,237991,1,8,0:0:0:0:
355,124,238159,1,0,0:0:0:0:
133,381,238328,6,0,P|121:316|158:264,1,106.375002028942,4|0,1:2|0:0,0:0:0:0:
420,191,238665,2,0,P|432:256|395:308,1,106.375002028942,10|0,0:0|1:2,0:0:0:0:
150,150,239002,1,2,0:0:0:0:
326,45,239171,2,0,P|387:33|449:18,1,106.375002028942,2|8,0:0|0:0,0:0:0:0:
267,283,239508,6,0,P|215:271|162:260,1,106.375002028942,2|0,0:0|1:2,0:0:0:0:
398,158,239845,1,2,0:0:0:0:
208,66,240013,1,10,0:0:0:0:
289,295,240182,1,2,1:2:0:0:
404,115,240350,1,2,0:0:0:0:
186,175,240519,1,2,0:0:0:0:
392,365,240687,2,0,P|416:314|387:240,1,106.375002028942,10|0,0:0|0:0,0:0:0:0:
91,105,241024,6,0,P|67:156|96:230,1,106.375002028942,0|0,1:2|0:0,0:0:0:0:
321,143,241362,2,0,P|309:72|299:15,1,106.375002028942,10|0,0:0|1:2,0:0:0:0:
142,298,241699,2,0,P|208:312|292:329,1,106.375002028942,2|0,0:0|0:0,0:0:0:0:
193,120,242036,1,8,0:0:0:0:
388,264,242204,6,0,P|396:211|405:159,1,106.375002028942,2|0,0:0|1:2,0:0:0:0:
164,229,242541,1,2,0:0:0:0:
256,38,242710,1,10,0:0:0:0:
286,281,242878,1,2,1:2:0:0:
122,111,243047,1,2,0:0:0:0:
182,359,243216,1,2,0:0:0:0:
311,148,243384,2,0,P|365:150|405:206,1,106.375002028942,10|0,0:0|0:0,0:0:0:0:
57,364,243721,6,0,B|29:313|29:313|52:252,1,106.375002028942,0|0,1:2|0:0,0:0:0:0:
327,233,244058,2,0,B|344:278|344:278|316:329,1,106.375002028942,10|0,0:0|1:2,0:0:0:0:
186,176,244395,2,0,P|179:111|172:46,1,106.375002028942,2|0,0:0|0:0,0:0:0:0:
197,294,244732,1,8,0:0:0:0:
331,51,244901,6,0,P|393:49|434:91,1,106.375002028942,2|0,0:0|1:2,0:0:0:0:
464,278,245238,1,2,0:0:0:0:
271,171,245407,1,10,0:0:0:0:
511,140,245575,1,2,1:2:0:0:
327,302,245744,1,2,0:0:0:0:
339,71,245912,1,2,0:0:0:0:
474,276,246081,2,0,P|460:335|448:392,1,106.375002028942,10|0,0:0|0:0,0:0:0:0:
148,252,246418,5,0,1:2:0:0:
357,168,246586,1,0,1:2:0:0:
169,36,246755,2,0,P|181:92|192:162,1,106.375002028942,14|0,0:0|1:2,0:0:0:0:
417,307,247092,5,2,1:2:0:0:
209,224,247260,1,0,1:2:0:0:
397,92,247429,2,0,P|385:148|374:218,1,106.375002028942,12|2,0:0|0:0,0:0:0:0:
138,325,247766,5,0,1:2:0:0:
175,114,247935,1,2,0:0:0:0:
339,356,248103,1,10,0:0:0:0:
282,65,248272,1,10,0:0:0:0:
187,275,248440,1,2,0:0:0:0:
133,34,248609,1,10,0:0:0:0:
296,329,248777,1,10,0:0:0:0:
364,94,248946,1,2,0:0:0:0:
176,346,249114,5,4,1:2:0:0:
176,346,249451,2,0,P|145:358|106:355,1,60.1249972476961,2|0,0:0|0:0,0:0:0:0:
39,313,249789,2,0,L|15:173,1,120.249994495392,2|0,0:0|0:0,0:0:0:0:
98,145,250294,2,0,L|122:5,1,120.249994495392,2|2,0:0|0:0,0:0:0:0:
30,2,250800,1,2,0:0:0:0:
30,2,250968,1,2,0:0:0:0:
93,49,251137,2,0,P|127:38|165:41,1,60.1249972476961,2|0,0:0|0:0,0:0:0:0:
210,90,251474,2,0,P|244:101|282:98,1,60.1249972476961,2|0,0:0|0:0,0:0:0:0:
351,80,251811,5,0,0:0:0:0:
351,80,252148,2,0,L|336:163,1,60.1249972476961,2|0,0:0|0:0,0:0:0:0:
280,210,252485,1,2,0:0:0:0:
280,210,252654,2,0,L|295:293,1,60.1249972476961,2|0,0:0|0:0,0:0:0:0:
383,343,252991,6,0,P|345:334|263:384,1,120.249994495392,2|2,0:0|0:0,0:0:0:0:
187,316,253496,1,2,0:0:0:0:
113,369,253665,1,2,0:0:0:0:
47,315,253833,2,0,L|32:249,1,60.1249972476961,2|2,0:0|0:0,0:0:0:0:
109,193,254171,2,0,L|124:127,1,60.1249972476961,2|0,0:0|0:0,0:0:0:0:
69,63,254508,5,0,0:0:0:0:
69,63,254845,2,0,P|97:48|140:45,1,60.1249972476961,2|0,0:0|0:0,0:0:0:0:
201,106,255182,1,2,0:0:0:0:
201,106,255350,2,0,P|226:121|256:126,1,60.1249972476961,2|0,0:0|0:0,0:0:0:0:
359,84,255687,6,0,P|349:141|334:229,1,120.249994495392,2|2,0:0|0:0,0:0:0:0:
383,285,256193,2,0,P|412:294|441:303,1,60.1249972476961,2|2,0:0|0:0,0:0:0:0:
318,355,256530,1,2,0:0:0:0:
250,288,256699,1,2,0:0:0:0:
202,362,256867,2,0,P|173:371|144:380,1,60.1249972476961,2|0,0:0|0:0,0:0:0:0:
67,329,257204,5,0,0:0:0:0:
67,329,257541,2,0,L|79:259,1,60.1249972476961,2|0,0:0|0:0,0:0:0:0:
28,203,257878,1,2,0:0:0:0:
28,203,258047,2,0,L|16:133,1,60.1249972476961,2|0,0:0|0:0,0:0:0:0:
89,85,258384,2,0,L|101:15,1,60.1249972476961,2|0,0:0|0:0,0:0:0:0:
385,338,259901,6,0,P|372:265|355:172,1,157.250002999306,4|8,1:2|0:0,0:0:0:0:
266,70,260407,1,0,1:2:0:0:
266,70,260575,2,0,L|251:172,1,78.6250014996529
178,217,260912,1,8,0:0:0:0:
98,74,261081,1,0,0:0:0:0:
98,74,261249,6,0,P|32:99|13:198,1,157.250002999306,0|10,1:2|0:0,0:0:0:0:
147,227,261755,1,2,1:2:0:0:
147,227,261923,2,0,P|89:243|49:253,1,78.6250014996529,0|2,0:0|0:0,0:0:0:0:
0,334,262260,2,0,P|58:350|98:360,1,78.6250014996529,8|2,0:0|0:0,0:0:0:0:
266,375,262598,6,0,P|242:330|296:209,1,157.250002999306,0|8,1:2|0:0,0:0:0:0:
345,192,263103,2,0,P|392:195|472:297,1,157.250002999306,0|0,1:2|0:0,0:0:0:0:
509,177,263609,2,0,L|519:85,1,78.6250014996529,8|0,0:0|0:0,0:0:0:0:
421,25,263946,5,0,1:2:0:0:
421,25,264283,2,0,P|385:10|347:17,1,78.6250014996529,8|0,0:0|1:2,0:0:0:0:
284,93,264620,2,0,P|296:137|311:194,1,78.6250014996529,0|2,0:0|0:0,0:0:0:0:
287,348,264957,2,0,P|297:310|307:272,1,78.6250014996529,8|2,0:0|0:0,0:0:0:0:
89,141,265294,6,0,P|56:183|71:283,1,157.250002999306,0|8,1:2|0:0,0:0:0:0:
220,347,265800,1,0,1:2:0:0:
220,347,265968,2,0,L|135:322,1,78.6250014996529
263,247,266305,1,8,0:0:0:0:
172,169,266474,1,0,0:0:0:0:
172,169,266642,6,0,P|246:161|336:151,1,157.250002999306,0|8,1:2|0:0,0:0:0:0:
447,33,267148,2,0,P|438:111|430:189,1,157.250002999306,0|0,1:2|0:0,0:0:0:0:
362,273,267654,2,0,L|377:366,1,78.6250014996529,8|0,0:0|0:0,0:0:0:0:
99,186,267991,5,0,1:2:0:0:
251,35,268159,1,0,1:2:0:0:
238,263,268328,1,14,0:0:0:0:
110,64,268496,1,2,1:2:0:0:
329,149,268665,1,0,1:2:0:0:
127,265,268833,1,2,1:2:0:0:
184,103,269002,2,0,L|219:190,1,78.6250014996529,10|0,0:0|0:0,0:0:0:0:
344,313,269339,6,0,B|418:382|418:382|445:271|445:271|539:208|539:208|442:148|442:148|410:39|410:39|323:111|323:111|209:107|209:107|251:210|251:210|213:315|213:315|327:303,1,1110,6|0,1:2|0:0,0:0:0:0:
