osu file format v14

[General]
AudioFilename: audio.mp3
AudioLeadIn: 0
PreviewTime: -1
Countdown: 0
SampleSet: None
StackLeniency: 0.7
Mode: 3
LetterboxInBreaks: 0
SpecialStyle: 0
WidescreenStoryboard: 0

[Editor]
DistanceSpacing: 3.1
BeatDivisor: 4
GridSize: 4
TimelineZoom: 1

[Metadata]
Title:Kiss me again (sped up)
TitleUnicode:Kiss me again (sped up)
Artist:ROY BEE
ArtistUnicode:ROY BEE
Creator:Shibuya uwu
Version:Nightcore
Source:
Tags:
BeatmapID:4542029
BeatmapSetID:2155030

[Difficulty]
HPDrainRate:8
CircleSize:4
OverallDifficulty:8
ApproachRate:5
SliderMultiplier:1.4
SliderTickRate:1

[Events]
//Background and Video events
0,0,"IMG_2900.jpg",0,0
//Break Periods
//Storyboard Layer 0 (Background)
//Storyboard Layer 1 (Fail)
//Storyboard Layer 2 (Pass)
//Storyboard Layer 3 (Foreground)
//Storyboard Layer 4 (Overlay)
//Storyboard Sound Samples

[TimingPoints]
138,357.142857142857,4,2,0,100,1,0

[HitObjects]
320,192,852,5,0,0:0:0:0:
64,192,1030,1,0,0:0:0:0:
320,192,1209,1,0,0:0:0:0:
64,192,1388,1,0,0:0:0:0:
448,192,1566,1,0,0:0:0:0:
192,192,1745,1,0,0:0:0:0:
448,192,1923,1,0,0:0:0:0:
192,192,2102,1,0,0:0:0:0:
64,192,2280,1,0,0:0:0:0:
320,192,2459,1,0,0:0:0:0:
448,192,2638,1,0,0:0:0:0:
64,192,2816,1,0,0:0:0:0:
320,192,2995,1,0,0:0:0:0:
192,192,3173,1,0,0:0:0:0:
64,192,3352,1,0,0:0:0:0:
448,192,3530,1,0,0:0:0:0:
192,192,3709,1,0,0:0:0:0:
448,192,3888,1,0,0:0:0:0:
64,192,4066,1,0,0:0:0:0:
192,192,4155,1,0,0:0:0:0:
448,192,4334,1,0,0:0:0:0:
192,192,4513,1,0,0:0:0:0:
448,192,4691,1,0,0:0:0:0:
64,192,4780,1,0,0:0:0:0:
320,192,4959,1,0,0:0:0:0:
192,192,5138,1,0,0:0:0:0:
64,192,5316,1,0,0:0:0:0:
320,192,5495,1,0,0:0:0:0:
64,192,5673,1,0,0:0:0:0:
320,192,5763,1,0,0:0:0:0:
192,192,5941,1,0,0:0:0:0:
448,192,6120,1,0,0:0:0:0:
64,192,6298,1,0,0:0:0:0:
448,192,6477,1,0,0:0:0:0:
192,192,6655,1,0,0:0:0:0:
320,192,6834,1,0,0:0:0:0:
64,192,7013,1,0,0:0:0:0:
320,192,7191,1,0,0:0:0:0:
448,192,7370,1,0,0:0:0:0:
192,192,7459,1,0,0:0:0:0:
320,192,7638,1,0,0:0:0:0:
64,192,7816,1,0,0:0:0:0:
320,192,7995,1,0,0:0:0:0:
192,192,8173,1,0,0:0:0:0:
448,192,8352,1,0,0:0:0:0:
192,192,8530,1,0,0:0:0:0:
64,192,8709,1,0,0:0:0:0:
320,192,8888,1,0,0:0:0:0:
192,192,9066,1,0,0:0:0:0:
64,192,9245,1,0,0:0:0:0:
448,192,9423,1,0,0:0:0:0:
192,192,9602,1,0,0:0:0:0:
448,192,9780,1,0,0:0:0:0:
64,192,9959,1,0,0:0:0:0:
320,192,10048,1,0,0:0:0:0:
448,192,10227,1,0,0:0:0:0:
64,192,10316,1,0,0:0:0:0:
192,192,10495,1,0,0:0:0:0:
64,192,10763,1,0,0:0:0:0:
448,192,10852,1,0,0:0:0:0:
192,192,11030,1,0,0:0:0:0:
64,192,11209,1,0,0:0:0:0:
192,192,11298,1,0,0:0:0:0:
448,192,11566,1,0,0:0:0:0:
64,192,11655,1,0,0:0:0:0:
192,192,11834,1,0,0:0:0:0:
320,192,11923,1,0,0:0:0:0:
64,192,12102,1,0,0:0:0:0:
192,192,12280,1,0,0:0:0:0:
448,192,12370,128,0,12995:0:0:0:0:
64,192,12370,128,0,12995:0:0:0:0:
192,192,13084,1,0,0:0:0:0:
448,192,13263,1,0,0:0:0:0:
64,192,13263,1,0,0:0:0:0:
320,192,13441,1,0,0:0:0:0:
192,192,13620,1,0,0:0:0:0:
448,192,13620,1,0,0:0:0:0:
64,192,13798,1,0,0:0:0:0:
448,192,13798,1,0,0:0:0:0:
192,192,13888,1,0,0:0:0:0:
448,192,13977,1,0,0:0:0:0:
320,192,14066,1,0,0:0:0:0:
64,192,14066,1,0,0:0:0:0:
192,192,14245,1,0,0:0:0:0:
448,192,14334,1,0,0:0:0:0:
192,192,14513,1,0,0:0:0:0:
64,192,14513,1,0,0:0:0:0:
448,192,14691,1,0,0:0:0:0:
192,192,14780,1,0,0:0:0:0:
64,192,14959,1,0,0:0:0:0:
320,192,14959,1,0,0:0:0:0:
448,192,15138,1,0,0:0:0:0:
192,192,15227,1,0,0:0:0:0:
448,192,15405,1,0,0:0:0:0:
64,192,15405,1,0,0:0:0:0:
64,192,15584,1,0,0:0:0:0:
320,192,15584,1,0,0:0:0:0:
448,192,15763,1,0,0:0:0:0:
192,192,15763,1,0,0:0:0:0:
64,192,15941,1,0,0:0:0:0:
192,192,16030,1,0,0:0:0:0:
448,192,16209,1,0,0:0:0:0:
320,192,16209,1,0,0:0:0:0:
64,192,16298,1,0,0:0:0:0:
320,192,16477,1,0,0:0:0:0:
64,192,16477,1,0,0:0:0:0:
448,192,16566,1,0,0:0:0:0:
192,192,16655,1,0,0:0:0:0:
448,192,16834,1,0,0:0:0:0:
64,192,16834,1,0,0:0:0:0:
320,192,16923,1,0,0:0:0:0:
192,192,17102,1,0,0:0:0:0:
448,192,17102,1,0,0:0:0:0:
64,192,17191,1,0,0:0:0:0:
320,192,17280,1,0,0:0:0:0:
448,192,17370,1,0,0:0:0:0:
64,192,17459,1,0,0:0:0:0:
320,192,17459,1,0,0:0:0:0:
448,192,17548,1,0,0:0:0:0:
64,192,17727,1,0,0:0:0:0:
192,192,17727,1,0,0:0:0:0:
320,192,17816,1,0,0:0:0:0:
192,192,17905,1,0,0:0:0:0:
448,192,17905,1,0,0:0:0:0:
64,192,17995,1,0,0:0:0:0:
320,192,18173,1,0,0:0:0:0:
192,192,18173,1,0,0:0:0:0:
448,192,18263,1,0,0:0:0:0:
192,192,18352,1,0,0:0:0:0:
64,192,18441,1,0,0:0:0:0:
320,192,18530,1,0,0:0:0:0:
448,192,18530,1,0,0:0:0:0:
192,192,18620,1,0,0:0:0:0:
64,192,18709,1,0,0:0:0:0:
192,192,18798,1,0,0:0:0:0:
448,192,18798,1,0,0:0:0:0:
64,192,18888,1,0,0:0:0:0:
192,192,18977,1,0,0:0:0:0:
320,192,19066,1,0,0:0:0:0:
64,192,19155,1,0,0:0:0:0:
448,192,19155,1,0,0:0:0:0:
192,192,19245,1,0,0:0:0:0:
64,192,19334,1,0,0:0:0:0:
320,192,19334,1,0,0:0:0:0:
192,192,19423,1,0,0:0:0:0:
448,192,19513,1,0,0:0:0:0:
64,192,19513,1,0,0:0:0:0:
64,192,19602,1,0,0:0:0:0:
320,192,19602,1,0,0:0:0:0:
192,192,19691,1,0,0:0:0:0:
448,192,19691,1,0,0:0:0:0:
320,192,19780,1,0,0:0:0:0:
64,192,19870,1,0,0:0:0:0:
448,192,19870,1,0,0:0:0:0:
320,192,19959,1,0,0:0:0:0:
448,192,20048,1,0,0:0:0:0:
192,192,20048,1,0,0:0:0:0:
320,192,20138,1,0,0:0:0:0:
64,192,20227,1,0,0:0:0:0:
192,192,20227,1,0,0:0:0:0:
320,192,20316,1,0,0:0:0:0:
448,192,20405,1,0,0:0:0:0:
64,192,20405,1,0,0:0:0:0:
192,192,20495,1,0,0:0:0:0:
320,192,20584,1,0,0:0:0:0:
192,192,20673,1,0,0:0:0:0:
64,192,20673,1,0,0:0:0:0:
448,192,20762,1,0,0:0:0:0:
320,192,20852,1,0,0:0:0:0:
192,192,20852,1,0,0:0:0:0:
64,192,20941,1,0,0:0:0:0:
320,192,21030,1,0,0:0:0:0:
64,192,21120,1,0,0:0:0:0:
320,192,21209,1,0,0:0:0:0:
448,192,21209,1,0,0:0:0:0:
64,192,21298,1,0,0:0:0:0:
320,192,21387,1,0,0:0:0:0:
448,192,21477,1,0,0:0:0:0:
192,192,21477,1,0,0:0:0:0:
64,192,21566,1,0,0:0:0:0:
192,192,21655,1,0,0:0:0:0:
320,192,21655,1,0,0:0:0:0:
64,192,21745,1,0,0:0:0:0:
320,192,21834,1,0,0:0:0:0:
64,192,21923,1,0,0:0:0:0:
448,192,21923,1,0,0:0:0:0:
192,192,22012,1,0,0:0:0:0:
448,192,22012,1,0,0:0:0:0:
64,192,22102,1,0,0:0:0:0:
448,192,22191,1,0,0:0:0:0:
192,192,22191,1,0,0:0:0:0:
64,192,22280,1,0,0:0:0:0:
320,192,22370,1,0,0:0:0:0:
448,192,22370,1,0,0:0:0:0:
64,192,22459,1,0,0:0:0:0:
320,192,22548,1,0,0:0:0:0:
448,192,22637,1,0,0:0:0:0:
192,192,22637,1,0,0:0:0:0:
192,192,22727,1,0,0:0:0:0:
64,192,22816,1,0,0:0:0:0:
320,192,22905,1,0,0:0:0:0:
192,192,22995,1,0,0:0:0:0:
64,192,22995,1,0,0:0:0:0:
320,192,23084,1,0,0:0:0:0:
448,192,23084,1,0,0:0:0:0:
64,192,23173,1,0,0:0:0:0:
448,192,23173,1,0,0:0:0:0:
192,192,23262,1,0,0:0:0:0:
320,192,23352,1,0,0:0:0:0:
64,192,23441,1,0,0:0:0:0:
448,192,23441,1,0,0:0:0:0:
320,192,23530,1,0,0:0:0:0:
192,192,23620,1,0,0:0:0:0:
320,192,23709,1,0,0:0:0:0:
448,192,23709,1,0,0:0:0:0:
64,192,23798,1,0,0:0:0:0:
320,192,23887,128,0,25048:0:0:0:0:
192,192,23887,128,0,25048:0:0:0:0:
64,192,25227,1,0,0:0:0:0:
320,192,25227,1,0,0:0:0:0:
192,192,25316,1,0,0:0:0:0:
448,192,25316,1,0,0:0:0:0:
320,192,25405,1,0,0:0:0:0:
64,192,25405,1,0,0:0:0:0:
192,192,25405,1,0,0:0:0:0:
448,192,25495,1,0,0:0:0:0:
320,192,25495,1,0,0:0:0:0:
192,192,25584,1,0,0:0:0:0:
64,192,25584,1,0,0:0:0:0:
320,192,25673,1,0,0:0:0:0:
448,192,25673,1,0,0:0:0:0:
448,192,25762,1,0,0:0:0:0:
64,192,25762,1,0,0:0:0:0:
192,192,25762,1,0,0:0:0:0:
64,192,25941,1,0,0:0:0:0:
192,192,25941,1,0,0:0:0:0:
448,192,25941,1,0,0:0:0:0:
320,192,26120,1,0,0:0:0:0:
64,192,26120,1,0,0:0:0:0:
448,192,26120,1,0,0:0:0:0:
192,192,26298,1,0,0:0:0:0:
320,192,26298,1,0,0:0:0:0:
448,192,26298,1,0,0:0:0:0:
64,192,26477,1,0,0:0:0:0:
448,192,26477,1,0,0:0:0:0:
192,192,26477,1,0,0:0:0:0:
64,192,26655,1,0,0:0:0:0:
192,192,26655,1,0,0:0:0:0:
320,192,26655,1,0,0:0:0:0:
448,192,26834,1,0,0:0:0:0:
192,192,26834,1,0,0:0:0:0:
320,192,26834,1,0,0:0:0:0:
64,192,27012,1,0,0:0:0:0:
320,192,27012,1,0,0:0:0:0:
448,192,27012,1,0,0:0:0:0:
64,192,27191,1,0,0:0:0:0:
192,192,27191,1,0,0:0:0:0:
448,192,27191,1,0,0:0:0:0:
448,192,27370,1,0,0:0:0:0:
320,192,27370,1,0,0:0:0:0:
192,192,27370,1,0,0:0:0:0:
64,192,27548,1,0,0:0:0:0:
320,192,27548,1,0,0:0:0:0:
448,192,27548,1,0,0:0:0:0:
448,192,27727,1,0,0:0:0:0:
320,192,27727,1,0,0:0:0:0:
64,192,27727,1,0,0:0:0:0:
64,192,27905,1,0,0:0:0:0:
192,192,27905,1,0,0:0:0:0:
320,192,27905,1,0,0:0:0:0:
448,192,28084,1,0,0:0:0:0:
320,192,28084,1,0,0:0:0:0:
192,192,28084,1,0,0:0:0:0:
448,192,28262,1,0,0:0:0:0:
64,192,28262,1,0,0:0:0:0:
192,192,28262,1,0,0:0:0:0:
192,192,28441,1,0,0:0:0:0:
320,192,28441,1,0,0:0:0:0:
448,192,28441,1,0,0:0:0:0:
320,192,28620,1,0,0:0:0:0:
448,192,28620,1,0,0:0:0:0:
64,192,28620,1,0,0:0:0:0:
64,192,28798,1,0,0:0:0:0:
192,192,28798,1,0,0:0:0:0:
320,192,28798,1,0,0:0:0:0:
448,192,28977,1,0,0:0:0:0:
192,192,28977,1,0,0:0:0:0:
320,192,28977,1,0,0:0:0:0:
192,192,29155,1,0,0:0:0:0:
64,192,29155,1,0,0:0:0:0:
320,192,29155,1,0,0:0:0:0:
320,192,29334,1,0,0:0:0:0:
448,192,29334,1,0,0:0:0:0:
64,192,29334,1,0,0:0:0:0:
320,192,29512,1,0,0:0:0:0:
192,192,29512,1,0,0:0:0:0:
64,192,29512,1,0,0:0:0:0:
448,192,29691,1,0,0:0:0:0:
64,192,29691,1,0,0:0:0:0:
192,192,29691,1,0,0:0:0:0:
192,192,29870,1,0,0:0:0:0:
320,192,29870,1,0,0:0:0:0:
448,192,29870,1,0,0:0:0:0:
64,192,30048,1,0,0:0:0:0:
320,192,30048,1,0,0:0:0:0:
192,192,30048,1,0,0:0:0:0:
320,192,30227,1,0,0:0:0:0:
64,192,30227,1,0,0:0:0:0:
448,192,30227,1,0,0:0:0:0:
192,192,30405,1,0,0:0:0:0:
320,192,30405,1,0,0:0:0:0:
448,192,30405,1,0,0:0:0:0:
192,192,30584,1,0,0:0:0:0:
64,192,30584,1,0,0:0:0:0:
320,192,30584,1,0,0:0:0:0:
64,192,30762,1,0,0:0:0:0:
192,192,30762,1,0,0:0:0:0:
448,192,30762,1,0,0:0:0:0:
192,192,30941,1,0,0:0:0:0:
320,192,30941,1,0,0:0:0:0:
448,192,30941,1,0,0:0:0:0:
64,192,31120,1,0,0:0:0:0:
320,192,31120,1,0,0:0:0:0:
192,192,31120,1,0,0:0:0:0:
320,192,31298,1,0,0:0:0:0:
448,192,31298,1,0,0:0:0:0:
64,192,31298,1,0,0:0:0:0:
192,192,31477,1,0,0:0:0:0:
64,192,31477,1,0,0:0:0:0:
448,192,31477,1,0,0:0:0:0:
192,192,31655,1,0,0:0:0:0:
320,192,31655,1,0,0:0:0:0:
448,192,31655,1,0,0:0:0:0:
192,192,31834,1,0,0:0:0:0:
64,192,31834,1,0,0:0:0:0:
320,192,31834,1,0,0:0:0:0:
192,192,32012,1,0,0:0:0:0:
448,192,32012,1,0,0:0:0:0:
64,192,32012,1,0,0:0:0:0:
320,192,32191,1,0,0:0:0:0:
192,192,32191,1,0,0:0:0:0:
448,192,32191,1,0,0:0:0:0:
64,192,32370,1,0,0:0:0:0:
192,192,32370,1,0,0:0:0:0:
320,192,32459,1,0,0:0:0:0:
192,192,32548,1,0,0:0:0:0:
64,192,32548,1,0,0:0:0:0:
448,192,32637,1,0,0:0:0:0:
192,192,32727,1,0,0:0:0:0:
64,192,32727,1,0,0:0:0:0:
448,192,32816,1,0,0:0:0:0:
192,192,32905,1,0,0:0:0:0:
320,192,32905,1,0,0:0:0:0:
448,192,32995,1,0,0:0:0:0:
64,192,33084,1,0,0:0:0:0:
192,192,33084,1,0,0:0:0:0:
320,192,33173,1,0,0:0:0:0:
192,192,33262,1,0,0:0:0:0:
448,192,33262,1,0,0:0:0:0:
64,192,33352,1,0,0:0:0:0:
192,192,33441,1,0,0:0:0:0:
448,192,33530,1,0,0:0:0:0:
64,192,33620,1,0,0:0:0:0:
320,192,33620,1,0,0:0:0:0:
448,192,33709,1,0,0:0:0:0:
192,192,33798,1,0,0:0:0:0:
64,192,33798,1,0,0:0:0:0:
320,192,33887,1,0,0:0:0:0:
64,192,33977,1,0,0:0:0:0:
448,192,33977,1,0,0:0:0:0:
320,192,34066,1,0,0:0:0:0:
192,192,34155,1,0,0:0:0:0:
448,192,34155,1,0,0:0:0:0:
64,192,34245,1,0,0:0:0:0:
192,192,34334,1,0,0:0:0:0:
320,192,34334,1,0,0:0:0:0:
448,192,34423,1,0,0:0:0:0:
192,192,34512,1,0,0:0:0:0:
64,192,34512,1,0,0:0:0:0:
320,192,34602,1,0,0:0:0:0:
448,192,34691,1,0,0:0:0:0:
192,192,34691,1,0,0:0:0:0:
320,192,34780,1,0,0:0:0:0:
64,192,34870,1,0,0:0:0:0:
192,192,34870,1,0,0:0:0:0:
320,192,34959,1,0,0:0:0:0:
448,192,34959,1,0,0:0:0:0:
192,192,35048,1,0,0:0:0:0:
64,192,35137,1,0,0:0:0:0:
320,192,35137,1,0,0:0:0:0:
192,192,35227,1,0,0:0:0:0:
448,192,35316,1,0,0:0:0:0:
64,192,35316,1,0,0:0:0:0:
192,192,35405,1,0,0:0:0:0:
320,192,35495,1,0,0:0:0:0:
64,192,35495,1,0,0:0:0:0:
448,192,35495,1,0,0:0:0:0:
192,192,35584,1,0,0:0:0:0:
320,192,35673,1,0,0:0:0:0:
448,192,35673,1,0,0:0:0:0:
64,192,35673,1,0,0:0:0:0:
192,192,35762,1,0,0:0:0:0:
64,192,35852,1,0,0:0:0:0:
320,192,35852,1,0,0:0:0:0:
448,192,35852,1,0,0:0:0:0:
192,192,35941,1,0,0:0:0:0:
448,192,36030,1,0,0:0:0:0:
320,192,36030,1,0,0:0:0:0:
192,192,36120,1,0,0:0:0:0:
64,192,36120,1,0,0:0:0:0:
320,192,36209,1,0,0:0:0:0:
448,192,36209,1,0,0:0:0:0:
64,192,36298,1,0,0:0:0:0:
192,192,36298,1,0,0:0:0:0:
320,192,36387,1,0,0:0:0:0:
448,192,36387,1,0,0:0:0:0:
192,192,36477,1,0,0:0:0:0:
64,192,36477,1,0,0:0:0:0:
320,192,36566,1,0,0:0:0:0:
448,192,36566,1,0,0:0:0:0:
192,192,36655,1,0,0:0:0:0:
64,192,36655,1,0,0:0:0:0:
320,192,36745,1,0,0:0:0:0:
448,192,36745,1,0,0:0:0:0:
192,192,36834,1,0,0:0:0:0:
64,192,36834,1,0,0:0:0:0:
320,192,36923,1,0,0:0:0:0:
448,192,36923,1,0,0:0:0:0:
192,192,37012,1,0,0:0:0:0:
64,192,37012,1,0,0:0:0:0:
320,192,37102,1,0,0:0:0:0:
448,192,37102,1,0,0:0:0:0:
64,192,37191,1,0,0:0:0:0:
192,192,37191,1,0,0:0:0:0:
320,192,37280,1,0,0:0:0:0:
448,192,37280,1,0,0:0:0:0:
192,192,37370,1,0,0:0:0:0:
448,192,37459,1,0,0:0:0:0:
64,192,37459,1,0,0:0:0:0:
192,192,37459,1,0,0:0:0:0:
320,192,37548,1,0,0:0:0:0:
448,192,37637,1,0,0:0:0:0:
64,192,37637,1,0,0:0:0:0:
192,192,37637,1,0,0:0:0:0:
320,192,37727,1,0,0:0:0:0:
448,192,37816,1,0,0:0:0:0:
64,192,37816,1,0,0:0:0:0:
192,192,37816,1,0,0:0:0:0:
320,192,37905,1,0,0:0:0:0:
448,192,37995,1,0,0:0:0:0:
64,192,37995,1,0,0:0:0:0:
192,192,37995,1,0,0:0:0:0:
320,192,38084,1,0,0:0:0:0:
64,192,38173,1,0,0:0:0:0:
192,192,38173,1,0,0:0:0:0:
448,192,38173,1,0,0:0:0:0:
320,192,38262,1,0,0:0:0:0:
448,192,38262,1,0,0:0:0:0:
64,192,38262,1,0,0:0:0:0:
192,192,38352,1,0,0:0:0:0:
64,192,38441,1,0,0:0:0:0:
320,192,38441,1,0,0:0:0:0:
448,192,38441,1,0,0:0:0:0:
192,192,38530,1,0,0:0:0:0:
64,192,38620,1,0,0:0:0:0:
320,192,38620,1,0,0:0:0:0:
448,192,38620,1,0,0:0:0:0:
192,192,38709,1,0,0:0:0:0:
64,192,38798,1,0,0:0:0:0:
320,192,38798,1,0,0:0:0:0:
448,192,38798,1,0,0:0:0:0:
192,192,38887,1,0,0:0:0:0:
320,192,38977,1,0,0:0:0:0:
448,192,38977,1,0,0:0:0:0:
64,192,38977,1,0,0:0:0:0:
192,192,39066,1,0,0:0:0:0:
320,192,39066,1,0,0:0:0:0:
64,192,39066,1,0,0:0:0:0:
320,192,39155,1,0,0:0:0:0:
448,192,39155,1,0,0:0:0:0:
64,192,39155,1,0,0:0:0:0:
192,192,39245,1,0,0:0:0:0:
320,192,39334,1,0,0:0:0:0:
448,192,39334,1,0,0:0:0:0:
64,192,39334,1,0,0:0:0:0:
192,192,39423,1,0,0:0:0:0:
320,192,39512,1,0,0:0:0:0:
448,192,39512,1,0,0:0:0:0:
64,192,39512,1,0,0:0:0:0:
192,192,39602,1,0,0:0:0:0:
64,192,39602,1,0,0:0:0:0:
448,192,39602,1,0,0:0:0:0:
320,192,39691,1,0,0:0:0:0:
192,192,39780,1,0,0:0:0:0:
64,192,39780,1,0,0:0:0:0:
448,192,39780,1,0,0:0:0:0:
320,192,39870,1,0,0:0:0:0:
64,192,39870,1,0,0:0:0:0:
64,192,39959,1,0,0:0:0:0:
192,192,39959,1,0,0:0:0:0:
448,192,39959,1,0,0:0:0:0:
320,192,40048,1,0,0:0:0:0:
64,192,40137,1,0,0:0:0:0:
192,192,40137,1,0,0:0:0:0:
448,192,40137,1,0,0:0:0:0:
320,192,40227,1,0,0:0:0:0:
64,192,40316,1,0,0:0:0:0:
192,192,40316,1,0,0:0:0:0:
448,192,40316,1,0,0:0:0:0:
320,192,40405,1,0,0:0:0:0:
192,192,40405,1,0,0:0:0:0:
64,192,40495,1,0,0:0:0:0:
192,192,40495,1,0,0:0:0:0:
448,192,40495,1,0,0:0:0:0:
320,192,40584,1,0,0:0:0:0:
64,192,40673,1,0,0:0:0:0:
448,192,40673,1,0,0:0:0:0:
320,192,40673,1,0,0:0:0:0:
192,192,40762,1,0,0:0:0:0:
448,192,40852,1,0,0:0:0:0:
320,192,40852,1,0,0:0:0:0:
64,192,40852,1,0,0:0:0:0:
448,192,40941,1,0,0:0:0:0:
320,192,40941,1,0,0:0:0:0:
192,192,40941,1,0,0:0:0:0:
64,192,41030,1,0,0:0:0:0:
320,192,41120,1,0,0:0:0:0:
448,192,41120,1,0,0:0:0:0:
192,192,41120,1,0,0:0:0:0:
64,192,41209,1,0,0:0:0:0:
448,192,41298,1,0,0:0:0:0:
320,192,41298,1,0,0:0:0:0:
192,192,41298,1,0,0:0:0:0:
64,192,41387,1,0,0:0:0:0:
320,192,41477,1,0,0:0:0:0:
448,192,41477,1,0,0:0:0:0:
192,192,41477,1,0,0:0:0:0:
64,192,41566,1,0,0:0:0:0:
320,192,41655,1,0,0:0:0:0:
448,192,41655,1,0,0:0:0:0:
192,192,41655,1,0,0:0:0:0:
64,192,41745,1,0,0:0:0:0:
448,192,41834,1,0,0:0:0:0:
320,192,41834,1,0,0:0:0:0:
192,192,41834,1,0,0:0:0:0:
64,192,41923,1,0,0:0:0:0:
192,192,41923,1,0,0:0:0:0:
320,192,42012,1,0,0:0:0:0:
64,192,42102,1,0,0:0:0:0:
192,192,42102,1,0,0:0:0:0:
448,192,42102,1,0,0:0:0:0:
320,192,42191,1,0,0:0:0:0:
64,192,42280,1,0,0:0:0:0:
192,192,42280,1,0,0:0:0:0:
448,192,42280,1,0,0:0:0:0:
320,192,42370,1,0,0:0:0:0:
64,192,42370,1,0,0:0:0:0:
64,192,42459,1,0,0:0:0:0:
192,192,42459,1,0,0:0:0:0:
448,192,42459,1,0,0:0:0:0:
320,192,42548,1,0,0:0:0:0:
64,192,42637,1,0,0:0:0:0:
192,192,42637,1,0,0:0:0:0:
448,192,42637,1,0,0:0:0:0:
320,192,42727,1,0,0:0:0:0:
64,192,42816,1,0,0:0:0:0:
192,192,42816,1,0,0:0:0:0:
448,192,42816,1,0,0:0:0:0:
320,192,42905,1,0,0:0:0:0:
64,192,42905,1,0,0:0:0:0:
64,192,42995,1,0,0:0:0:0:
192,192,42995,1,0,0:0:0:0:
448,192,42995,1,0,0:0:0:0:
320,192,43084,1,0,0:0:0:0:
64,192,43173,1,0,0:0:0:0:
192,192,43173,1,0,0:0:0:0:
448,192,43173,1,0,0:0:0:0:
448,192,43262,1,0,0:0:0:0:
320,192,43262,1,0,0:0:0:0:
64,192,43352,1,0,0:0:0:0:
192,192,43352,1,0,0:0:0:0:
320,192,43352,1,0,0:0:0:0:
448,192,43441,1,0,0:0:0:0:
320,192,43530,1,0,0:0:0:0:
64,192,43530,1,0,0:0:0:0:
192,192,43530,1,0,0:0:0:0:
448,192,43620,1,0,0:0:0:0:
64,192,43620,1,0,0:0:0:0:
320,192,43709,1,0,0:0:0:0:
192,192,43709,1,0,0:0:0:0:
320,192,43798,1,0,0:0:0:0:
448,192,43798,1,0,0:0:0:0:
64,192,43798,1,0,0:0:0:0:
192,192,43887,1,0,0:0:0:0:
320,192,43977,1,0,0:0:0:0:
448,192,43977,1,0,0:0:0:0:
64,192,43977,1,0,0:0:0:0:
192,192,44066,1,0,0:0:0:0:
320,192,44066,1,0,0:0:0:0:
320,192,44155,1,0,0:0:0:0:
448,192,44155,1,0,0:0:0:0:
64,192,44155,1,0,0:0:0:0:
192,192,44245,1,0,0:0:0:0:
320,192,44334,1,0,0:0:0:0:
448,192,44334,1,0,0:0:0:0:
64,192,44334,1,0,0:0:0:0:
192,192,44423,1,0,0:0:0:0:
320,192,44512,1,0,0:0:0:0:
448,192,44512,1,0,0:0:0:0:
64,192,44512,1,0,0:0:0:0:
192,192,44602,1,0,0:0:0:0:
448,192,44602,1,0,0:0:0:0:
320,192,44691,1,0,0:0:0:0:
448,192,44691,1,0,0:0:0:0:
64,192,44691,1,0,0:0:0:0:
192,192,44780,1,0,0:0:0:0:
64,192,44870,1,0,0:0:0:0:
320,192,44870,1,0,0:0:0:0:
448,192,44870,1,0,0:0:0:0:
192,192,44959,1,0,0:0:0:0:
64,192,45048,1,0,0:0:0:0:
320,192,45048,1,0,0:0:0:0:
448,192,45048,1,0,0:0:0:0:
192,192,45137,1,0,0:0:0:0:
320,192,45137,1,0,0:0:0:0:
64,192,45227,1,0,0:0:0:0:
320,192,45227,1,0,0:0:0:0:
448,192,45227,1,0,0:0:0:0:
192,192,45316,1,0,0:0:0:0:
64,192,45405,1,0,0:0:0:0:
320,192,45405,1,0,0:0:0:0:
448,192,45405,1,0,0:0:0:0:
192,192,45495,1,0,0:0:0:0:
64,192,45584,1,0,0:0:0:0:
320,192,45584,1,0,0:0:0:0:
448,192,45584,1,0,0:0:0:0:
192,192,45673,1,0,0:0:0:0:
64,192,45673,1,0,0:0:0:0:
320,192,45762,1,0,0:0:0:0:
448,192,45762,1,0,0:0:0:0:
64,192,45762,1,0,0:0:0:0:
192,192,45852,1,0,0:0:0:0:
64,192,45941,1,0,0:0:0:0:
320,192,45941,1,0,0:0:0:0:
448,192,45941,1,0,0:0:0:0:
192,192,46030,1,0,0:0:0:0:
64,192,46120,1,0,0:0:0:0:
320,192,46120,1,0,0:0:0:0:
448,192,46120,1,0,0:0:0:0:
192,192,46209,1,0,0:0:0:0:
320,192,46209,1,0,0:0:0:0:
64,192,46298,1,0,0:0:0:0:
320,192,46298,1,0,0:0:0:0:
448,192,46298,1,0,0:0:0:0:
192,192,46387,1,0,0:0:0:0:
448,192,46477,1,0,0:0:0:0:
320,192,46477,1,0,0:0:0:0:
64,192,46477,1,0,0:0:0:0:
192,192,46566,1,0,0:0:0:0:
448,192,46655,1,0,0:0:0:0:
320,192,46655,1,0,0:0:0:0:
64,192,46655,1,0,0:0:0:0:
448,192,46745,1,0,0:0:0:0:
320,192,46834,1,0,0:0:0:0:
192,192,46834,1,0,0:0:0:0:
64,192,46834,1,0,0:0:0:0:
448,192,46923,1,0,0:0:0:0:
320,192,47012,1,0,0:0:0:0:
192,192,47012,1,0,0:0:0:0:
64,192,47012,1,0,0:0:0:0:
320,192,47102,1,0,0:0:0:0:
192,192,47191,1,0,0:0:0:0:
64,192,47191,1,0,0:0:0:0:
448,192,47191,1,0,0:0:0:0:
320,192,47280,1,0,0:0:0:0:
192,192,47370,1,0,0:0:0:0:
64,192,47370,1,0,0:0:0:0:
448,192,47370,1,0,0:0:0:0:
320,192,47459,1,0,0:0:0:0:
320,192,47548,1,0,0:0:0:0:
448,192,47548,1,0,0:0:0:0:
64,192,47548,1,0,0:0:0:0:
192,192,47637,1,0,0:0:0:0:
320,192,47727,1,0,0:0:0:0:
448,192,47727,1,0,0:0:0:0:
64,192,47727,1,0,0:0:0:0:
64,192,47816,1,0,0:0:0:0:
192,192,47816,1,0,0:0:0:0:
320,192,47905,1,0,0:0:0:0:
448,192,47905,1,0,0:0:0:0:
64,192,47905,1,0,0:0:0:0:
192,192,47995,1,0,0:0:0:0:
64,192,48084,1,0,0:0:0:0:
320,192,48084,1,0,0:0:0:0:
448,192,48084,1,0,0:0:0:0:
320,192,48262,1,0,0:0:0:0:
448,192,48262,1,0,0:0:0:0:
64,192,48262,1,0,0:0:0:0:
192,192,48352,1,0,0:0:0:0:
320,192,48441,1,0,0:0:0:0:
448,192,48441,1,0,0:0:0:0:
192,192,48530,1,0,0:0:0:0:
64,192,48530,1,0,0:0:0:0:
192,192,48620,1,0,0:0:0:0:
320,192,48620,1,0,0:0:0:0:
320,192,48709,1,0,0:0:0:0:
448,192,48709,1,0,0:0:0:0:
64,192,48798,1,0,0:0:0:0:
192,192,48798,1,0,0:0:0:0:
448,192,48798,1,0,0:0:0:0:
320,192,48887,1,0,0:0:0:0:
192,192,48977,1,0,0:0:0:0:
64,192,48977,1,0,0:0:0:0:
448,192,48977,1,0,0:0:0:0:
320,192,49066,1,0,0:0:0:0:
64,192,49155,1,0,0:0:0:0:
192,192,49155,1,0,0:0:0:0:
448,192,49155,1,0,0:0:0:0:
320,192,49245,1,0,0:0:0:0:
192,192,49334,1,0,0:0:0:0:
64,192,49334,1,0,0:0:0:0:
448,192,49334,1,0,0:0:0:0:
320,192,49423,1,0,0:0:0:0:
192,192,49512,1,0,0:0:0:0:
64,192,49512,1,0,0:0:0:0:
448,192,49512,1,0,0:0:0:0:
320,192,49602,1,0,0:0:0:0:
192,192,49691,1,0,0:0:0:0:
64,192,49691,1,0,0:0:0:0:
448,192,49691,1,0,0:0:0:0:
192,192,49780,1,0,0:0:0:0:
320,192,49870,1,0,0:0:0:0:
448,192,49870,1,0,0:0:0:0:
64,192,49870,1,0,0:0:0:0:
192,192,49959,1,0,0:0:0:0:
320,192,50048,1,0,0:0:0:0:
448,192,50048,1,0,0:0:0:0:
64,192,50048,1,0,0:0:0:0:
192,192,50137,1,0,0:0:0:0:
320,192,50227,1,0,0:0:0:0:
448,192,50227,1,0,0:0:0:0:
64,192,50227,1,0,0:0:0:0:
192,192,50316,1,0,0:0:0:0:
320,192,50405,1,0,0:0:0:0:
448,192,50405,1,0,0:0:0:0:
64,192,50405,1,0,0:0:0:0:
192,192,50495,1,0,0:0:0:0:
320,192,50584,1,0,0:0:0:0:
448,192,50584,1,0,0:0:0:0:
64,192,50584,1,0,0:0:0:0:
192,192,50673,1,0,0:0:0:0:
320,192,50762,1,0,0:0:0:0:
448,192,50762,1,0,0:0:0:0:
64,192,50762,1,0,0:0:0:0:
192,192,50852,1,0,0:0:0:0:
320,192,50941,1,0,0:0:0:0:
448,192,50941,1,0,0:0:0:0:
64,192,50941,1,0,0:0:0:0:
320,192,51030,1,0,0:0:0:0:
192,192,51120,1,0,0:0:0:0:
64,192,51120,1,0,0:0:0:0:
448,192,51120,1,0,0:0:0:0:
320,192,51209,1,0,0:0:0:0:
192,192,51298,1,0,0:0:0:0:
64,192,51298,1,0,0:0:0:0:
448,192,51298,1,0,0:0:0:0:
320,192,51387,1,0,0:0:0:0:
192,192,51477,1,0,0:0:0:0:
64,192,51477,1,0,0:0:0:0:
448,192,51477,1,0,0:0:0:0:
320,192,51566,1,0,0:0:0:0:
192,192,51655,1,0,0:0:0:0:
64,192,51655,1,0,0:0:0:0:
448,192,51655,1,0,0:0:0:0:
320,192,51745,1,0,0:0:0:0:
192,192,51834,1,0,0:0:0:0:
64,192,51834,1,0,0:0:0:0:
448,192,51834,1,0,0:0:0:0:
320,192,51923,1,0,0:0:0:0:
192,192,52012,1,0,0:0:0:0:
64,192,52012,1,0,0:0:0:0:
448,192,52012,1,0,0:0:0:0:
64,192,52102,1,0,0:0:0:0:
192,192,52191,1,0,0:0:0:0:
320,192,52191,1,0,0:0:0:0:
448,192,52191,1,0,0:0:0:0:
448,192,52280,1,0,0:0:0:0:
192,192,52370,1,0,0:0:0:0:
320,192,52370,1,0,0:0:0:0:
64,192,52370,1,0,0:0:0:0:
448,192,52459,1,0,0:0:0:0:
192,192,52548,1,0,0:0:0:0:
320,192,52548,1,0,0:0:0:0:
64,192,52548,1,0,0:0:0:0:
448,192,52637,1,0,0:0:0:0:
192,192,52727,1,0,0:0:0:0:
320,192,52727,1,0,0:0:0:0:
64,192,52727,1,0,0:0:0:0:
448,192,52816,1,0,0:0:0:0:
64,192,52816,1,0,0:0:0:0:
192,192,52905,1,0,0:0:0:0:
320,192,52905,1,0,0:0:0:0:
64,192,52995,1,0,0:0:0:0:
448,192,52995,1,0,0:0:0:0:
192,192,53084,1,0,0:0:0:0:
320,192,53084,1,0,0:0:0:0:
64,192,53173,1,0,0:0:0:0:
320,192,53262,1,0,0:0:0:0:
448,192,53262,1,0,0:0:0:0:
192,192,53262,1,0,0:0:0:0:
64,192,53352,1,0,0:0:0:0:
320,192,53441,1,0,0:0:0:0:
448,192,53441,1,0,0:0:0:0:
192,192,53441,1,0,0:0:0:0:
320,192,53530,1,0,0:0:0:0:
192,192,53620,1,0,0:0:0:0:
64,192,53620,1,0,0:0:0:0:
448,192,53620,1,0,0:0:0:0:
320,192,53709,1,0,0:0:0:0:
192,192,53798,1,0,0:0:0:0:
64,192,53798,1,0,0:0:0:0:
448,192,53798,1,0,0:0:0:0:
448,192,53887,1,0,0:0:0:0:
320,192,53887,1,0,0:0:0:0:
64,192,53887,1,0,0:0:0:0:
192,192,53977,1,0,0:0:0:0:
320,192,54066,1,0,0:0:0:0:
448,192,54066,1,0,0:0:0:0:
64,192,54066,1,0,0:0:0:0:
192,192,54155,1,0,0:0:0:0:
320,192,54245,1,0,0:0:0:0:
448,192,54245,1,0,0:0:0:0:
64,192,54245,1,0,0:0:0:0:
192,192,54334,1,0,0:0:0:0:
320,192,54423,1,0,0:0:0:0:
448,192,54423,1,0,0:0:0:0:
64,192,54423,1,0,0:0:0:0:
192,192,54512,1,0,0:0:0:0:
320,192,54602,1,0,0:0:0:0:
448,192,54602,1,0,0:0:0:0:
64,192,54602,1,0,0:0:0:0:
192,192,54691,1,0,0:0:0:0:
320,192,54780,1,0,0:0:0:0:
448,192,54780,1,0,0:0:0:0:
64,192,54780,1,0,0:0:0:0:
192,192,54870,1,0,0:0:0:0:
320,192,54959,1,0,0:0:0:0:
448,192,54959,1,0,0:0:0:0:
64,192,54959,1,0,0:0:0:0:
192,192,55048,1,0,0:0:0:0:
320,192,55137,1,0,0:0:0:0:
448,192,55137,1,0,0:0:0:0:
64,192,55137,1,0,0:0:0:0:
448,192,55227,1,0,0:0:0:0:
320,192,55316,1,0,0:0:0:0:
192,192,55316,1,0,0:0:0:0:
64,192,55316,1,0,0:0:0:0:
448,192,55405,1,0,0:0:0:0:
320,192,55495,1,0,0:0:0:0:
192,192,55495,1,0,0:0:0:0:
448,192,55495,1,0,0:0:0:0:
64,192,55584,1,0,0:0:0:0:
320,192,55673,1,0,0:0:0:0:
192,192,55673,1,0,0:0:0:0:
448,192,55673,1,0,0:0:0:0:
64,192,55762,1,0,0:0:0:0:
320,192,55852,1,0,0:0:0:0:
192,192,55852,1,0,0:0:0:0:
64,192,55852,1,0,0:0:0:0:
448,192,55941,1,0,0:0:0:0:
320,192,56030,1,0,0:0:0:0:
192,192,56030,1,0,0:0:0:0:
64,192,56030,1,0,0:0:0:0:
448,192,56120,1,0,0:0:0:0:
320,192,56209,1,0,0:0:0:0:
192,192,56209,1,0,0:0:0:0:
64,192,56209,1,0,0:0:0:0:
448,192,56298,1,0,0:0:0:0:
320,192,56387,1,0,0:0:0:0:
192,192,56387,1,0,0:0:0:0:
448,192,56387,1,0,0:0:0:0:
64,192,56477,1,0,0:0:0:0:
320,192,56566,1,0,0:0:0:0:
192,192,56566,1,0,0:0:0:0:
448,192,56566,1,0,0:0:0:0:
64,192,56655,1,0,0:0:0:0:
320,192,56745,1,0,0:0:0:0:
192,192,56745,1,0,0:0:0:0:
64,192,56745,1,0,0:0:0:0:
320,192,56834,1,0,0:0:0:0:
64,192,56923,1,0,0:0:0:0:
192,192,56923,1,0,0:0:0:0:
448,192,56923,1,0,0:0:0:0:
320,192,57012,1,0,0:0:0:0:
64,192,57102,1,0,0:0:0:0:
192,192,57102,1,0,0:0:0:0:
448,192,57102,1,0,0:0:0:0:
320,192,57191,1,0,0:0:0:0:
64,192,57280,1,0,0:0:0:0:
192,192,57280,1,0,0:0:0:0:
448,192,57280,1,0,0:0:0:0:
320,192,57370,1,0,0:0:0:0:
64,192,57459,1,0,0:0:0:0:
192,192,57459,1,0,0:0:0:0:
448,192,57459,1,0,0:0:0:0:
320,192,57548,1,0,0:0:0:0:
64,192,57637,1,0,0:0:0:0:
192,192,57637,1,0,0:0:0:0:
448,192,57637,1,0,0:0:0:0:
320,192,57727,1,0,0:0:0:0:
64,192,57816,1,0,0:0:0:0:
192,192,57816,1,0,0:0:0:0:
448,192,57816,1,0,0:0:0:0:
320,192,57905,1,0,0:0:0:0:
64,192,57995,1,0,0:0:0:0:
192,192,57995,1,0,0:0:0:0:
448,192,57995,1,0,0:0:0:0:
320,192,58084,1,0,0:0:0:0:
64,192,58173,1,0,0:0:0:0:
192,192,58173,1,0,0:0:0:0:
448,192,58173,1,0,0:0:0:0:
320,192,58262,1,0,0:0:0:0:
64,192,58352,1,0,0:0:0:0:
192,192,58352,1,0,0:0:0:0:
448,192,58352,1,0,0:0:0:0:
320,192,58441,1,0,0:0:0:0:
192,192,58530,1,0,0:0:0:0:
64,192,58530,1,0,0:0:0:0:
448,192,58530,1,0,0:0:0:0:
320,192,58620,1,0,0:0:0:0:
192,192,58709,1,0,0:0:0:0:
64,192,58709,1,0,0:0:0:0:
192,192,58798,1,0,0:0:0:0:
320,192,58887,1,0,0:0:0:0:
448,192,58887,1,0,0:0:0:0:
64,192,58887,1,0,0:0:0:0:
192,192,58977,1,0,0:0:0:0:
320,192,59066,1,0,0:0:0:0:
448,192,59066,1,0,0:0:0:0:
64,192,59066,1,0,0:0:0:0:
192,192,59155,1,0,0:0:0:0:
320,192,59245,1,0,0:0:0:0:
448,192,59245,1,0,0:0:0:0:
64,192,59245,1,0,0:0:0:0:
192,192,59334,1,0,0:0:0:0:
320,192,59423,1,0,0:0:0:0:
448,192,59423,1,0,0:0:0:0:
64,192,59423,1,0,0:0:0:0:
320,192,59512,1,0,0:0:0:0:
64,192,59602,1,0,0:0:0:0:
192,192,59602,1,0,0:0:0:0:
448,192,59602,1,0,0:0:0:0:
320,192,59691,1,0,0:0:0:0:
64,192,59780,1,0,0:0:0:0:
192,192,59780,1,0,0:0:0:0:
448,192,59780,1,0,0:0:0:0:
320,192,59870,1,0,0:0:0:0:
64,192,59959,1,0,0:0:0:0:
192,192,59959,1,0,0:0:0:0:
448,192,59959,1,0,0:0:0:0:
320,192,60048,1,0,0:0:0:0:
64,192,60137,1,0,0:0:0:0:
192,192,60137,1,0,0:0:0:0:
448,192,60137,1,0,0:0:0:0:
64,192,60227,1,0,0:0:0:0:
320,192,60316,1,0,0:0:0:0:
192,192,60316,1,0,0:0:0:0:
448,192,60316,1,0,0:0:0:0:
64,192,60405,1,0,0:0:0:0:
320,192,60495,1,0,0:0:0:0:
192,192,60495,1,0,0:0:0:0:
448,192,60495,1,0,0:0:0:0:
64,192,60584,1,0,0:0:0:0:
320,192,60673,1,0,0:0:0:0:
192,192,60673,1,0,0:0:0:0:
64,192,60673,1,0,0:0:0:0:
448,192,60762,1,0,0:0:0:0:
320,192,60852,1,0,0:0:0:0:
192,192,60852,1,0,0:0:0:0:
64,192,60852,1,0,0:0:0:0:
448,192,60941,1,0,0:0:0:0:
320,192,61030,1,0,0:0:0:0:
192,192,61030,1,0,0:0:0:0:
448,192,61030,1,0,0:0:0:0:
64,192,61120,1,0,0:0:0:0:
320,192,61209,1,0,0:0:0:0:
192,192,61209,1,0,0:0:0:0:
448,192,61209,1,0,0:0:0:0:
320,192,61298,1,0,0:0:0:0:
192,192,61387,1,0,0:0:0:0:
64,192,61387,1,0,0:0:0:0:
448,192,61387,1,0,0:0:0:0:
320,192,61477,1,0,0:0:0:0:
192,192,61566,1,0,0:0:0:0:
64,192,61566,1,0,0:0:0:0:
448,192,61566,1,0,0:0:0:0:
320,192,61655,1,0,0:0:0:0:
192,192,61745,1,0,0:0:0:0:
64,192,61745,1,0,0:0:0:0:
448,192,61745,1,0,0:0:0:0:
320,192,61834,1,0,0:0:0:0:
192,192,61923,1,0,0:0:0:0:
64,192,61923,1,0,0:0:0:0:
448,192,61923,1,0,0:0:0:0:
192,192,62012,1,0,0:0:0:0:
320,192,62102,1,0,0:0:0:0:
448,192,62102,1,0,0:0:0:0:
64,192,62102,1,0,0:0:0:0:
192,192,62191,1,0,0:0:0:0:
320,192,62280,1,0,0:0:0:0:
448,192,62280,1,0,0:0:0:0:
64,192,62280,1,0,0:0:0:0:
192,192,62370,1,0,0:0:0:0:
320,192,62459,1,0,0:0:0:0:
448,192,62459,1,0,0:0:0:0:
64,192,62459,1,0,0:0:0:0:
192,192,62548,1,0,0:0:0:0:
320,192,62637,1,0,0:0:0:0:
448,192,62637,1,0,0:0:0:0:
64,192,62637,1,0,0:0:0:0:
192,192,62727,1,0,0:0:0:0:
320,192,62816,1,0,0:0:0:0:
448,192,62816,1,0,0:0:0:0:
64,192,62816,1,0,0:0:0:0:
320,192,62905,1,0,0:0:0:0:
192,192,62995,1,0,0:0:0:0:
64,192,62995,1,0,0:0:0:0:
448,192,62995,1,0,0:0:0:0:
320,192,63084,1,0,0:0:0:0:
192,192,63173,1,0,0:0:0:0:
64,192,63173,1,0,0:0:0:0:
448,192,63173,1,0,0:0:0:0:
320,192,63262,1,0,0:0:0:0:
192,192,63352,1,0,0:0:0:0:
64,192,63352,1,0,0:0:0:0:
448,192,63352,1,0,0:0:0:0:
320,192,63441,1,0,0:0:0:0:
192,192,63530,1,0,0:0:0:0:
64,192,63530,1,0,0:0:0:0:
448,192,63530,1,0,0:0:0:0:
320,192,63620,1,0,0:0:0:0:
192,192,63709,1,0,0:0:0:0:
64,192,63709,1,0,0:0:0:0:
448,192,63709,1,0,0:0:0:0:
64,192,63798,1,0,0:0:0:0:
192,192,63887,1,0,0:0:0:0:
320,192,63887,1,0,0:0:0:0:
448,192,63887,1,0,0:0:0:0:
64,192,63977,1,0,0:0:0:0:
192,192,64066,1,0,0:0:0:0:
320,192,64066,1,0,0:0:0:0:
448,192,64066,1,0,0:0:0:0:
64,192,64155,1,0,0:0:0:0:
192,192,64245,1,0,0:0:0:0:
320,192,64245,1,0,0:0:0:0:
64,192,64245,1,0,0:0:0:0:
448,192,64334,1,0,0:0:0:0:
192,192,64423,1,0,0:0:0:0:
320,192,64423,1,0,0:0:0:0:
64,192,64423,1,0,0:0:0:0:
448,192,64512,1,0,0:0:0:0:
192,192,64602,1,0,0:0:0:0:
320,192,64602,1,0,0:0:0:0:
64,192,64602,1,0,0:0:0:0:
448,192,64691,1,0,0:0:0:0:
192,192,64780,1,0,0:0:0:0:
320,192,64780,1,0,0:0:0:0:
448,192,64780,1,0,0:0:0:0:
320,192,64870,1,0,0:0:0:0:
192,192,64959,1,0,0:0:0:0:
64,192,64959,1,0,0:0:0:0:
448,192,64959,1,0,0:0:0:0:
192,192,65048,1,0,0:0:0:0:
320,192,65137,1,0,0:0:0:0:
448,192,65137,1,0,0:0:0:0:
64,192,65137,1,0,0:0:0:0:
320,192,65227,1,0,0:0:0:0:
192,192,65316,1,0,0:0:0:0:
64,192,65316,1,0,0:0:0:0:
448,192,65316,1,0,0:0:0:0:
320,192,65405,1,0,0:0:0:0:
64,192,65495,1,0,0:0:0:0:
192,192,65495,1,0,0:0:0:0:
448,192,65495,1,0,0:0:0:0:
320,192,65584,1,0,0:0:0:0:
192,192,65673,1,0,0:0:0:0:
64,192,65673,1,0,0:0:0:0:
448,192,65673,1,0,0:0:0:0:
64,192,65762,1,0,0:0:0:0:
320,192,65852,1,0,0:0:0:0:
448,192,65852,1,0,0:0:0:0:
192,192,65852,1,0,0:0:0:0:
64,192,65941,1,0,0:0:0:0:
320,192,66030,1,0,0:0:0:0:
448,192,66030,1,0,0:0:0:0:
192,192,66030,1,0,0:0:0:0:
64,192,66120,1,0,0:0:0:0:
320,192,66209,1,0,0:0:0:0:
448,192,66209,1,0,0:0:0:0:
192,192,66209,1,0,0:0:0:0:
64,192,66298,1,0,0:0:0:0:
192,192,66298,1,0,0:0:0:0:
320,192,66298,1,0,0:0:0:0:
448,192,66387,1,0,0:0:0:0:
192,192,66477,1,0,0:0:0:0:
64,192,66477,1,0,0:0:0:0:
320,192,66477,1,0,0:0:0:0:
448,192,66566,1,0,0:0:0:0:
192,192,66655,1,0,0:0:0:0:
64,192,66655,1,0,0:0:0:0:
320,192,66655,1,0,0:0:0:0:
448,192,66745,1,0,0:0:0:0:
192,192,66834,1,0,0:0:0:0:
64,192,66834,1,0,0:0:0:0:
320,192,66834,1,0,0:0:0:0:
192,192,66923,1,0,0:0:0:0:
320,192,67012,1,0,0:0:0:0:
448,192,67012,1,0,0:0:0:0:
64,192,67012,1,0,0:0:0:0:
192,192,67102,1,0,0:0:0:0:
320,192,67191,1,0,0:0:0:0:
448,192,67191,1,0,0:0:0:0:
64,192,67191,1,0,0:0:0:0:
192,192,67280,1,0,0:0:0:0:
320,192,67370,1,0,0:0:0:0:
448,192,67370,1,0,0:0:0:0:
64,192,67370,1,0,0:0:0:0:
192,192,67459,1,0,0:0:0:0:
320,192,67548,1,0,0:0:0:0:
448,192,67548,1,0,0:0:0:0:
64,192,67548,1,0,0:0:0:0:
192,192,67637,1,0,0:0:0:0:
320,192,67727,1,0,0:0:0:0:
448,192,67727,1,0,0:0:0:0:
64,192,67727,1,0,0:0:0:0:
192,192,67816,1,0,0:0:0:0:
448,192,67905,1,0,0:0:0:0:
320,192,67905,1,0,0:0:0:0:
64,192,67905,1,0,0:0:0:0:
192,192,67995,1,0,0:0:0:0:
448,192,68084,1,0,0:0:0:0:
320,192,68084,1,0,0:0:0:0:
64,192,68084,1,0,0:0:0:0:
192,192,68173,1,0,0:0:0:0:
448,192,68262,1,0,0:0:0:0:
320,192,68262,1,0,0:0:0:0:
64,192,68262,1,0,0:0:0:0:
448,192,68352,1,0,0:0:0:0:
64,192,68441,1,0,0:0:0:0:
192,192,68441,1,0,0:0:0:0:
320,192,68441,1,0,0:0:0:0:
448,192,68530,1,0,0:0:0:0:
64,192,68620,1,0,0:0:0:0:
192,192,68620,1,0,0:0:0:0:
320,192,68620,1,0,0:0:0:0:
448,192,68709,1,0,0:0:0:0:
64,192,68798,1,0,0:0:0:0:
192,192,68798,1,0,0:0:0:0:
320,192,68798,1,0,0:0:0:0:
448,192,68887,1,0,0:0:0:0:
64,192,68977,1,0,0:0:0:0:
192,192,68977,1,0,0:0:0:0:
320,192,68977,1,0,0:0:0:0:
448,192,69066,1,0,0:0:0:0:
192,192,69155,1,0,0:0:0:0:
64,192,69155,1,0,0:0:0:0:
320,192,69155,1,0,0:0:0:0:
448,192,69245,1,0,0:0:0:0:
320,192,69334,1,0,0:0:0:0:
64,192,69334,1,0,0:0:0:0:
192,192,69334,1,0,0:0:0:0:
448,192,69423,1,0,0:0:0:0:
320,192,69512,1,0,0:0:0:0:
192,192,69512,1,0,0:0:0:0:
64,192,69512,1,0,0:0:0:0:
448,192,69602,1,0,0:0:0:0:
320,192,69691,1,0,0:0:0:0:
64,192,69691,1,0,0:0:0:0:
192,192,69691,1,0,0:0:0:0:
64,192,69780,1,0,0:0:0:0:
192,192,69870,1,0,0:0:0:0:
320,192,69870,1,0,0:0:0:0:
448,192,69870,1,0,0:0:0:0:
64,192,69959,1,0,0:0:0:0:
320,192,70048,1,0,0:0:0:0:
448,192,70048,1,0,0:0:0:0:
192,192,70048,1,0,0:0:0:0:
64,192,70137,1,0,0:0:0:0:
448,192,70227,1,0,0:0:0:0:
192,192,70227,1,0,0:0:0:0:
64,192,70227,1,0,0:0:0:0:
320,192,70423,1,0,0:0:0:0:
448,192,70423,1,0,0:0:0:0:
64,192,70495,1,0,0:0:0:0:
192,192,70495,1,0,0:0:0:0:
320,192,70584,1,0,0:0:0:0:
448,192,70584,1,0,0:0:0:0:
192,192,70673,1,0,0:0:0:0:
64,192,70673,1,0,0:0:0:0:
320,192,70762,1,0,0:0:0:0:
448,192,70762,1,0,0:0:0:0:
192,192,70852,1,0,0:0:0:0:
64,192,70852,1,0,0:0:0:0:
320,192,70941,1,0,0:0:0:0:
448,192,70941,1,0,0:0:0:0:
192,192,71030,1,0,0:0:0:0:
64,192,71030,1,0,0:0:0:0:
320,192,71066,1,0,0:0:0:0:
448,192,71066,1,0,0:0:0:0:
192,192,71137,1,0,0:0:0:0:
64,192,71137,1,0,0:0:0:0:
320,192,71209,1,0,0:0:0:0:
448,192,71209,1,0,0:0:0:0:
192,192,71280,1,0,0:0:0:0:
64,192,71280,1,0,0:0:0:0:
320,192,71352,1,0,0:0:0:0:
448,192,71352,1,0,0:0:0:0:
64,192,71423,1,0,0:0:0:0:
192,192,71423,1,0,0:0:0:0:
192,192,71566,128,0,72352:0:0:0:0:
64,192,71566,128,0,72352:0:0:0:0:
320,192,72459,1,0,0:0:0:0:
320,192,72637,1,0,0:0:0:0:
320,192,72816,1,0,0:0:0:0:
64,192,72995,1,0,0:0:0:0:
192,192,72995,1,0,0:0:0:0:
320,192,73173,1,0,0:0:0:0:
64,192,73173,1,0,0:0:0:0:
320,192,73352,1,0,0:0:0:0:
448,192,73352,1,0,0:0:0:0:
192,192,73530,1,0,0:0:0:0:
64,192,73530,1,0,0:0:0:0:
320,192,73709,1,0,0:0:0:0:
64,192,73709,1,0,0:0:0:0:
320,192,73887,1,0,0:0:0:0:
448,192,73887,1,0,0:0:0:0:
64,192,74066,1,0,0:0:0:0:
448,192,74066,1,0,0:0:0:0:
192,192,74245,1,0,0:0:0:0:
64,192,74245,1,0,0:0:0:0:
192,192,74423,1,0,0:0:0:0:
320,192,74423,1,0,0:0:0:0:
64,192,74602,1,0,0:0:0:0:
448,192,74602,1,0,0:0:0:0:
192,192,74780,1,0,0:0:0:0:
448,192,74780,1,0,0:0:0:0:
192,192,74959,1,0,0:0:0:0:
64,192,74959,1,0,0:0:0:0:
320,192,75137,1,0,0:0:0:0:
448,192,75137,1,0,0:0:0:0:
192,192,75316,1,0,0:0:0:0:
64,192,75316,1,0,0:0:0:0:
320,192,75495,1,0,0:0:0:0:
448,192,75495,1,0,0:0:0:0:
192,192,75673,1,0,0:0:0:0:
64,192,75673,1,0,0:0:0:0:
448,192,75852,1,0,0:0:0:0:
64,192,75852,1,0,0:0:0:0:
192,192,76030,1,0,0:0:0:0:
64,192,76030,1,0,0:0:0:0:
448,192,76209,1,0,0:0:0:0:
192,192,76209,1,0,0:0:0:0:
448,192,76387,1,0,0:0:0:0:
64,192,76387,1,0,0:0:0:0:
320,192,76566,1,0,0:0:0:0:
192,192,76566,1,0,0:0:0:0:
64,192,76745,1,0,0:0:0:0:
192,192,76745,1,0,0:0:0:0:
320,192,76745,1,0,0:0:0:0:
448,192,76923,1,0,0:0:0:0:
192,192,76923,1,0,0:0:0:0:
64,192,76923,1,0,0:0:0:0:
320,192,77102,1,0,0:0:0:0:
448,192,77102,1,0,0:0:0:0:
192,192,77102,1,0,0:0:0:0:
64,192,77280,1,0,0:0:0:0:
192,192,77280,1,0,0:0:0:0:
320,192,77280,1,0,0:0:0:0:
448,192,77459,1,0,0:0:0:0:
320,192,77459,1,0,0:0:0:0:
64,192,77459,1,0,0:0:0:0:
192,192,77637,1,0,0:0:0:0:
64,192,77637,1,0,0:0:0:0:
448,192,77637,1,0,0:0:0:0:
320,192,77816,1,0,0:0:0:0:
192,192,77816,1,0,0:0:0:0:
64,192,77816,1,0,0:0:0:0:
192,192,77995,1,0,0:0:0:0:
320,192,77995,1,0,0:0:0:0:
448,192,77995,1,0,0:0:0:0:
320,192,78173,1,0,0:0:0:0:
192,192,78173,1,0,0:0:0:0:
64,192,78173,1,0,0:0:0:0:
192,192,78352,1,0,0:0:0:0:
448,192,78352,1,0,0:0:0:0:
64,192,78352,1,0,0:0:0:0:
192,192,78530,1,0,0:0:0:0:
448,192,78530,1,0,0:0:0:0:
64,192,78530,1,0,0:0:0:0:
448,192,78709,1,0,0:0:0:0:
320,192,78709,1,0,0:0:0:0:
64,192,78709,1,0,0:0:0:0:
192,192,78887,1,0,0:0:0:0:
64,192,78887,1,0,0:0:0:0:
320,192,78887,1,0,0:0:0:0:
448,192,79066,1,0,0:0:0:0:
64,192,79066,1,0,0:0:0:0:
192,192,79066,1,0,0:0:0:0:
192,192,79245,1,0,0:0:0:0:
320,192,79245,1,0,0:0:0:0:
448,192,79245,1,0,0:0:0:0:
448,192,79423,1,0,0:0:0:0:
64,192,79423,1,0,0:0:0:0:
192,192,79423,1,0,0:0:0:0:
192,192,79602,1,0,0:0:0:0:
320,192,79602,1,0,0:0:0:0:
448,192,79602,1,0,0:0:0:0:
320,192,79780,1,0,0:0:0:0:
192,192,79780,1,0,0:0:0:0:
64,192,79780,1,0,0:0:0:0:
192,192,79959,1,0,0:0:0:0:
320,192,79959,1,0,0:0:0:0:
448,192,79959,1,0,0:0:0:0:
448,192,80137,1,0,0:0:0:0:
320,192,80137,1,0,0:0:0:0:
64,192,80137,1,0,0:0:0:0:
64,192,80316,1,0,0:0:0:0:
320,192,80316,1,0,0:0:0:0:
192,192,80316,1,0,0:0:0:0:
192,192,80495,1,0,0:0:0:0:
320,192,80495,1,0,0:0:0:0:
448,192,80495,1,0,0:0:0:0:
320,192,80673,1,0,0:0:0:0:
192,192,80673,1,0,0:0:0:0:
64,192,80673,1,0,0:0:0:0:
320,192,80852,1,0,0:0:0:0:
448,192,80852,1,0,0:0:0:0:
64,192,80852,1,0,0:0:0:0:
192,192,81030,1,0,0:0:0:0:
320,192,81030,1,0,0:0:0:0:
448,192,81030,1,0,0:0:0:0:
64,192,81209,1,0,0:0:0:0:
192,192,81209,1,0,0:0:0:0:
448,192,81209,1,0,0:0:0:0:
320,192,81387,1,0,0:0:0:0:
64,192,81387,1,0,0:0:0:0:
192,192,81387,1,0,0:0:0:0:
320,192,81566,1,0,0:0:0:0:
192,192,81566,1,0,0:0:0:0:
448,192,81566,1,0,0:0:0:0:
448,192,81745,1,0,0:0:0:0:
64,192,81745,1,0,0:0:0:0:
192,192,81745,1,0,0:0:0:0:
192,192,81923,1,0,0:0:0:0:
320,192,81923,1,0,0:0:0:0:
448,192,81923,1,0,0:0:0:0:
64,192,82102,1,0,0:0:0:0:
448,192,82102,1,0,0:0:0:0:
320,192,82102,1,0,0:0:0:0:
64,192,82280,1,0,0:0:0:0:
192,192,82280,1,0,0:0:0:0:
320,192,82280,1,0,0:0:0:0:
448,192,82459,1,0,0:0:0:0:
320,192,82459,1,0,0:0:0:0:
192,192,82459,1,0,0:0:0:0:
64,192,82637,1,0,0:0:0:0:
320,192,82637,1,0,0:0:0:0:
448,192,82637,1,0,0:0:0:0:
448,192,82816,1,0,0:0:0:0:
320,192,82816,1,0,0:0:0:0:
64,192,82816,1,0,0:0:0:0:
64,192,82995,1,0,0:0:0:0:
448,192,82995,1,0,0:0:0:0:
320,192,82995,1,0,0:0:0:0:
448,192,83173,1,0,0:0:0:0:
320,192,83173,1,0,0:0:0:0:
64,192,83173,1,0,0:0:0:0:
64,192,83352,1,0,0:0:0:0:
192,192,83352,1,0,0:0:0:0:
448,192,83352,1,0,0:0:0:0:
448,192,83530,1,0,0:0:0:0:
320,192,83530,1,0,0:0:0:0:
192,192,83530,1,0,0:0:0:0:
64,192,83709,1,0,0:0:0:0:
192,192,83709,1,0,0:0:0:0:
320,192,83709,1,0,0:0:0:0:
448,192,83798,128,0,84245:0:0:0:0:
64,192,83798,128,0,84245:0:0:0:0:
192,192,83798,128,0,84245:0:0:0:0:
448,192,84334,1,0,0:0:0:0:
64,192,84334,1,0,0:0:0:0:
192,192,84334,1,0,0:0:0:0:
320,192,84423,1,0,0:0:0:0:
64,192,84512,1,0,0:0:0:0:
192,192,84512,1,0,0:0:0:0:
448,192,84512,1,0,0:0:0:0:
320,192,84602,1,0,0:0:0:0:
64,192,84691,1,0,0:0:0:0:
192,192,84691,1,0,0:0:0:0:
448,192,84691,1,0,0:0:0:0:
320,192,84780,1,0,0:0:0:0:
64,192,84780,1,0,0:0:0:0:
64,192,84870,1,0,0:0:0:0:
192,192,84870,1,0,0:0:0:0:
448,192,84870,1,0,0:0:0:0:
320,192,84959,1,0,0:0:0:0:
64,192,85048,1,0,0:0:0:0:
192,192,85048,1,0,0:0:0:0:
448,192,85048,1,0,0:0:0:0:
320,192,85137,1,0,0:0:0:0:
64,192,85227,1,0,0:0:0:0:
192,192,85227,1,0,0:0:0:0:
448,192,85227,1,0,0:0:0:0:
320,192,85316,1,0,0:0:0:0:
448,192,85316,1,0,0:0:0:0:
64,192,85405,1,0,0:0:0:0:
192,192,85405,1,0,0:0:0:0:
448,192,85405,1,0,0:0:0:0:
320,192,85495,1,0,0:0:0:0:
64,192,85584,1,0,0:0:0:0:
192,192,85584,1,0,0:0:0:0:
448,192,85584,1,0,0:0:0:0:
320,192,85673,1,0,0:0:0:0:
64,192,85762,1,0,0:0:0:0:
192,192,85762,1,0,0:0:0:0:
448,192,85762,1,0,0:0:0:0:
192,192,85852,1,0,0:0:0:0:
320,192,85852,1,0,0:0:0:0:
64,192,85941,1,0,0:0:0:0:
192,192,85941,1,0,0:0:0:0:
448,192,85941,1,0,0:0:0:0:
320,192,86030,1,0,0:0:0:0:
448,192,86030,1,0,0:0:0:0:
192,192,86030,1,0,0:0:0:0:
64,192,86120,1,0,0:0:0:0:
320,192,86209,1,0,0:0:0:0:
448,192,86209,1,0,0:0:0:0:
192,192,86209,1,0,0:0:0:0:
64,192,86298,1,0,0:0:0:0:
320,192,86387,1,0,0:0:0:0:
448,192,86387,1,0,0:0:0:0:
192,192,86387,1,0,0:0:0:0:
64,192,86477,1,0,0:0:0:0:
320,192,86566,1,0,0:0:0:0:
448,192,86566,1,0,0:0:0:0:
192,192,86566,1,0,0:0:0:0:
64,192,86566,1,0,0:0:0:0:
64,192,86655,1,0,0:0:0:0:
448,192,86745,1,0,0:0:0:0:
320,192,86745,1,0,0:0:0:0:
192,192,86745,1,0,0:0:0:0:
192,192,86834,1,0,0:0:0:0:
320,192,86923,1,0,0:0:0:0:
448,192,86923,1,0,0:0:0:0:
64,192,86923,1,0,0:0:0:0:
192,192,87012,1,0,0:0:0:0:
320,192,87012,1,0,0:0:0:0:
320,192,87102,1,0,0:0:0:0:
448,192,87102,1,0,0:0:0:0:
64,192,87102,1,0,0:0:0:0:
192,192,87191,1,0,0:0:0:0:
320,192,87280,1,0,0:0:0:0:
448,192,87280,1,0,0:0:0:0:
64,192,87280,1,0,0:0:0:0:
192,192,87370,1,0,0:0:0:0:
448,192,87370,1,0,0:0:0:0:
448,192,87459,1,0,0:0:0:0:
320,192,87459,1,0,0:0:0:0:
64,192,87459,1,0,0:0:0:0:
192,192,87548,1,0,0:0:0:0:
448,192,87637,1,0,0:0:0:0:
320,192,87637,1,0,0:0:0:0:
64,192,87637,1,0,0:0:0:0:
192,192,87727,1,0,0:0:0:0:
448,192,87816,1,0,0:0:0:0:
320,192,87816,1,0,0:0:0:0:
64,192,87816,1,0,0:0:0:0:
192,192,87905,1,0,0:0:0:0:
320,192,87905,1,0,0:0:0:0:
448,192,87995,1,0,0:0:0:0:
320,192,87995,1,0,0:0:0:0:
64,192,87995,1,0,0:0:0:0:
64,192,88084,1,0,0:0:0:0:
192,192,88084,1,0,0:0:0:0:
448,192,88084,1,0,0:0:0:0:
320,192,88173,1,0,0:0:0:0:
64,192,88262,1,0,0:0:0:0:
192,192,88262,1,0,0:0:0:0:
448,192,88262,1,0,0:0:0:0:
320,192,88352,1,0,0:0:0:0:
64,192,88441,1,0,0:0:0:0:
192,192,88441,1,0,0:0:0:0:
448,192,88441,1,0,0:0:0:0:
320,192,88530,1,0,0:0:0:0:
64,192,88620,1,0,0:0:0:0:
192,192,88620,1,0,0:0:0:0:
448,192,88620,1,0,0:0:0:0:
320,192,88709,1,0,0:0:0:0:
64,192,88798,1,0,0:0:0:0:
192,192,88798,1,0,0:0:0:0:
320,192,88798,1,0,0:0:0:0:
448,192,88798,1,0,0:0:0:0:
448,192,88887,1,0,0:0:0:0:
192,192,88887,1,0,0:0:0:0:
64,192,88977,1,0,0:0:0:0:
192,192,88977,1,0,0:0:0:0:
320,192,88977,1,0,0:0:0:0:
448,192,89066,1,0,0:0:0:0:
64,192,89155,1,0,0:0:0:0:
192,192,89155,1,0,0:0:0:0:
320,192,89155,1,0,0:0:0:0:
448,192,89245,1,0,0:0:0:0:
64,192,89334,1,0,0:0:0:0:
192,192,89334,1,0,0:0:0:0:
320,192,89334,1,0,0:0:0:0:
448,192,89423,1,0,0:0:0:0:
64,192,89423,1,0,0:0:0:0:
64,192,89512,1,0,0:0:0:0:
192,192,89512,1,0,0:0:0:0:
320,192,89512,1,0,0:0:0:0:
320,192,89602,1,0,0:0:0:0:
64,192,89691,1,0,0:0:0:0:
192,192,89691,1,0,0:0:0:0:
448,192,89691,1,0,0:0:0:0:
320,192,89780,1,0,0:0:0:0:
192,192,89870,1,0,0:0:0:0:
64,192,89870,1,0,0:0:0:0:
448,192,89870,1,0,0:0:0:0:
320,192,89959,1,0,0:0:0:0:
192,192,90048,1,0,0:0:0:0:
64,192,90048,1,0,0:0:0:0:
448,192,90048,1,0,0:0:0:0:
320,192,90137,1,0,0:0:0:0:
192,192,90137,1,0,0:0:0:0:
192,192,90227,1,0,0:0:0:0:
64,192,90227,1,0,0:0:0:0:
448,192,90227,1,0,0:0:0:0:
320,192,90316,1,0,0:0:0:0:
448,192,90316,1,0,0:0:0:0:
192,192,90316,1,0,0:0:0:0:
64,192,90405,1,0,0:0:0:0:
320,192,90495,1,0,0:0:0:0:
448,192,90495,1,0,0:0:0:0:
192,192,90495,1,0,0:0:0:0:
64,192,90584,1,0,0:0:0:0:
320,192,90673,1,0,0:0:0:0:
448,192,90673,1,0,0:0:0:0:
192,192,90673,1,0,0:0:0:0:
64,192,90762,1,0,0:0:0:0:
320,192,90762,1,0,0:0:0:0:
320,192,90852,1,0,0:0:0:0:
448,192,90852,1,0,0:0:0:0:
192,192,90852,1,0,0:0:0:0:
192,192,90941,1,0,0:0:0:0:
320,192,90941,1,0,0:0:0:0:
64,192,90941,1,0,0:0:0:0:
448,192,91030,1,0,0:0:0:0:
192,192,91120,1,0,0:0:0:0:
320,192,91120,1,0,0:0:0:0:
448,192,91120,1,0,0:0:0:0:
64,192,91209,1,0,0:0:0:0:
192,192,91298,1,0,0:0:0:0:
320,192,91298,1,0,0:0:0:0:
448,192,91298,1,0,0:0:0:0:
64,192,91387,1,0,0:0:0:0:
320,192,91387,1,0,0:0:0:0:
192,192,91477,1,0,0:0:0:0:
320,192,91477,1,0,0:0:0:0:
448,192,91477,1,0,0:0:0:0:
64,192,91566,1,0,0:0:0:0:
192,192,91655,1,0,0:0:0:0:
320,192,91655,1,0,0:0:0:0:
64,192,91655,1,0,0:0:0:0:
448,192,91745,1,0,0:0:0:0:
192,192,91834,1,0,0:0:0:0:
320,192,91834,1,0,0:0:0:0:
448,192,91834,1,0,0:0:0:0:
64,192,91923,1,0,0:0:0:0:
192,192,92012,1,0,0:0:0:0:
320,192,92012,1,0,0:0:0:0:
64,192,92012,1,0,0:0:0:0:
448,192,92012,1,0,0:0:0:0:
320,192,92102,1,0,0:0:0:0:
192,192,92191,1,0,0:0:0:0:
320,192,92191,1,0,0:0:0:0:
64,192,92191,1,0,0:0:0:0:
448,192,92280,1,0,0:0:0:0:
192,192,92280,1,0,0:0:0:0:
64,192,92280,1,0,0:0:0:0:
192,192,92370,1,0,0:0:0:0:
64,192,92459,1,0,0:0:0:0:
320,192,92459,1,0,0:0:0:0:
448,192,92459,1,0,0:0:0:0:
320,192,92548,1,0,0:0:0:0:
192,192,92548,1,0,0:0:0:0:
64,192,92548,1,0,0:0:0:0:
448,192,92637,1,0,0:0:0:0:
320,192,92727,1,0,0:0:0:0:
192,192,92727,1,0,0:0:0:0:
64,192,92727,1,0,0:0:0:0:
448,192,92816,1,0,0:0:0:0:
192,192,92816,1,0,0:0:0:0:
64,192,92816,1,0,0:0:0:0:
320,192,92905,1,0,0:0:0:0:
192,192,92995,1,0,0:0:0:0:
448,192,92995,1,0,0:0:0:0:
320,192,92995,1,0,0:0:0:0:
64,192,93084,1,0,0:0:0:0:
192,192,93084,1,0,0:0:0:0:
320,192,93084,1,0,0:0:0:0:
64,192,93173,1,0,0:0:0:0:
192,192,93262,1,0,0:0:0:0:
448,192,93262,1,0,0:0:0:0:
320,192,93262,1,0,0:0:0:0:
320,192,93352,1,0,0:0:0:0:
64,192,93352,1,0,0:0:0:0:
448,192,93352,1,0,0:0:0:0:
192,192,93441,1,0,0:0:0:0:
64,192,93530,1,0,0:0:0:0:
192,192,93530,1,0,0:0:0:0:
320,192,93530,1,0,0:0:0:0:
320,192,93620,1,0,0:0:0:0:
64,192,93620,1,0,0:0:0:0:
448,192,93620,1,0,0:0:0:0:
192,192,93709,1,0,0:0:0:0:
448,192,93798,1,0,0:0:0:0:
320,192,93798,1,0,0:0:0:0:
64,192,93798,1,0,0:0:0:0:
192,192,93887,1,0,0:0:0:0:
320,192,93887,1,0,0:0:0:0:
448,192,93887,1,0,0:0:0:0:
64,192,93977,1,0,0:0:0:0:
448,192,93977,1,0,0:0:0:0:
320,192,94066,1,0,0:0:0:0:
192,192,94066,1,0,0:0:0:0:
64,192,94155,1,0,0:0:0:0:
320,192,94245,1,0,0:0:0:0:
192,192,94245,1,0,0:0:0:0:
448,192,94245,1,0,0:0:0:0:
64,192,94334,1,0,0:0:0:0:
192,192,94423,1,0,0:0:0:0:
320,192,94423,1,0,0:0:0:0:
448,192,94423,1,0,0:0:0:0:
448,192,94512,128,0,96655:0:0:0:0:
192,192,94512,128,0,96655:0:0:0:0:
64,192,94512,128,0,96655:0:0:0:0:
448,192,96923,1,0,0:0:0:0:
192,192,96923,1,0,0:0:0:0:
64,192,97102,1,0,0:0:0:0:
320,192,97102,1,0,0:0:0:0:
192,192,97280,1,0,0:0:0:0:
320,192,97280,1,0,0:0:0:0:
448,192,97280,1,0,0:0:0:0:
192,192,97459,1,0,0:0:0:0:
64,192,97459,1,0,0:0:0:0:
448,192,97459,1,0,0:0:0:0:
320,192,97637,1,0,0:0:0:0:
192,192,97637,1,0,0:0:0:0:
64,192,97637,1,0,0:0:0:0:
192,192,97816,1,0,0:0:0:0:
320,192,97816,1,0,0:0:0:0:
448,192,97816,1,0,0:0:0:0:
64,192,97995,1,0,0:0:0:0:
192,192,97995,1,0,0:0:0:0:
320,192,97995,1,0,0:0:0:0:
448,192,98173,1,0,0:0:0:0:
320,192,98173,1,0,0:0:0:0:
64,192,98173,1,0,0:0:0:0:
64,192,98352,1,0,0:0:0:0:
192,192,98352,1,0,0:0:0:0:
320,192,98352,1,0,0:0:0:0:
448,192,98530,1,0,0:0:0:0:
64,192,98530,1,0,0:0:0:0:
192,192,98530,1,0,0:0:0:0:
192,192,98709,1,0,0:0:0:0:
320,192,98709,1,0,0:0:0:0:
448,192,98709,1,0,0:0:0:0:
320,192,98887,1,0,0:0:0:0:
192,192,98887,1,0,0:0:0:0:
64,192,98887,1,0,0:0:0:0:
192,192,99066,1,0,0:0:0:0:
448,192,99066,1,0,0:0:0:0:
64,192,99066,1,0,0:0:0:0:
192,192,99245,1,0,0:0:0:0:
320,192,99245,1,0,0:0:0:0:
448,192,99245,1,0,0:0:0:0:
448,192,99423,1,0,0:0:0:0:
320,192,99423,1,0,0:0:0:0:
64,192,99423,1,0,0:0:0:0:
192,192,99602,1,0,0:0:0:0:
448,192,99602,1,0,0:0:0:0:
64,192,99602,1,0,0:0:0:0:
448,192,99780,1,0,0:0:0:0:
64,192,99780,1,0,0:0:0:0:
320,192,99780,1,0,0:0:0:0:
64,192,99959,1,0,0:0:0:0:
192,192,99959,1,0,0:0:0:0:
320,192,99959,1,0,0:0:0:0:
448,192,100137,1,0,0:0:0:0:
320,192,100137,1,0,0:0:0:0:
192,192,100137,1,0,0:0:0:0:
64,192,100316,1,0,0:0:0:0:
448,192,100316,1,0,0:0:0:0:
320,192,100316,1,0,0:0:0:0:
64,192,100495,1,0,0:0:0:0:
192,192,100495,1,0,0:0:0:0:
448,192,100495,1,0,0:0:0:0:
448,192,100673,1,0,0:0:0:0:
192,192,100673,1,0,0:0:0:0:
320,192,100673,1,0,0:0:0:0:
64,192,100852,1,0,0:0:0:0:
320,192,100852,1,0,0:0:0:0:
448,192,100852,1,0,0:0:0:0:
320,192,101030,1,0,0:0:0:0:
64,192,101030,1,0,0:0:0:0:
192,192,101030,1,0,0:0:0:0:
448,192,101209,1,0,0:0:0:0:
320,192,101209,1,0,0:0:0:0:
192,192,101209,1,0,0:0:0:0:
64,192,101387,1,0,0:0:0:0:
192,192,101387,1,0,0:0:0:0:
320,192,101387,1,0,0:0:0:0:
448,192,101566,1,0,0:0:0:0:
320,192,101566,1,0,0:0:0:0:
64,192,101566,1,0,0:0:0:0:
64,192,101745,1,0,0:0:0:0:
192,192,101745,1,0,0:0:0:0:
448,192,101745,1,0,0:0:0:0:
448,192,101923,1,0,0:0:0:0:
320,192,101923,1,0,0:0:0:0:
192,192,101923,1,0,0:0:0:0:
64,192,102102,1,0,0:0:0:0:
192,192,102102,1,0,0:0:0:0:
448,192,102102,1,0,0:0:0:0:
192,192,102280,1,0,0:0:0:0:
64,192,102280,1,0,0:0:0:0:
320,192,102280,1,0,0:0:0:0:
192,192,102459,1,0,0:0:0:0:
320,192,102459,1,0,0:0:0:0:
448,192,102459,1,0,0:0:0:0:
192,192,102637,1,0,0:0:0:0:
64,192,102637,1,0,0:0:0:0:
448,192,102637,1,0,0:0:0:0:
448,192,102816,1,0,0:0:0:0:
320,192,102816,1,0,0:0:0:0:
64,192,102816,1,0,0:0:0:0:
64,192,102995,1,0,0:0:0:0:
192,192,102995,1,0,0:0:0:0:
448,192,102995,1,0,0:0:0:0:
448,192,103173,1,0,0:0:0:0:
320,192,103173,1,0,0:0:0:0:
192,192,103173,1,0,0:0:0:0:
64,192,103352,1,0,0:0:0:0:
320,192,103352,1,0,0:0:0:0:
448,192,103352,1,0,0:0:0:0:
64,192,103530,1,0,0:0:0:0:
192,192,103530,1,0,0:0:0:0:
320,192,103530,1,0,0:0:0:0:
448,192,103709,1,0,0:0:0:0:
320,192,103709,1,0,0:0:0:0:
192,192,103709,1,0,0:0:0:0:
64,192,103887,1,0,0:0:0:0:
320,192,103887,1,0,0:0:0:0:
448,192,103887,1,0,0:0:0:0:
448,192,104066,1,0,0:0:0:0:
320,192,104066,1,0,0:0:0:0:
64,192,104066,1,0,0:0:0:0:
64,192,104245,1,0,0:0:0:0:
192,192,104245,1,0,0:0:0:0:
320,192,104245,1,0,0:0:0:0:
448,192,104423,1,0,0:0:0:0:
64,192,104423,1,0,0:0:0:0:
192,192,104423,1,0,0:0:0:0:
192,192,104602,1,0,0:0:0:0:
320,192,104602,1,0,0:0:0:0:
448,192,104602,1,0,0:0:0:0:
448,192,104780,1,0,0:0:0:0:
192,192,104780,1,0,0:0:0:0:
64,192,104780,1,0,0:0:0:0:
320,192,104959,1,0,0:0:0:0:
192,192,104959,1,0,0:0:0:0:
448,192,104959,1,0,0:0:0:0:
64,192,105137,1,0,0:0:0:0:
192,192,105137,1,0,0:0:0:0:
320,192,105137,1,0,0:0:0:0:
448,192,105316,1,0,0:0:0:0:
320,192,105316,1,0,0:0:0:0:
192,192,105316,1,0,0:0:0:0:
64,192,105495,1,0,0:0:0:0:
320,192,105495,1,0,0:0:0:0:
448,192,105495,1,0,0:0:0:0:
320,192,105673,1,0,0:0:0:0:
192,192,105673,1,0,0:0:0:0:
64,192,105673,1,0,0:0:0:0:
192,192,105852,1,0,0:0:0:0:
320,192,105852,1,0,0:0:0:0:
448,192,105852,1,0,0:0:0:0:
192,192,106030,1,0,0:0:0:0:
448,192,106030,1,0,0:0:0:0:
64,192,106030,1,0,0:0:0:0:
64,192,106209,1,0,0:0:0:0:
192,192,106209,1,0,0:0:0:0:
320,192,106209,1,0,0:0:0:0:
448,192,106387,1,0,0:0:0:0:
64,192,106387,1,0,0:0:0:0:
320,192,106387,1,0,0:0:0:0:
192,192,106566,1,0,0:0:0:0:
448,192,106566,1,0,0:0:0:0:
64,192,106655,1,0,0:0:0:0:
448,192,106745,1,0,0:0:0:0:
192,192,106745,1,0,0:0:0:0:
64,192,106923,1,0,0:0:0:0:
320,192,106923,1,0,0:0:0:0:
448,192,106923,1,0,0:0:0:0:
448,192,107102,1,0,0:0:0:0:
320,192,107102,1,0,0:0:0:0:
192,192,107102,1,0,0:0:0:0:
64,192,107280,1,0,0:0:0:0:
192,192,107280,1,0,0:0:0:0:
320,192,107280,1,0,0:0:0:0:
192,192,107459,1,0,0:0:0:0:
320,192,107459,1,0,0:0:0:0:
448,192,107459,1,0,0:0:0:0:
64,192,107637,1,0,0:0:0:0:
192,192,107637,1,0,0:0:0:0:
320,192,107637,1,0,0:0:0:0:
448,192,107816,1,0,0:0:0:0:
320,192,107816,1,0,0:0:0:0:
64,192,107816,1,0,0:0:0:0:
192,192,107995,1,0,0:0:0:0:
448,192,107995,1,0,0:0:0:0:
320,192,108084,1,0,0:0:0:0:
64,192,108173,1,0,0:0:0:0:
448,192,108173,1,0,0:0:0:0:
320,192,108262,1,0,0:0:0:0:
64,192,108352,1,0,0:0:0:0:
192,192,108352,1,0,0:0:0:0:
448,192,108441,1,0,0:0:0:0:
192,192,108530,1,0,0:0:0:0:
320,192,108530,1,0,0:0:0:0:
64,192,108620,1,0,0:0:0:0:
448,192,108709,1,0,0:0:0:0:
320,192,108709,1,0,0:0:0:0:
192,192,108798,1,0,0:0:0:0:
64,192,108887,1,0,0:0:0:0:
320,192,108887,1,0,0:0:0:0:
448,192,108977,1,0,0:0:0:0:
192,192,109066,1,0,0:0:0:0:
64,192,109066,1,0,0:0:0:0:
320,192,109155,1,0,0:0:0:0:
448,192,109245,1,0,0:0:0:0:
192,192,109245,1,0,0:0:0:0:
320,192,109334,1,0,0:0:0:0:
64,192,109423,1,0,0:0:0:0:
192,192,109423,1,0,0:0:0:0:
320,192,109512,1,0,0:0:0:0:
448,192,109512,1,0,0:0:0:0:
192,192,109602,1,0,0:0:0:0:
320,192,109691,1,0,0:0:0:0:
320,192,109870,1,0,0:0:0:0:
320,192,110048,1,0,0:0:0:0:
448,192,110137,1,0,0:0:0:0:
64,192,110137,1,0,0:0:0:0:
192,192,110227,1,0,0:0:0:0:
320,192,110316,1,0,0:0:0:0:
448,192,110316,1,0,0:0:0:0:
64,192,110405,1,0,0:0:0:0:
192,192,110495,1,0,0:0:0:0:
448,192,110495,1,0,0:0:0:0:
320,192,110584,1,0,0:0:0:0:
192,192,110673,1,0,0:0:0:0:
64,192,110673,1,0,0:0:0:0:
320,192,110762,1,0,0:0:0:0:
448,192,110852,1,0,0:0:0:0:
64,192,110852,1,0,0:0:0:0:
192,192,110941,1,0,0:0:0:0:
320,192,111030,1,0,0:0:0:0:
448,192,111030,1,0,0:0:0:0:
64,192,111120,1,0,0:0:0:0:
192,192,111209,1,0,0:0:0:0:
448,192,111209,1,0,0:0:0:0:
320,192,111298,1,0,0:0:0:0:
192,192,111387,1,0,0:0:0:0:
64,192,111387,1,0,0:0:0:0:
320,192,111477,1,0,0:0:0:0:
192,192,111566,1,0,0:0:0:0:
448,192,111566,1,0,0:0:0:0:
320,192,111655,1,0,0:0:0:0:
64,192,111745,1,0,0:0:0:0:
192,192,111745,1,0,0:0:0:0:
320,192,111834,1,0,0:0:0:0:
192,192,111923,1,0,0:0:0:0:
448,192,111923,1,0,0:0:0:0:
320,192,112012,1,0,0:0:0:0:
448,192,112102,1,0,0:0:0:0:
64,192,112102,1,0,0:0:0:0:
192,192,112191,1,0,0:0:0:0:
320,192,112280,1,0,0:0:0:0:
448,192,112280,1,0,0:0:0:0:
64,192,112370,1,0,0:0:0:0:
448,192,112459,1,0,0:0:0:0:
192,192,112459,1,0,0:0:0:0:
320,192,112548,1,0,0:0:0:0:
64,192,112637,1,0,0:0:0:0:
448,192,112637,1,0,0:0:0:0:
192,192,112727,1,0,0:0:0:0:
320,192,112816,1,0,0:0:0:0:
448,192,112816,1,0,0:0:0:0:
192,192,112905,1,0,0:0:0:0:
320,192,112995,1,0,0:0:0:0:
64,192,112995,1,0,0:0:0:0:
448,192,113084,1,0,0:0:0:0:
192,192,113173,1,0,0:0:0:0:
64,192,113173,1,0,0:0:0:0:
320,192,113262,1,0,0:0:0:0:
192,192,113352,1,0,0:0:0:0:
448,192,113352,1,0,0:0:0:0:
320,192,113441,1,0,0:0:0:0:
192,192,113530,1,0,0:0:0:0:
64,192,113530,1,0,0:0:0:0:
320,192,113620,1,0,0:0:0:0:
64,192,113709,1,0,0:0:0:0:
448,192,113709,1,0,0:0:0:0:
192,192,113798,1,0,0:0:0:0:
320,192,113887,1,0,0:0:0:0:
448,192,113887,1,0,0:0:0:0:
192,192,113977,1,0,0:0:0:0:
64,192,114066,1,0,0:0:0:0:
320,192,114066,1,0,0:0:0:0:
192,192,114155,1,0,0:0:0:0:
320,192,114245,1,0,0:0:0:0:
448,192,114245,1,0,0:0:0:0:
64,192,114334,1,0,0:0:0:0:
192,192,114423,1,0,0:0:0:0:
448,192,114423,1,0,0:0:0:0:
320,192,114512,1,0,0:0:0:0:
192,192,114602,1,0,0:0:0:0:
64,192,114602,1,0,0:0:0:0:
320,192,114691,1,0,0:0:0:0:
448,192,114780,1,0,0:0:0:0:
192,192,114780,1,0,0:0:0:0:
64,192,114870,1,0,0:0:0:0:
320,192,114959,1,0,0:0:0:0:
448,192,114959,1,0,0:0:0:0:
192,192,115048,1,0,0:0:0:0:
320,192,115137,1,0,0:0:0:0:
448,192,115137,1,0,0:0:0:0:
192,192,115227,1,0,0:0:0:0:
64,192,115316,1,0,0:0:0:0:
320,192,115316,1,0,0:0:0:0:
192,192,115405,1,0,0:0:0:0:
64,192,115495,1,0,0:0:0:0:
448,192,115495,1,0,0:0:0:0:
320,192,115495,1,0,0:0:0:0:
192,192,115584,1,0,0:0:0:0:
448,192,115673,1,0,0:0:0:0:
64,192,115673,1,0,0:0:0:0:
192,192,115762,1,0,0:0:0:0:
320,192,115852,1,0,0:0:0:0:
448,192,115852,1,0,0:0:0:0:
192,192,115941,1,0,0:0:0:0:
64,192,116030,1,0,0:0:0:0:
320,192,116030,1,0,0:0:0:0:
192,192,116120,1,0,0:0:0:0:
320,192,116209,1,0,0:0:0:0:
448,192,116209,1,0,0:0:0:0:
64,192,116298,1,0,0:0:0:0:
192,192,116387,1,0,0:0:0:0:
320,192,116387,1,0,0:0:0:0:
448,192,116477,1,0,0:0:0:0:
320,192,116566,1,0,0:0:0:0:
64,192,116566,1,0,0:0:0:0:
192,192,116655,1,0,0:0:0:0:
320,192,116745,1,0,0:0:0:0:
448,192,116745,1,0,0:0:0:0:
192,192,116834,1,0,0:0:0:0:
64,192,116923,1,0,0:0:0:0:
320,192,116923,1,0,0:0:0:0:
448,192,117012,1,0,0:0:0:0:
192,192,117102,1,0,0:0:0:0:
64,192,117102,1,0,0:0:0:0:
320,192,117191,1,0,0:0:0:0:
192,192,117280,1,0,0:0:0:0:
64,192,117280,1,0,0:0:0:0:
320,192,117370,1,0,0:0:0:0:
448,192,117459,1,0,0:0:0:0:
192,192,117459,1,0,0:0:0:0:
64,192,117548,1,0,0:0:0:0:
192,192,117637,1,0,0:0:0:0:
448,192,117637,1,0,0:0:0:0:
320,192,117637,1,0,0:0:0:0:
64,192,117727,1,0,0:0:0:0:
320,192,117816,1,0,0:0:0:0:
448,192,117816,1,0,0:0:0:0:
192,192,117905,1,0,0:0:0:0:
64,192,117905,1,0,0:0:0:0:
320,192,117995,1,0,0:0:0:0:
192,192,118084,1,0,0:0:0:0:
448,192,118084,1,0,0:0:0:0:
320,192,118173,1,0,0:0:0:0:
64,192,118262,1,0,0:0:0:0:
448,192,118262,1,0,0:0:0:0:
192,192,118262,1,0,0:0:0:0:
320,192,118352,1,0,0:0:0:0:
64,192,118441,1,0,0:0:0:0:
448,192,118441,1,0,0:0:0:0:
320,192,118530,1,0,0:0:0:0:
192,192,118620,1,0,0:0:0:0:
64,192,118620,1,0,0:0:0:0:
320,192,118709,1,0,0:0:0:0:
448,192,118709,1,0,0:0:0:0:
192,192,118798,1,0,0:0:0:0:
64,192,118887,1,0,0:0:0:0:
320,192,118887,1,0,0:0:0:0:
448,192,118977,1,0,0:0:0:0:
320,192,119066,1,0,0:0:0:0:
192,192,119066,1,0,0:0:0:0:
64,192,119066,1,0,0:0:0:0:
448,192,119155,1,0,0:0:0:0:
192,192,119245,1,0,0:0:0:0:
320,192,119245,1,0,0:0:0:0:
64,192,119334,1,0,0:0:0:0:
192,192,119423,1,0,0:0:0:0:
448,192,119423,1,0,0:0:0:0:
320,192,119512,1,0,0:0:0:0:
192,192,119602,1,0,0:0:0:0:
64,192,119602,1,0,0:0:0:0:
320,192,119691,1,0,0:0:0:0:
448,192,119691,1,0,0:0:0:0:
192,192,119780,1,0,0:0:0:0:
64,192,119870,1,0,0:0:0:0:
320,192,119870,1,0,0:0:0:0:
192,192,119959,1,0,0:0:0:0:
448,192,119959,1,0,0:0:0:0:
320,192,120048,1,0,0:0:0:0:
64,192,120048,1,0,0:0:0:0:
192,192,120137,1,0,0:0:0:0:
320,192,120227,1,0,0:0:0:0:
448,192,120227,1,0,0:0:0:0:
64,192,120316,1,0,0:0:0:0:
192,192,120316,1,0,0:0:0:0:
448,192,120405,1,0,0:0:0:0:
320,192,120405,1,0,0:0:0:0:
192,192,120495,1,0,0:0:0:0:
64,192,120495,1,0,0:0:0:0:
320,192,120584,1,0,0:0:0:0:
448,192,120584,1,0,0:0:0:0:
192,192,120673,1,0,0:0:0:0:
64,192,120673,1,0,0:0:0:0:
320,192,120762,1,0,0:0:0:0:
448,192,120762,1,0,0:0:0:0:
64,192,120852,1,0,0:0:0:0:
192,192,120852,1,0,0:0:0:0:
320,192,120941,1,0,0:0:0:0:
448,192,120941,1,0,0:0:0:0:
192,192,121030,1,0,0:0:0:0:
64,192,121030,1,0,0:0:0:0:
320,192,121120,1,0,0:0:0:0:
448,192,121120,1,0,0:0:0:0:
192,192,121209,1,0,0:0:0:0:
64,192,121209,1,0,0:0:0:0:
320,192,121298,1,0,0:0:0:0:
448,192,121298,1,0,0:0:0:0:
448,192,121477,1,0,0:0:0:0:
192,192,121477,1,0,0:0:0:0:
64,192,121477,1,0,0:0:0:0:
64,192,121655,1,0,0:0:0:0:
192,192,121655,1,0,0:0:0:0:
320,192,121655,1,0,0:0:0:0:
448,192,121834,1,0,0:0:0:0:
64,192,121834,1,0,0:0:0:0:
320,192,121834,1,0,0:0:0:0:
192,192,122012,1,0,0:0:0:0:
320,192,122012,1,0,0:0:0:0:
448,192,122012,1,0,0:0:0:0:
448,192,122191,1,0,0:0:0:0:
64,192,122191,1,0,0:0:0:0:
192,192,122191,1,0,0:0:0:0:
320,192,122370,1,0,0:0:0:0:
192,192,122370,1,0,0:0:0:0:
64,192,122370,1,0,0:0:0:0:
320,192,122548,1,0,0:0:0:0:
192,192,122548,1,0,0:0:0:0:
448,192,122548,1,0,0:0:0:0:
448,192,122727,1,0,0:0:0:0:
320,192,122727,1,0,0:0:0:0:
64,192,122727,1,0,0:0:0:0:
64,192,122905,1,0,0:0:0:0:
192,192,122905,1,0,0:0:0:0:
448,192,122905,1,0,0:0:0:0:
320,192,123084,1,0,0:0:0:0:
192,192,123084,1,0,0:0:0:0:
448,192,123084,1,0,0:0:0:0:
320,192,123262,1,0,0:0:0:0:
192,192,123262,1,0,0:0:0:0:
64,192,123262,1,0,0:0:0:0:
448,192,123441,1,0,0:0:0:0:
192,192,123441,1,0,0:0:0:0:
320,192,123441,1,0,0:0:0:0:
192,192,123620,1,0,0:0:0:0:
64,192,123620,1,0,0:0:0:0:
320,192,123620,1,0,0:0:0:0:
320,192,123798,1,0,0:0:0:0:
448,192,123798,1,0,0:0:0:0:
192,192,123798,1,0,0:0:0:0:
192,192,123977,1,0,0:0:0:0:
64,192,123977,1,0,0:0:0:0:
448,192,123977,1,0,0:0:0:0:
320,192,124155,1,0,0:0:0:0:
448,192,124155,1,0,0:0:0:0:
64,192,124155,1,0,0:0:0:0:
320,192,124245,1,0,0:0:0:0:
192,192,124334,1,0,0:0:0:0:
320,192,124334,1,0,0:0:0:0:
448,192,124334,1,0,0:0:0:0:
64,192,124423,1,0,0:0:0:0:
448,192,124512,1,0,0:0:0:0:
64,192,124512,1,0,0:0:0:0:
192,192,124512,1,0,0:0:0:0:
448,192,124602,1,0,0:0:0:0:
192,192,124691,1,0,0:0:0:0:
320,192,124691,1,0,0:0:0:0:
448,192,124691,1,0,0:0:0:0:
64,192,124870,1,0,0:0:0:0:
192,192,124870,1,0,0:0:0:0:
320,192,124870,1,0,0:0:0:0:
448,192,125048,1,0,0:0:0:0:
192,192,125048,1,0,0:0:0:0:
64,192,125048,1,0,0:0:0:0:
192,192,125227,1,0,0:0:0:0:
320,192,125227,1,0,0:0:0:0:
448,192,125227,1,0,0:0:0:0:
320,192,125405,1,0,0:0:0:0:
192,192,125405,1,0,0:0:0:0:
64,192,125405,1,0,0:0:0:0:
320,192,125495,1,0,0:0:0:0:
448,192,125584,1,0,0:0:0:0:
320,192,125584,1,0,0:0:0:0:
64,192,125584,1,0,0:0:0:0:
448,192,125673,1,0,0:0:0:0:
64,192,125762,1,0,0:0:0:0:
192,192,125762,1,0,0:0:0:0:
320,192,125762,1,0,0:0:0:0:
192,192,125852,1,0,0:0:0:0:
448,192,125941,1,0,0:0:0:0:
320,192,125941,1,0,0:0:0:0:
64,192,125941,1,0,0:0:0:0:
320,192,126120,1,0,0:0:0:0:
192,192,126120,1,0,0:0:0:0:
64,192,126120,1,0,0:0:0:0:
192,192,126298,1,0,0:0:0:0:
320,192,126298,1,0,0:0:0:0:
448,192,126298,1,0,0:0:0:0:
448,192,126477,1,0,0:0:0:0:
64,192,126477,1,0,0:0:0:0:
192,192,126477,1,0,0:0:0:0:
192,192,126655,1,0,0:0:0:0:
320,192,126655,1,0,0:0:0:0:
448,192,126655,1,0,0:0:0:0:
320,192,126834,1,0,0:0:0:0:
192,192,126834,1,0,0:0:0:0:
64,192,126834,1,0,0:0:0:0:
64,192,127012,1,0,0:0:0:0:
320,192,127012,1,0,0:0:0:0:
448,192,127012,1,0,0:0:0:0:
320,192,127191,1,0,0:0:0:0:
192,192,127191,1,0,0:0:0:0:
64,192,127191,1,0,0:0:0:0:
192,192,127370,1,0,0:0:0:0:
320,192,127370,1,0,0:0:0:0:
448,192,127370,1,0,0:0:0:0:
448,192,127548,1,0,0:0:0:0:
64,192,127548,1,0,0:0:0:0:
192,192,127548,1,0,0:0:0:0:
192,192,127727,1,0,0:0:0:0:
320,192,127727,1,0,0:0:0:0:
448,192,127727,1,0,0:0:0:0:
320,192,127905,1,0,0:0:0:0:
192,192,127905,1,0,0:0:0:0:
64,192,127905,1,0,0:0:0:0:
192,192,128084,1,0,0:0:0:0:
320,192,128084,1,0,0:0:0:0:
448,192,128084,1,0,0:0:0:0:
192,192,128262,1,0,0:0:0:0:
448,192,128262,1,0,0:0:0:0:
64,192,128262,1,0,0:0:0:0:
192,192,128441,1,0,0:0:0:0:
64,192,128441,1,0,0:0:0:0:
320,192,128441,1,0,0:0:0:0:
192,192,128620,1,0,0:0:0:0:
320,192,128620,1,0,0:0:0:0:
448,192,128620,1,0,0:0:0:0:
448,192,128798,1,0,0:0:0:0:
192,192,128798,1,0,0:0:0:0:
64,192,128798,1,0,0:0:0:0:
64,192,128977,1,0,0:0:0:0:
192,192,128977,1,0,0:0:0:0:
320,192,128977,1,0,0:0:0:0:
320,192,129155,1,0,0:0:0:0:
192,192,129155,1,0,0:0:0:0:
64,192,129155,1,0,0:0:0:0:
320,192,129334,1,0,0:0:0:0:
448,192,129334,1,0,0:0:0:0:
192,192,129334,1,0,0:0:0:0:
192,192,129512,1,0,0:0:0:0:
64,192,129512,1,0,0:0:0:0:
320,192,129512,1,0,0:0:0:0:
320,192,129691,1,0,0:0:0:0:
448,192,129691,1,0,0:0:0:0:
64,192,129691,1,0,0:0:0:0:
64,192,129870,1,0,0:0:0:0:
192,192,129870,1,0,0:0:0:0:
448,192,129870,1,0,0:0:0:0:
192,192,130048,1,0,0:0:0:0:
320,192,130048,1,0,0:0:0:0:
448,192,130048,1,0,0:0:0:0:
448,192,130137,1,0,0:0:0:0:
320,192,130227,1,0,0:0:0:0:
64,192,130227,1,0,0:0:0:0:
192,192,130227,1,0,0:0:0:0:
192,192,130316,1,0,0:0:0:0:
192,192,130405,1,0,0:0:0:0:
320,192,130405,1,0,0:0:0:0:
448,192,130405,1,0,0:0:0:0:
64,192,130495,1,0,0:0:0:0:
448,192,130584,1,0,0:0:0:0:
64,192,130584,1,0,0:0:0:0:
192,192,130584,1,0,0:0:0:0:
448,192,130673,1,0,0:0:0:0:
192,192,130762,1,0,0:0:0:0:
320,192,130762,1,0,0:0:0:0:
448,192,130762,1,0,0:0:0:0:
64,192,130852,1,0,0:0:0:0:
320,192,130852,1,0,0:0:0:0:
192,192,130941,1,0,0:0:0:0:
64,192,131030,1,0,0:0:0:0:
448,192,131030,1,0,0:0:0:0:
320,192,131120,1,0,0:0:0:0:
64,192,131209,1,0,0:0:0:0:
320,192,131209,1,0,0:0:0:0:
448,192,131209,1,0,0:0:0:0:
192,192,131298,1,0,0:0:0:0:
448,192,131298,1,0,0:0:0:0:
320,192,131387,1,0,0:0:0:0:
64,192,131477,1,0,0:0:0:0:
448,192,131477,1,0,0:0:0:0:
192,192,131566,1,0,0:0:0:0:
320,192,131566,1,0,0:0:0:0:
64,192,131655,1,0,0:0:0:0:
320,192,131745,1,0,0:0:0:0:
448,192,131745,1,0,0:0:0:0:
64,192,131834,1,0,0:0:0:0:
192,192,131834,1,0,0:0:0:0:
320,192,131923,1,0,0:0:0:0:
448,192,132012,1,0,0:0:0:0:
64,192,132102,1,0,0:0:0:0:
192,192,132102,1,0,0:0:0:0:
64,192,132280,1,0,0:0:0:0:
192,192,132280,1,0,0:0:0:0:
192,192,132459,1,0,0:0:0:0:
64,192,132459,1,0,0:0:0:0:
64,192,132637,1,0,0:0:0:0:
192,192,132637,1,0,0:0:0:0:
64,192,132816,1,0,0:0:0:0:
192,192,132816,1,0,0:0:0:0:
