osu file format v14

[General]
AudioFilename: audio.mp3
AudioLeadIn: 0
PreviewTime: 45966
Countdown: 0
SampleSet: Soft
StackLeniency: 0.6
Mode: 0
LetterboxInBreaks: 0
WidescreenStoryboard: 1

[Editor]
DistanceSpacing: 1.1
BeatDivisor: 4
GridSize: 4
TimelineZoom: 1

[Metadata]
Title:Rainbow
TitleUnicode:Rainbow
Artist:ROUND TABLE featuring Nino
ArtistUnicode:ROUND TABLE featuring Nino
Creator:Hiicantpk
Version:Normal
Source:ARIA The ANIMATION
Tags:ED Ending TV Size feat. Akari Hahi HPK
BeatmapID:1456189
BeatmapSetID:688053

[Difficulty]
HPDrainRate:3
CircleSize:4
OverallDifficulty:3
ApproachRate:4
SliderMultiplier:1.4
SliderTickRate:1

[Events]
//Background and Video events
0,0,"AriaBeach.png",0,0
//Break Periods
//Storyboard Layer 0 (Background)
//Storyboard Layer 1 (Fail)
//Storyboard Layer 2 (Pass)
//Storyboard Layer 3 (Foreground)
//Storyboard Sound Samples

[TimingPoints]
618,697.674418604651,4,2,1,25,1,0
11780,-100,4,2,1,45,0,0
46664,697.674418604651,4,2,1,65,1,1
68989,-100,4,2,1,45,0,0
85733,-100,4,2,1,5,0,0

[Colours]
Combo1 : 217,113,139
Combo2 : 53,173,208
Combo3 : 235,230,199

[HitObjects]
125,69,618,5,0,0:0:0:0:
59,108,966,2,0,P|69:178|74:189,1,70,2|0,0:0|0:0,0:0:0:0:
140,148,1664,1,0,0:0:0:0:
206,187,2013,2,0,P|196:257|191:268,1,70,2|0,0:0|0:0,0:0:0:0:
163,325,2711,1,0,0:0:0:0:
316,332,3408,6,0,P|380:291|385:286,2,70,2|0|0,0:0|0:0|0:0,0:0:0:0:
279,263,4455,2,0,P|295:226|276:114,1,140,2|0,0:0|0:0,0:0:0:0:
243,64,5501,1,0,0:0:0:0:
391,21,6199,5,2,0:0:0:0:
451,69,6548,2,0,P|440:132|430:147,1,70,0|0,0:0|0:0,0:0:0:0:
368,102,7245,1,0,0:0:0:0:
308,150,7594,2,0,P|319:213|329:228,2,70,2|0|0,0:0|0:0|0:0,0:0:0:0:
168,216,8990,5,2,0:0:0:0:
116,273,9338,2,0,P|159:319|194:334,1,70
238,344,10036,2,0,P|296:330|380:341,1,140,2|0,0:0|0:0,0:0:0:0:
471,133,11780,5,4,0:0:0:0:
406,90,12129,2,0,P|368:83|321:91,1,70,0|8,0:0|0:0,0:0:0:0:
262,106,12827,1,0,0:0:0:0:
193,141,13176,2,0,P|152:141|115:130,2,70,2|0|8,3:0|3:0|0:0,0:0:0:0:
344,169,14571,6,0,P|331:216|309:241,1,70,2|0,0:0|0:0,0:0:0:0:
256,278,15269,1,8,0:0:0:0:
185,246,15617,2,0,P|147:218|49:217,1,140,0|0,0:0|0:0,0:0:0:0:
0,266,16664,2,0,P|10:299|29:328,1,70,8|0,0:0|0:0,0:0:0:0:
104,347,17362,6,0,L|181:331,2,70,2|0|8,0:0|0:0|0:0,0:0:0:0:
85,272,18408,2,0,P|95:235|64:112,1,140,0|0,0:0|0:0,0:0:0:0:
40,69,19455,1,8,0:0:0:0:
184,16,20152,6,0,P|183:58|200:91,1,70,2|0,0:0|0:0,0:0:0:0:
239,145,20850,2,0,P|240:187|223:220,1,70,8|0,0:0|0:0,0:0:0:0:
187,276,21548,2,0,P|234:297|335:269,1,140,2|8,3:0|0:0,0:0:0:0:
239,145,22943,6,0,P|226:112|228:77,1,70,4|0,0:0|0:0,0:0:0:0:
282,22,23641,1,8,0:0:0:0:
359,20,23990,1,0,0:0:0:0:
426,56,24338,2,0,P|428:104|420:136,1,70,2|0,0:0|0:0,0:0:0:0:
419,202,25036,2,0,P|425:250|438:280,1,70,8|0,0:0|0:0,0:0:0:0:
461,341,25734,6,0,P|428:359|321:324,1,140,2|8,0:0|0:0,0:0:0:0:
253,205,27129,2,0,P|247:157|266:116,1,70,2|0,3:0|0:0,0:0:0:0:
289,68,27827,1,8,0:0:0:0:
227,21,28176,1,0,0:0:0:0:
171,73,28524,6,0,P|108:86|85:82,2,70,2|0|8,0:0|0:0|0:0,0:0:0:0:
234,117,29571,2,0,P|210:175|146:219,1,140,0|0,0:0|0:0,0:0:0:0:
75,244,30617,2,0,P|96:283|127:305,1,70,8|0,0:0|0:0,0:0:0:0:
189,322,31315,5,2,0:0:0:0:
265,315,31664,1,0,0:0:0:0:
335,284,32013,2,0,P|371:263|408:232,1,70,10|0,0:0|0:0,0:0:0:0:
434,179,32711,2,0,P|419:143|427:34,1,140,2|8,3:0|0:0,0:0:0:0:
304,142,34106,6,0,P|264:145|224:136,1,70,4|0,0:0|0:0,0:0:0:0:
181,83,34804,2,0,P|141:80|101:89,1,70,8|0,0:0|0:0,0:0:0:0:
57,140,35501,1,2,3:0:0:0:
55,217,35850,1,0,0:0:0:0:
109,272,36199,2,0,P|149:275|189:266,1,70,8|0,0:0|0:0,0:0:0:0:
250,242,36897,6,0,P|290:234|399:268,1,140,2|8,0:0|0:0,0:0:0:0:
352,327,37943,1,0,0:0:0:0:
286,367,38292,2,0,P|258:347|239:318,2,70,2|0|8,3:0|0:0|0:0,0:0:0:0:
384,257,39687,6,0,P|397:220|401:160,1,70,2|0,0:0|0:0,0:0:0:0:
394,112,40385,1,8,0:0:0:0:
346,51,40734,1,0,0:0:0:0:
269,58,41083,2,0,P|257:90|251:125,1,70,2|0,3:0|0:0,0:0:0:0:
286,193,41780,2,0,P|291:227|303:260,1,70,8|0,0:0|0:0,0:0:0:0:
344,325,42478,5,2,0:0:0:0:
270,350,42827,1,0,0:0:0:0:
194,335,43176,2,0,P|143:301|128:271,1,70,10|0,0:0|0:0,0:0:0:0:
124,219,43873,2,0,P|125:171|100:74,1,140,2|8,3:0|0:0,0:0:0:0:
69,13,44920,1,0,0:0:0:0:
333,62,45966,5,4,0:0:0:0:
418,190,46664,6,0,P|385:248|367:263,1,70,4|0,3:2|0:0,0:0:0:0:
310,276,47361,2,0,P|277:218|259:203,1,70,8|0,0:0|0:0,0:0:0:0:
201,193,48059,1,2,3:0:0:0:
125,205,48408,1,0,0:0:0:0:
52,178,48757,1,8,0:0:0:0:
25,106,49105,6,0,P|58:72|153:48,1,140
219,68,50152,2,0,P|269:89|300:91,1,70,8|0,0:0|0:0,0:0:0:0:
359,71,50850,2,0,P|393:49|444:32,1,70,2|2,3:0|0:0,0:0:0:0:
475,91,51547,2,0,P|441:113|390:130,1,70,8|0,0:0|0:0,0:0:0:0:
343,151,52245,6,0,P|310:180|299:285,1,140,2|8,0:0|0:0,0:0:0:0:
331,338,53291,2,0,P|282:346|221:263,1,140,0|0,0:0|0:0,0:0:0:0:
201,212,54338,1,10,0:0:0:0:
153,151,54687,1,2,0:0:0:0:
86,112,55036,6,0,P|31:129|2:151,1,70,2|0,0:0|0:0,0:0:0:0:
21,213,55733,2,0,P|75:195|104:173,1,70,10|0,0:0|0:0,0:0:0:0:
153,151,56431,2,0,P|217:136|300:156,1,140,2|8,0:0|0:0,0:0:0:0:
356,186,57477,1,2,3:0:0:0:
414,236,57826,6,0,P|438:208|445:158,1,70,4|0,0:0|0:0,0:0:0:0:
388,126,58524,2,0,P|364:154|357:204,1,70,8|0,0:0|0:0,0:0:0:0:
321,254,59222,1,2,3:0:0:0:
266,307,59570,1,0,0:0:0:0:
190,322,59919,1,8,0:0:0:0:
117,297,60268,6,0,P|96:265|122:149,1,140,0|0,0:0|0:0,0:0:0:0:
162,115,61315,2,0,P|191:132|226:138,1,70,8|0,0:0|0:0,0:0:0:0:
302,131,62012,2,0,P|301:93|317:44,2,70,2|2|8,3:0|3:0|0:0,0:0:0:0:
317,206,63059,1,0,0:0:0:0:
358,271,63408,6,0,P|395:262|432:221,1,70,2|0,0:0|0:0,0:0:0:0:
458,176,64105,1,8,0:0:0:0:
429,104,64454,2,0,P|375:93|301:130,1,140,0|2,0:0|3:0,0:0:0:0:
247,184,65501,1,10,0:0:0:0:
174,210,65850,1,2,0:0:0:0:
102,182,66198,6,0,P|92:138|99:92,1,70,2|0,0:0|0:0,0:0:0:0:
156,68,66896,2,0,P|166:112|159:158,1,70,10|0,0:0|0:0,0:0:0:0:
174,210,67594,2,0,P|144:246|48:238,1,140,2|8,3:0|0:0,0:0:0:0:
102,182,68640,1,0,0:0:0:0:
164,136,68989,5,4,0:0:0:0:
271,246,69687,2,0,P|305:235|337:205,1,70,8|0,0:0|0:0,0:0:0:0:
382,155,70384,1,2,3:0:0:0:
389,78,70733,1,0,0:0:0:0:
336,21,71082,2,0,P|285:52|249:56,1,70,8|0,0:0|0:0,0:0:0:0:
198,51,71780,6,0,P|146:44|109:33,2,70,2|0|8,0:0|0:0|0:0,0:0:0:0:
237,116,72826,1,0,0:0:0:0:
230,192,73175,2,0,P|213:243|136:283,1,140,2|8,3:0|0:0,0:0:0:0:
23,182,74570,6,0,P|30:84|56:45,1,140,2|8,0:0|0:0,0:0:0:0:
121,19,75617,1,0,0:0:0:0:
197,30,75966,2,0,P|214:78|215:117,1,70
207,173,76664,1,8,0:0:0:0:
284,305,77361,6,0,P|318:266|333:227,2,70,2|0|8,0:0|0:0|0:0,0:0:0:0:
211,332,78408,1,0,0:0:0:0:
134,323,78757,2,0,P|87:292|-1:292,1,140,0|8,0:0|0:0,0:0:0:0:
0,136,80152,6,0,P|47:157|137:139,1,140,2|8,0:0|0:0,0:0:0:0:
190,92,81198,1,0,0:0:0:0:
256,52,81547,2,0,P|278:89|285:127,2,70,2|0|8,3:0|0:0|0:0,0:0:0:0:
410,51,82943,6,0,P|410:104|401:135,1,70,2|0,0:0|0:0,0:0:0:0:
359,181,83640,2,0,P|359:234|368:265,1,70,8|0,0:0|0:0,0:0:0:0:
398,319,84338,1,4,0:0:0:0:
256,192,84687,12,0,89222,0:0:0:0:
