osu file format v14

[General]
AudioFilename: audio.mp3
AudioLeadIn: 0
PreviewTime: 45966
Countdown: 0
SampleSet: Soft
StackLeniency: 0.2
Mode: 0
LetterboxInBreaks: 0
WidescreenStoryboard: 0

[Editor]
Bookmarks: 11780,36897
DistanceSpacing: 1.4
BeatDivisor: 4
GridSize: 4
TimelineZoom: 1

[Metadata]
Title:Rainbow
TitleUnicode:Rainbow
Artist:ROUND TABLE featuring Nino
ArtistUnicode:ROUND TABLE featuring Nino
Creator:Hiicantpk
Version:Aqua
Source:ARIA The ANIMATION
Tags:ED Ending TV Size feat. Akari Hahi HPK
BeatmapID:1456156
BeatmapSetID:688053

[Difficulty]
HPDrainRate:4
CircleSize:6
OverallDifficulty:5
ApproachRate:7.5
SliderMultiplier:1.4
SliderTickRate:1

[Events]
//Background and Video events
0,0,"AriaBeach.png",0,0
//Break Periods
//Storyboard Layer 0 (Background)
//Storyboard Layer 1 (Fail)
//Storyboard Layer 2 (Pass)
//Storyboard Layer 3 (Foreground)
//Storyboard Sound Samples

[TimingPoints]
618,697.674418604651,4,2,1,25,1,0
11780,-100,4,2,1,45,0,0
44920,-133.333333333333,4,2,1,45,0,0
45966,-100,4,2,1,45,0,0
46664,697.674418604651,4,2,1,65,1,1
46664,-83.3333333333333,4,2,1,65,0,1
68989,-100,4,2,1,45,0,0
85733,-100,4,2,1,5,0,0

[Colours]
Combo1 : 217,113,139
Combo2 : 53,173,208
Combo3 : 235,230,199

[HitObjects]
115,48,618,5,0,0:0:0:0:
180,96,966,2,0,P|184:79|187:62,2,35,2|0|0,0:0|0:0|0:0,0:0:0:0:
144,172,1664,1,0,0:0:0:0:
78,220,2013,2,0,P|73:203|70:186,2,35,2|0|0,0:0|0:0|0:0,0:0:0:0:
137,322,2711,2,0,P|146:288|152:253,1,70
273,293,3408,5,2,0:0:0:0:
355,279,3757,1,0,0:0:0:0:
306,210,4106,1,0,0:0:0:0:
325,358,4455,2,0,P|356:373|390:377,2,70,2|0|0,0:0|0:0|0:0,0:0:0:0:
329,286,5327,1,0,0:0:0:0:
355,279,5501,2,0,P|376:252|389:220,1,70
278,99,6199,5,0,0:0:0:0:
212,150,6548,2,0,P|183:185|163:228,1,70,2|0,0:0|0:0,0:0:0:0:
182,290,7245,1,0,0:0:0:0:
267,286,7594,2,0,P|296:247|314:207,2,70,2|0|0,0:0|0:0|0:0,0:0:0:0:
429,349,8990,5,2,0:0:0:0:
370,290,9338,1,0,0:0:0:0:
348,371,9687,1,0,0:0:0:0:
450,265,10036,2,0,P|452:221|383:134,1,140,2|0,0:0|0:0,0:0:0:0:
138,48,11780,5,4,0:0:0:0:
80,108,12129,1,0,0:0:0:0:
152,259,12478,2,0,P|186:263|250:251,1,70,8|0,0:0|0:0,0:0:0:0:
289,210,13176,2,0,P|323:206|387:218,2,70,2|0|8,0:3|0:0|0:0,0:0:0:0:
221,259,14222,1,0,0:0:0:0:
332,384,14571,6,0,P|368:362|393:328,1,70,2|0,0:0|0:0,0:0:0:0:
417,263,15269,1,8,0:0:0:0:
368,194,15617,1,0,0:0:0:0:
271,331,15966,2,0,P|218:333|181:314,2,70,2|0|8,3:0|0:0|0:0,0:0:0:0:
346,293,17013,1,0,0:0:0:0:
248,156,17362,6,0,P|215:168|187:188,1,70,2|0,0:0|0:0,0:0:0:0:
147,263,18059,1,8,0:0:0:0:
202,327,18408,1,0,0:0:0:0:
328,216,18757,2,0,P|361:206|396:212,2,70,2|0|8,3:0|0:0|0:0,0:0:0:0:
265,272,19804,1,0,0:0:0:0:
159,340,20152,6,0,P|119:329|79:305,1,70,2|0,0:0|0:0,0:0:0:0:
38,253,20850,2,0,P|78:242|118:218,1,70,10|0,0:0|0:0,0:0:0:0:
159,166,21548,2,0,P|119:155|79:131,1,70,2|0,0:0|0:0,0:0:0:0:
38,79,22245,2,0,P|78:68|118:44,1,70,8|0,0:0|0:0,0:0:0:0:
278,31,22943,5,4,0:0:0:0:
338,89,23292,2,0,P|304:107|263:113,1,70,0|8,0:0|0:0,0:0:0:0:
202,68,23990,1,0,0:0:0:0:
42,119,24338,2,0,P|44:167|55:193,2,70,2|0|8,0:0|0:0|0:0,0:0:0:0:
102,60,25385,1,0,0:0:0:0:
265,19,25734,6,0,P|310:44|326:69,1,70,2|0,0:0|0:0,0:0:0:0:
328,140,26431,1,8,0:0:0:0:
255,181,26780,1,0,0:0:0:0:
89,152,27129,2,0,P|70:97|69:56,2,70,2|0|8,3:0|0:0|0:0,0:0:0:0:
169,127,28176,1,0,0:0:0:0:
317,49,28524,6,0,P|370:46|419:56,1,70,2|0,0:0|0:0,0:0:0:0:
456,97,29222,1,8,0:0:0:0:
413,169,29571,1,0,0:0:0:0:
245,220,29920,2,0,P|205:177|195:133,2,70,2|0|8,3:0|0:0|0:0,0:0:0:0:
323,176,30966,1,0,0:0:0:0:
208,52,31315,6,0,P|168:63|128:87,1,70,2|0,0:0|0:0,0:0:0:0:
87,139,32013,2,0,P|118:154|152:163,1,70,10|0,0:0|0:0,0:0:0:0:
208,226,32711,2,0,P|173:249|129:264,1,70,2|0,0:0|0:0,0:0:0:0:
101,330,33408,2,0,P|139:347|184:355,1,70,10|0,0:0|0:0,0:0:0:0:
367,321,34106,6,0,P|428:323|464:338,2,70,4|0|8,0:0|0:0|0:0,0:0:0:0:
286,346,35152,1,0,0:0:0:0:
118,334,35501,2,0,P|89:321|54:295,2,70,2|0|8,3:0|0:0|0:0,0:0:0:0:
202,335,36548,1,0,0:0:0:0:
355,266,36897,6,0,P|394:237|419:202,1,70,2|0,0:0|0:0,0:0:0:0:
420,195,37420,1,0,0:0:0:0:
420,167,37594,2,0,L|398:123,1,35,8|0,0:0|0:0,0:0:0:0:
376,140,37943,2,0,P|343:154|317:177,1,70,2|0,0:0|0:0,0:0:0:0:
271,262,38641,1,0,0:0:0:0:
174,244,38990,2,0,P|150:214|144:155,1,70,8|0,0:0|0:0,0:0:0:0:
184,341,39687,6,0,P|140:357|87:354,1,70,2|0,0:0|0:0,0:0:0:0:
56,301,40385,1,8,0:0:0:0:
123,250,40734,1,0,0:0:0:0:
277,315,41083,2,0,P|346:286|358:270,1,70,2|0,3:0|0:0,0:0:0:0:
395,227,41780,1,8,0:0:0:0:
311,215,42129,1,0,0:0:0:0:
150,259,42478,6,0,P|141:205|164:164,1,70,2|0,0:0|0:0,0:0:0:0:
249,120,43176,2,0,P|258:174|235:215,1,70,10|0,0:0|0:0,0:0:0:0:
78,307,43873,2,0,P|63:220|100:155,1,140,2|8,0:3|0:0,0:0:0:0:
169,142,44920,6,0,P|173:166|216:218,1,87.5000033378602
233,223,45617,1,2,0:0:0:0:
256,123,45966,2,0,B|260:107|256:91|256:91|252:75|256:51|256:51,1,70,4|0,0:0|0:0,0:0:0:0:
341,291,46664,6,0,P|393:287|436:260,1,83.9999974365235,4|0,3:2|0:0,0:0:0:0:
489,198,47361,1,8,0:0:0:0:
393,164,47710,1,0,0:0:0:0:
238,293,48059,2,0,P|187:305|130:288,1,83.9999974365235,2|0,3:0|0:0,0:0:0:0:
66,254,48757,1,8,0:0:0:0:
115,166,49105,1,0,0:0:0:0:
315,190,49454,6,0,P|364:176|408:138,1,83.9999974365235,2|0,0:0|0:0,0:0:0:0:
463,87,50152,1,8,0:0:0:0:
365,59,50501,1,0,0:0:0:0:
218,197,50850,2,0,P|209:255|224:303,1,83.9999974365235,2|2,3:0|0:0,0:0:0:0:
267,333,51373,1,0,0:0:0:0:
283,327,51547,2,0,P|292:269|277:221,1,83.9999974365235,8|2,0:0|0:0,0:0:0:0:
155,362,52245,6,0,P|103:360|57:334,1,83.9999974365235,2|0,0:0|0:0,0:0:0:0:
23,259,52943,1,8,0:0:0:0:
117,223,53291,1,0,0:0:0:0:
301,303,53640,2,0,P|347:294|394:266,1,83.9999974365235,2|0,3:0|0:0,0:0:0:0:
426,188,54338,1,8,0:0:0:0:
285,102,54686,1,2,0:0:0:0:
254,108,54860,1,0,0:0:0:0:
229,127,55036,6,0,P|211:193|224:242,1,83.9999974365235,2|0,0:0|0:0,0:0:0:0:
378,322,55733,2,0,P|395:255|382:206,1,83.9999974365235,10|0,0:0|0:0,0:0:0:0:
212,207,56431,2,0,P|170:213|129:204,1,83.9999974365235,2|0,0:0|0:0,0:0:0:0:
80,148,56954,1,0,0:0:0:0:
86,132,57128,2,0,P|144:123|192:138,1,83.9999974365235,8|2,0:0|0:0,0:0:0:0:
279,296,57826,6,0,P|327:310|399:299,1,83.9999974365235,4|0,0:0|0:0,0:0:0:0:
458,283,58524,1,8,0:0:0:0:
386,212,58873,1,0,0:0:0:0:
187,244,59222,2,0,P|138:232|81:186,1,83.9999974365235,2|0,0:0|0:0,0:0:0:0:
66,123,59919,1,8,0:0:0:0:
161,90,60268,1,0,0:0:0:0:
288,293,60617,6,0,P|363:300|395:283,1,83.9999974365235,2|0,0:0|0:0,0:0:0:0:
447,234,61315,1,8,0:0:0:0:
357,187,61664,1,0,0:0:0:0:
155,181,62012,2,0,P|109:163|64:115,1,83.9999974365235,2|2,3:0|3:0,0:0:0:0:
56,70,62536,1,0,0:0:0:0:
69,59,62710,2,0,P|123:80|157:117,1,83.9999974365235,8|2,0:0|0:0,0:0:0:0:
302,219,63408,6,0,P|348:219|403:199,1,83.9999974365235,2|0,0:0|0:0,0:0:0:0:
459,141,64105,1,8,0:0:0:0:
367,98,64454,1,0,0:0:0:0:
178,169,64803,2,0,P|139:132|120:95,1,83.9999974365235,2|2,3:0|3:0,0:0:0:0:
154,9,65501,1,8,0:0:0:0:
274,170,65849,1,2,0:0:0:0:
267,202,66023,1,0,0:0:0:0:
250,231,66198,6,0,P|203:237|152:231,1,83.9999974365235,2|0,0:0|0:0,0:0:0:0:
233,95,66896,2,0,P|280:88|331:94,1,83.9999974365235,10|0,0:0|0:0,0:0:0:0:
444,241,67594,2,0,P|475:212|499:178,1,83.9999974365235,2|0,0:0|0:0,0:0:0:0:
502,78,68291,1,8,0:0:0:0:
411,34,68640,1,0,0:0:0:0:
233,95,68989,6,0,P|236:135|267:183,1,70,4|0,0:0|0:0,0:0:0:0:
358,213,69687,2,0,P|355:173|324:125,1,70,8|0,0:0|0:0,0:0:0:0:
248,161,70384,1,2,0:0:0:0:
188,239,70733,1,0,0:0:0:0:
217,332,71082,2,0,P|253:349|310:346,1,70,8|0,0:0|0:0,0:0:0:0:
444,241,71780,6,0,P|417:191|382:172,1,70,2|0,0:0|0:0,0:0:0:0:
316,146,72477,1,8,0:0:0:0:
218,152,72826,1,0,0:0:0:0:
151,224,73175,2,0,P|122:243|90:252,1,70,2|0,3:0|0:0,0:0:0:0:
9,195,73873,1,8,0:0:0:0:
49,105,74222,1,0,0:0:0:0:
202,92,74570,6,0,P|241:107|273:131,1,70,2|0,0:0|0:0,0:0:0:0:
290,292,75268,2,0,P|251:275|219:250,1,70,8|0,0:0|0:0,0:0:0:0:
170,201,75791,1,0,0:0:0:0:
152,177,75966,2,0,P|127:209|110:246,1,70,2|0,0:3|0:0,0:0:0:0:
241,362,76664,2,0,P|272:345|299:324,1,70,8|0,0:0|0:0,0:0:0:0:
350,259,77187,1,0,0:0:0:0:
322,253,77361,6,0,P|287:207|281:186,1,70,2|0,0:0|0:0,0:0:0:0:
319,31,78059,2,0,P|354:73|360:95,1,70,8|0,0:0|0:0,0:0:0:0:
342,166,78582,1,0,0:0:0:0:
322,176,78757,2,0,P|297:218|294:261,1,70
297,321,79280,1,0,0:0:0:0:
269,320,79455,2,0,P|209:294|186:265,1,70,8|0,0:0|0:0,0:0:0:0:
105,131,80153,6,0,P|122:91|147:71,1,70,2|0,0:0|0:0,0:0:0:0:
308,103,80851,2,0,P|291:141|266:161,1,70,8|0,0:0|0:0,0:0:0:0:
193,188,81374,1,0,0:0:0:0:
194,217,81548,2,0,P|221:248|249:260,1,70,2|0,0:3|0:0,0:0:0:0:
413,265,82246,2,0,P|385:232|356:221,1,70,8|0,0:0|0:0,0:0:0:0:
279,211,82769,1,0,0:0:0:0:
249,215,82944,6,0,P|214:210|184:192,1,70,2|0,0:0|0:0,0:0:0:0:
124,28,83641,2,0,P|159:31|189:49,1,70,8|0,0:0|0:0,0:0:0:0:
238,106,84165,1,0,0:0:0:0:
244,133,84339,1,4,0:0:0:0:
256,192,84512,12,0,89222,0:0:0:0:
