osu file format v14

[General]
AudioFilename: audio.mp3
AudioLeadIn: 0
PreviewTime: 45966
Countdown: 0
SampleSet: Soft
StackLeniency: 0.2
Mode: 0
LetterboxInBreaks: 0
WidescreenStoryboard: 1

[Editor]
DistanceSpacing: 1.2
BeatDivisor: 4
GridSize: 4
TimelineZoom: 1

[Metadata]
Title:Rainbow
TitleUnicode:Rainbow
Artist:ROUND TABLE featuring Nino
ArtistUnicode:ROUND TABLE featuring Nino
Creator:Hiicantpk
Version:Advanced
Source:ARIA The ANIMATION
Tags:ED Ending TV Size feat. Akari Hahi HPK
BeatmapID:1456746
BeatmapSetID:688053

[Difficulty]
HPDrainRate:4
CircleSize:5
OverallDifficulty:4.5
ApproachRate:6
SliderMultiplier:1.4
SliderTickRate:1

[Events]
//Background and Video events
0,0,"AriaBeach.png",0,0
//Break Periods
//Storyboard Layer 0 (Background)
//Storyboard Layer 1 (Fail)
//Storyboard Layer 2 (Pass)
//Storyboard Layer 3 (Foreground)
//Storyboard Sound Samples

[TimingPoints]
618,697.674418604651,4,2,1,25,1,0
11780,-100,4,2,1,45,0,0
46664,697.674418604651,4,2,1,65,1,1
46664,-90.9090909090909,4,2,1,65,0,1
68989,-100,4,2,1,45,0,0
85733,-100,4,2,1,5,0,0

[Colours]
Combo1 : 217,113,139
Combo2 : 53,173,208
Combo3 : 235,230,199

[HitObjects]
112,36,618,5,0,0:0:0:0:
172,130,966,2,0,P|185:98|192:64,1,70,2|0,0:0|0:0,0:0:0:0:
92,107,1664,1,0,0:0:0:0:
31,201,2013,2,0,P|18:169|12:135,1,70,2|0,0:0|0:0,0:0:0:0:
119,183,2711,2,0,P|112:217|100:250,1,70
191,337,3408,6,0,P|231:339|270:333,2,70,2|0|0,0:0|0:0|0:0,0:0:0:0:
224,260,4455,2,0,P|262:248|297:230,1,70,2|0,0:0|0:0,0:0:0:0:
234,172,5152,2,0,P|255:156|273:136,2,35
157,207,5850,1,0,0:0:0:0:
75,224,6199,5,2,0:0:0:0:
9,172,6548,2,0,P|33:118|63:90,1,70,0|0,0:0|0:0,0:0:0:0:
114,152,7245,1,0,0:0:0:0:
194,128,7594,2,0,P|205:30|178:0,1,140,2|0,0:0|0:0,0:0:0:0:
294,162,8990,6,0,P|310:211|311:241,1,70,2|0,0:0|0:0,0:0:0:0:
295,312,9687,1,0,0:0:0:0:
370,296,10036,2,0,P|396:257|359:155,1,140,2|0,0:0|0:0,0:0:0:0:
162,247,11780,6,0,P|121:209|108:179,1,70,4|0,0:0|0:0,0:0:0:0:
154,122,12478,2,0,P|195:84|208:54,1,70,8|0,0:0|0:0,0:0:0:0:
284,82,13176,1,2,3:0:0:0:
333,149,13524,1,0,3:0:0:0:
304,227,13873,2,0,P|308:285|325:313,1,70,8|0,0:0|0:0,0:0:0:0:
434,329,14571,5,2,0:0:0:0:
468,252,14920,1,0,0:0:0:0:
411,191,15269,2,0,P|353:195|325:212,1,70,8|0,0:0|0:0,0:0:0:0:
267,235,15966,1,2,3:0:0:0:
183,231,16315,1,0,0:0:0:0:
106,195,16664,2,0,P|93:153|103:108,1,70,8|0,0:0|0:0,0:0:0:0:
215,85,17362,6,0,P|217:133|207:166,1,70,2|0,0:0|0:0,0:0:0:0:
183,231,18059,1,8,0:0:0:0:
267,260,18408,1,0,0:0:0:0:
351,235,18757,2,0,P|387:208|406:157,2,70,2|0|8,3:0|0:0|0:0,0:0:0:0:
310,160,19804,1,0,0:0:0:0:
397,69,20152,6,0,P|431:73|464:89,1,70,2|0,0:0|0:0,0:0:0:0:
482,170,20850,2,0,P|448:166|415:150,1,70,10|0,0:0|0:0,0:0:0:0:
336,121,21548,2,0,P|337:183|401:235,1,140,2|8,3:0|0:0,0:0:0:0:
228,178,22943,6,0,P|181:176|135:197,1,70,4|0,0:0|0:0,0:0:0:0:
84,221,23641,2,0,P|63:187|61:141,1,70,8|0,0:0|0:0,0:0:0:0:
86,78,24338,1,2,0:0:0:0:
167,99,24687,1,0,0:0:0:0:
159,182,25036,2,0,P|170:225|188:255,1,70,8|0,0:0|0:0,0:0:0:0:
111,352,25734,6,0,P|69:332|41:291,1,70,2|0,0:0|0:0,0:0:0:0:
29,235,26431,1,8,0:0:0:0:
58,157,26780,1,0,0:0:0:0:
118,220,27129,2,0,P|155:240|203:248,1,70,2|0,3:0|0:0,0:0:0:0:
266,242,27827,1,8,0:0:0:0:
330,187,28176,1,0,0:0:0:0:
241,97,28524,6,0,P|211:56|203:27,1,70,2|0,0:0|0:0,0:0:0:0:
289,33,29222,2,0,P|321:46|355:49,1,70,8|0,0:0|0:0,0:0:0:0:
438,33,29920,1,2,3:0:0:0:
503,85,30269,1,0,0:0:0:0:
473,163,30617,2,0,P|442:194|391:202,1,70,8|0,0:0|0:0,0:0:0:0:
298,161,31315,6,0,P|242:156|196:163,1,70,2|0,0:0|0:0,0:0:0:0:
152,193,32013,2,0,P|202:216|239:245,1,70,10|0,0:0|0:0,0:0:0:0:
267,289,32711,2,0,P|300:235|293:149,2,140,2|8|4,3:0|0:0|0:0,0:0:0:0:
417,364,34804,5,8,0:0:0:0:
462,293,35152,1,0,0:0:0:0:
402,233,35501,2,0,P|383:189|383:141,1,70,2|0,3:0|0:0,0:0:0:0:
388,83,36199,1,8,0:0:0:0:
457,130,36548,1,0,0:0:0:0:
380,167,36897,6,0,P|332:172|288:156,1,70,2|0,0:0|0:0,0:0:0:0:
247,124,37594,2,0,P|212:118|178:124,1,70,8|0,0:0|0:0,0:0:0:0:
97,148,38292,1,2,3:0:0:0:
28,98,38641,1,0,0:0:0:0:
15,181,38990,2,0,P|35:211|64:231,1,70,8|0,0:0|0:0,0:0:0:0:
190,300,39687,6,0,P|153:334|112:346,1,70,2|0,0:0|0:0,0:0:0:0:
51,339,40385,1,8,0:0:0:0:
2,270,40734,1,0,0:0:0:0:
98,214,41083,2,0,P|148:211|185:191,2,70,2|0|8,3:0|0:0|0:0,0:0:0:0:
18,187,42129,1,0,0:0:0:0:
12,83,42478,5,2,0:0:0:0:
89,50,42827,1,0,0:0:0:0:
169,74,43176,2,0,P|215:101|237:127,1,70,10|0,0:0|0:0,0:0:0:0:
290,167,43873,2,0,P|344:155|418:84,1,140,2|8,3:0|0:0,0:0:0:0:
455,32,44920,1,0,0:0:0:0:
489,196,45617,5,0,0:0:0:0:
439,264,45966,2,0,P|398:237|381:214,1,70,4|0,0:0|0:0,0:0:0:0:
301,95,46664,6,0,P|268:145|243:163,1,77.0000023498536,4|0,3:2|0:0,0:0:0:0:
172,196,47361,1,8,0:0:0:0:
87,158,47710,1,0,0:0:0:0:
171,121,48059,2,0,P|179:158|172:196,1,77.0000023498536,2|0,3:0|0:0,0:0:0:0:
125,276,48757,1,8,0:0:0:0:
244,346,49105,6,0,P|276:310|284:260,1,77.0000023498536,0|2,0:0|0:0,0:0:0:0:
282,190,49803,1,0,0:0:0:0:
278,97,50152,2,0,P|287:50|302:21,1,77.0000023498536,8|0,0:0|0:0,0:0:0:0:
369,85,50850,2,0,P|378:132|393:161,2,77.0000023498536,2|2|8,3:0|0:0|0:0,0:0:0:0:
450,41,51896,1,0,0:0:0:0:
485,174,52245,6,0,P|467:216|357:246,1,154.000004699707,2|8,0:0|0:0,0:0:0:0:
281,226,53291,1,0,0:0:0:0:
188,219,53640,2,0,P|150:228|116:246,1,77.0000023498536,2|0,3:0|0:0,0:0:0:0:
48,309,54338,1,10,0:0:0:0:
35,217,54687,1,2,0:0:0:0:
155,134,55036,6,0,P|208:123|253:129,1,77.0000023498536,2|0,0:0|0:0,0:0:0:0:
306,177,55733,2,0,P|345:139|366:99,1,77.0000023498536,10|0,0:0|0:0,0:0:0:0:
315,38,56431,2,0,P|242:20|151:47,1,154.000004699707,2|8,0:0|0:0,0:0:0:0:
88,86,57477,1,2,3:0:0:0:
101,224,57826,6,0,P|132:268|157:282,1,77.0000023498536,4|0,0:0|0:0,0:0:0:0:
241,299,58524,2,0,P|231:245|239:218,1,77.0000023498536,8|0,0:0|0:0,0:0:0:0:
288,146,59222,2,0,P|317:169|354:180,1,77.0000023498536,2|0,3:0|0:0,0:0:0:0:
424,118,59919,1,8,0:0:0:0:
495,176,60268,2,0,P|499:221|487:263,1,77.0000023498536,0|2,0:0|0:0,0:0:0:0:
446,332,60966,5,0,0:0:0:0:
353,334,61315,2,0,P|327:288|317:232,1,77.0000023498536,8|0,0:0|0:0,0:0:0:0:
303,174,62012,2,0,P|290:137|270:105,2,77.0000023498536,2|2|8,3:0|3:0|0:0,0:0:0:0:
236,239,63059,1,0,0:0:0:0:
101,206,63408,6,0,P|76:167|74:102,1,77.0000023498536,2|0,0:0|0:0,0:0:0:0:
74,45,64105,2,0,P|110:55|148:52,1,77.0000023498536,8|0,0:0|0:0,0:0:0:0:
240,35,64803,2,0,P|235:80|204:131,2,77.0000023498536,2|2|10,3:0|3:0|0:0,0:0:0:0:
322,77,65850,1,2,0:0:0:0:
369,207,66198,6,0,P|325:243|276:253,1,77.0000023498536,2|0,0:0|0:0,0:0:0:0:
224,205,66896,2,0,P|214:261|230:308,1,77.0000023498536,10|0,0:0|0:0,0:0:0:0:
140,340,67594,2,0,P|116:273|127:189,1,154.000004699707,2|8,3:0|0:0,0:0:0:0:
188,115,68640,1,0,0:0:0:0:
308,152,68989,6,0,P|353:159|404:152,2,70,4|0|8,0:0|0:0|0:0,0:0:0:0:
266,78,70036,1,0,0:0:0:0:
188,115,70384,2,0,P|174:155|179:195,1,70,2|0,3:0|0:0,0:0:0:0:
198,263,71082,1,8,0:0:0:0:
347,339,71780,6,0,P|374:305|383:265,1,70,2|0,0:0|0:0,0:0:0:0:
379,196,72477,1,8,0:0:0:0:
324,131,72826,1,0,0:0:0:0:
261,186,73175,2,0,P|202:204|168:202,2,70,2|0|8,3:0|0:0|0:0,0:0:0:0:
399,90,74570,6,0,P|420:119|430:160,1,70,2|0,0:0|0:0,0:0:0:0:
432,235,75268,2,0,P|441:268|462:296,1,70,8|0,0:0|0:0,0:0:0:0:
492,325,75791,2,0,P|439:306|366:306,1,105,2|0,0:0|0:0,0:0:0:0:
308,319,76664,1,8,0:0:0:0:
224,309,77012,1,0,0:0:0:0:
150,267,77361,6,0,P|136:233|136:218,2,35,2|0|0,0:0|0:0|0:0,0:0:0:0:
226,231,78059,2,0,P|240:193|240:154,1,70,8|0,0:0|0:0,0:0:0:0:
225,124,78582,2,0,P|201:60|213:22,1,105
275,67,79454,1,8,0:0:0:0:
50,44,80152,6,0,P|33:84|30:121,1,70,2|0,0:0|0:0,0:0:0:0:
51,191,80850,2,0,P|45:225|30:257,1,70,8|0,0:0|0:0,0:0:0:0:
5,290,81373,2,0,P|64:261|127:252,1,105,0|0,0:0|0:0,0:0:0:0:
183,273,82245,1,8,0:0:0:0:
266,259,82594,1,0,0:0:0:0:
374,194,82943,6,0,P|364:136|370:103,1,70,2|0,0:0|0:0,0:0:0:0:
365,41,83640,2,0,P|330:46|298:61,1,70,8|0,0:0|0:0,0:0:0:0:
239,110,84338,1,4,0:0:0:0:
256,192,84512,12,0,89222,0:0:0:0:
