osu file format v14

[General]
AudioFilename: ROUND TABLE featuring Nino - Message.mp3
AudioLeadIn: -1500
PreviewTime: 56399
Countdown: 0
SampleSet: Soft
StackLeniency: 0.7
Mode: 0
LetterboxInBreaks: 0
WidescreenStoryboard: 0

[Editor]
DistanceSpacing: 1
BeatDivisor: 4
GridSize: 8
TimelineZoom: 1.5

[Metadata]
Title:Message
TitleUnicode:Message
Artist:ROUND TABLE featuring Nino
ArtistUnicode:ROUND TABLE featuring Nino
Creator:Cordi
Version:Insane
Source:
Tags:2003 jpop shibuyakei sunny side hill
BeatmapID:979568
BeatmapSetID:457174

[Difficulty]
HPDrainRate:6
CircleSize:4
OverallDifficulty:7
ApproachRate:8.5
SliderMultiplier:1.7
SliderTickRate:2

[Events]
//Background and Video events
0,0,"BG.png",0,0
//Break Periods
2,80427,92551
2,146158,158282
2,229759,233873
2,242905,247019
//Storyboard Layer 0 (Background)
//Storyboard Layer 1 (Fail)
//Storyboard Layer 2 (Pass)
//Storyboard Layer 3 (Foreground)
//Storyboard Sound Samples

[TimingPoints]
-293,410.818212940774,4,2,0,40,1,0
1350,-100,4,2,0,50,0,0
14496,-100,4,2,0,40,0,0
40788,-100,4,2,0,50,0,0
53935,-100,4,2,0,55,0,0
57221,-100,4,2,0,60,0,1
70367,-100,4,2,0,60,0,0
93373,-100,4,2,0,40,0,0
106519,-100,4,2,0,50,0,0
119665,-100,4,2,0,55,0,0
122952,-100,4,2,0,60,0,1
136098,-100,4,2,0,60,0,0
159104,-100,4,2,0,50,0,0
172250,-100,4,2,0,55,0,0
175537,-100,4,2,0,65,0,1
188683,-100,4,2,0,65,0,0
198543,-100,4,2,0,65,0,1
211689,-100,4,2,0,65,0,0
223192,-100,4,2,0,60,0,0
224835,-100,4,2,0,50,0,0
228019,-100,4,2,0,30,0,0
229559,-100,4,2,0,5,0,0
234695,-100,4,2,0,50,0,0
241165,-100,4,2,0,30,0,0
242705,-100,4,2,0,5,0,0
247841,-100,4,2,0,50,0,0
264376,-100,4,2,0,20,0,0
267560,-100,4,2,0,5,0,0

[Colours]
Combo1 : 0,180,180
Combo2 : 125,55,120
Combo3 : 255,195,15
Combo4 : 185,30,70

[HitObjects]
160,64,528,6,0,L|167:149,1,85
175,190,836,1,0,0:0:0:0:
175,190,939,1,0,0:0:0:0:
51,147,1144,1,0,0:0:0:0:
241,81,1350,6,0,P|325:78|364:63,1,127.5,6|0,0:0|0:0,0:0:0:0:
416,16,1761,2,0,L|412:144,1,127.5,10|0,0:0|0:0,0:0:0:0:
410,185,2171,1,0,0:0:0:0:
327,259,2377,1,2,0:0:0:0:
221,225,2582,1,10,0:0:0:0:
415,356,2788,6,0,P|427:315|426:274,1,85,6|0,0:0|0:0,0:0:0:0:
272,148,3198,2,0,L|185:140,1,85,2|0,0:0|0:0,0:0:0:0:
355,240,3609,2,0,P|367:199|366:158,1,85,2|0,0:0|0:0,0:0:0:0:
189,62,4020,2,0,L|102:70,1,85,2|0,0:0|0:0,0:0:0:0:
11,27,4431,1,2,0:0:0:0:
51,184,4636,6,0,P|94:191|135:184,1,85
329,134,5047,2,0,P|290:126|243:130,1,85,8|0,0:0|0:0,0:0:0:0:
134,184,5458,1,0,0:0:0:0:
238,252,5663,1,0,0:0:0:0:
245,129,5869,1,8,0:0:0:0:
51,124,6074,6,0,P|32:187|52:245,1,127.5,2|0,0:0|0:0,0:0:0:0:
83,270,6485,1,2,0:0:0:0:
224,203,6690,1,8,0:0:0:0:
330,256,6896,2,0,P|342:215|338:172,1,85,2|0,0:0|0:0,0:0:0:0:
225,98,7307,1,2,0:0:0:0:
225,98,7512,2,0,P|183:94|139:98,1,85,8|0,0:0|0:0,0:0:0:0:
26,247,7923,6,0,L|111:247,1,85,2|0,0:0|0:0,0:0:0:0:
232,294,8334,2,0,L|318:299,1,85,8|0,0:0|0:0,0:0:0:0:
351,323,8642,1,0,0:0:0:0:
351,323,8745,1,2,0:0:0:0:
447,232,8950,1,2,0:0:0:0:
312,145,9155,1,8,0:0:0:0:
148,352,9361,6,0,P|275:362|323:356,1,170,6|0,0:0|0:0,0:0:0:0:
465,257,9977,2,0,L|377:253,1,85,8|0,0:0|0:0,0:0:0:0:
316,357,10388,1,0,0:0:0:0:
251,247,10593,1,0,0:0:0:0:
98,320,10799,2,0,L|182:323,1,85,8|0,0:0|0:0,0:0:0:0:
332,273,11209,5,0,0:0:0:0:
219,157,11415,1,0,0:0:0:0:
381,129,11620,1,8,0:0:0:0:
251,247,11826,2,0,L|211:259,1,42.5,2|0,0:0|0:0,0:0:0:0:
148,226,12031,2,0,L|64:210,1,85,2|0,0:0|0:0,0:0:0:0:
31,182,12339,1,0,0:0:0:0:
31,182,12442,1,8,0:0:0:0:
206,356,12647,6,4,P|245:280|250:196,1,170,2|0,0:0|0:0,0:0:0:0:
119,62,13264,2,0,L|33:70,1,85,8|0,0:0|0:0,0:0:0:0:
198,112,13674,2,0,L|285:117,1,85
282,116,13982,1,0,0:0:0:0:
282,116,14085,1,8,0:0:0:0:
410,180,14291,1,0,0:0:0:0:
296,334,14496,6,0,L|299:249,1,85,4|0,0:0|0:0,0:0:0:0:
182,286,14907,2,0,L|166:156,1,127.5,8|0,0:0|0:0,0:0:0:0:
160,117,15318,1,0,0:0:0:0:
264,150,15523,1,0,0:0:0:0:
293,24,15728,1,8,0:0:0:0:
410,128,15934,6,0,P|418:86|409:45,2,85
275,194,16550,1,8,0:0:0:0:
180,138,16755,2,0,P|138:135|96:146,1,85
148,257,17166,1,0,0:0:0:0:
275,194,17372,2,0,P|319:190|361:196,1,85,8|0,0:0|0:0,0:0:0:0:
469,331,17783,6,0,L|383:335,1,85,2|0,0:0|0:0,0:0:0:0:
275,296,18193,2,0,L|147:290,1,127.5,10|0,0:0|0:0,0:0:0:0:
130,329,18604,1,0,0:0:0:0:
21,198,18810,1,0,0:0:0:0:
189,170,19015,1,8,0:0:0:0:
130,329,19220,1,0,0:0:0:0:
32,72,19631,5,0,0:0:0:0:
94,195,19837,2,0,L|230:181,1,127.5,8|0,0:0|0:0,0:0:0:0:
253,208,20247,1,0,0:0:0:0:
352,159,20453,1,0,0:0:0:0:
485,218,20658,2,0,L|494:129,1,85,8|0,0:0|0:0,0:0:0:0:
377,30,21069,6,0,P|338:15|295:11,1,85
160,93,21480,2,0,P|200:103|244:103,1,85,8|0,0:0|0:0,0:0:0:0:
277,128,21788,1,0,0:0:0:0:
277,128,21891,1,0,0:0:0:0:
230,226,22096,1,0,0:0:0:0:
319,317,22302,1,8,0:0:0:0:
441,239,22507,6,0,L|356:234,1,85
408,135,22918,1,0,0:0:0:0:
301,51,23123,1,8,0:0:0:0:
415,20,23329,1,0,0:0:0:0:
415,20,23431,1,0,0:0:0:0:
415,20,23534,1,0,0:0:0:0:
328,136,23739,1,0,0:0:0:0:
474,238,23945,2,0,P|491:199|492:157,1,85,8|0,0:0|0:0,0:0:0:0:
415,20,24356,6,0,L|420:104,1,85,2|0,0:0|0:0,0:0:0:0:
300,209,24766,2,0,L|302:123,1,85,10|0,0:0|0:0,0:0:0:0:
306,81,25075,1,0,0:0:0:0:
306,81,25177,1,0,0:0:0:0:
198,104,25383,1,0,0:0:0:0:
88,48,25588,1,8,0:0:0:0:
8,183,25793,6,0,P|53:185|92:181,1,85
179,245,26204,1,0,0:0:0:0:
322,199,26410,2,0,P|328:159|324:115,1,85,8|0,0:0|0:0,0:0:0:0:
317,81,26718,1,0,0:0:0:0:
304,49,26821,1,0,0:0:0:0:
186,119,27026,1,0,0:0:0:0:
322,199,27231,1,8,0:0:0:0:
229,297,27437,1,0,0:0:0:0:
386,346,27642,6,0,B|473:333,1,85,2|0,0:0|0:0,0:0:0:0:
406,228,28053,2,0,L|427:101,1,127.5,10|0,0:0|0:0,0:0:0:0:
460,128,28464,1,0,0:0:0:0:
327,171,28669,1,0,0:0:0:0:
357,33,28875,1,8,0:0:0:0:
205,116,29080,6,0,P|192:75|191:32,1,85
311,99,29491,1,0,0:0:0:0:
190,189,29696,2,0,P|186:231|197:279,2,85,8|0|0,0:0|0:0|0:0,0:0:0:0:
302,223,30312,1,0,0:0:0:0:
238,97,30518,1,8,0:0:0:0:
357,69,30723,1,0,0:0:0:0:
456,186,30929,6,0,P|418:193|371:186,1,85,2|0,0:0|0:0,0:0:0:0:
214,128,31340,2,0,P|171:123|130:131,1,85,10|0,0:0|0:0,0:0:0:0:
69,274,31750,2,0,L|117:269,1,42.5,2|0,0:0|0:0,0:0:0:0:
180,261,31956,1,0,0:0:0:0:
294,165,32161,2,0,P|302:125|291:82,1,85,10|0,0:0|0:0,0:0:0:0:
194,356,32777,5,2,0:0:0:0:
96,259,32983,1,8,0:0:0:0:
238,242,33189,1,2,0:0:0:0:
238,242,33292,1,0,0:0:0:0:
238,242,33395,1,0,0:0:0:0:
120,330,33600,1,2,0:0:0:0:
71,184,33804,1,8,0:0:0:0:
9,267,34010,1,0,0:0:0:0:
203,299,34215,6,0,P|228:299|287:290,1,85,2|0,0:0|0:0,0:0:0:0:
371,169,34626,2,0,L|368:296,1,113.333333333333,10|0,0:0|0:0,0:0:0:0:
368,339,35037,1,0,0:0:0:0:
449,268,35242,1,0,0:0:0:0:
291,213,35448,1,8,0:0:0:0:
169,335,35653,6,0,P|212:343|255:339,1,85
367,296,36064,1,0,0:0:0:0:
470,149,36269,2,0,L|467:234,1,85,8|0,0:0|0:0,0:0:0:0:
468,234,36577,1,0,0:0:0:0:
468,234,36680,1,0,0:0:0:0:
371,206,36886,1,0,0:0:0:0:
213,279,37091,2,0,P|159:283|129:278,1,85,8|0,0:0|0:0,0:0:0:0:
23,144,37502,6,0,P|22:190|27:235,1,85,2|0,0:0|0:0,0:0:0:0:
155,153,37913,2,0,L|284:159,1,127.5,10|0,0:0|0:0,0:0:0:0:
319,138,38323,1,0,0:0:0:0:
353,270,38529,1,0,0:0:0:0:
450,175,38734,1,8,0:0:0:0:
253,236,38940,6,0,P|247:278|260:321,1,85,2|0,0:0|0:0,0:0:0:0:
156,296,39350,1,2,0:0:0:0:
347,335,39556,2,0,P|390:331|430:314,1,85,8|0,0:0|0:0,0:0:0:0:
479,268,39864,1,0,0:0:0:0:
479,268,39967,2,0,L|484:180,1,85
485,149,40275,1,0,0:0:0:0:
487,115,40378,1,8,0:0:0:0:
490,8,40583,1,0,0:0:0:0:
317,105,40788,6,0,P|280:87|232:84,1,85,6|0,0:0|0:0,0:0:0:0:
127,207,41199,2,0,L|222:203,1,85,10|0,0:0|0:0,0:0:0:0:
247,226,41507,1,0,0:0:0:0:
247,226,41610,1,0,0:0:0:0:
317,105,41815,1,0,0:0:0:0:
492,145,42021,1,8,0:0:0:0:
370,273,42226,6,0,P|370:230|360:189,1,85,2|0,0:0|0:0,0:0:0:0:
247,226,42637,1,2,0:0:0:0:
87,122,42842,2,0,L|174:116,1,85,8|0,0:0|0:0,0:0:0:0:
205,143,43151,1,0,0:0:0:0:
205,143,43253,1,0,0:0:0:0:
317,95,43459,1,0,0:0:0:0:
476,156,43664,2,0,L|485:71,1,85,8|0,0:0|0:0,0:0:0:0:
377,208,44075,6,0,P|342:215|291:206,1,85,2|0,0:0|0:0,0:0:0:0:
144,113,44486,2,0,L|229:108,1,85,10|0,0:0|0:0,0:0:0:0:
293,207,44897,1,0,0:0:0:0:
374,119,45102,1,0,0:0:0:0:
422,267,45307,1,8,0:0:0:0:
278,108,45513,6,0,P|236:109|189:119,1,85,2|0,0:0|0:0,0:0:0:0:
84,171,45924,1,2,0:0:0:0:
215,257,46129,1,8,0:0:0:0:
116,344,46334,1,0,0:0:0:0:
116,344,46437,1,0,0:0:0:0:
116,344,46540,1,0,0:0:0:0:
218,374,46745,1,0,0:0:0:0:
310,320,46951,1,8,0:0:0:0:
413,347,47156,1,0,0:0:0:0:
488,217,47361,6,0,L|493:132,1,85,2|0,0:0|0:0,0:0:0:0:
330,212,47772,2,0,P|374:212|415:199,1,85,10|0,0:0|0:0,0:0:0:0:
412,199,48080,1,0,0:0:0:0:
412,199,48183,1,0,0:0:0:0:
356,303,48388,1,0,0:0:0:0:
262,162,48594,1,8,0:0:0:0:
457,131,48799,6,0,P|463:92|451:49,1,85,2|0,0:0|0:0,0:0:0:0:
343,96,49210,1,2,0:0:0:0:
171,18,49416,2,0,L|257:18,1,85,8|0,0:0|0:0,0:0:0:0:
343,96,49826,1,0,0:0:0:0:
303,215,50032,1,0,0:0:0:0:
448,321,50237,2,0,P|461:285|458:239,1,85,8|0,0:0|0:0,0:0:0:0:
245,342,50648,6,0,P|231:284|236:215,1,127.5,6|0,0:0|0:0,0:0:0:0:
279,164,51059,2,0,L|406:161,1,127.5,10|0,0:0|0:0,0:0:0:0:
443,139,51470,1,0,0:0:0:0:
343,251,51675,1,2,0:0:0:0:
284,85,51880,1,8,0:0:0:0:
125,185,52086,1,2,0:0:0:0:
125,185,52497,5,2,0:0:0:0:
286,160,52702,2,0,P|328:160|370:167,1,85,8|0,0:0|0:0,0:0:0:0:
403,174,53010,1,0,0:0:0:0:
435,185,53113,1,0,0:0:0:0:
379,279,53318,1,0,0:0:0:0:
354,94,53524,2,0,L|343:7,1,85,8|0,0:0|0:0,0:0:0:0:
208,132,53935,5,2,0:0:0:0:
274,275,54140,1,2,0:0:0:0:
414,154,54345,1,8,0:0:0:0:
379,321,54551,1,0,0:0:0:0:
287,168,54756,1,2,0:0:0:0:
287,168,54962,1,2,0:0:0:0:
459,226,55167,1,8,0:0:0:0:
224,310,55372,6,0,L|222:226,1,85,2|0,0:0|0:0,0:0:0:0:
216,55,55783,1,2,0:0:0:0:
119,213,55988,1,14,0:0:0:0:
313,230,56194,1,0,0:0:0:0:
154,138,56399,1,0,0:0:0:0:
186,313,56605,1,0,0:0:0:0:
186,313,56707,1,0,0:0:0:0:
186,313,56810,1,8,0:0:0:0:
24,251,57016,1,0,0:0:0:0:
281,220,57221,5,6,0:0:0:0:
88,34,57632,2,0,P|128:21|173:18,1,85,10|0,0:0|0:0,0:0:0:0:
204,21,57940,1,0,0:0:0:0:
236,29,58043,1,0,0:0:0:0:
356,94,58248,1,2,0:0:0:0:
281,220,58454,1,8,0:0:0:0:
453,322,58659,6,0,P|454:279|439:238,1,85,2|0,0:0|0:0,0:0:0:0:
331,302,59070,1,2,0:0:0:0:
198,242,59275,2,0,P|158:237|113:239,1,85,8|0,0:0|0:0,0:0:0:0:
73,254,59583,1,0,0:0:0:0:
73,254,59686,1,0,0:0:0:0:
106,125,59891,1,0,0:0:0:0:
285,162,60097,2,0,P|331:157|370:141,1,85,8|0,0:0|0:0,0:0:0:0:
192,31,60508,6,0,L|191:123,1,85,2|0,0:0|0:0,0:0:0:0:
295,245,60918,2,0,L|294:337,1,85,10|0,0:0|0:0,0:0:0:0:
294,329,61227,1,0,0:0:0:0:
294,329,61329,1,0,0:0:0:0:
179,254,61535,1,0,0:0:0:0:
336,154,61740,1,8,0:0:0:0:
129,33,61945,6,0,P|115:92|123:157,1,127.5,6|0,0:0|0:0,0:0:0:0:
147,192,62356,1,0,0:0:0:0:
256,133,62562,1,8,0:0:0:0:
13,178,62767,6,0,P|25:237|59:292,1,127.5,6|0,0:0|0:0,0:0:0:0:
96,316,63178,1,0,0:0:0:0:
250,347,63383,2,0,L|352:340,1,85,8|0,0:0|0:0,0:0:0:0:
484,209,63794,6,0,P|442:210|399:205,1,85,2|0,0:0|0:0,0:0:0:0:
235,108,64205,2,0,P|192:100|150:99,1,85,10|0,0:0|0:0,0:0:0:0:
109,108,64513,1,0,0:0:0:0:
109,108,64616,1,2,0:0:0:0:
147,241,64821,1,2,0:0:0:0:
235,108,65027,1,8,0:0:0:0:
62,170,65232,1,2,0:0:0:0:
147,241,65437,5,0,0:0:0:0:
128,66,65643,1,2,0:0:0:0:
294,158,65848,2,0,P|335:162|377:152,1,85,8|0,0:0|0:0,0:0:0:0:
511,84,66259,1,0,0:0:0:0:
489,206,66464,1,2,0:0:0:0:
326,87,66670,2,0,P|285:77|243:80,1,85,8|0,0:0|0:0,0:0:0:0:
121,147,67080,5,2,0:0:0:0:
239,218,67286,1,2,0:0:0:0:
242,80,67492,1,8,0:0:0:0:
6,215,67697,6,0,P|44:231|87:235,1,85,6|0,0:0|0:0,0:0:0:0:
239,218,68107,1,2,0:0:0:0:
264,363,68313,1,8,0:0:0:0:
474,168,68519,6,0,P|433:158|390:162,1,85,6|0,0:0|0:0,0:0:0:0:
239,218,68929,1,2,0:0:0:0:
186,71,69135,1,8,0:0:0:0:
2,302,69340,6,0,P|42:302|84:292,1,85,6|0,0:0|0:0,0:0:0:0:
239,218,69751,1,2,0:0:0:0:
101,130,69956,1,8,0:0:0:0:
101,130,70059,1,0,0:0:0:0:
101,130,70162,1,0,0:0:0:0:
283,30,70367,6,0,L|287:115,1,85,6|0,0:0|0:0,0:0:0:0:
392,241,70778,2,0,L|388:156,1,85,10|0,0:0|0:0,0:0:0:0:
270,225,71189,1,0,0:0:0:0:
170,137,71394,1,0,0:0:0:0:
20,191,71600,1,8,0:0:0:0:
160,319,71805,6,0,L|165:231,1,85,2|0,0:0|0:0,0:0:0:0:
174,85,72216,1,2,0:0:0:0:
20,191,72421,2,0,P|77:202|103:201,1,85,8|0,0:0|0:0,0:0:0:0:
241,171,72832,1,0,0:0:0:0:
352,240,73038,1,0,0:0:0:0:
491,131,73243,2,0,L|486:218,1,85,8|0,0:0|0:0,0:0:0:0:
360,109,73654,6,0,L|364:24,1,85,2|0,0:0|0:0,0:0:0:0:
241,171,74065,2,0,P|189:181|155:181,1,85,10|0,0:0|0:0,0:0:0:0:
123,177,74373,1,0,0:0:0:0:
90,168,74475,1,0,0:0:0:0:
229,79,74681,1,0,0:0:0:0:
254,273,74886,1,8,0:0:0:0:
412,94,75092,6,0,P|367:94|327:100,1,85,2|0,0:0|0:0,0:0:0:0:
188,147,75502,1,2,0:0:0:0:
357,287,75708,2,0,P|362:244|359:202,1,85,8|0,0:0|0:0,0:0:0:0:
173,300,76119,1,0,0:0:0:0:
11,244,76324,1,0,0:0:0:0:
11,277,76426,1,0,0:0:0:0:
22,310,76530,1,8,0:0:0:0:
147,222,76735,1,0,0:0:0:0:
357,287,76940,5,6,0:0:0:0:
290,164,77146,1,2,0:0:0:0:
235,316,77351,1,8,0:0:0:0:
325,62,77557,6,0,P|281:56|242:67,1,85,6|0,0:0|0:0,0:0:0:0:
173,193,77967,1,2,0:0:0:0:
99,44,78173,1,8,0:0:0:0:
379,143,78378,6,0,P|383:186|370:227,1,85,6|0,0:0|0:0,0:0:0:0:
231,278,78789,1,2,0:0:0:0:
398,329,78994,1,8,0:0:0:0:
152,145,79200,6,0,P|148:188|161:229,1,85,6|0,0:0|0:0,0:0:0:0:
294,126,79611,1,0,0:0:0:0:
152,36,79816,1,8,0:0:0:0:
152,36,79919,1,0,0:0:0:0:
152,36,80021,1,0,0:0:0:0:
212,298,80227,1,6,0:0:0:0:
23,110,93373,6,0,L|110:100,1,85,6|0,0:0|0:0,0:0:0:0:
221,38,93784,2,0,P|198:91|196:161,1,127.5,10|0,0:0|0:0,0:0:0:0:
205,201,94195,1,0,0:0:0:0:
316,177,94400,1,0,0:0:0:0:
381,301,94606,1,8,0:0:0:0:
500,180,94811,6,0,P|461:166|417:162,1,85
313,258,95222,1,0,0:0:0:0:
182,185,95427,1,8,0:0:0:0:
223,316,95633,1,0,0:0:0:0:
223,316,95735,1,0,0:0:0:0:
223,316,95838,1,0,0:0:0:0:
274,167,96043,1,0,0:0:0:0:
97,249,96249,2,0,P|78:210|77:167,1,85,8|0,0:0|0:0,0:0:0:0:
151,41,96660,6,0,L|241:32,1,85,2|0,0:0|0:0,0:0:0:0:
366,117,97070,2,0,L|239:128,1,127.5,10|0,0:0|0:0,0:0:0:0:
207,157,97481,1,0,0:0:0:0:
302,261,97687,1,0,0:0:0:0:
366,117,97892,1,8,0:0:0:0:
484,173,98097,1,0,0:0:0:0:
484,173,98508,5,0,0:0:0:0:
381,288,98714,2,0,L|375:203,1,85,8|0,0:0|0:0,0:0:0:0:
370,169,99022,1,0,0:0:0:0:
368,135,99124,1,2,0:0:0:0:
366,100,99227,1,0,0:0:0:0:
363,67,99330,1,2,0:0:0:0:
205,159,99535,2,0,P|247:164|290:164,1,85,10|0,0:0|0:0,0:0:0:0:
471,132,99946,6,0,P|471:172|467:217,1,85,2|0,0:0|0:0,0:0:0:0:
334,306,100357,2,0,P|333:263|337:221,1,85,10|0,0:0|0:0,0:0:0:0:
337,221,100665,1,0,0:0:0:0:
337,221,100768,1,0,0:0:0:0:
440,334,100973,1,0,0:0:0:0:
269,356,101179,1,8,0:0:0:0:
133,272,101384,6,0,P|127:312|133:355,1,85
247,278,101795,1,0,0:0:0:0:
101,193,102000,1,8,0:0:0:0:
203,126,102206,1,0,0:0:0:0:
203,126,102308,1,0,0:0:0:0:
203,126,102411,1,0,0:0:0:0:
87,49,102616,1,0,0:0:0:0:
16,198,102822,2,0,P|60:193|105:193,1,85,8|0,0:0|0:0,0:0:0:0:
261,241,103233,6,0,L|257:325,1,85,2|0,0:0|0:0,0:0:0:0:
358,191,103644,2,0,L|361:106,1,85,10|0,0:0|0:0,0:0:0:0:
363,72,103952,1,0,0:0:0:0:
364,38,104054,1,0,0:0:0:0:
265,146,104260,1,0,0:0:0:0:
436,227,104465,1,8,0:0:0:0:
256,325,104671,6,0,P|317:315|387:337,1,127.5,2|0,0:0|0:0,0:0:0:0:
367,300,105081,1,2,0:0:0:0:
356,268,105183,1,0,0:0:0:0:
350,234,105286,1,8,0:0:0:0:
350,200,105389,1,0,0:0:0:0:
354,166,105491,1,0,0:0:0:0:
363,133,105594,1,0,0:0:0:0:
377,103,105697,1,0,0:0:0:0:
507,220,105903,2,0,L|464:225,1,42.5
410,267,106108,2,0,L|367:272,2,42.5,8|0|0,0:0|0:0|0:0,0:0:0:0:
199,360,106519,6,0,P|182:323|176:274,1,85,6|0,0:0|0:0,0:0:0:0:
213,128,106930,2,0,L|344:127,1,127.5,10|0,0:0|0:0,0:0:0:0:
383,127,107341,1,0,0:0:0:0:
275,228,107546,1,0,0:0:0:0:
165,54,107752,1,8,0:0:0:0:
26,176,107957,6,0,P|67:183|117:181,1,85,2|0,0:0|0:0,0:0:0:0:
243,142,108368,1,2,0:0:0:0:
399,30,108573,2,0,L|397:114,1,85,8|0,0:0|0:0,0:0:0:0:
395,254,108984,1,0,0:0:0:0:
502,199,109190,1,0,0:0:0:0:
327,138,109395,2,0,P|274:135|243:141,1,85,8|0,0:0|0:0,0:0:0:0:
395,254,109806,6,0,L|400:166,1,85,2|0,0:0|0:0,0:0:0:0:
245,247,110217,2,0,P|201:247|160:239,1,85,10|0,0:0|0:0,0:0:0:0:
39,189,110627,1,0,0:0:0:0:
170,140,110833,1,0,0:0:0:0:
132,322,111038,1,8,0:0:0:0:
320,220,111244,6,0,P|281:202|237:199,1,85,2|0,0:0|0:0,0:0:0:0:
121,223,111654,1,2,0:0:0:0:
196,63,111860,1,8,0:0:0:0:
77,107,112065,1,2,0:0:0:0:
77,107,112168,1,0,0:0:0:0:
77,107,112271,1,0,0:0:0:0:
169,159,112476,1,2,0:0:0:0:
272,128,112682,1,12,0:0:0:0:
370,173,112887,1,0,0:0:0:0:
498,75,113092,6,0,L|494:159,1,85,6|0,0:0|0:0,0:0:0:0:
370,67,113503,2,0,P|332:50|289:45,1,85,10|0,0:0|0:0,0:0:0:0:
171,96,113914,1,0,0:0:0:0:
267,190,114119,1,0,0:0:0:0:
118,260,114325,1,8,0:0:0:0:
280,359,114530,6,0,P|292:312|290:271,1,85,2|0,0:0|0:0,0:0:0:0:
161,323,114941,1,2,0:0:0:0:
20,224,115146,2,0,P|19:266|30:307,1,85,8|0,0:0|0:0,0:0:0:0:
179,214,115557,2,0,L|265:209,1,85
306,210,115865,1,0,0:0:0:0:
306,210,115968,1,8,0:0:0:0:
442,144,116173,1,0,0:0:0:0:
442,144,116276,1,0,0:0:0:0:
442,144,116379,6,0,P|434:211|440:271,1,127.5,6|0,0:0|0:0,0:0:0:0:
486,320,116790,2,0,L|357:319,1,127.5,10|0,0:0|0:0,0:0:0:0:
315,318,117201,1,2,0:0:0:0:
231,190,117406,1,2,0:0:0:0:
152,350,117611,1,8,0:0:0:0:
13,216,117817,1,6,0:0:0:0:
13,216,118228,5,2,0:0:0:0:
169,267,118433,2,0,P|216:273|259:268,1,85,8|0,0:0|0:0,0:0:0:0:
286,261,118741,1,0,0:0:0:0:
318,250,118844,1,0,0:0:0:0:
427,287,119049,1,0,0:0:0:0:
360,115,119255,1,8,0:0:0:0:
494,147,119460,1,0,0:0:0:0:
318,250,119666,5,6,0:0:0:0:
215,88,119871,1,2,0:0:0:0:
129,273,120076,1,8,0:0:0:0:
73,127,120282,1,2,0:0:0:0:
73,127,120385,1,0,0:0:0:0:
73,127,120487,1,0,0:0:0:0:
239,166,120693,1,2,0:0:0:0:
239,166,120795,1,0,0:0:0:0:
239,166,120898,1,8,0:0:0:0:
146,353,121103,5,6,0:0:0:0:
143,22,121514,1,2,0:0:0:0:
120,267,121720,1,2,0:0:0:0:
120,267,122131,5,4,0:0:0:0:
198,125,122336,1,0,0:0:0:0:
164,118,122438,1,0,0:0:0:0:
131,119,122541,1,0,0:0:0:0:
218,292,122747,1,0,0:0:0:0:
397,55,122952,6,0,L|400:139,1,85,6|0,0:0|0:0,0:0:0:0:
404,286,123363,2,0,P|367:264|320:254,1,85,10|0,0:0|0:0,0:0:0:0:
292,252,123671,1,0,0:0:0:0:
258,257,123774,1,0,0:0:0:0:
136,309,123979,1,2,0:0:0:0:
68,151,124184,1,8,0:0:0:0:
261,175,124390,6,0,P|304:174|346:163,1,85,6|0,0:0|0:0,0:0:0:0:
463,84,124801,1,2,0:0:0:0:
315,2,125006,2,0,P|309:43|313:88,1,85,8|0,0:0|0:0,0:0:0:0:
312,86,125314,1,0,0:0:0:0:
312,86,125417,1,0,0:0:0:0:
430,184,125622,1,0,0:0:0:0:
254,272,125828,2,0,P|237:233|237:191,1,85,8|0,0:0|0:0,0:0:0:0:
403,310,126239,6,0,L|315:311,1,85,2|0,0:0|0:0,0:0:0:0:
164,244,126649,2,0,L|76:245,1,85,10|0,0:0|0:0,0:0:0:0:
41,224,126957,1,0,0:0:0:0:
41,224,127060,1,0,0:0:0:0:
150,344,127266,1,0,0:0:0:0:
239,165,127471,1,8,0:0:0:0:
445,292,127676,6,0,B|405:307|354:284|319:293,1,127.5,6|0,0:0|0:0,0:0:0:0:
279,310,128087,1,0,0:0:0:0:
331,193,128293,1,8,0:0:0:0:
120,56,128498,6,0,B|161:44|211:65|246:55,1,127.5,6|0,0:0|0:0,0:0:0:0:
287,43,128909,1,0,0:0:0:0:
427,148,129114,2,0,P|437:190|430:234,1,85,8|0,0:0|0:0,0:0:0:0:
250,125,129525,6,0,P|204:135|171:153,1,85,6|0,0:0|0:0,0:0:0:0:
327,290,129936,2,0,P|344:248|343:208,1,85,10|0,0:0|0:0,0:0:0:0:
250,125,130347,1,2,0:0:0:0:
176,238,130552,1,2,0:0:0:0:
77,107,130758,1,8,0:0:0:0:
269,25,130963,6,0,P|310:21|352:28,1,85,2|0,0:0|0:0,0:0:0:0:
323,152,131374,1,2,0:0:0:0:
476,261,131579,2,0,P|484:216|480:176,1,85,8|0,0:0|0:0,0:0:0:0:
347,236,131990,1,0,0:0:0:0:
225,144,132195,1,0,0:0:0:0:
225,144,132298,1,0,0:0:0:0:
225,144,132401,1,8,0:0:0:0:
73,168,132606,1,0,0:0:0:0:
134,343,132812,5,6,0:0:0:0:
154,219,133017,1,2,0:0:0:0:
6,246,133222,1,8,0:0:0:0:
273,334,133428,6,0,P|314:334|359:325,1,85,6|0,0:0|0:0,0:0:0:0:
414,212,133839,1,2,0:0:0:0:
498,349,134044,1,8,0:0:0:0:
232,238,134249,6,0,P|181:235|145:239,1,85,6|0,0:0|0:0,0:0:0:0:
83,351,134660,1,2,0:0:0:0:
9,200,134866,1,8,0:0:0:0:
293,287,135071,6,0,P|342:284|378:275,1,85,6|0,0:0|0:0,0:0:0:0:
408,263,135379,1,0,0:0:0:0:
439,249,135482,1,2,0:0:0:0:
375,363,135687,1,8,0:0:0:0:
298,206,135893,1,0,0:0:0:0:
498,315,136098,5,6,0:0:0:0:
135,340,136509,2,0,P|214:351|263:350,1,127.5,10|0,0:0|0:0,0:0:0:0:
304,346,136920,1,0,0:0:0:0:
256,227,137125,1,0,0:0:0:0:
371,127,137331,1,8,0:0:0:0:
209,23,137536,2,0,P|209:66|219:111,1,85,2|0,0:0|0:0,0:0:0:0:
342,54,137947,5,2,0:0:0:0:
196,179,138152,2,0,P|192:223|198:269,1,85,8|0,0:0|0:0,0:0:0:0:
196,263,138460,1,0,0:0:0:0:
196,263,138563,1,0,0:0:0:0:
333,216,138768,1,0,0:0:0:0:
217,106,138974,1,8,0:0:0:0:
342,54,139179,1,0,0:0:0:0:
498,163,139385,6,0,L|414:159,1,85,2|0,0:0|0:0,0:0:0:0:
228,239,139796,2,0,L|358:245,1,127.5,10|0,0:0|0:0,0:0:0:0:
379,279,140206,1,0,0:0:0:0:
290,147,140412,1,0,0:0:0:0:
215,325,140617,1,8,0:0:0:0:
22,199,140823,2,0,P|23:247|32:284,1,85,2|0,0:0|0:0,0:0:0:0:
185,249,141233,5,2,0:0:0:0:
365,323,141439,2,0,P|373:277|372:239,1,85,8|0,0:0|0:0,0:0:0:0:
270,116,141850,1,0,0:0:0:0:
443,62,142055,1,0,0:0:0:0:
443,62,142158,1,0,0:0:0:0:
443,62,142260,1,8,0:0:0:0:
299,8,142466,1,0,0:0:0:0:
271,231,142671,5,6,0:0:0:0:
354,110,142877,1,2,0:0:0:0:
201,60,143082,1,8,0:0:0:0:
480,23,143287,6,0,P|483:68|477:107,1,85,6|0,0:0|0:0,0:0:0:0:
349,182,143698,1,2,0:0:0:0:
484,286,143904,1,8,0:0:0:0:
188,362,144109,6,0,P|183:319|187:277,1,85,6|0,0:0|0:0,0:0:0:0:
233,133,144520,1,2,0:0:0:0:
466,53,144725,6,8,P|422:48|382:49,1,85,4|0,0:0|0:0,0:0:0:0:
81,132,145136,2,0,P|120:138|167:137,1,85,4|0,0:0|0:0,0:0:0:0:
233,133,145444,1,0,0:0:0:0:
233,133,145547,2,0,L|230:218,1,85,2|0,0:0|0:0,0:0:0:0:
228,260,145855,1,0,0:0:0:0:
227,302,145958,1,4,0:0:0:0:
288,167,159104,5,2,0:0:0:0:
242,296,159309,1,2,0:0:0:0:
63,182,159515,2,0,P|62:229|72:271,1,85,10|0,0:0|0:0,0:0:0:0:
216,208,159926,1,2,0:0:0:0:
340,276,160131,1,2,0:0:0:0:
367,123,160336,1,8,0:0:0:0:
172,30,160542,6,0,P|169:72|175:114,1,85,6|0,0:0|0:0,0:0:0:0:
295,178,160953,1,2,0:0:0:0:
463,119,161158,1,8,0:0:0:0:
427,248,161363,1,0,0:0:0:0:
367,123,161569,1,2,0:0:0:0:
501,199,161774,1,2,0:0:0:0:
343,305,161980,2,0,P|330:268|329:223,1,85,8|0,0:0|0:0,0:0:0:0:
473,294,162391,5,2,0:0:0:0:
132,222,162801,1,10,0:0:0:0:
495,132,163212,1,2,0:0:0:0:
405,236,163418,1,2,0:0:0:0:
326,73,163623,1,8,0:0:0:0:
214,160,163828,2,0,L|341:163,1,127.5,2|0,0:0|0:0,0:0:0:0:
383,166,164239,5,0,0:0:0:0:
194,6,164445,2,0,P|187:47|188:90,1,85,10|0,0:0|0:0,0:0:0:0:
289,229,164855,1,0,0:0:0:0:
331,77,165061,1,0,0:0:0:0:
147,154,165266,1,10,0:0:0:0:
180,160,165368,1,0,0:0:0:0:
214,160,165471,1,0,0:0:0:0:
416,69,165677,6,0,L|411:153,1,85,6|0,0:0|0:0,0:0:0:0:
316,304,166088,2,0,L|312:261,1,42.5,10|0,0:0|0:0,0:0:0:0:
305,194,166293,1,0,0:0:0:0:
287,24,166499,1,2,0:0:0:0:
410,152,166704,1,2,0:0:0:0:
224,111,166910,1,8,0:0:0:0:
396,53,167115,1,2,0:0:0:0:
305,194,167320,5,0,0:0:0:0:
459,255,167526,1,2,0:0:0:0:
303,340,167731,1,8,0:0:0:0:
269,331,167834,1,0,0:0:0:0:
239,314,167937,2,0,L|232:229,2,85,2|0|0,0:0|0:0|0:0,0:0:0:0:
210,332,168450,1,0,0:0:0:0:
179,346,168552,1,8,0:0:0:0:
146,355,168655,1,0,0:0:0:0:
112,360,168758,1,0,0:0:0:0:
13,184,168964,6,0,L|143:192,1,127.5,6|0,0:0|0:0,0:0:0:0:
201,221,169374,2,0,L|294:205,1,85,8|0,0:0|0:0,0:0:0:0:
443,250,169785,1,0,0:0:0:0:
327,367,169991,1,0,0:0:0:0:
284,206,170196,1,8,0:0:0:0:
80,301,170401,6,0,P|139:308|207:305,1,127.5,6|0,0:0|0:0,0:0:0:0:
249,298,170812,1,0,0:0:0:0:
395,183,171018,1,12,0:0:0:0:
310,36,171223,1,0,0:0:0:0:
310,36,171326,1,0,0:0:0:0:
310,36,171429,1,0,0:0:0:0:
490,101,171634,1,0,0:0:0:0:
312,183,171839,1,12,0:0:0:0:
488,288,172045,1,0,0:0:0:0:
235,360,172250,6,0,L|233:275,1,85,4|0,0:0|0:0,0:0:0:0:
372,326,172661,1,8,0:0:0:0:
144,244,172866,6,0,L|156:159,1,85,4|0,0:0|0:0,0:0:0:0:
296,227,173277,1,0,0:0:0:0:
67,120,173483,6,0,L|94:39,1,85,12|0,0:0|0:0,0:0:0:0:
94,39,173791,1,0,0:0:0:0:
94,39,173893,1,0,0:0:0:0:
256,114,174099,1,0,0:0:0:0:
289,119,174201,1,0,0:0:0:0:
322,119,174304,1,8,0:0:0:0:
356,113,174407,1,0,0:0:0:0:
388,101,174509,1,0,0:0:0:0:
183,6,174715,6,0,L|188:92,1,85,2|0,0:0|0:0,0:0:0:0:
166,157,175023,2,0,L|160:205,1,42.5
216,243,175229,2,0,L|228:283,1,42.5
205,352,175434,1,0,0:0:0:0:
205,352,175537,5,6,0:0:0:0:
35,118,175948,2,0,P|87:100|125:98,1,85,10|0,0:0|0:0,0:0:0:0:
150,97,176256,1,0,0:0:0:0:
183,101,176358,1,0,0:0:0:0:
327,139,176564,1,2,0:0:0:0:
245,263,176769,1,8,0:0:0:0:
427,363,176975,6,0,P|442:325|442:278,1,85,2|0,0:0|0:0,0:0:0:0:
412,153,177385,1,2,0:0:0:0:
221,64,177591,2,0,P|210:116|218:152,1,85,8|0,0:0|0:0,0:0:0:0:
216,146,177899,1,0,0:0:0:0:
216,146,178002,1,0,0:0:0:0:
363,100,178207,1,0,0:0:0:0:
442,281,178412,1,8,0:0:0:0:
500,167,178618,1,0,0:0:0:0:
290,198,178823,6,0,L|202:198,1,85,2|0,0:0|0:0,0:0:0:0:
39,252,179234,2,0,L|124:252,1,85,10|0,0:0|0:0,0:0:0:0:
158,277,179542,1,0,0:0:0:0:
158,277,179645,1,0,0:0:0:0:
264,123,179850,1,0,0:0:0:0:
343,293,180056,1,8,0:0:0:0:
115,190,180261,6,0,P|178:181|241:195,1,127.5,6|0,0:0|0:0,0:0:0:0:
276,216,180672,1,2,0:0:0:0:
261,368,180877,1,8,0:0:0:0:
437,190,181083,6,0,P|374:181|311:195,1,127.5,6|0,0:0|0:0,0:0:0:0:
276,216,181494,1,2,0:0:0:0:
428,355,181699,2,0,L|433:265,1,85,8|0,0:0|0:0,0:0:0:0:
264,333,182110,6,0,P|219:341|177:339,1,85,2|0,0:0|0:0,0:0:0:0:
11,233,182521,2,0,P|59:222|99:222,1,85,10|0,0:0|0:0,0:0:0:0:
229,256,182931,1,2,0:0:0:0:
351,176,183137,1,2,0:0:0:0:
439,335,183342,1,8,0:0:0:0:
229,256,183548,6,0,P|184:262|148:276,1,85,2|0,0:0|0:0,0:0:0:0:
56,362,183958,1,2,0:0:0:0:
3,183,184164,1,8,0:0:0:0:
140,201,184369,1,2,0:0:0:0:
14,298,184575,1,0,0:0:0:0:
165,343,184780,1,2,0:0:0:0:
339,220,184986,2,0,P|348:262|345:308,1,85,8|0,0:0|0:0,0:0:0:0:
338,337,185294,1,0,0:0:0:0:
322,366,185396,5,2,0:0:0:0:
247,255,185602,1,2,0:0:0:0:
417,189,185807,1,8,0:0:0:0:
137,100,186013,6,0,P|130:140|138:184,1,85,6|0,0:0|0:0,0:0:0:0:
258,104,186423,1,2,0:0:0:0:
93,24,186629,1,8,0:0:0:0:
218,298,186834,6,0,P|275:310|306:306,1,85,6|0,0:0|0:0,0:0:0:0:
229,174,187245,1,2,0:0:0:0:
141,343,187450,1,8,0:0:0:0:
30,57,187656,6,0,P|79:49|114:52,1,85,6|0,0:0|0:0,0:0:0:0:
37,187,188067,1,2,0:0:0:0:
186,262,188272,1,8,0:0:0:0:
186,262,188375,1,0,0:0:0:0:
186,262,188477,1,0,0:0:0:0:
113,51,188683,6,0,P|98:93|101:138,1,85,6|0,0:0|0:0,0:0:0:0:
256,208,189094,1,10,0:0:0:0:
379,165,189299,1,2,0:0:0:0:
225,122,189505,1,2,0:0:0:0:
330,257,189710,1,2,0:0:0:0:
368,69,189915,1,8,0:0:0:0:
173,191,190121,6,0,P|221:206|265:207,1,85,2|0,0:0|0:0,0:0:0:0:
379,165,190532,1,2,0:0:0:0:
491,259,190737,2,0,P|508:217|507:178,1,85,8|0,0:0|0:0,0:0:0:0:
365,239,191148,1,2,0:0:0:0:
240,138,191353,1,2,0:0:0:0:
415,81,191559,1,8,0:0:0:0:
298,19,191764,1,2,0:0:0:0:
376,189,191969,6,0,P|418:197|461:188,1,85,2|0,0:0|0:0,0:0:0:0:
240,138,192380,2,0,P|198:136|158:149,1,85,10|0,0:0|0:0,0:0:0:0:
130,169,192688,1,0,0:0:0:0:
109,196,192791,1,0,0:0:0:0:
214,260,192996,1,2,0:0:0:0:
259,56,193202,1,8,0:0:0:0:
458,188,193407,6,0,P|417:197|374:195,1,85,2|0,0:0|0:0,0:0:0:0:
223,139,193818,1,2,0:0:0:0:
23,39,194024,2,0,P|71:25|112:26,1,85,8|0,0:0|0:0,0:0:0:0:
297,102,194434,2,0,P|310:67|311:17,1,85,2|0,0:0|0:0,0:0:0:0:
128,126,194845,1,8,0:0:0:0:
295,207,195051,1,0,0:0:0:0:
295,207,195153,1,0,0:0:0:0:
295,207,195256,5,6,0:0:0:0:
204,69,195461,1,2,0:0:0:0:
393,62,195667,1,8,0:0:0:0:
125,169,195872,6,0,P|169:174|214:174,1,85,6|0,0:0|0:0,0:0:0:0:
318,52,196283,1,2,0:0:0:0:
130,19,196488,1,8,0:0:0:0:
387,178,196694,6,0,P|342:183|298:183,1,85,6|0,0:0|0:0,0:0:0:0:
125,113,197105,1,2,0:0:0:0:
188,301,197310,1,8,0:0:0:0:
207,273,197413,1,0,0:0:0:0:
221,242,197515,1,0,0:0:0:0:
230,209,197618,1,0,0:0:0:0:
232,175,197720,1,0,0:0:0:0:
138,26,197926,5,0,0:0:0:0:
171,28,198028,1,0,0:0:0:0:
205,30,198131,1,8,0:0:0:0:
239,32,198234,1,0,0:0:0:0:
273,34,198336,1,0,0:0:0:0:
79,234,198543,6,0,P|64:190|65:149,1,85,6|0,0:0|0:0,0:0:0:0:
175,291,198953,2,0,L|268:288,1,85,10|0,0:0|0:0,0:0:0:0:
294,287,199261,1,0,0:0:0:0:
328,286,199364,1,0,0:0:0:0:
484,278,199570,1,2,0:0:0:0:
416,102,199775,1,8,0:0:0:0:
196,191,199980,6,0,P|237:204|282:207,1,85,6|0,0:0|0:0,0:0:0:0:
425,175,200391,1,2,0:0:0:0:
247,66,200597,2,0,P|284:42|323:30,1,85,8|0,0:0|0:0,0:0:0:0:
365,32,200905,1,0,0:0:0:0:
365,32,201007,1,0,0:0:0:0:
337,159,201213,1,0,0:0:0:0:
481,294,201418,2,0,P|496:249|493:208,1,85,8|0,0:0|0:0,0:0:0:0:
313,247,201829,5,2,0:0:0:0:
170,170,202034,1,2,0:0:0:0:
6,301,202240,2,0,P|59:311|89:309,1,85,10|0,0:0|0:0,0:0:0:0:
128,326,202548,1,0,0:0:0:0:
128,326,202651,1,0,0:0:0:0:
258,204,202856,1,2,0:0:0:0:
77,105,203062,1,8,0:0:0:0:
335,21,203267,6,0,B|354:76|326:128|326:128|329:155,1,127.5,6|0,0:0|0:0,0:0:0:0:
334,214,203678,1,2,0:0:0:0:
477,133,203883,1,8,0:0:0:0:
209,47,204089,6,0,B|190:102|218:154|218:154|215:181,1,127.5,6|0,0:0|0:0,0:0:0:0:
210,240,204500,1,2,0:0:0:0:
34,119,204705,2,0,L|122:118,1,85,8|0,0:0|0:0,0:0:0:0:
314,192,205116,5,6,0:0:0:0:
413,95,205321,1,0,0:0:0:0:
208,33,205526,2,0,P|202:80|208:122,1,85,10|0,0:0|0:0,0:0:0:0:
266,256,205937,1,2,0:0:0:0:
319,111,206143,1,2,0:0:0:0:
148,188,206348,1,8,0:0:0:0:
354,307,206553,2,0,P|366:261|361:219,1,85,2|0,0:0|0:0,0:0:0:0:
193,282,206964,5,2,0:0:0:0:
16,184,207170,1,8,0:0:0:0:
80,347,207375,1,2,0:0:0:0:
148,188,207581,1,0,0:0:0:0:
11,283,207786,1,2,0:0:0:0:
11,283,207889,1,0,0:0:0:0:
11,283,207991,1,8,0:0:0:0:
198,350,208197,1,2,0:0:0:0:
217,137,208402,5,6,0:0:0:0:
301,285,208608,1,2,0:0:0:0:
113,254,208813,1,8,0:0:0:0:
369,95,209018,6,0,B|394:90|439:86|448:108,1,85,6|0,0:0|0:0,0:0:0:0:
307,12,209429,1,2,0:0:0:0:
336,206,209635,1,8,0:0:0:0:
85,32,209840,6,0,B|55:32|15:40|8:61,1,85,6|0,0:0|0:0,0:0:0:0:
132,177,210251,1,2,0:0:0:0:
311,90,210456,1,8,0:0:0:0:
176,366,210662,6,0,B|162:344|155:304|174:284,1,85,6|0,0:0|0:0,0:0:0:0:
172,285,210970,1,0,0:0:0:0:
172,285,211072,1,2,0:0:0:0:
328,175,211278,1,10,0:0:0:0:
147,82,211483,1,2,0:0:0:0:
369,22,211689,6,0,P|374:69|365:113,1,85,6|0,0:0|0:0,0:0:0:0:
179,175,212100,2,0,P|167:216|173:261,1,85,10|0,0:0|0:0,0:0:0:0:
171,257,212408,1,0,0:0:0:0:
171,257,212510,1,0,0:0:0:0:
325,218,212716,1,2,0:0:0:0:
191,88,212921,1,8,0:0:0:0:
403,40,213127,6,0,P|411:81|403:122,1,85,2|0,0:0|0:0,0:0:0:0:
256,164,213537,1,2,0:0:0:0:
73,106,213743,1,8,0:0:0:0:
156,234,213948,1,2,0:0:0:0:
156,234,214051,1,0,0:0:0:0:
156,234,214154,1,0,0:0:0:0:
179,87,214359,1,2,0:0:0:0:
28,203,214564,1,10,0:0:0:0:
8,68,214770,1,2,0:0:0:0:
156,234,214975,6,0,P|196:245|242:241,1,85,2|0,0:0|0:0,0:0:0:0:
415,155,215386,2,0,P|410:193|410:239,1,85,10|0,0:0|0:0,0:0:0:0:
414,282,215694,1,0,0:0:0:0:
414,282,215797,1,2,0:0:0:0:
287,181,216002,1,2,0:0:0:0:
201,343,216208,1,8,0:0:0:0:
11,207,216413,6,0,P|68:204|111:213,1,85,2|0,0:0|0:0,0:0:0:0:
258,263,216824,1,2,0:0:0:0:
432,200,217029,1,8,0:0:0:0:
314,112,217235,1,2,0:0:0:0:
310,350,217440,2,0,P|356:349|394:340,1,85,2|0,0:0|0:0,0:0:0:0:
425,328,217748,1,0,0:0:0:0:
456,314,217851,1,8,0:0:0:0:
343,187,218056,1,0,0:0:0:0:
177,347,218262,5,6,0:0:0:0:
138,173,218467,1,2,0:0:0:0:
296,289,218673,1,8,0:0:0:0:
3,241,218878,6,0,P|46:246|90:242,1,85,6|0,0:0|0:0,0:0:0:0:
259,181,219289,1,2,0:0:0:0:
193,365,219494,1,8,0:0:0:0:
138,63,219700,6,0,P|134:110|136:150,1,85,6|0,0:0|0:0,0:0:0:0:
241,300,220110,1,2,0:0:0:0:
415,210,220316,1,8,0:0:0:0:
97,220,220521,6,0,P|137:233|179:235,1,85,6|0,0:0|0:0,0:0:0:0:
59,103,220932,1,2,0:0:0:0:
27,280,221138,1,8,0:0:0:0:
27,280,221240,1,0,0:0:0:0:
27,280,221343,1,0,0:0:0:0:
179,157,221548,5,4,0:0:0:0:
251,312,221754,1,0,0:0:0:0:
382,179,221959,1,8,0:0:0:0:
230,224,222165,1,0,0:0:0:0:
230,224,222267,1,0,0:0:0:0:
230,224,222370,1,0,0:0:0:0:
360,317,222575,1,0,0:0:0:0:
360,317,222678,1,0,0:0:0:0:
360,317,222781,1,8,0:0:0:0:
122,360,222986,6,0,P|120:317|129:276,1,85,6|0,0:0|0:0,0:0:0:0:
194,146,223397,1,2,0:0:0:0:
23,189,223602,1,8,0:0:0:0:
227,328,223808,6,0,P|243:289|240:242,1,85,6|0,0:0|0:0,0:0:0:0:
87,280,224219,1,2,0:0:0:0:
123,121,224424,1,8,0:0:0:0:
123,121,224527,1,0,0:0:0:0:
123,121,224629,1,0,0:0:0:0:
343,172,224835,5,6,0:0:0:0:
7,227,225246,1,10,0:0:0:0:
375,290,225657,1,2,0:0:0:0:
268,359,225862,1,2,0:0:0:0:
214,221,226067,1,8,0:0:0:0:
38,272,226273,1,6,0:0:0:0:
382,160,226684,5,2,0:0:0:0:
240,72,226889,2,0,P|233:118|238:161,1,85,8|0,0:0|0:0,0:0:0:0:
256,274,227300,1,0,0:0:0:0:
148,201,227505,1,2,0:0:0:0:
319,115,227711,2,0,P|324:161|318:202,1,85,8|0,0:0|0:0,0:0:0:0:
256,192,228019,12,0,229559,0:0:0:0:
65,195,234695,5,6,0:0:0:0:
166,339,234900,1,2,0:0:0:0:
175,167,235105,1,8,0:0:0:0:
45,286,235311,1,2,0:0:0:0:
417,285,235722,1,2,0:0:0:0:
284,179,235927,1,8,0:0:0:0:
270,354,236132,1,2,0:0:0:0:
486,79,236543,5,2,0:0:0:0:
380,211,236749,1,8,0:0:0:0:
311,55,236954,1,2,0:0:0:0:
311,55,237057,1,0,0:0:0:0:
311,55,237159,1,0,0:0:0:0:
256,226,237365,1,2,0:0:0:0:
401,110,237570,1,8,0:0:0:0:
213,91,237776,1,0,0:0:0:0:
350,251,237981,6,0,P|360:205|356:165,1,85,6|0,0:0|0:0,0:0:0:0:
162,234,238392,2,0,P|154:280|162:319,1,85,14|0,0:0|0:0,0:0:0:0:
284,285,238803,1,2,0:0:0:0:
393,358,239008,1,2,0:0:0:0:
453,204,239214,1,10,0:0:0:0:
510,302,239419,1,2,0:0:0:0:
162,234,239830,5,2,0:0:0:0:
79,367,240035,1,8,0:0:0:0:
12,238,240241,1,2,0:0:0:0:
155,311,240446,1,0,0:0:0:0:
123,124,240651,1,2,0:0:0:0:
330,164,240857,2,0,P|377:158|412:140,1,85,8|0,0:0|0:0,0:0:0:0:
256,192,241165,12,0,242705,0:0:0:0:
60,46,247841,5,6,0:0:0:0:
103,193,248046,1,2,0:0:0:0:
103,193,248149,1,0,0:0:0:0:
103,193,248252,1,8,0:0:0:0:
236,113,248457,1,6,0:0:0:0:
332,239,248662,1,2,0:0:0:0:
343,83,248868,1,2,0:0:0:0:
208,215,249073,1,10,0:0:0:0:
418,305,249279,6,0,P|435:270|438:215,1,85,6|0,0:0|0:0,0:0:0:0:
285,292,249689,1,2,0:0:0:0:
191,139,249895,1,12,0:0:0:0:
343,83,250100,1,2,0:0:0:0:
262,215,250306,1,0,0:0:0:0:
192,55,250511,1,6,0:0:0:0:
52,156,250716,1,8,0:0:0:0:
52,156,250819,1,0,0:0:0:0:
52,156,250922,1,0,0:0:0:0:
262,215,251127,5,6,0:0:0:0:
143,299,251333,1,0,0:0:0:0:
156,112,251538,2,0,L|159:69,2,42.5,10|0|0,0:0|0:0|0:0,0:0:0:0:
30,215,251949,1,0,0:0:0:0:
143,299,252154,1,0,0:0:0:0:
80,128,252360,1,8,0:0:0:0:
271,212,252565,2,0,B|228:223|183:213,1,85,6|0,0:0|0:0,0:0:0:0:
272,92,252976,5,0,0:0:0:0:
341,256,253181,1,8,0:0:0:0:
186,213,253387,1,0,0:0:0:0:
340,151,253592,1,0,0:0:0:0:
243,285,253798,1,2,0:0:0:0:
187,90,254003,2,0,P|223:87|272:92,1,85,8|0,0:0|0:0,0:0:0:0:
435,156,254414,5,2,0:0:0:0:
95,227,254825,1,10,0:0:0:0:
243,285,255030,1,0,0:0:0:0:
259,255,255132,1,0,0:0:0:0:
265,222,255235,1,2,0:0:0:0:
138,314,255441,1,2,0:0:0:0:
292,366,255646,1,10,0:0:0:0:
462,252,255852,6,0,B|433:245|433:245|374:266|335:257,1,127.5,2|0,0:0|0:0,0:0:0:0:
300,278,256262,1,2,0:0:0:0:
191,205,256468,1,8,0:0:0:0:
15,324,256673,2,0,B|44:331|44:331|103:310|142:319,1,127.5,2|0,0:0|0:0,0:0:0:0:
177,298,257083,1,2,0:0:0:0:
292,366,257290,1,8,0:0:0:0:
388,231,257495,2,0,L|346:226,1,42.5
278,217,257700,5,0,0:0:0:0:
348,322,257906,1,2,0:0:0:0:
389,150,258111,1,8,0:0:0:0:
20,217,258522,1,0,0:0:0:0:
90,123,258727,1,2,0:0:0:0:
187,265,258933,1,10,0:0:0:0:
278,217,259138,1,2,0:0:0:0:
278,217,259549,5,2,0:0:0:0:
174,144,259754,1,10,0:0:0:0:
331,62,259960,1,2,0:0:0:0:
240,10,260165,1,2,0:0:0:0:
256,150,260371,1,2,0:0:0:0:
419,86,260576,1,8,0:0:0:0:
404,235,260781,1,2,0:0:0:0:
314,92,260987,5,4,0:0:0:0:
177,228,261192,2,0,P|224:230|261:226,1,85,6|0,0:0|0:0,0:0:0:0:
295,220,261500,1,0,0:0:0:0:
328,212,261603,1,0,0:0:0:0:
457,301,261809,1,2,0:0:0:0:
469,270,261911,1,0,0:0:0:0:
479,236,262014,1,0,0:0:0:0:
335,295,262219,1,2,0:0:0:0:
143,184,262425,6,0,L|231:186,1,85,6|0,0:0|0:0,0:0:0:0:
262,186,262733,1,0,0:0:0:0:
296,187,262836,1,0,0:0:0:0:
485,57,263041,2,0,L|397:59,1,85,4|0,0:0|0:0,0:0:0:0:
366,59,263349,1,0,0:0:0:0:
332,60,263452,1,0,0:0:0:0:
422,266,263657,5,2,0:0:0:0:
437,235,263759,1,0,0:0:0:0:
447,203,263862,1,0,0:0:0:0:
451,169,263965,1,0,0:0:0:0:
450,135,264067,1,0,0:0:0:0:
210,62,264273,1,4,0:0:0:0:
256,192,264376,12,0,267560,0:0:0:0:
