osu file format v14

[General]
AudioFilename: audio.mp3
AudioLeadIn: 0
PreviewTime: 48228
Countdown: 0
SampleSet: Soft
StackLeniency: 0.4
Mode: 0
LetterboxInBreaks: 0
WidescreenStoryboard: 1

[Editor]
Bookmarks: 43891
DistanceSpacing: 1.2
BeatDivisor: 4
GridSize: 4
TimelineZoom: 1.4

[Metadata]
Title:Puzzle
TitleUnicode:パズル
Artist:ROUND TABLE feat. Nino
ArtistUnicode:ROUND TABLE feat. Nino
Creator:Wuab
Version:Normal
Source:N・H・Kにようこそ!
Tags:Opening Welcome To The NHK Nihon Hikikomori Kyōkai パズル 「N・H・Kにようこそ!」OPテーマ N.H.K. ni Yōkoso! Puzzle! theme kuaib Seto Kousuke
BeatmapID:2042066
BeatmapSetID:939457

[Difficulty]
HPDrainRate:3
CircleSize:3
OverallDifficulty:3
ApproachRate:5
SliderMultiplier:1.2
SliderTickRate:1

[Events]
//Background and Video events
0,0,"ubsilcoon.jpg",0,0
//Break Periods
//Storyboard Layer 0 (Background)
//Storyboard Layer 1 (Fail)
//Storyboard Layer 2 (Pass)
//Storyboard Layer 3 (Foreground)
//Storyboard Layer 4 (Overlay)
//Storyboard Sound Samples

[TimingPoints]
608,361.44578313253,4,2,4,50,1,0
1873,-100,4,2,4,70,0,1
6210,-100,4,2,4,70,0,0
7836,-100,4,2,4,70,0,1
13620,-100,4,2,4,50,0,0
36752,-100,4,2,4,60,0,0
49583,-100,4,2,4,70,0,1
74342,-100,4,2,4,60,0,0
75811,361.44578313253,4,2,4,70,1,0
75811,-100,4,2,4,70,0,1
80148,-100,4,2,4,70,0,0
81594,-100,4,2,4,70,0,1
85931,-100,4,2,4,60,0,0
88823,-100,4,2,4,5,0,0

[Colours]
Combo1 : 0,128,192
Combo2 : 128,128,255
Combo3 : 255,192,0
Combo4 : 255,128,192

[HitObjects]
256,192,608,6,0,L|196:186,1,60,14|14,0:0|0:0,0:0:0:0:
136,96,1150,2,0,L|257:85,1,120,14|10,0:0|0:0,0:0:0:0:
372,25,1873,6,0,P|359:88|394:155,1,120,12|8,0:0|0:3,0:0:0:0:
427,160,2415,1,10,0:0:0:0:
454,264,2776,2,0,L|388:258,1,60,10|8,0:0|0:3,0:0:0:0:
353,294,3138,2,0,L|287:288,1,60,10|8,0:0|0:3,0:0:0:0:
244,311,3499,2,0,P|183:309|132:342,1,120,10|10,0:0|0:0,0:0:0:0:
31,306,4222,2,0,L|38:224,1,60,10|8,0:0|0:3,0:0:0:0:
79,213,4583,2,0,L|86:131,1,60,10|8,0:0|0:3,0:0:0:0:
59,104,4945,6,0,P|134:102|176:65,1,120,10|10,0:0|0:0,0:0:0:0:
250,6,5668,2,0,L|325:12,1,60,10|8,0:0|0:3,0:0:0:0:
353,43,6029,1,10,0:0:0:0:
353,43,6210,2,0,L|363:165,1,120,10|2,0:3|0:0,0:0:0:0:
448,227,6933,2,0,L|437:346,1,120,2|10,0:0|0:3,0:0:0:0:
391,374,7475,1,8,0:0:0:0:
286,354,7836,6,0,P|271:289|301:221,1,120,14|10,0:3|0:0,0:0:0:0:
362,162,8559,2,0,L|355:93,1,60,10|8,0:0|0:3,0:0:0:0:
316,65,8921,2,0,L|247:58,1,60,10|8,0:0|0:3,0:0:0:0:
212,27,9282,2,0,P|183:53|90:51,1,120,10|10,0:0|0:0,0:0:0:0:
6,17,10005,2,0,L|0:81,1,60,10|8,0:0|0:3,0:0:0:0:
37,116,10367,2,0,L|31:180,1,60,10|0,0:0|3:0,0:0:0:0:
60,221,10728,6,0,P|121:214|176:244,1,120,10|10,0:0|0:0,0:0:0:0:
226,333,11451,2,0,L|308:340,1,60,10|8,0:0|0:3,0:0:0:0:
330,307,11812,2,0,L|412:314,1,60,10|8,0:0|0:3,0:0:0:0:
435,341,12174,2,0,P|467:269|452:215,1,120,10|10,0:0|0:0,0:0:0:0:
370,170,12897,2,0,L|237:158,1,120,10|0,0:0|3:0,0:0:0:0:
205,129,13439,1,0,3:0:0:0:
205,129,13620,5,12,0:3:0:0:
250,31,13981,2,0,L|391:18,1,120,8|0,0:0|0:0,0:0:0:0:
419,41,14523,1,8,0:3:0:0:
393,146,14885,2,0,P|427:197|488:222,1,120,10|8,0:0|0:3,0:0:0:0:
448,324,15607,2,0,P|364:300|272:334,1,180,0|8,0:0|0:0,0:0:0:0:
246,372,16330,1,0,3:0:0:0:
246,372,16511,6,0,P|239:288|210:255,1,120,10|8,0:3|0:0,0:0:0:0:
165,249,17053,2,0,L|176:126,1,120,0|8,0:0|0:3,0:0:0:0:
88,66,17776,2,0,P|162:71|217:41,1,120,10|8,0:0|0:3,0:0:0:0:
298,2,18499,2,0,P|372:-3|427:27,1,120,0|8,0:0|0:3,0:0:0:0:
442,60,19041,1,8,0:0:0:0:
396,158,19403,6,0,L|268:146,1,120,10|8,0:3|0:0,0:0:0:0:
227,170,19945,2,0,P|197:226|216:284,1,120,0|8,0:0|0:3,0:0:0:0:
292,349,20668,2,0,P|322:293|303:235,1,120,10|8,0:0|0:3,0:0:0:0:
227,170,21391,2,0,L|103:180,1,120,0|8,0:0|0:3,0:0:0:0:
58,156,21933,1,8,0:0:0:0:
19,256,22294,6,0,P|65:290|128:294,1,120,10|8,0:3|0:0,0:0:0:0:
169,261,22836,2,0,L|308:273,1,120,0|8,0:0|0:3,0:0:0:0:
369,342,23559,2,0,P|395:275|379:219,1,120,10|10,0:0|0:3,0:0:0:0:
343,195,24101,1,10,0:0:0:0:
413,112,24463,1,10,0:3:0:0:
306,96,24824,1,10,0:0:0:0:
373,11,25186,5,10,0:3:0:0:
306,96,25547,2,0,P|220:107|186:89,1,120,8|0,0:0|0:0,0:0:0:0:
165,47,26089,1,8,0:3:0:0:
61,77,26451,2,0,P|72:138|55:202,1,120,8|8,0:0|0:3,0:0:0:0:
11,290,27174,2,0,P|96:280|188:330,1,180,0|10,0:0|0:0,0:0:0:0:
207,366,27897,1,2,0:0:0:0:
207,366,28077,6,0,L|216:240,1,120,10|8,0:3|0:0,0:0:0:0:
256,209,28620,2,0,P|328:228|391:202,1,120,0|8,0:0|0:3,0:0:0:0:
458,153,29342,2,0,L|447:29,1,120,8|8,0:0|0:3,0:0:0:0:
401,5,29885,1,8,0:0:0:0:
401,5,30065,2,0,P|327:41|274:31,1,120,0|8,0:0|0:3,0:0:0:0:
244,10,30607,1,8,0:0:0:0:
167,86,30969,6,0,L|156:209,2,120,10|8|8,0:3|0:0|0:3,0:0:0:0:
128,47,31873,1,8,0:3:0:0:
27,86,32234,2,0,L|37:208,1,120,10|8,0:0|0:3,0:0:0:0:
85,230,32776,2,0,P|137:235|184:289,1,120,8|8,0:0|0:3,0:0:0:0:
240,372,33499,1,8,0:0:0:0:
292,277,33861,6,0,P|366:260|411:274,1,120,10|8,0:3|0:0,0:0:0:0:
485,345,34583,2,0,P|461:365|408:374,2,60,0|8|8,0:0|0:3|0:0,0:0:0:0:
492,291,35126,2,0,L|502:169,1,120,10|8,0:3|0:3,0:0:0:0:
478,122,35668,1,8,0:0:0:0:
374,153,36029,2,0,P|318:144|269:95,1,120,8|0,0:3|3:0,0:0:0:0:
227,4,36752,5,12,0:3:0:0:
161,90,37114,2,0,L|172:216,1,120,10|8,0:1|0:3,0:0:0:0:
143,255,37656,1,8,0:3:0:0:
211,338,38017,2,0,P|288:320|331:335,1,120,2|8,0:0|0:3,0:0:0:0:
427,365,38740,2,0,P|451:305|434:229,1,120,0|8,0:0|0:3,0:0:0:0:
403,216,39282,1,10,0:1:0:0:
435,112,39644,6,0,P|377:115|315:98,1,120,10|10,0:3|0:1,0:0:0:0:
287,54,40186,2,0,P|229:38|169:41,1,120,0|8,0:0|0:3,0:0:0:0:
85,109,40909,2,0,L|96:235,1,120,8|10,0:3|0:3,0:0:0:0:
74,278,41451,1,10,0:1:0:0:
74,278,41632,2,0,P|141:263|189:286,1,120,0|8,0:0|0:3,0:0:0:0:
216,327,42174,1,10,0:1:0:0:
318,294,42535,5,12,0:3:0:0:
418,333,42897,2,0,P|421:259|451:216,1,120,10|8,0:1|0:3,0:0:0:0:
495,202,43439,1,8,0:3:0:0:
440,109,43800,2,0,L|311:98,1,120,10|8,0:3|0:3,0:0:0:0:
233,35,44523,2,0,L|113:44,1,120,0|8,0:0|0:3,0:0:0:0:
76,84,45065,1,10,0:1:0:0:
120,182,45427,5,12,0:3:0:0:
49,263,45788,2,0,P|113:277|152:329,1,120,10|8,0:1|0:3,0:0:0:0:
244,363,46511,1,10,0:1:0:0:
306,274,46873,2,0,L|295:149,1,120,12|8,0:3|0:0,0:0:0:0:
326,110,47415,2,0,L|450:120,1,120,8|8,0:0|0:3,0:0:0:0:
489,89,47957,1,8,0:3:0:0:
420,4,48318,6,0,L|345:11,1,60,8|8,0:1|0:1,0:0:0:0:
256,40,48861,2,0,L|127:28,1,120,8|8,0:1|0:1,0:0:0:0:
50,93,49583,6,0,P|77:162|71:210,1,120,12|8,0:3|0:3,0:0:0:0:
34,245,50126,1,10,0:1:0:0:
97,332,50487,2,0,P|171:312|228:335,1,120,8|10,0:3|0:1,0:0:0:0:
250,360,51029,2,0,L|387:347,1,120,10|8,0:3|0:3,0:0:0:0:
445,271,51752,1,0,0:0:0:0:
340,241,52114,1,8,0:3:0:0:
418,167,52475,1,0,0:0:0:0:
418,167,52656,6,0,P|350:144|317:97,1,120,12|10,0:3|0:1,0:0:0:0:
269,12,53379,2,0,L|141:23,1,120,8|10,0:3|0:1,0:0:0:0:
99,2,53921,2,0,P|72:58|100:131,1,120,10|8,0:3|0:3,0:0:0:0:
182,157,54644,1,0,0:0:0:0:
95,221,55005,1,8,0:3:0:0:
195,261,55367,1,0,0:0:0:0:
195,261,55547,6,0,L|315:250,1,120,12|10,0:3|0:1,0:0:0:0:
398,182,56270,2,0,P|425:245|412:298,1,120,8|10,0:3|0:1,0:0:0:0:
323,352,56993,6,0,L|252:344,1,60,8|8,0:1|0:1,0:0:0:0:
195,261,57535,2,0,L|183:133,1,120,8|8,0:1|0:1,0:0:0:0:
249,54,58258,6,0,P|336:73|368:56,1,120,12|8,0:3|0:3,0:0:0:0:
401,25,58800,1,10,0:1:0:0:
467,110,59162,2,0,L|478:241,1,120,8|10,0:3|0:1,0:0:0:0:
442,270,59704,2,0,P|385:253|311:268,1,120,10|8,0:3|0:3,0:0:0:0:
249,338,60427,1,0,0:0:0:0:
220,233,60788,1,8,0:3:0:0:
146,312,61150,1,0,3:0:0:0:
146,312,61330,6,0,P|73:296|53:256,1,120,10|10,0:3|0:1,0:0:0:0:
99,162,62053,2,0,L|110:32,1,120,8|10,0:3|0:1,0:0:0:0:
144,0,62595,2,0,P|218:-8|269:18,1,120,10|8,0:3|0:3,0:0:0:0:
296,110,63318,1,0,0:0:0:0:
368,29,63680,1,8,0:3:0:0:
405,130,64041,1,0,0:0:0:0:
405,130,64222,6,0,L|416:268,1,120,10|10,0:3|0:1,0:0:0:0:
354,339,64945,2,0,P|290:319|228:331,1,120,8|10,0:3|0:1,0:0:0:0:
144,379,65668,2,0,P|116:317|125:246,1,120,10|10,0:3|0:1,0:0:0:0:
213,215,66391,2,0,L|224:95,1,120,8|10,0:3|0:1,0:0:0:0:
290,9,67114,6,0,P|235:-11|174:-1,1,120,10|10,0:3|0:1,0:0:0:0:
136,36,67656,2,0,P|79:54|8:45,1,120,2|0,0:0|3:0,0:0:0:0:
6,156,68379,2,0,P|70:161|123:200,1,120,12|8,0:3|0:3,0:0:0:0:
135,241,68921,1,10,0:1:0:0:
135,241,69101,2,0,L|269:252,1,120,0|8,0:0|0:3,0:0:0:0:
300,221,69644,1,10,0:1:0:0:
357,312,70005,6,0,P|426:297|463:246,1,120,10|10,0:3|0:1,0:0:0:0:
393,173,70728,2,0,L|404:46,1,120,8|10,0:3|0:1,0:0:0:0:
363,17,71270,2,0,P|314:58|241:44,1,120,12|8,0:3|0:3,0:0:0:0:
167,0,71993,1,0,0:0:0:0:
171,107,72354,1,8,0:3:0:0:
76,53,72716,1,0,0:0:0:0:
76,53,72897,6,0,L|64:185,1,120,10|10,0:3|0:1,0:0:0:0:
12,266,73620,2,0,P|74:279|131:255,1,120,8|10,0:3|0:1,0:0:0:0:
158,216,74162,1,0,0:0:0:0:
158,216,74342,6,0,L|283:226,1,120,12|2,0:3|3:1,0:0:0:0:
325,200,74885,2,0,L|335:74,1,120,0|0,3:0|3:0,0:0:0:0:
381,51,75427,1,2,3:1:0:0:
440,149,75811,6,0,P|436:202|477:269,1,120,14|10,0:0|0:0,0:0:0:0:
492,364,76533,2,0,L|426:358,1,60,10|8,0:0|0:3,0:0:0:0:
396,317,76895,2,0,L|330:311,1,60,10|8,0:0|0:3,0:0:0:0:
287,336,77256,2,0,P|241:317|165:330,1,120,10|10,0:0|0:0,0:0:0:0:
71,363,77979,2,0,L|77:292,1,60,10|8,0:0|0:3,0:0:0:0:
117,267,78341,2,0,L|123:196,1,60,10|8,0:0|0:3,0:0:0:0:
93,161,78702,6,0,P|178:180|219:164,1,120,10|10,0:0|0:0,0:0:0:0:
294,106,79425,2,0,L|356:111,1,60,10|8,0:0|0:3,0:0:0:0:
395,76,79786,2,0,L|457:81,1,60,10|8,0:0|0:3,0:0:0:0:
491,121,80148,2,0,P|446:178|450:251,1,120,10|10,0:0|0:0,0:0:0:0:
473,267,80690,1,0,3:0:0:0:
376,314,81051,1,0,3:0:0:0:
279,361,81413,1,0,3:0:0:0:
279,361,81594,6,0,L|290:237,1,120,14|10,0:0|0:0,0:0:0:0:
233,149,82317,2,0,L|157:155,1,60,10|8,0:0|0:3,0:0:0:0:
132,118,82678,2,0,L|56:124,1,60,10|8,0:0|0:3,0:0:0:0:
25,95,83039,2,0,P|50:193|39:212,1,120,10|10,0:0|0:0,0:0:0:0:
15,307,83762,2,0,L|82:303,1,60,10|8,0:0|0:3,0:0:0:0:
115,339,84124,2,0,L|182:335,1,60,10|8,0:0|0:3,0:0:0:0:
220,364,84485,6,0,P|291:332|347:348,1,120,10|10,0:0|0:0,0:0:0:0:
435,362,85208,2,0,L|428:292,1,60,10|8,0:0|0:3,0:0:0:0:
461,258,85570,2,0,L|454:188,1,60,10|8,0:0|0:3,0:0:0:0:
420,156,85931,6,0,L|344:149,1,60,10|10,0:0|0:0,0:0:0:0:
291,67,86473,2,0,L|413:56,1,120,10|10,0:0|0:0,0:0:0:0:
504,2,87196,1,10,0:0:0:0:
256,192,87286,12,0,88823,0:0:0:0:
