osu file format v14

[General]
AudioFilename: audio.mp3
AudioLeadIn: 0
PreviewTime: 41635
Countdown: 0
SampleSet: None
StackLeniency: 0.7
Mode: 0
LetterboxInBreaks: 0
WidescreenStoryboard: 0

[Editor]
DistanceSpacing: 1
BeatDivisor: 4
GridSize: 8
TimelineZoom: 6.499996

[Metadata]
Title:70cm Shihou no Madobe
TitleUnicode:70cm四方の窓辺
Artist:ROTTENGRAFFTY
ArtistUnicode:ROTTENGRAFFTY
Creator:Monstrata
Version:Ultra Instinct
Source:DRAGON BALL 超
Tags:dbz goku super saiyan toei animation anime dragon ball dragonball super rotten graffiti 70cm square window shounen gohan kakarot vegeta trunks goten piccolo frieza android 17 18 seventeen eighteen krillin tien shinhan master roshi beerus whis zenoh xenos zenos universe seven 7 tournament of power ending 10 ten chikara no taikai
BeatmapID:1468467
BeatmapSetID:694047

[Difficulty]
HPDrainRate:5
CircleSize:4
OverallDifficulty:8
ApproachRate:9.5
SliderMultiplier:3.4
SliderTickRate:1

[Events]
//Background and Video events
0,0,"son_goku_ultra_instinct_form_by_rmehedi-dbpwu2b.png",0,0
//Break Periods
2,20190,32366
//Storyboard Layer 0 (Background)
//Storyboard Layer 1 (Fail)
//Storyboard Layer 2 (Pass)
//Storyboard Layer 3 (Foreground)
//Storyboard Sound Samples

[TimingPoints]
662,402.684563758389,4,3,1,90,1,0
32891,402.684563758389,4,2,1,40,1,0
32891,-200,4,2,1,40,0,0
41736,402.684563758389,4,2,1,70,1,0
41736,-200,4,2,1,70,0,0
42541,402.684563758389,4,3,1,90,1,1
42541,-100,4,3,1,90,0,1
65091,-200,4,2,1,50,0,0
77977,-200,4,2,1,75,0,0
86836,-200,4,2,1,90,0,0
87037,-200,4,2,1,30,0,0
87641,-100,4,3,1,90,0,1
113413,-100,4,3,1,90,0,0

[Colours]
Combo1 : 193,132,255
Combo2 : 192,192,192
Combo3 : 70,70,255

[HitObjects]
236,120,7104,6,0,L|323:133,1,85,12|0,0:0|0:0,0:0:0:0:
182,187,7306,1,2,0:0:0:0:
182,187,7406,2,0,P|184:221|220:272,1,85,8|0,0:0|0:0,0:0:0:0:
267,199,7607,1,2,0:0:0:0:
150,108,7708,2,0,P|121:126|95:183,1,85,8|0,0:0|0:0,0:0:0:0:
352,211,7910,6,0,L|439:198,1,85,8|0,0:0|0:0,0:0:0:0:
320,132,8111,1,2,0:0:0:0:
209,263,8212,2,0,P|162:265|127:247,1,85,8|0,0:0|0:0,0:0:0:0:
182,187,8413,1,2,0:0:0:0:
300,277,8514,2,0,L|384:289,1,85,8|0,0:0|0:0,0:0:0:0:
288,53,8715,6,0,L|203:65,1,85,12|0,0:0|0:0,0:0:0:0:
209,263,8917,1,2,0:0:0:0:
209,263,9017,2,0,L|240:183,1,85,8|0,0:0|0:0,0:0:0:0:
171,144,9219,1,2,0:0:0:0:
124,275,9319,2,0,P|143:320|210:349,1,85,8|0,0:0|0:0,0:0:0:0:
324,170,9521,6,0,P|363:155|404:162,1,85,8|0,0:0|0:0,0:0:0:0:
371,241,9722,1,2,0:0:0:0:
240,183,9823,2,0,L|223:80,1,85,8|0,0:0|0:0,0:0:0:0:
310,89,10024,1,2,0:0:0:0:
293,249,10125,2,0,L|212:315,1,85,8|0,0:0|0:0,0:0:0:0:
76,157,10326,6,0,B|116:144|116:144|178:160,1,85,12|0,0:0|0:0,0:0:0:0:
310,336,10527,1,2,0:0:0:0:
310,336,10628,2,0,B|351:346|351:346|391:333,1,85,8|0,0:0|0:0,0:0:0:0:
240,183,10829,1,2,0:0:0:0:
174,236,10930,2,0,L|108:290,1,85,8|0,0:0|0:0,0:0:0:0:
226,99,11131,6,0,P|270:102|314:140,1,85,8|0,0:0|0:0,0:0:0:0:
322,208,11333,1,2,0:0:0:0:
344,289,11433,2,0,P|380:270|404:229,1,85,8|0,0:0|0:0,0:0:0:0:
240,183,11635,1,2,0:0:0:0:
174,236,11735,2,0,P|171:277|189:319,1,85,8|0,0:0|0:0,0:0:0:0:
364,373,11937,5,10,0:0:0:0:
344,289,12037,1,2,0:0:0:0:
261,264,12138,1,2,0:0:0:0:
187,317,12239,2,0,L|58:326,1,85,8|0,0:0|0:0,0:0:0:0:
240,183,12440,1,2,0:0:0:0:
322,208,12541,2,0,L|406:202,1,85,8|0,0:0|0:0,0:0:0:0:
160,159,12742,5,10,0:0:0:0:
101,218,12843,1,2,0:0:0:0:
122,298,12943,1,2,0:0:0:0:
202,321,13044,2,0,L|286:315,1,85,8|0,0:0|0:0,0:0:0:0:
240,183,13245,1,2,0:0:0:0:
160,159,13346,2,0,P|160:201|180:238,1,85,8|0,0:0|0:0,0:0:0:0:
332,119,13547,6,0,L|338:204,1,85,12|0,0:0|0:0,0:0:0:0:
434,367,13749,1,2,0:0:0:0:
434,367,13849,2,0,L|428:282,1,85,8|0,0:0|0:0,0:0:0:0:
422,197,14051,1,2,0:0:0:0:
259,294,14151,2,0,L|174:299,1,85,8|0,0:0|0:0,0:0:0:0:
132,69,14353,6,0,P|171:69|228:121,1,85,8|0,0:0|0:0,0:0:0:0:
150,152,14554,1,2,0:0:0:0:
84,207,14655,2,0,P|65:170|67:128,1,85,8|0,0:0|0:0,0:0:0:0:
132,69,14856,1,2,0:0:0:0:
230,177,14957,2,0,L|311:151,1,85,8|0,0:0|0:0,0:0:0:0:
49,46,15158,6,0,L|67:128,1,85,12|0,0:0|0:0,0:0:0:0:
211,259,15359,1,2,0:0:0:0:
211,259,15460,2,0,L|229:176,1,85,8|0,0:0|0:0,0:0:0:0:
247,93,15661,1,2,0:0:0:0:
392,125,15762,2,0,P|393:174|362:220,1,85,8|0,0:0|0:0,0:0:0:0:
165,118,15964,6,0,P|164:69|195:23,1,85,8|0,0:0|0:0,0:0:0:0:
247,93,16165,1,2,0:0:0:0:
292,233,16266,2,0,P|314:269|351:290,1,85,8|0,0:0|0:0,0:0:0:0:
311,151,16467,1,2,0:0:0:0:
146,202,16568,2,0,L|21:239,1,85,8|0,0:0|0:0,0:0:0:0:
331,372,16769,6,0,L|360:245,1,85,12|0,0:0|0:0,0:0:0:0:
165,118,16970,1,2,0:0:0:0:
165,118,17071,2,0,L|145:200,1,85,8|0,0:0|0:0,0:0:0:0:
311,151,17272,1,2,0:0:0:0:
390,117,17373,2,0,P|366:83|328:64,1,85,8|0,0:0|0:0,0:0:0:0:
232,185,17574,6,0,L|212:267,1,85,8|0,0:0|0:0,0:0:0:0:
111,370,17776,1,2,0:0:0:0:
52,313,17876,2,0,P|88:291|130:291,1,85,8|0,0:0|0:0,0:0:0:0:
273,325,18078,1,2,0:0:0:0:
333,383,18178,2,0,P|355:346|355:304,1,85,8|0,0:0|0:0,0:0:0:0:
171,126,18380,6,0,P|149:162|149:204,1,85,12|0,0:0|0:0,0:0:0:0:
340,153,18581,1,2,0:0:0:0:
370,73,18682,1,8,0:0:0:0:
304,20,18783,1,2,0:0:0:0:
233,66,18884,1,2,0:0:0:0:
255,148,18984,2,0,P|254:189|232:225,1,85,8|0,0:0|0:0,0:0:0:0:
6,67,19185,5,2,0:0:0:0:
80,22,19285,1,2,0:0:0:0:
153,65,19386,1,2,0:0:0:0:
153,150,19487,1,2,0:0:0:0:
79,191,19588,5,8,0:0:0:0:
38,263,19688,1,8,0:0:0:0:
97,323,19789,1,8,0:0:0:0:
175,284,19889,1,8,0:0:0:0:
161,201,19990,5,4,0:0:0:0:
246,255,32891,5,2,0:0:0:0:
246,255,33495,1,0,0:0:0:0:
300,189,33697,1,2,0:0:0:0:
253,117,33898,1,0,0:0:0:0:
170,138,34099,1,2,0:0:0:0:
166,224,34300,1,0,0:0:0:0:
300,189,34502,6,0,B|322:255|322:255|320:271|320:271|340:332,2,127.5,2|0|0,0:0|0:0|0:0,0:0:0:0:
193,55,35307,1,2,0:0:0:0:
193,55,35911,1,0,0:0:0:0:
247,120,36113,6,0,B|289:100|289:100|428:112,1,170,2|0,0:0|0:0,0:0:0:0:
395,194,36717,2,0,L|272:183,1,85,2|0,0:0|0:0,0:0:0:0:
292,270,37119,2,0,L|377:277,1,85,2|0,0:0|0:0,0:0:0:0:
229,213,37522,1,2,0:0:0:0:
229,213,38529,5,2,0:0:0:0:
246,297,38932,1,2,0:0:0:0:
262,380,39334,5,2,0:0:0:0:
262,380,39938,1,2,0:0:0:0:
314,312,40140,2,0,B|351:317|351:317|392:344|392:344|446:349,2,127.5,2|2|2,0:0|0:0|0:0,0:0:0:0:
484,279,40945,5,2,0:0:0:0:
28,279,41736,1,2,0:0:0:0:
28,105,42138,1,2,0:0:0:0:
484,279,42541,6,0,L|497:129,1,85,12|0,0:0|0:0,0:0:0:0:
430,135,42742,1,2,0:0:0:0:
328,270,42843,2,0,P|404:303|483:278,1,170,8|0,0:0|0:0,0:0:0:0:
320,185,43145,2,0,P|280:198|253:230,1,85,8|0,0:0|0:0,0:0:0:0:
333,351,43346,2,0,P|341:309|327:269,1,85,2|0,0:0|0:0,0:0:0:0:
233,127,43547,1,2,0:0:0:0:
233,127,43648,2,0,L|140:113,1,85,8|0,0:0|0:0,0:0:0:0:
286,60,43849,1,2,0:0:0:0:
286,60,43950,2,0,L|379:74,1,85,8|0,0:0|0:0,0:0:0:0:
418,215,44151,6,0,L|511:201,1,85,12|0,0:0|0:0,0:0:0:0:
233,127,44353,2,0,P|208:161|206:202,2,85,2|8|0,0:0|0:0|0:0,0:0:0:0:
317,266,44655,1,2,0:0:0:0:
317,265,44755,2,0,P|315:224|291:190,1,85,8|0,0:0|0:0,0:0:0:0:
174,282,44957,6,0,L|89:294,1,85,8|0,0:0|0:0,0:0:0:0:
226,348,45158,1,2,0:0:0:0:
309,366,45259,2,0,B|429:349|429:349|358:299,1,170,8|0,0:0|0:0,0:0:0:0:
161,197,45561,2,0,L|76:209,1,85,8|0,0:0|0:0,0:0:0:0:
317,265,45762,6,0,L|329:180,1,85,6|0,0:0|0:0,0:0:0:0:
341,95,45964,1,2,0:0:0:0:
274,42,46064,2,0,P|226:47|195:73,1,85,8|0,0:0|0:0,0:0:0:0:
146,137,46266,1,2,0:0:0:0:
166,219,46366,2,0,L|250:206,1,85,8|0,0:0|0:0,0:0:0:0:
84,74,46568,6,0,L|0:86,1,85,2|0,0:0|0:0,0:0:0:0:
81,231,46769,1,2,0:0:0:0:
81,231,46870,2,0,L|93:315,1,85,8|0,0:0|0:0,0:0:0:0:
166,358,47071,1,2,0:0:0:0:
238,314,47172,2,0,P|280:307|323:322,1,85,8|0,0:0|0:0,0:0:0:0:
494,194,47373,5,2,0:0:0:0:
414,162,47474,1,2,0:0:0:0:
346,215,47574,1,2,0:0:0:0:
357,300,47675,2,0,P|408:275|430:236,1,85,8|0,0:0|0:0,0:0:0:0:
335,130,47876,1,2,0:0:0:0:
266,182,47977,2,0,P|262:238|284:277,1,85,8|0,0:0|0:0,0:0:0:0:
494,194,48178,6,0,L|519:81,1,85,2|0,0:0|0:0,0:0:0:0:
316,47,48380,2,0,L|341:160,1,85,8|0,0:0|0:0,0:0:0:0:
440,259,48581,5,2,0:0:0:0:
494,194,48681,1,2,0:0:0:0:
449,121,48782,1,8,0:0:0:0:
367,143,48883,1,8,0:0:0:0:
359,229,48984,6,0,L|261:247,1,85,6|0,0:0|0:0,0:0:0:0:
200,204,49185,1,2,0:0:0:0:
259,84,49286,2,0,B|289:126|289:126|275:244,1,170,8|0,0:0|0:0,0:0:0:0:
122,242,49588,2,0,L|109:124,1,85,8|0,0:0|0:0,0:0:0:0:
250,0,49789,2,0,L|259:84,1,85,2|0,0:0|0:0,0:0:0:0:
200,204,49990,1,2,0:0:0:0:
200,204,50091,2,0,L|209:288,1,85,8|0,0:0|0:0,0:0:0:0:
272,346,50292,1,2,0:0:0:0:
352,319,50393,2,0,P|330:283|294:263,1,85,8|0,0:0|0:0,0:0:0:0:
190,371,50594,6,0,L|81:337,1,85,12|0,0:0|0:0,0:0:0:0:
118,178,50796,2,0,L|199:203,2,85,2|8|0,0:0|0:0|0:0,0:0:0:0:
99,95,51097,1,2,0:0:0:0:
36,152,51198,2,0,P|35:198|54:236,1,85,8|0,0:0|0:0,0:0:0:0:
218,286,51400,6,0,P|260:263|283:210,1,85,8|0,0:0|0:0,0:0:0:0:
345,93,51601,1,2,0:0:0:0:
265,62,51702,2,0,L|278:231,1,170,8|0,0:0|0:0,0:0:0:0:
425,124,52004,2,0,P|429:84|396:22,1,85,8|0,0:0|0:0,0:0:0:0:
196,144,52205,6,0,L|111:150,1,85,6|0,0:0|0:0,0:0:0:0:
59,82,52406,1,2,0:0:0:0:
138,50,52507,2,0,L|222:56,1,85,8|0,0:0|0:0,0:0:0:0:
281,118,52708,1,2,0:0:0:0:
263,202,52809,2,0,P|233:223|162:223,1,85,8|0,0:0|0:0,0:0:0:0:
344,175,53010,6,0,P|377:190|412:251,1,85,2|0,0:0|0:0,0:0:0:0:
360,325,53212,1,2,0:0:0:0:
360,325,53313,2,0,L|444:312,1,85,8|0,0:0|0:0,0:0:0:0:
283,286,53514,1,2,0:0:0:0:
283,286,53615,2,0,L|252:365,1,85,8|0,0:0|0:0,0:0:0:0:
113,180,53816,6,0,L|197:167,1,85,2|0,0:0|0:0,0:0:0:0:
59,113,54017,1,2,0:0:0:0:
29,193,54118,1,2,0:0:0:0:
83,260,54219,2,0,L|167:272,1,85,8|2,0:0|0:0,0:0:0:0:
173,45,54420,2,0,L|88:32,1,85,8|0,0:0|0:0,0:0:0:0:
246,261,54621,5,2,0:0:0:0:
311,207,54722,1,2,0:0:0:0:
281,127,54823,1,2,0:0:0:0:
196,131,54923,1,2,0:0:0:0:
128,194,55024,5,8,0:0:0:0:
46,148,55124,1,8,0:0:0:0:
62,58,55225,1,8,0:0:0:0:
154,46,55325,1,8,0:0:0:0:
196,131,55427,6,0,L|281:144,1,85,12|0,0:0|0:0,0:0:0:0:
323,70,55628,1,2,0:0:0:0:
115,116,55729,2,0,L|139:334,1,170,8|0,0:0|0:0,0:0:0:0:
4,379,56031,2,0,P|40:356|82:353,1,85,8|0,0:0|0:0,0:0:0:0:
227,357,56232,2,0,P|263:380|305:383,1,85,2|0,0:0|0:0,0:0:0:0:
353,244,56433,1,2,0:0:0:0:
353,244,56534,2,0,P|316:264|292:299,1,85,8|0,0:0|0:0,0:0:0:0:
436,271,56735,1,2,0:0:0:0:
436,271,56836,2,0,P|437:228|419:190,1,85,8|0,0:0|0:0,0:0:0:0:
319,86,57037,6,0,L|310:171,1,85,8|0,0:0|0:0,0:0:0:0:
216,246,57239,2,0,L|300:255,2,85,2|8|0,0:0|0:0|0:0,0:0:0:0:
185,166,57541,1,2,0:0:0:0:
104,140,57641,2,0,P|63:145|13:205,1,85,8|0,0:0|0:0,0:0:0:0:
290,339,57843,6,0,P|331:334|381:274,1,85,12|0,0:0|0:0,0:0:0:0:
424,178,58044,1,2,0:0:0:0:
339,187,58145,2,0,B|305:210|305:210|289:338,1,170,8|0,0:0|0:0,0:0:0:0:
473,348,58447,2,0,B|466:297|466:297|438:278,1,85,8|0,0:0|0:0,0:0:0:0:
223,248,58648,6,0,L|107:261,1,85,6|0,0:0|0:0,0:0:0:0:
53,268,58849,1,2,0:0:0:0:
147,341,58950,2,0,L|138:257,1,85,8|0,0:0|0:0,0:0:0:0:
128,171,59151,1,2,0:0:0:0:
61,117,59252,2,0,P|23:109|-24:124,1,85,8|0,0:0|0:0,0:0:0:0:
204,128,59453,6,0,P|242:136|289:121,1,85,2|0,0:0|0:0,0:0:0:0:
351,68,59655,1,2,0:0:0:0:
270,43,59755,2,0,P|267:85|286:124,1,85,8|0,0:0|0:0,0:0:0:0:
366,151,59957,1,2,0:0:0:0:
432,93,60057,2,0,P|434:51|416:12,1,85,8|0,0:0|0:0,0:0:0:0:
300,206,60259,5,2,0:0:0:0:
381,234,60359,1,2,0:0:0:0:
445,177,60460,1,2,0:0:0:0:
432,93,60561,2,0,P|397:68|355:62,1,85,8|0,0:0|0:0,0:0:0:0:
204,128,60762,1,2,0:0:0:0:
204,128,60863,2,0,P|245:121|280:97,1,85,8|0,0:0|0:0,0:0:0:0:
154,0,61064,6,0,L|135:82,1,85,2|0,0:0|0:0,0:0:0:0:
49,94,61266,2,0,L|68:176,1,85,8|0,0:0|0:0,0:0:0:0:
4,277,61467,2,0,L|86:257,1,85,2|0,0:0|0:0,0:0:0:0:
149,360,61668,2,0,L|231:379,1,85,8|0,0:0|0:0,0:0:0:0:
220,217,61870,6,0,P|185:239|168:278,1,85,12|0,0:0|0:0,0:0:0:0:
250,298,62071,1,2,0:0:0:0:
306,234,62172,2,0,B|311:99|311:99|272:133,1,170,8|0,0:0|0:0,0:0:0:0:
201,135,62474,2,0,L|296:121,1,85,8|0,0:0|0:0,0:0:0:0:
247,45,62675,2,0,L|162:57,1,85,2|0,0:0|0:0,0:0:0:0:
112,206,62876,1,2,0:0:0:0:
112,206,62977,2,0,L|207:220,1,85,8|0,0:0|0:0,0:0:0:0:
158,296,63178,1,2,0:0:0:0:
158,296,63279,2,0,L|73:283,1,85,8|0,0:0|0:0,0:0:0:0:
240,288,63480,6,0,P|268:256|278:215,1,85,2|0,0:0|0:0,0:0:0:0:
216,61,63682,2,0,P|215:103|234:141,1,85,8|0,0:0|0:0,0:0:0:0:
445,244,63883,5,2,0:0:0:0:
416,165,63983,1,2,0:0:0:0:
332,150,64084,1,2,0:0:0:0:
278,215,64185,1,2,0:0:0:0:
307,295,64285,1,8,0:0:0:0:
239,347,64386,1,8,0:0:0:0:
168,299,64487,1,8,0:0:0:0:
192,217,64588,1,8,0:0:0:0:
132,155,64688,1,10,0:0:0:0:
48,175,64789,1,10,0:0:0:0:
25,258,64890,2,0,P|63:259|124:212,1,85,14|0,0:0|0:0,0:0:0:0:
159,71,65091,5,6,0:0:0:0:
409,168,65393,1,2,0:3:0:0:
199,336,65695,1,2,0:3:0:0:
256,192,65896,5,2,0:0:0:0:
298,276,66098,1,0,0:0:0:0:
393,262,66299,1,2,0:0:0:0:
409,168,66500,1,0,0:0:0:0:
323,124,66702,5,10,0:0:0:0:
199,336,67004,1,10,0:0:0:0:
77,122,67306,1,10,0:0:0:0:
199,194,67507,5,0,0:0:0:0:
122,231,67708,2,0,L|53:220,2,42.5,8|0|0,0:0|0:0|0:0,0:0:0:0:
193,280,68111,1,2,0:0:0:0:
268,243,68313,6,0,P|331:229|393:251,1,127.5,10|8,0:0|0:0,0:0:0:0:
389,249,68715,1,2,0:0:0:0:
399,163,68917,2,0,P|441:161|476:137,1,85,10|0,0:0|0:0,0:0:0:0:
415,79,69319,2,0,P|433:41|430:0,1,85,2|0,0:0|0:0,0:0:0:0:
349,25,69722,1,10,0:0:0:0:
335,109,69923,5,10,0:0:0:0:
254,78,70125,1,2,0:0:0:0:
268,162,70326,1,0,0:0:0:0:
187,131,70527,1,10,0:0:0:0:
173,215,70728,1,2,0:0:0:0:
106,100,70930,1,10,0:0:0:0:
106,268,71131,1,14,0:0:0:0:
173,215,71333,1,0,0:0:0:0:
173,383,71534,6,0,L|328:358,1,127.5,10|8,0:0|0:0,0:0:0:0:
285,278,71937,2,0,L|302:386,1,85,2|0,0:0|0:0,0:0:0:0:
369,257,72339,6,0,P|408:243|450:249,1,85,2|2,0:0|0:0,0:0:0:0:
309,196,72742,2,0,P|322:156|316:114,1,85,2|8,0:0|0:0,0:0:0:0:
238,78,73145,6,0,B|158:63|158:63|96:89,2,127.5,10|10|10,0:0|0:0|0:0,0:0:0:0:
309,32,73950,1,0,0:0:0:0:
167,148,74151,2,0,L|168:209,2,42.5,2|0|0,0:0|0:0|0:0,0:0:0:0:
115,80,74554,1,2,0:0:0:0:
44,127,74755,6,0,P|71:161|79:250,1,127.5,10|8,0:0|0:0,0:0:0:0:
80,243,75158,1,2,0:0:0:0:
35,333,75359,2,0,L|119:319,1,85,10|0,0:0|0:0,0:0:0:0:
168,249,75762,2,0,L|251:263,1,85,2|0,0:0|0:0,0:0:0:0:
138,169,76165,1,10,0:0:0:0:
197,328,76366,5,10,0:0:0:0:
306,198,76568,1,0,0:0:0:0:
306,198,76668,1,10,0:0:0:0:
306,198,76769,1,2,0:0:0:0:
223,184,76970,1,8,0:0:0:0:
336,277,77172,1,10,0:0:0:0:
389,212,77373,1,0,0:0:0:0:
389,212,77474,1,10,0:0:0:0:
389,212,77574,1,2,0:0:0:0:
359,133,77776,1,8,0:0:0:0:
253,263,77977,6,0,L|266:359,1,85,4|0,0:0|0:0,0:0:0:0:
174,230,78380,1,8,0:0:0:0:
106,281,78581,1,0,0:0:0:0:
163,145,78782,1,10,0:0:0:0:
253,263,78984,1,0,0:0:0:0:
231,93,79185,1,10,0:0:0:0:
174,230,79387,1,0,0:0:0:0:
152,60,79588,5,10,0:0:0:0:
310,126,79789,2,0,P|366:93|382:45,1,85,2|8,0:0|0:0,0:0:0:0:
299,41,80192,1,2,0:0:0:0:
242,178,80393,1,10,0:0:0:0:
401,244,80594,1,0,0:0:0:0:
310,126,80795,1,10,0:0:0:0:
253,263,80997,1,8,0:0:0:0:
231,93,81198,5,10,0:0:0:0:
389,159,81400,1,2,0:0:0:0:
389,159,81601,2,0,L|398:62,1,85,10|0,0:0|0:0,0:0:0:0:
238,177,82004,1,2,0:0:0:0:
238,177,82205,2,0,L|229:80,1,85,2|8,0:0|0:0,0:0:0:0:
312,318,82608,1,10,0:0:0:0:
312,318,82809,6,0,L|321:221,1,85,10|8,0:0|0:0,0:0:0:0:
161,336,83212,1,10,0:0:0:0:
161,336,83413,1,10,0:0:0:0:
153,251,83615,2,0,L|145:166,1,85,2|0,0:0|0:0,0:0:0:0:
180,142,83917,1,2,0:0:0:0:
180,142,84017,2,0,L|187:57,1,85,12|0,0:0|0:0,0:0:0:0:
256,192,84420,5,2,0:0:0:0:
262,200,86031,5,2,0:0:0:0:
268,208,86836,6,0,L|257:287,1,42.5,2|0,0:0|0:0,0:0:0:0:
269,327,87037,2,0,L|266:346,20,10.625
340,278,87641,6,0,P|381:270|422:279,1,85,12|0,0:0|0:0,0:0:0:0:
465,205,87843,1,2,0:0:0:0:
327,109,87943,2,0,L|343:326,1,170,8|0,0:0|0:0,0:0:0:0:
458,120,88245,2,0,L|452:35,1,85,8|0,0:0|0:0,0:0:0:0:
320,24,88447,2,0,P|280:36|251:66,1,85,2|0,0:0|0:0,0:0:0:0:
106,156,88648,1,2,0:0:0:0:
106,156,88749,2,0,P|65:145|34:116,1,85,8|0,0:0|0:0,0:0:0:0:
180,114,88950,1,2,0:0:0:0:
180,114,89051,2,0,P|191:154|181:195,1,85,8|0,0:0|0:0,0:0:0:0:
39,283,89252,6,0,P|68:253|109:241,1,85,8|0,0:0|0:0,0:0:0:0:
328,275,89453,2,0,P|287:264|257:236,2,85,2|8|0,0:0|0:0|0:0,0:0:0:0:
402,232,89755,1,2,0:0:0:0:
329,104,89856,2,0,L|329:189,1,85,8|0,0:0|0:0,0:0:0:0:
480,358,90057,6,0,L|480:273,1,85,8|0,0:0|0:0,0:0:0:0:
402,232,90259,1,2,0:0:0:0:
328,275,90359,2,0,B|279:297|224:276|224:276|126:294,1,170,8|0,0:0|0:0,0:0:0:0:
127,371,90661,2,0,L|211:356,1,85,8|0,0:0|0:0,0:0:0:0:
91,219,90863,6,0,L|77:303,1,85,6|0,0:0|0:0,0:0:0:0:
152,99,91064,1,2,0:0:0:0:
166,182,91166,2,0,L|180:265,1,85,8|0,0:0|0:0,0:0:0:0:
231,66,91366,1,2,0:0:0:0:
269,144,91467,2,0,L|255:228,1,85,8|0,0:0|0:0,0:0:0:0:
395,71,91668,6,0,P|354:61|314:72,1,85,2|0,0:0|0:0,0:0:0:0:
355,147,91870,1,2,0:0:0:0:
440,144,91970,2,0,P|469:113|480:73,1,85,8|0,0:0|0:0,0:0:0:0:
400,219,92172,1,2,0:0:0:0:
400,219,92272,2,0,P|440:229|481:218,1,85,8|0,0:0|0:0,0:0:0:0:
314,72,92474,5,2,0:0:0:0:
243,24,92574,1,2,0:0:0:0:
165,62,92675,1,2,0:0:0:0:
158,147,92776,2,0,L|272:164,1,85,8|0,0:0|0:0,0:0:0:0:
87,98,92977,1,2,0:0:0:0:
87,98,93078,2,0,L|70:212,1,85,8|0,0:0|0:0,0:0:0:0:
26,270,93279,6,0,L|111:258,1,85,8|0,0:0|0:0,0:0:0:0:
242,159,93480,2,0,L|158:147,1,85,8|0,0:0|0:0,0:0:0:0:
302,287,93682,1,2,0:0:0:0:
363,227,93783,1,2,0:0:0:0:
328,150,93884,1,8,0:0:0:0:
242,159,93984,1,8,0:0:0:0:
227,242,94084,6,0,P|216:283|225:326,1,85,12|0,0:0|0:0,0:0:0:0:
296,372,94286,1,2,0:0:0:0:
227,242,94386,2,0,P|144:225|62:244,1,170,8|0,0:0|0:0,0:0:0:0:
242,159,94688,2,0,P|253:118|244:75,1,85,8|0,0:0|0:0,0:0:0:0:
169,34,94890,2,0,P|158:74|167:116,1,85,2|0,0:0|0:0,0:0:0:0:
328,64,95091,1,2,0:0:0:0:
328,64,95192,2,0,L|455:87,1,85,8|0,0:0|0:0,0:0:0:0:
330,155,95393,1,2,0:0:0:0:
330,155,95494,2,0,L|373:276,1,85,8|0,0:0|0:0,0:0:0:0:
249,319,95695,6,0,B|255:278|255:278|281:244,1,85,8|0,0:0|0:0,0:0:0:0:
410,303,95896,2,0,B|371:318|371:318|329:312,2,85,2|8|0,0:0|0:0|0:0,0:0:0:0:
358,235,96198,1,2,0:0:0:0:
252,163,96299,2,0,L|295:284,1,85,8|0,0:0|0:0,0:0:0:0:
410,165,96500,6,0,P|370:150|329:154,1,85,8|0,0:0|0:0,0:0:0:0:
218,84,96702,1,2,0:0:0:0:
218,84,96802,2,0,P|184:110|229:251,1,170,8|0,0:0|0:0,0:0:0:0:
138,316,97104,2,0,L|223:305,1,85,8|0,0:0|0:0,0:0:0:0:
87,180,97306,6,0,L|2:191,1,85,6|0,0:0|0:0,0:0:0:0:
53,344,97507,1,2,0:0:0:0:
53,344,97608,2,0,L|65:260,1,85,8|0,0:0|0:0,0:0:0:0:
190,226,97809,1,2,0:0:0:0:
190,225,97910,2,0,L|178:140,1,85,8|0,0:0|0:0,0:0:0:0:
333,140,98111,6,0,L|322:225,1,85,2|0,0:0|0:0,0:0:0:0:
447,260,98313,1,2,0:0:0:0:
447,260,98413,2,0,L|458:344,1,85,8|0,0:0|0:0,0:0:0:0:
509,191,98615,1,2,0:0:0:0:
509,191,98715,2,0,L|425:180,1,85,8|0,0:0|0:0,0:0:0:0:
368,301,98917,6,0,L|283:312,1,85,2|0,0:0|0:0,0:0:0:0:
156,200,99118,1,2,0:0:0:0:
198,126,99219,1,2,0:0:0:0:
281,144,99319,1,2,0:0:0:0:
290,228,99420,1,2,0:0:0:0:
212,263,99521,2,0,L|125:240,1,85,8|0,0:0|0:0,0:0:0:0:
255,63,99722,5,8,0:0:0:0:
332,27,99823,1,8,0:0:0:0:
390,89,99923,1,8,0:0:0:0:
348,163,100024,1,8,0:0:0:0:
265,147,100125,5,2,0:0:0:0:
199,217,100226,1,2,0:0:0:0:
245,301,100326,1,2,0:0:0:0:
340,281,100427,1,2,0:0:0:0:
351,186,100527,6,0,L|263:235,1,85,12|0,0:0|0:0,0:0:0:0:
185,134,100729,1,2,0:0:0:0:
117,190,100829,2,0,L|147:382,1,170,8|0,0:0|0:0,0:0:0:0:
340,281,101131,2,0,L|438:318,1,85,8|0,0:0|0:0,0:0:0:0:
295,349,101333,2,0,L|215:318,1,85,2|0,0:0|0:0,0:0:0:0:
351,186,101534,1,2,0:0:0:0:
351,186,101635,2,0,L|449:223,1,85,8|0,0:0|0:0,0:0:0:0:
337,102,101836,1,2,0:0:0:0:
337,102,101937,2,0,P|293:125|263:189,1,85,8|0,0:0|0:0,0:0:0:0:
117,190,102138,6,0,P|75:183|40:159,1,85,8|0,0:0|0:0,0:0:0:0:
99,16,102339,2,0,P|114:55|111:98,2,85,2|8|0,0:0|0:0|0:0,0:0:0:0:
192,135,102641,1,2,0:0:0:0:
261,86,102742,2,0,L|396:82,1,85,8|0,0:0|0:0,0:0:0:0:
245,268,102943,6,0,L|160:270,1,85,8|0,0:0|0:0,0:0:0:0:
285,193,103145,1,2,0:0:0:0:
316,314,103245,2,0,P|398:326|466:279,1,170,8|0,0:0|0:0,0:0:0:0:
413,136,103547,2,0,P|398:175|407:217,1,85,8|0,0:0|0:0,0:0:0:0:
459,64,103749,6,0,P|419:49|378:57,1,85,6|0,0:0|0:0,0:0:0:0:
326,125,103950,1,2,0:0:0:0:
243,145,104051,2,0,L|217:40,1,85,8|0,0:0|0:0,0:0:0:0:
143,30,104252,1,2,0:0:0:0:
85,93,104353,2,0,L|-13:82,1,85,8|0,0:0|0:0,0:0:0:0:
113,226,104554,6,0,L|211:215,1,85,2|0,0:0|0:0,0:0:0:0:
281,234,104755,1,2,0:0:0:0:
363,258,104856,2,0,P|340:293|304:314,1,85,8|0,0:0|0:0,0:0:0:0:
221,295,105057,1,2,0:0:0:0:
197,216,105158,2,0,L|187:131,1,85,8|0,0:0|0:0,0:0:0:0:
255,80,105359,5,2,0:0:0:0:
329,120,105460,1,2,0:0:0:0:
396,68,105561,1,2,0:0:0:0:
473,103,105661,2,0,P|487:143|481:184,1,85,8|0,0:0|0:0,0:0:0:0:
420,245,105863,1,2,0:0:0:0:
349,292,105964,2,0,P|334:252|341:210,1,85,8|0,0:0|0:0,0:0:0:0:
497,282,106165,5,2,0:0:0:0:
490,196,106265,1,2,0:0:0:0:
412,158,106366,1,8,0:0:0:0:
341,210,106467,1,2,0:0:0:0:
263,172,106568,1,8,0:0:0:0:
256,85,106668,1,8,0:0:0:0:
327,35,106770,2,0,P|341:77|329:131,1,85,8|0,0:0|0:0,0:0:0:0:
190,227,106970,6,0,L|95:211,1,85,12|0,0:0|0:0,0:0:0:0:
183,140,107172,1,2,0:0:0:0:
270,260,107272,2,0,B|331:252|331:252|344:243|344:243|470:224,1,170,8|0,0:0|0:0,0:0:0:0:
305,90,107574,2,0,L|297:201,1,85,8|0,0:0|0:0,0:0:0:0:
429,313,107776,2,0,L|435:228,1,85,2|0,0:0|0:0,0:0:0:0:
190,227,107977,6,0,L|98:240,1,85,8|0,0:0|0:0,0:0:0:0:
344,325,108178,2,0,L|428:312,1,85,2|2,0:0|0:0,0:0:0:0:
305,72,108380,2,0,L|331:247,1,170,8|0,0:0|0:0,0:0:0:0:
481,207,108682,1,2,0:0:0:0:
481,207,108782,2,0,P|441:192|314:269,1,170,8|0,0:0|0:0,0:0:0:0:
170,360,109084,1,2,0:0:0:0:
170,360,109185,2,0,L|7:336,1,85,8|0,0:0|0:0,0:0:0:0:
112,117,109386,5,2,0:0:0:0:
173,57,109486,1,2,0:0:0:0:
255,79,109587,1,2,0:0:0:0:
277,161,109688,1,2,0:0:0:0:
216,221,109789,5,8,0:0:0:0:
268,310,109890,1,8,0:0:0:0:
367,291,109991,1,8,0:0:0:0:
378,190,110091,1,8,0:0:0:0:
285,146,110192,6,0,L|122:122,1,85,6|0,0:0|0:0,0:0:0:0:
147,199,110393,1,2,0:0:0:0:
321,224,110494,2,0,P|353:197|369:158,1,85,8|0,0:0|0:0,0:0:0:0:
164,55,110695,1,2,0:0:0:0:
164,55,110796,2,0,P|132:82|116:121,1,85,8|0,0:0|0:0,0:0:0:0:
214,302,110997,5,2,0:0:0:0:
290,339,111098,1,2,0:0:0:0:
369,311,111198,1,2,0:0:0:0:
406,235,111299,2,0,P|400:193|376:158,1,85,8|0,0:0|0:0,0:0:0:0:
321,224,111500,1,2,0:0:0:0:
214,302,111601,2,0,L|129:314,1,85,8|0,0:0|0:0,0:0:0:0:
252,65,111802,5,2,0:0:0:0:
337,53,111902,1,2,0:0:0:0:
389,119,112004,1,2,0:0:0:0:
357,198,112104,1,2,0:0:0:0:
274,210,112206,1,2,0:0:0:0:
195,175,112306,1,2,0:0:0:0:
127,225,112406,1,2,0:0:0:0:
138,310,112508,1,2,0:0:0:0:
243,346,112608,5,8,0:0:0:0:
326,273,112708,1,8,0:0:0:0:
304,164,112809,1,8,0:0:0:0:
199,128,112910,1,8,0:0:0:0:
115,200,113010,1,8,0:0:0:0:
20,142,113111,1,8,0:0:0:0:
45,34,113212,1,8,0:0:0:0:
156,25,113313,1,8,0:0:0:0:
199,128,113413,5,4,0:0:0:0:
