osu file format v14

[General]
AudioFilename: audio.mp3
AudioLeadIn: 0
PreviewTime: 41635
Countdown: 0
SampleSet: None
StackLeniency: 0.7
Mode: 0
LetterboxInBreaks: 0
WidescreenStoryboard: 0

[Editor]
DistanceSpacing: 1.3
BeatDivisor: 4
GridSize: 8
TimelineZoom: 1

[Metadata]
Title:70cm Shihou no Madobe
TitleUnicode:70cm四方の窓辺
Artist:ROTTENGRAFFTY
ArtistUnicode:ROTTENGRAFFTY
Creator:Monstrata
Version:Super Saiyan
Source:DRAGON BALL 超
Tags:dbz goku super saiyan toei animation anime dragon ball dragonball super rotten graffiti 70cm square window shounen gohan kakarot vegeta trunks goten piccolo frieza android 17 18 seventeen eighteen krillin tien shinhan master roshi beerus whis zenoh xenos zenos universe seven 7 tournament of power ending 10 ten chikara no taikai
BeatmapID:1468469
BeatmapSetID:694047

[Difficulty]
HPDrainRate:3
CircleSize:3
OverallDifficulty:4
ApproachRate:6.5
SliderMultiplier:1.3
SliderTickRate:1

[Events]
//Background and Video events
0,0,"goku-super_saiyan-dragon_ball_fighterz-(2184).jpg",0,0
//Break Periods
2,20190,31676
2,65291,77002
//Storyboard Layer 0 (Background)
//Storyboard Layer 1 (Fail)
//Storyboard Layer 2 (Pass)
//Storyboard Layer 3 (Foreground)
//Storyboard Sound Samples

[TimingPoints]
662,402.684563758389,4,3,1,90,1,0
32891,402.684563758389,4,2,1,40,1,0
32891,-100,4,2,1,40,0,0
41736,402.684563758389,4,2,1,70,1,0
41736,-100,4,2,1,70,0,0
42541,402.684563758389,4,3,1,90,1,1
42541,-100,4,3,1,90,0,1
65091,-100,4,2,1,50,0,0
77977,-100,4,2,1,75,0,0
86836,-100,4,2,1,90,0,0
87037,-100,4,2,1,30,0,0
87641,-100,4,3,1,90,0,1
113413,-100,4,3,1,90,0,0

[Colours]
Combo1 : 255,255,0
Combo2 : 255,128,0

[HitObjects]
104,268,7104,6,0,L|186:256,1,65,12|2,0:0|0:0,0:0:0:0:
208,273,7406,2,0,L|290:261,1,65,8|2,0:0|0:0,0:0:0:0:
312,278,7708,1,8,0:0:0:0:
396,272,7910,2,0,P|388:316|331:361,2,97.5,8|8|8,0:0|0:0|0:0,0:0:0:0:
350,201,8715,6,0,L|338:119,1,65,12|2,0:0|0:0,0:0:0:0:
310,106,9017,2,0,L|298:24,1,65,8|2,0:0|0:0,0:0:0:0:
270,11,9319,1,8,0:0:0:0:
192,46,9521,2,0,P|146:35|98:43,2,97.5,8|8|8,0:0|0:0|0:0,0:0:0:0:
224,125,10326,6,0,L|212:207,1,65,12|2,0:0|0:0,0:0:0:0:
184,220,10628,2,0,L|172:302,1,65,8|2,0:0|0:0,0:0:0:0:
144,315,10930,1,8,0:0:0:0:
213,362,11131,2,0,P|258:376|304:362,2,97.5,8|8|8,0:0|0:0|0:0,0:0:0:0:
260,290,11937,6,0,P|289:278|322:278,1,65,10|2,0:0|0:0,0:0:0:0:
360,296,12239,2,0,P|389:308|422:308,1,65,8|2,0:0|0:0,0:0:0:0:
463,300,12541,1,8,0:0:0:0:
499,224,12742,2,0,B|514:161|514:161|502:128,2,97.5,10|8|8,0:0|0:0|0:0,0:0:0:0:
416,206,13547,6,0,L|334:194,1,65,12|2,0:0|0:0,0:0:0:0:
312,211,13849,2,0,L|230:199,1,65,8|2,0:0|0:0,0:0:0:0:
208,216,14151,1,8,0:0:0:0:
124,210,14353,2,0,P|132:254|189:299,2,97.5,8|8|8,0:0|0:0|0:0,0:0:0:0:
170,138,15158,6,0,P|193:116|223:104,1,65,12|2,0:0|0:0,0:0:0:0:
265,111,15460,2,0,P|290:131|321:139,1,65,8|2,0:0|0:0,0:0:0:0:
362,129,15762,1,8,0:0:0:0:
406,57,15964,2,0,P|444:107|440:166,2,97.5,8|8|8,0:0|0:0|0:0,0:0:0:0:
323,41,16769,6,0,L|241:53,1,65,12|2,0:0|0:0,0:0:0:0:
219,36,17071,2,0,L|137:48,1,65,8|2,0:0|0:0,0:0:0:0:
115,31,17373,1,8,0:0:0:0:
43,76,17574,2,0,P|31:122|46:167,2,97.5,8|8|8,0:0|0:0|0:0,0:0:0:0:
116,120,18380,6,0,P|129:149|129:181,1,65,12|2,0:0|0:0,0:0:0:0:
79,249,18782,2,0,P|65:278|65:310,1,65,2|8,0:0|0:0,0:0:0:0:
126,369,19185,2,0,P|158:369|187:356,1,65,2|2,0:0|0:0,0:0:0:0:
239,288,19588,2,0,L|248:238,2,32.5,8|8|8,0:0|0:0|0:0,0:0:0:0:
273,365,19990,5,4,0:0:0:0:
189,171,32891,5,2,0:0:0:0:
189,171,33696,2,0,L|328:182,1,130,2|2,0:0|0:0,0:0:0:0:
370,342,34501,2,0,L|105:321,1,260,2|2,0:0|0:0,0:0:0:0:
284,29,36112,6,0,P|345:12|408:36,1,130,2|0,0:0|0:0,0:0:0:0:
461,98,36716,2,0,L|442:240,2,130,2|2|2,0:0|0:0|0:0,0:0:0:0:
49,192,38528,6,0,L|68:334,2,130,2|2|2,0:0|0:0|0:0,0:0:0:0:
287,277,39937,1,2,0:0:0:0:
324,352,40139,2,0,P|277:360|233:341,2,97.5,2|2|2,0:0|0:0|0:0,0:0:0:0:
372,282,40944,5,2,0:0:0:0:
136,40,41736,1,2,0:0:0:0:
80,199,42138,1,2,0:0:0:0:
245,166,42541,6,0,P|293:167|333:193,2,97.5,12|8|8,0:0|0:0|0:0,0:0:0:0:
130,290,43547,2,0,L|65:288,1,65,2|0,0:0|0:0,0:0:0:0:
24,213,43950,2,0,L|57:157,1,65,8|12,0:0|0:0,0:0:0:0:
143,159,44353,2,0,L|174:216,1,65,2|0,0:0|0:0,0:0:0:0:
215,289,44755,1,8,0:0:0:0:
287,332,44957,2,0,P|334:339|381:326,2,97.5,8|8|8,0:0|0:0|0:0,0:0:0:0:
215,289,45762,6,0,L|205:221,1,65,6|2,0:0|0:0,0:0:0:0:
222,185,46064,2,0,L|212:117,1,65,8|2,0:0|0:0,0:0:0:0:
229,81,46366,1,8,0:0:0:0:
303,39,46568,2,0,B|332:29|332:29|423:39,2,97.5,2|8|8,0:0|0:0|0:0,0:0:0:0:
342,116,47373,6,0,L|352:184,1,65,2|2,0:0|0:0,0:0:0:0:
380,210,47675,2,0,L|390:278,1,65,8|2,0:0|0:0,0:0:0:0:
418,304,47977,1,8,0:0:0:0:
479,361,48178,2,0,P|496:334|501:302,2,65,2|8|2,0:0|0:0|0:0,0:0:0:0:
309,348,48984,6,0,B|277:339|277:339|197:354,2,97.5,6|8|8,0:0|0:0|0:0,0:0:0:0:
381,195,49990,2,0,L|444:183,1,65,2|0,0:0|0:0,0:0:0:0:
452,267,50393,2,0,L|388:278,1,65,8|12,0:0|0:0,0:0:0:0:
310,244,50796,2,0,P|296:214|294:182,1,65,2|0,0:0|0:0,0:0:0:0:
347,116,51198,1,8,0:0:0:0:
327,31,51400,2,0,P|285:55|263:98,2,97.5,8|8|8,0:0|0:0|0:0,0:0:0:0:
407,54,52205,6,0,L|486:53,1,65,6|2,0:0|0:0,0:0:0:0:
506,78,52507,2,0,L|507:157,1,65,8|2,0:0|0:0,0:0:0:0:
507,185,52809,1,8,0:0:0:0:
451,248,53010,2,0,L|452:351,2,97.5,2|8|8,0:0|0:0|0:0,0:0:0:0:
378,201,53816,6,0,P|348:191|316:193,1,65,2|2,0:0|0:0,0:0:0:0:
242,236,54219,2,0,P|211:246|179:244,1,65,8|8,0:0|0:0,0:0:0:0:
112,192,54621,2,0,B|104:168|104:168|112:144|112:144|104:120|104:120|112:96|112:96|104:72|104:72|112:48|112:48|104:24|104:24|112:0,1,195,2|8,0:0|0:0,0:0:0:0:
193,17,55427,6,0,L|307:25,2,97.5,12|8|8,0:0|0:0|0:0,0:0:0:0:
59,120,56433,2,0,L|53:199,1,65,2|0,0:0|0:0,0:0:0:0:
4,253,56836,2,0,L|10:332,1,65,8|8,0:0|0:0,0:0:0:0:
73,371,57239,2,0,P|106:374|136:364,1,65,2|0,0:0|0:0,0:0:0:0:
182,293,57641,1,8,0:0:0:0:
266,296,57843,2,0,P|305:322|325:366,2,97.5,12|8|8,0:0|0:0|0:0,0:0:0:0:
182,293,58648,6,0,L|101:274,1,65,6|2,0:0|0:0,0:0:0:0:
97,241,58950,2,0,L|16:222,1,65,8|2,0:0|0:0,0:0:0:0:
13,188,59252,1,8,0:0:0:0:
45,110,59453,2,0,P|53:62|36:17,2,97.5,2|8|8,0:0|0:0|0:0,0:0:0:0:
119,150,60259,6,0,L|200:131,1,65,2|2,0:0|0:0,0:0:0:0:
204,98,60561,2,0,L|285:79,1,65,8|2,0:0|0:0,0:0:0:0:
288,45,60863,1,8,0:0:0:0:
371,36,61064,2,0,P|368:68|354:97,2,65,2|8|2,0:0|0:0|0:0,0:0:0:0:
203,7,61870,6,0,L|88:19,2,97.5,12|8|8,0:0|0:0|0:0,0:0:0:0:
321,127,62876,2,0,L|402:135,1,65,2|0,0:0|0:0,0:0:0:0:
398,49,63279,2,0,L|316:40,1,65,8|2,0:0|0:0,0:0:0:0:
254,72,63682,1,8,0:0:0:0:
256,192,63883,12,6,65091,0:0:0:0:
159,139,77977,6,0,L|149:232,1,65,4|0,0:0|0:0,0:0:0:0:
236,213,78380,2,0,L|242:148,1,65,8|0,0:0|0:0,0:0:0:0:
327,152,78782,2,0,L|391:158,1,65,10|0,0:0|0:0,0:0:0:0:
382,243,79185,2,0,L|317:236,1,65,10|0,0:0|0:0,0:0:0:0:
257,295,79588,5,10,0:0:0:0:
315,355,79789,2,0,P|379:332|465:346,1,130,2|2,0:0|0:0,0:0:0:0:
487,266,80393,2,0,L|480:201,1,65,10|0,0:0|0:0,0:0:0:0:
431,130,80796,2,0,L|437:65,1,65,10|8,0:0|0:0,0:0:0:0:
385,0,81198,5,10,0:0:0:0:
306,31,81400,2,0,L|241:24,2,65,2|10|0,0:0|0:0|0:0,0:0:0:0:
335,110,82004,1,2,0:0:0:0:
364,189,82205,2,0,L|428:195,1,65,2|8,0:0|0:0,0:0:0:0:
482,261,82608,5,10,0:0:0:0:
453,340,82809,2,0,L|388:346,1,65,10|8,0:0|0:0,0:0:0:0:
314,306,83212,2,0,L|249:312,1,65,10|10,0:0|0:0,0:0:0:0:
171,280,83614,5,2,0:0:0:0:
46,213,84017,1,12,0:0:0:0:
169,134,84420,5,2,0:0:0:0:
177,146,86031,1,2,0:0:0:0:
185,158,86836,5,2,0:0:0:0:
235,225,87037,2,0,P|189:242|107:194,1,130,0|0,0:0|0:0,0:0:0:0:
106,127,87641,6,0,L|96:21,2,97.5,12|8|8,0:0|0:0|0:0,0:0:0:0:
74,293,88648,2,0,L|80:358,1,65,2|0,0:0|0:0,0:0:0:0:
164,349,89051,2,0,L|229:343,1,65,8|8,0:0|0:0,0:0:0:0:
283,279,89453,2,0,L|348:285,1,65,2|0,0:0|0:0,0:0:0:0:
419,330,89856,1,8,0:0:0:0:
496,294,90057,2,0,P|509:248|500:201,2,97.5,8|8|8,0:0|0:0|0:0,0:0:0:0:
419,330,90863,6,0,L|354:324,1,65,6|2,0:0|0:0,0:0:0:0:
315,341,91165,2,0,L|250:335,1,65,8|2,0:0|0:0,0:0:0:0:
211,352,91467,1,8,0:0:0:0:
130,327,91668,2,0,P|82:323|29:356,2,97.5,2|8|8,0:0|0:0|0:0,0:0:0:0:
192,270,92474,6,0,L|200:190,1,65,2|2,0:0|0:0,0:0:0:0:
228,175,92776,2,0,L|236:95,1,65,8|2,0:0|0:0,0:0:0:0:
264,80,93078,1,8,0:0:0:0:
346,92,93279,2,0,P|337:123|315:146,2,65,8|8|2,0:0|0:0|0:0,0:0:0:0:
186,39,94084,6,0,L|62:27,2,97.5,12|8|8,0:0|0:0|0:0,0:0:0:0:
315,146,95091,2,0,L|402:154,1,65,2|0,0:0|0:0,0:0:0:0:
436,215,95494,2,0,L|427:302,1,65,8|8,0:0|0:0,0:0:0:0:
367,336,95896,2,0,L|279:327,1,65,2|0,0:0|0:0,0:0:0:0:
231,282,96299,1,8,0:0:0:0:
158,326,96500,2,0,P|113:340|65:332,2,97.5,8|8|8,0:0|0:0|0:0,0:0:0:0:
155,241,97306,6,0,L|150:176,1,65,6|2,0:0|0:0,0:0:0:0:
171,139,97608,2,0,L|175:74,1,65,8|2,0:0|0:0,0:0:0:0:
179,31,97910,1,8,0:0:0:0:
258,59,98111,2,0,P|305:66|350:49,2,97.5,2|8|8,0:0|0:0|0:0,0:0:0:0:
179,31,98917,6,0,P|128:35|105:50,1,65,2|2,0:0|0:0,0:0:0:0:
34,24,99319,2,0,P|38:75|53:98,1,65,2|8,0:0|0:0,0:0:0:0:
27,169,99722,2,0,B|51:177|51:177|75:169|75:169|99:177|99:177|123:169|123:169|147:177|147:177|171:169|171:169|195:177|195:177|219:169,1,195,8|2,0:0|0:0,0:0:0:0:
291,143,100527,6,0,P|294:190|269:231,2,97.5,12|8|8,0:0|0:0|0:0,0:0:0:0:
144,58,101534,2,0,L|79:65,1,65,2|0,0:0|0:0,0:0:0:0:
44,142,101937,1,8,0:0:0:0:
79,218,102138,2,0,L|144:226,1,65,8|2,0:0|0:0,0:0:0:0:
173,256,102440,2,0,L|237:263,1,65,8|2,0:0|0:0,0:0:0:0:
266,293,102742,1,8,0:0:0:0:
320,357,102943,2,0,P|347:316|335:249,2,97.5,8|8|8,0:0|0:0|0:0,0:0:0:0:
237,375,103749,6,0,L|172:375,1,65,6|2,0:0|0:0,0:0:0:0:
138,348,104051,2,0,L|73:348,1,65,8|2,0:0|0:0,0:0:0:0:
43,318,104353,1,8,0:0:0:0:
17,237,104554,2,0,B|5:179|5:179|19:143,2,97.5,2|8|8,0:0|0:0|0:0,0:0:0:0:
99,252,105359,6,0,L|164:252,1,65,2|2,0:0|0:0,0:0:0:0:
198,279,105661,2,0,L|263:279,1,65,8|2,0:0|0:0,0:0:0:0:
293,309,105963,1,8,0:0:0:0:
354,366,106165,2,0,L|419:366,2,65,2|8|8,0:0|0:0|0:0,0:0:0:0:
306,203,106970,6,0,L|289:97,2,97.5,12|8|8,0:0|0:0|0:0,0:0:0:0:
368,260,107776,1,2,0:0:0:0:
430,317,107977,2,0,L|495:317,1,65,8|2,0:0|0:0,0:0:0:0:
512,231,108380,2,0,L|447:231,1,65,8|0,0:0|0:0,0:0:0:0:
385,171,108782,2,0,P|379:140|385:108,1,65,8|0,0:0|0:0,0:0:0:0:
321,52,109185,1,8,0:0:0:0:
251,99,109386,2,0,B|227:107|227:107|203:99|203:99|179:107|179:107|155:99|155:99|131:107|131:107|107:99|107:99|83:107|83:107|59:99,1,195,2|8,0:0|0:0,0:0:0:0:
38,181,110192,6,0,L|32:245,1,65,6|2,0:0|0:0,0:0:0:0:
56,280,110494,2,0,L|120:285,1,65,8|2,0:0|0:0,0:0:0:0:
153,258,110796,1,8,0:0:0:0:
212,197,110997,6,0,L|276:191,1,65,2|2,0:0|0:0,0:0:0:0:
311,215,111299,2,0,L|316:279,1,65,8|2,0:0|0:0,0:0:0:0:
289,312,111601,1,8,0:0:0:0:
256,192,111802,12,4,113413,0:0:0:0:
