osu file format v14

[General]
AudioFilename: audio.mp3
AudioLeadIn: 0
PreviewTime: 41635
Countdown: 0
SampleSet: None
StackLeniency: 0.7
Mode: 0
LetterboxInBreaks: 0
WidescreenStoryboard: 0

[Editor]
DistanceSpacing: 1
BeatDivisor: 4
GridSize: 8
TimelineZoom: 1

[Metadata]
Title:70cm Shihou no Madobe
TitleUnicode:70cm四方の窓辺
Artist:ROTTENGRAFFTY
ArtistUnicode:ROTTENGRAFFTY
Creator:Monstrata
Version:Super Saiyan 3
Source:DRAGON BALL 超
Tags:dbz goku super saiyan toei animation anime dragon ball dragonball super rotten graffiti 70cm square window shounen gohan kakarot vegeta trunks goten piccolo frieza android 17 18 seventeen eighteen krillin tien shinhan master roshi beerus whis zenoh xenos zenos universe seven 7 tournament of power ending 10 ten chikara no taikai
BeatmapID:1468471
BeatmapSetID:694047

[Difficulty]
HPDrainRate:4
CircleSize:4
OverallDifficulty:6.5
ApproachRate:8.5
SliderMultiplier:2.4
SliderTickRate:1

[Events]
//Background and Video events
0,0,"goku-super_saiyan_3-dragon_ball_xenoverse_2-(383).jpg",0,0
//Break Periods
2,20190,32216
//Storyboard Layer 0 (Background)
//Storyboard Layer 1 (Fail)
//Storyboard Layer 2 (Pass)
//Storyboard Layer 3 (Foreground)
//Storyboard Sound Samples

[TimingPoints]
662,402.684563758389,4,3,1,90,1,0
32891,402.684563758389,4,2,1,40,1,0
32891,-200,4,2,1,40,0,0
41736,402.684563758389,4,2,1,70,1,0
41736,-200,4,2,1,70,0,0
42541,402.684563758389,4,3,1,90,1,1
42541,-100,4,3,1,90,0,1
65091,-200,4,2,1,50,0,0
77977,-200,4,2,1,75,0,0
86836,-200,4,2,1,90,0,0
87037,-200,4,2,1,30,0,0
87641,-100,4,3,1,90,0,1
113413,-100,4,3,1,90,0,0

[Colours]
Combo1 : 255,255,0
Combo2 : 255,128,0

[HitObjects]
68,258,7104,6,0,L|76:325,2,60,12|0|2,0:0|0:0|0:0,0:0:0:0:
146,258,7406,2,0,L|154:325,2,60,8|0|2,0:0|0:0|0:0,0:0:0:0:
224,258,7708,2,0,L|232:325,1,60,8|0,0:0|0:0,0:0:0:0:
265,186,7910,6,0,L|273:119,2,60,8|0|2,0:0|0:0|0:0,0:0:0:0:
343,186,8212,2,0,L|351:119,2,60,8|0|2,0:0|0:0|0:0,0:0:0:0:
421,186,8514,2,0,L|428:126,1,60,8|0,0:0|0:0,0:0:0:0:
432,263,8715,6,0,P|465:252|490:221,2,60,12|0|2,0:0|0:0|0:0,0:0:0:0:
370,311,9017,2,0,P|396:334|435:340,2,60,8|0|2,0:0|0:0|0:0,0:0:0:0:
297,280,9319,2,0,P|289:308|296:338,1,60,8|0,0:0|0:0,0:0:0:0:
265,208,9521,6,0,P|272:179|265:149,2,60,8|0|2,0:0|0:0|0:0,0:0:0:0:
191,177,9823,2,0,P|169:156|141:147,2,60,8|0|2,0:0|0:0|0:0,0:0:0:0:
129,225,10125,2,0,P|100:233|78:253,1,60,8|0,0:0|0:0,0:0:0:0:
139,303,10326,6,0,L|132:395,2,60,12|0|2,0:0|0:0|0:0,0:0:0:0:
214,324,10628,2,0,L|306:331,2,60,8|0|2,0:0|0:0|0:0,0:0:0:0:
235,249,10930,2,0,L|242:157,1,60,8|0,0:0|0:0,0:0:0:0:
297,137,11131,6,0,L|290:45,2,60,8|0|2,0:0|0:0|0:0,0:0:0:0:
372,116,11433,2,0,L|464:109,2,60,8|0|2,0:0|0:0|0:0,0:0:0:0:
393,191,11735,2,0,L|400:283,1,60,8|0,0:0|0:0,0:0:0:0:
324,282,11937,6,0,P|340:306|365:323,2,60,10|2|2,0:0|0:0|0:0,0:0:0:0:
260,236,12239,2,0,P|246:262|244:292,2,60,8|0|2,0:0|0:0|0:0,0:0:0:0:
269,157,12541,2,0,P|239:159|212:172,1,60,8|0,0:0|0:0,0:0:0:0:
134,162,12742,6,0,P|136:191|149:218,2,60,10|2|2,0:0|0:0|0:0,0:0:0:0:
102,280,13044,2,0,P|128:293|158:295,2,60,8|0|2,0:0|0:0|0:0,0:0:0:0:
187,367,13346,2,0,P|211:350|228:325,1,60,8|0,0:0|0:0,0:0:0:0:
298,291,13547,6,0,L|395:308,2,60,12|0|2,0:0|0:0|0:0,0:0:0:0:
328,218,13849,2,0,L|425:235,2,60,8|0|2,0:0|0:0|0:0,0:0:0:0:
358,145,14151,2,0,L|455:162,1,60,8|0,0:0|0:0,0:0:0:0:
306,76,14353,6,0,L|209:59,2,60,8|0|2,0:0|0:0|0:0,0:0:0:0:
276,149,14655,2,0,L|179:132,2,60,8|0|2,0:0|0:0|0:0,0:0:0:0:
246,222,14957,2,0,L|149:205,1,60,8|0,0:0|0:0,0:0:0:0:
137,272,15158,6,0,P|116:250|108:221,2,60,12|0|2,0:0|0:0|0:0,0:0:0:0:
31,209,15460,2,0,P|39:180|59:158,2,60,8|0|2,0:0|0:0|0:0,0:0:0:0:
32,85,15762,2,0,P|60:77|89:84,1,60,8|0,0:0|0:0,0:0:0:0:
142,144,15964,6,0,P|170:150|199:143,2,60,8|0|2,0:0|0:0|0:0,0:0:0:0:
249,204,16266,2,0,P|269:182|277:153,2,60,8|0|2,0:0|0:0|0:0,0:0:0:0:
354,141,16568,2,0,P|345:112|325:90,1,60,8|0,0:0|0:0,0:0:0:0:
239,21,16769,6,0,L|247:81,2,60,12|0|2,0:0|0:0|0:0,0:0:0:0:
163,36,17071,2,0,L|170:95,2,60,8|0|2,0:0|0:0|0:0,0:0:0:0:
86,50,17373,2,0,L|93:109,1,60,8|0,0:0|0:0,0:0:0:0:
143,169,17574,6,0,L|135:228,2,60,8|0|2,0:0|0:0|0:0,0:0:0:0:
220,183,17876,2,0,L|212:242,2,60,8|0|2,0:0|0:0|0:0,0:0:0:0:
297,197,18178,2,0,L|289:256,1,60,8|0,0:0|0:0,0:0:0:0:
371,170,18380,6,0,L|425:195,1,60,12|0,0:0|0:0,0:0:0:0:
368,91,18581,2,0,L|408:46,1,60,2|8,0:0|0:0,0:0:0:0:
292,69,18782,2,0,L|262:16,1,60,2|2,0:0|0:0,0:0:0:0:
248,135,18983,2,0,L|189:146,1,60,8|0,0:0|0:0,0:0:0:0:
87,92,19185,5,2,0:0:0:0:
114,103,19285,1,2,0:0:0:0:
136,124,19386,1,2,0:0:0:0:
150,150,19487,1,2,0:0:0:0:
154,180,19587,1,8,0:0:0:0:
149,209,19688,1,8,0:0:0:0:
134,234,19789,2,0,P|119:260|118:290,1,60,8|8,0:0|0:0,0:0:0:0:
159,357,19990,5,4,0:0:0:0:
187,177,32891,5,2,0:0:0:0:
187,177,33494,1,0,0:0:0:0:
255,138,33696,2,0,L|329:148,1,60,2|0,0:0|0:0,0:0:0:0:
349,215,34098,2,0,L|423:225,1,60,2|0,0:0|0:0,0:0:0:0:
471,176,34501,6,0,P|488:120|474:68,2,90,2|0|0,0:0|0:0|0:0,0:0:0:0:
483,252,35306,1,2,0:0:0:0:
483,252,35910,1,0,0:0:0:0:
423,302,36112,6,0,P|372:281|300:293,1,120,2|0,0:0|0:0,0:0:0:0:
244,243,36716,2,0,P|215:253|185:251,1,60,2|0,0:0|0:0,0:0:0:0:
206,176,37118,2,0,P|196:147|198:117,1,60,2|0,0:0|0:0,0:0:0:0:
240,51,37521,1,2,0:0:0:0:
240,51,38528,5,2,0:0:0:0:
262,125,38931,1,2,0:0:0:0:
315,68,39333,5,2,0:0:0:0:
315,68,39937,1,2,0:0:0:0:
372,120,40139,2,0,P|351:159|351:203,2,90,2|2|2,0:0|0:0|0:0,0:0:0:0:
445,92,40944,5,2,0:0:0:0:
67,286,41736,1,2,0:0:0:0:
100,92,42138,1,2,0:0:0:0:
412,292,42541,6,0,L|494:277,1,60,12|0,0:0|0:0,0:0:0:0:
480,200,42742,1,2,0:0:0:0:
480,200,42843,2,0,L|383:217,1,60,8|0,0:0|0:0,0:0:0:0:
231,307,43145,2,0,L|105:283,1,120,8|2,0:0|0:0,0:0:0:0:
112,92,43547,2,0,L|230:70,1,120,2|0,0:0|0:0,0:0:0:0:
298,109,43849,1,2,0:0:0:0:
298,109,43950,2,0,L|380:94,1,60,8|0,0:0|0:0,0:0:0:0:
359,20,44151,6,0,L|299:30,1,60,12|0,0:0|0:0,0:0:0:0:
231,147,44353,2,0,P|277:182|335:175,1,120,2|0,0:0|0:0,0:0:0:0:
411,156,44655,1,2,0:0:0:0:
411,156,44755,2,0,L|403:246,1,60,8|0,0:0|0:0,0:0:0:0:
338,257,44957,2,0,L|343:316,1,60,8|0,0:0|0:0,0:0:0:0:
420,349,45158,1,2,0:0:0:0:
420,349,45259,2,0,L|414:289,1,60,8|0,0:0|0:0,0:0:0:0:
231,147,45561,2,0,L|225:206,1,60,8|0,0:0|0:0,0:0:0:0:
166,257,45762,6,0,P|190:275|219:282,2,60,6|0|2,0:0|0:0|0:0,0:0:0:0:
92,232,46064,2,0,P|88:261|96:290,2,60,8|0|2,0:0|0:0|0:0,0:0:0:0:
77,154,46366,2,0,P|49:165|28:187,1,60,8|0,0:0|0:0,0:0:0:0:
134,100,46568,6,0,L|139:40,2,60,2|0|2,0:0|0:0|0:0,0:0:0:0:
210,115,46870,2,0,L|215:55,2,60,8|0|2,0:0|0:0|0:0,0:0:0:0:
286,130,47172,2,0,L|291:70,1,60,8|0,0:0|0:0,0:0:0:0:
359,153,47373,6,0,P|386:164|407:186,2,60,2|2|2,0:0|0:0|0:0,0:0:0:0:
344,231,47675,2,0,P|348:261|340:290,2,60,8|0|2,0:0|0:0|0:0,0:0:0:0:
269,257,47977,2,0,P|245:274|217:282,1,60,8|0,0:0|0:0,0:0:0:0:
115,240,48178,6,0,P|173:240|215:281,1,120,2|8,0:0|0:0,0:0:0:0:
244,354,48480,1,0,0:0:0:0:
244,354,48581,2,0,L|341:366,1,60,2|2,0:0|0:0,0:0:0:0:
355,275,48782,2,0,L|296:283,1,60,8|8,0:0|0:0,0:0:0:0:
381,350,48984,6,0,L|478:362,1,60,6|0,0:0|0:0,0:0:0:0:
497,271,49185,1,2,0:0:0:0:
497,271,49286,2,0,L|438:279,1,60,8|0,0:0|0:0,0:0:0:0:
216,129,49588,2,0,L|335:114,1,120,8|2,0:0|0:0,0:0:0:0:
108,23,49990,2,0,L|95:142,1,120,2|0,0:0|0:0,0:0:0:0:
85,219,50292,1,2,0:0:0:0:
84,218,50393,2,0,P|114:217|141:205,1,60,8|0,0:0|0:0,0:0:0:0:
235,157,50594,6,0,P|221:184|219:214,1,60,12|0,0:0|0:0,0:0:0:0:
317,259,50796,2,0,P|277:217|218:213,1,120,2|0,0:0|0:0,0:0:0:0:
243,289,51098,1,2,0:0:0:0:
242,288,51198,2,0,P|258:314|287:334,1,60,8|0,0:0|0:0,0:0:0:0:
379,309,51400,2,0,P|392:282|395:248,1,60,8|0,0:0|0:0,0:0:0:0:
469,223,51601,1,2,0:0:0:0:
469,223,51702,2,0,P|453:197|424:177,1,60,8|0,0:0|0:0,0:0:0:0:
218,213,52004,2,0,L|135:233,1,60,8|0,0:0|0:0,0:0:0:0:
84,247,52205,6,0,L|59:328,2,60,6|0|2,0:0|0:0|0:0,0:0:0:0:
73,169,52507,2,0,L|-9:189,2,60,8|0|2,0:0|0:0|0:0,0:0:0:0:
135,120,52809,2,0,L|93:76,1,60,8|0,0:0|0:0,0:0:0:0:
209,145,53010,6,0,P|238:151|267:144,2,60,2|0|2,0:0|0:0|0:0,0:0:0:0:
295,70,53313,2,0,P|265:63|237:71,2,60,8|0|2,0:0|0:0|0:0,0:0:0:0:
345,130,53615,2,0,P|345:162|315:208,1,60,8|0,0:0|0:0,0:0:0:0:
265,224,53816,6,0,L|289:315,1,60,2|0,0:0|0:0,0:0:0:0:
409,328,54017,1,2,0:0:0:0:
409,328,54118,1,2,0:0:0:0:
409,328,54219,2,0,L|433:237,1,60,8|2,0:0|0:0,0:0:0:0:
334,187,54420,2,0,L|358:278,1,60,8|0,0:0|0:0,0:0:0:0:
493,232,54621,5,2,0:0:0:0:
487,210,54721,1,2,0:0:0:0:
481,188,54822,1,2,0:0:0:0:
475,166,54923,1,2,0:0:0:0:
470,144,55023,1,8,0:0:0:0:
464,123,55124,1,8,0:0:0:0:
458,101,55225,1,8,0:0:0:0:
452,79,55325,1,8,0:0:0:0:
447,57,55427,6,0,L|370:41,1,60,12|0,0:0|0:0,0:0:0:0:
352,119,55628,1,2,0:0:0:0:
352,119,55729,2,0,L|468:143,1,60,8|0,0:0|0:0,0:0:0:0:
234,143,56031,2,0,L|117:118,1,120,8|2,0:0|0:0,0:0:0:0:
327,236,56433,2,0,L|351:119,1,120,2|0,0:0|0:0,0:0:0:0:
283,78,56735,1,2,0:0:0:0:
283,78,56836,2,0,L|270:19,1,60,8|0,0:0|0:0,0:0:0:0:
234,143,57037,6,0,L|246:201,1,60,8|0,0:0|0:0,0:0:0:0:
153,247,57239,2,0,P|212:243|259:279,1,120,2|0,0:0|0:0,0:0:0:0:
323,323,57541,1,2,0:0:0:0:
323,323,57641,2,0,L|381:310,1,60,8|0,0:0|0:0,0:0:0:0:
390,232,57843,2,0,L|331:244,1,60,12|0,0:0|0:0,0:0:0:0:
454,278,58044,1,2,0:0:0:0:
454,278,58145,2,0,L|512:265,1,60,8|0,0:0|0:0,0:0:0:0:
341,65,58447,2,0,L|282:77,1,60,8|0,0:0|0:0,0:0:0:0:
209,45,58648,6,0,P|202:73|207:103,2,60,6|0|2,0:0|0:0|0:0,0:0:0:0:
143,149,58950,2,0,P|164:169|192:180,2,60,8|0|2,0:0|0:0|0:0,0:0:0:0:
199,259,59252,2,0,P|227:250|250:231,1,60,8|0,0:0|0:0,0:0:0:0:
312,183,59453,6,0,L|370:195,2,60,2|0|2,0:0|0:0|0:0,0:0:0:0:
448,198,59755,2,0,L|435:256,2,60,8|0|2,0:0|0:0|0:0,0:0:0:0:
433,334,60057,2,0,L|374:321,1,60,8|0,0:0|0:0,0:0:0:0:
303,358,60259,6,0,P|295:329|276:306,2,60,2|2|2,0:0|0:0|0:0,0:0:0:0:
184,305,60561,2,0,P|205:283|216:256,2,60,8|0|2,0:0|0:0|0:0,0:0:0:0:
169,175,60863,2,0,P|197:182|227:177,1,60,8|0,0:0|0:0,0:0:0:0:
261,104,61064,6,0,P|232:97|203:101,1,60,2|0,0:0|0:0,0:0:0:0:
305,169,61266,2,0,P|333:176|363:171,1,60,8|0,0:0|0:0,0:0:0:0:
340,37,61467,2,0,P|333:66|338:95,1,60,2|0,0:0|0:0,0:0:0:0:
412,71,61668,2,0,P|419:42|414:12,1,60,8|0,0:0|0:0,0:0:0:0:
264,24,61870,6,0,L|204:25,1,60,12|0,0:0|0:0,0:0:0:0:
201,104,62071,1,2,0:0:0:0:
201,104,62172,2,0,L|261:103,1,60,8|0,0:0|0:0,0:0:0:0:
36,47,62474,2,0,L|38:167,1,120,8|2,0:0|0:0,0:0:0:0:
263,223,62876,2,0,L|260:102,1,120,2|0,0:0|0:0,0:0:0:0:
335,127,63178,1,2,0:0:0:0:
335,127,63279,2,0,L|336:202,1,60,8|0,0:0|0:0,0:0:0:0:
391,242,63480,6,0,P|367:259|338:265,1,60,2|0,0:0|0:0,0:0:0:0:
317,340,63682,2,0,P|289:327|270:304,1,60,8|0,0:0|0:0,0:0:0:0:
232,228,63883,1,2,0:0:0:0:
211,199,63983,1,2,0:0:0:0:
178,183,64084,1,2,0:0:0:0:
143,186,64185,1,2,0:0:0:0:
113,205,64285,1,8,0:0:0:0:
96,236,64386,1,8,0:0:0:0:
97,272,64487,1,8,0:0:0:0:
114,303,64587,1,8,0:0:0:0:
145,321,64688,1,10,0:0:0:0:
180,323,64789,1,10,0:0:0:0:
212,307,64890,2,0,P|241:299|270:305,1,60,14|0,0:0|0:0,0:0:0:0:
346,276,65091,6,0,B|359:242|359:242|350:181,2,90,6|2|2,0:0|0:3|0:3,0:0:0:0:
402,335,65896,2,0,L|478:348,1,60,2|0,0:0|0:0,0:0:0:0:
491,271,66299,2,0,L|431:260,1,60,2|0,0:0|0:0,0:0:0:0:
417,182,66702,6,0,B|409:128|409:128|422:94,2,90,10|10|10,0:0|0:0|0:0,0:0:0:0:
354,227,67507,1,0,0:0:0:0:
285,190,67708,2,0,P|256:199|226:198,1,60,8|0,0:0|0:0,0:0:0:0:
170,144,68111,1,2,0:0:0:0:
210,76,68313,6,0,B|236:63|236:63|324:74,1,90,10|8,0:0|0:0,0:0:0:0:
296,70,68715,1,2,0:0:0:0:
366,35,68917,2,0,L|426:42,1,60,10|0,0:0|0:0,0:0:0:0:
426,120,69319,2,0,L|365:112,1,60,2|0,0:0|0:0,0:0:0:0:
300,220,69722,1,10,0:0:0:0:
374,229,69923,6,0,L|435:237,1,60,10|2,0:0|0:0,0:0:0:0:
425,316,70326,2,0,L|364:308,1,60,0|10,0:0|0:0,0:0:0:0:
300,220,70729,2,0,L|292:280,1,60,2|10,0:0|0:0,0:0:0:0:
346,157,71131,2,0,L|338:96,1,60,14|0,0:0|0:0,0:0:0:0:
255,58,71534,6,0,L|266:147,2,90,10|8|0,0:0|0:0|0:0,0:0:0:0:
177,49,72339,2,0,L|105:42,1,60,2|2,0:0|0:0,0:0:0:0:
154,123,72742,2,0,L|95:118,1,60,2|8,0:0|0:0,0:0:0:0:
72,193,73145,6,0,P|51:231|54:275,2,90,10|10|10,0:0|0:0|0:0,0:0:0:0:
128,250,73950,1,0,0:0:0:0:
222,164,74151,2,0,P|249:178|279:179,1,60,2|0,0:0|0:0,0:0:0:0:
341,132,74554,1,2,0:0:0:0:
265,12,74755,6,0,L|270:102,1,90,10|8,0:0|0:0,0:0:0:0:
270,102,75158,1,2,0:0:0:0:
341,131,75359,2,0,P|370:130|398:140,1,60,10|0,0:0|0:0,0:0:0:0:
359,208,75762,2,0,P|375:232|380:262,1,60,2|0,0:0|0:0,0:0:0:0:
245,314,76165,1,10,0:0:0:0:
284,185,76366,5,10,0:0:0:0:
320,337,76568,1,0,0:0:0:0:
302,261,76769,1,2,0:0:0:0:
245,314,76970,1,8,0:0:0:0:
395,360,77172,1,10,0:0:0:0:
377,284,77373,1,0,0:0:0:0:
245,314,77574,1,2,0:0:0:0:
284,185,77776,1,8,0:0:0:0:
377,284,77977,6,0,L|451:269,1,60,4|0,0:0|0:0,0:0:0:0:
342,173,78380,2,0,L|283:184,1,60,8|0,0:0|0:0,0:0:0:0:
186,302,78782,2,0,L|244:313,1,60,10|0,0:0|0:0,0:0:0:0:
199,187,79185,2,0,L|125:171,1,60,10|0,0:0|0:0,0:0:0:0:
66,263,79588,5,10,0:0:0:0:
127,314,79789,2,0,L|185:301,1,60,2|8,0:0|0:0,0:0:0:0:
318,225,80192,1,2,0:0:0:0:
257,174,80393,2,0,L|198:186,1,60,10|0,0:0|0:0,0:0:0:0:
379,276,80796,2,0,L|437:263,1,60,10|8,0:0|0:0,0:0:0:0:
332,147,81198,5,10,0:0:0:0:
318,225,81400,1,2,0:0:0:0:
318,225,81601,2,0,L|306:288,1,60,10|0,0:0|0:0,0:0:0:0:
198,186,82004,1,2,0:0:0:0:
198,186,82205,2,0,L|186:249,1,60,2|8,0:0|0:0,0:0:0:0:
321,87,82608,1,10,0:0:0:0:
321,87,82809,2,0,L|332:150,1,60,10|8,0:0|0:0,0:0:0:0:
175,47,83212,1,10,0:0:0:0:
175,47,83413,1,10,0:0:0:0:
175,47,83615,6,0,L|184:106,1,60,2|0,0:0|0:0,0:0:0:0:
168,141,83917,1,2,0:0:0:0:
168,141,84017,2,0,L|177:200,1,60,12|0,0:0|0:0,0:0:0:0:
256,60,84420,5,2,0:0:0:0:
269,81,86031,5,2,0:0:0:0:
282,102,86836,6,0,L|273:154,1,30,2|0,0:0|0:0,0:0:0:0:
231,195,87037,2,0,L|235:221,10,15,0|0|0|0|0|0|0|0|0|0|0,0:0|0:0|0:0|0:0|0:0|0:0|0:0|0:0|0:0|0:0|0:0,0:0:0:0:
160,158,87641,6,0,L|65:150,1,60,12|0,0:0|0:0,0:0:0:0:
137,81,87843,1,2,0:0:0:0:
137,81,87943,2,0,L|197:86,1,60,8|0,0:0|0:0,0:0:0:0:
314,296,88245,2,0,L|434:307,1,120,8|2,0:0|0:0,0:0:0:0:
151,250,88648,2,0,L|141:370,1,120,2|0,0:0|0:0,0:0:0:0:
216,349,88950,1,2,0:0:0:0:
216,349,89051,2,0,L|221:289,1,60,8|0,0:0|0:0,0:0:0:0:
226,210,89252,6,0,P|255:218|279:236,1,60,8|0,0:0|0:0,0:0:0:0:
299,310,89453,2,0,P|346:276|355:218,1,120,2|0,0:0|0:0,0:0:0:0:
304,158,89755,1,2,0:0:0:0:
304,158,89856,2,0,L|315:75,1,60,8|0,0:0|0:0,0:0:0:0:
392,83,90057,6,0,L|385:143,1,60,8|0,0:0|0:0,0:0:0:0:
435,203,90259,1,2,0:0:0:0:
435,203,90359,2,0,L|442:262,1,60,8|0,0:0|0:0,0:0:0:0:
226,210,90661,2,0,L|218:150,1,60,8|0,0:0|0:0,0:0:0:0:
145,118,90863,6,0,L|137:177,2,60,6|0|2,0:0|0:0|0:0,0:0:0:0:
156,40,91165,2,0,L|96:32,2,60,8|0|2,0:0|0:0|0:0,0:0:0:0:
223,79,91467,2,0,L|282:71,1,60,8|0,0:0|0:0,0:0:0:0:
331,9,91668,6,0,P|351:31|360:60,2,60,2|0|2,0:0|0:0|0:0,0:0:0:0:
437,71,91970,2,0,P|428:99|407:121,2,60,8|0|2,0:0|0:0|0:0,0:0:0:0:
436,193,92272,2,0,P|407:199|378:192,1,60,8|0,0:0|0:0,0:0:0:0:
310,233,92474,6,0,L|327:321,2,60,2|2|2,0:0|0:0|0:0,0:0:0:0:
241,271,92776,2,0,L|224:359,2,60,8|0|2,0:0|0:0|0:0,0:0:0:0:
148,308,93078,2,0,L|160:367,1,60,8|0,0:0|0:0,0:0:0:0:
74,277,93279,6,0,P|114:235|173:233,1,120,8|8,0:0|0:0,0:0:0:0:
234,185,93581,1,0,0:0:0:0:
234,185,93682,2,0,L|245:126,1,60,2|2,0:0|0:0,0:0:0:0:
173,94,93883,2,0,L|161:152,1,60,8|8,0:0|0:0,0:0:0:0:
246,263,94084,6,0,L|341:256,1,60,12|0,0:0|0:0,0:0:0:0:
371,175,94286,1,2,0:0:0:0:
371,175,94386,2,0,L|311:179,1,60,8|0,0:0|0:0,0:0:0:0:
480,286,94688,2,0,L|469:148,1,120,8|2,0:0|0:0,0:0:0:0:
224,65,95091,2,0,L|232:184,1,120,2|0,0:0|0:0,0:0:0:0:
174,236,95393,1,2,0:0:0:0:
174,236,95494,2,0,L|167:320,1,60,8|0,0:0|0:0,0:0:0:0:
243,321,95695,6,0,L|247:261,1,60,8|0,0:0|0:0,0:0:0:0:
156,160,95896,2,0,P|101:208|104:268,1,120,2|0,0:0|0:0,0:0:0:0:
170,295,96198,1,2,0:0:0:0:
170,295,96299,2,0,L|174:235,1,60,8|0,0:0|0:0,0:0:0:0:
92,328,96500,2,0,L|32:324,1,60,8|0,0:0|0:0,0:0:0:0:
38,247,96702,1,2,0:0:0:0:
38,247,96802,2,0,L|98:251,1,60,8|0,0:0|0:0,0:0:0:0:
315,351,97104,2,0,L|375:347,1,60,8|0,0:0|0:0,0:0:0:0:
434,295,97306,6,0,L|494:291,2,60,6|0|2,0:0|0:0|0:0,0:0:0:0:
382,235,97608,2,0,L|425:193,2,60,8|0|2,0:0|0:0|0:0,0:0:0:0:
303,222,97910,2,0,L|309:162,1,60,8|0,0:0|0:0,0:0:0:0:
209,162,98111,6,0,L|202:221,2,60,2|0|2,0:0|0:0|0:0,0:0:0:0:
130,149,98413,2,0,L|86:190,2,60,8|0|2,0:0|0:0|0:0,0:0:0:0:
78,89,98715,2,0,L|18:93,1,60,8|0,0:0|0:0,0:0:0:0:
135,35,98917,6,0,L|195:39,1,60,2|0,0:0|0:0,0:0:0:0:
259,83,99118,1,2,0:0:0:0:
273,82,99218,1,2,0:0:0:0:
288,81,99319,1,2,0:0:0:0:
303,80,99420,1,2,0:0:0:0:
318,79,99521,2,0,L|314:139,1,60,8|0,0:0|0:0,0:0:0:0:
276,238,99722,5,8,0:0:0:0:
244,217,99822,1,8,0:0:0:0:
208,211,99923,1,8,0:0:0:0:
171,220,100024,1,8,0:0:0:0:
142,243,100124,1,2,0:0:0:0:
112,265,100225,1,2,0:0:0:0:
76,274,100326,1,2,0:0:0:0:
39,268,100427,1,2,0:0:0:0:
8,248,100527,6,0,L|12:188,1,60,12|0,0:0|0:0,0:0:0:0:
78,145,100729,1,2,0:0:0:0:
78,145,100829,2,0,L|74:85,1,60,8|0,0:0|0:0,0:0:0:0:
257,194,101131,2,0,L|265:315,1,120,8|2,0:0|0:0,0:0:0:0:
15,367,101534,2,0,L|7:247,1,120,2|0,0:0|0:0,0:0:0:0:
70,201,101836,1,2,0:0:0:0:
70,201,101937,2,0,L|163:216,1,60,8|0,0:0|0:0,0:0:0:0:
158,137,102138,6,0,L|98:127,1,60,8|0,0:0|0:0,0:0:0:0:
206,198,102339,2,0,P|266:182|340:213,1,120,2|0,0:0|0:0,0:0:0:0:
380,248,102641,1,2,0:0:0:0:
380,248,102742,2,0,L|375:327,1,60,8|0,0:0|0:0,0:0:0:0:
224,361,102943,6,0,L|227:301,1,60,8|0,0:0|0:0,0:0:0:0:
304,275,103145,1,2,0:0:0:0:
304,275,103245,2,0,L|300:334,1,60,8|0,0:0|0:0,0:0:0:0:
48,262,103547,2,0,L|44:202,1,60,8|0,0:0|0:0,0:0:0:0:
126,148,103749,6,0,L|123:208,2,60,6|0|2,0:0|0:0|0:0,0:0:0:0:
199,225,104051,2,0,L|202:284,2,60,8|0|2,0:0|0:0|0:0,0:0:0:0:
259,175,104353,2,0,L|318:178,1,60,8|0,0:0|0:0,0:0:0:0:
395,186,104554,6,0,P|425:180|451:166,2,60,2|0|2,0:0|0:0|0:0,0:0:0:0:
400,107,104856,2,0,P|410:78|411:49,2,60,8|0|2,0:0|0:0|0:0,0:0:0:0:
333,64,105158,2,0,P|313:41|288:25,1,60,8|0,0:0|0:0,0:0:0:0:
262,99,105359,6,0,L|202:102,2,60,2|2|2,0:0|0:0|0:0,0:0:0:0:
167,173,105661,2,0,L|114:147,2,60,8|0|2,0:0|0:0|0:0,0:0:0:0:
48,190,105964,2,0,L|14:140,1,60,8|0,0:0|0:0,0:0:0:0:
92,27,106165,6,0,L|66:81,1,60,2|2,0:0|0:0,0:0:0:0:
167,173,106366,2,0,L|193:119,1,60,8|2,0:0|0:0,0:0:0:0:
267,92,106568,1,8,0:0:0:0:
296,94,106668,1,8,0:0:0:0:
326,96,106769,2,0,L|352:42,1,60,8|0,0:0|0:0,0:0:0:0:
258,172,106970,6,0,L|266:231,1,60,12|0,0:0|0:0,0:0:0:0:
343,214,107172,2,0,L|323:87,1,120,2|0,0:0|0:0,0:0:0:0:
260,51,107474,1,0,0:0:0:0:
260,51,107574,2,0,L|200:59,1,60,8|0,0:0|0:0,0:0:0:0:
124,145,107776,6,0,L|184:137,1,60,2|0,0:0|0:0,0:0:0:0:
70,89,107977,2,0,P|46:146|102:222,1,120,8|2,0:0|0:0,0:0:0:0:
137,227,108279,1,2,0:0:0:0:
137,227,108380,2,0,P|119:253|80:273,1,60,8|0,0:0|0:0,0:0:0:0:
32,314,108581,2,0,P|18:287|17:258,1,60,0|2,0:0|0:0,0:0:0:0:
174,306,108782,6,0,L|351:317,1,120,8|0,0:0|0:0,0:0:0:0:
354,264,109084,1,2,0:0:0:0:
354,264,109185,2,0,L|464:257,1,60,8|0,0:0|0:0,0:0:0:0:
470,206,109386,5,2,0:0:0:0:
495,179,109486,1,2,0:0:0:0:
502,143,109587,1,2,0:0:0:0:
487,109,109688,1,2,0:0:0:0:
455,90,109788,1,8,0:0:0:0:
418,92,109889,1,8,0:0:0:0:
389,114,109990,1,8,0:0:0:0:
377,149,110090,1,8,0:0:0:0:
387,184,110192,6,0,L|395:267,1,60,6|0,0:0|0:0,0:0:0:0:
309,189,110393,1,2,0:0:0:0:
309,189,110494,2,0,L|316:271,1,60,8|0,0:0|0:0,0:0:0:0:
230,193,110695,1,2,0:0:0:0:
230,193,110796,2,0,L|237:275,1,60,8|0,0:0|0:0,0:0:0:0:
187,122,110997,6,0,L|179:39,1,60,2|2,0:0|0:0,0:0:0:0:
265,118,111198,1,2,0:0:0:0:
265,118,111299,2,0,L|257:35,1,60,8|0,0:0|0:0,0:0:0:0:
344,114,111500,1,2,0:0:0:0:
344,114,111601,2,0,L|338:54,1,60,8|0,0:0|0:0,0:0:0:0:
406,160,111802,5,2,0:0:0:0:
405,167,111902,1,2,0:0:0:0:
404,174,112003,1,2,0:0:0:0:
403,182,112104,1,2,0:0:0:0:
403,189,112204,1,0,0:0:0:0:
402,197,112305,1,2,0:0:0:0:
401,204,112406,1,2,0:0:0:0:
401,212,112506,1,0,0:0:0:0:
402,219,112608,5,8,0:0:0:0:
440,210,112708,1,8,0:0:0:0:
474,229,112809,1,8,0:0:0:0:
487,266,112910,1,8,0:0:0:0:
473,302,113010,1,8,0:0:0:0:
438,320,113111,1,8,0:0:0:0:
401,308,113212,1,8,0:0:0:0:
361,307,113313,1,8,0:0:0:0:
326,325,113413,5,4,0:0:0:0:
