osu file format v14

[General]
AudioFilename: audio.mp3
AudioLeadIn: 0
PreviewTime: 41635
Countdown: 0
SampleSet: None
StackLeniency: 0.7
Mode: 0
LetterboxInBreaks: 0
WidescreenStoryboard: 0

[Editor]
DistanceSpacing: 1
BeatDivisor: 4
GridSize: 8
TimelineZoom: 3.399999

[Metadata]
Title:70cm Shihou no Madobe
TitleUnicode:70cm四方の窓辺
Artist:ROTTENGRAFFTY
ArtistUnicode:ROTTENGRAFFTY
Creator:Monstrata
Version:Super Saiyan 2
Source:DRAGON BALL 超
Tags:dbz goku super saiyan toei animation anime dragon ball dragonball super rotten graffiti 70cm square window shounen gohan kakarot vegeta trunks goten piccolo frieza android 17 18 seventeen eighteen krillin tien shinhan master roshi beerus whis zenoh xenos zenos universe seven 7 tournament of power ending 10 ten chikara no taikai
BeatmapID:1468470
BeatmapSetID:694047

[Difficulty]
HPDrainRate:3.5
CircleSize:3
OverallDifficulty:5
ApproachRate:7.5
SliderMultiplier:1.7
SliderTickRate:1

[Events]
//Background and Video events
0,0,"PS4Wallpapers.com_bg02.jpg",0,0
//Break Periods
2,20190,32066
2,65291,77152
//Storyboard Layer 0 (Background)
//Storyboard Layer 1 (Fail)
//Storyboard Layer 2 (Pass)
//Storyboard Layer 3 (Foreground)
//Storyboard Sound Samples

[TimingPoints]
662,402.684563758389,4,3,1,90,1,0
32891,402.684563758389,4,2,1,40,1,0
32891,-200,4,2,1,40,0,0
41736,402.684563758389,4,2,1,70,1,0
41736,-200,4,2,1,70,0,0
42541,402.684563758389,4,3,1,90,1,1
42541,-100,4,3,1,90,0,1
65091,-200,4,2,1,50,0,0
77977,-200,4,2,1,75,0,0
86836,-200,4,2,1,90,0,0
87037,-133.333333333333,4,2,1,30,0,0
87641,-100,4,3,1,90,0,1
113413,-100,4,3,1,90,0,0

[Colours]
Combo1 : 255,255,0
Combo2 : 255,128,0
Combo3 : 183,111,255

[HitObjects]
360,109,7104,6,0,L|275:117,1,85,12|2,0:0|0:0,0:0:0:0:
246,149,7406,2,0,L|161:157,1,85,8|2,0:0|0:0,0:0:0:0:
132,189,7708,1,8,0:0:0:0:
170,264,7910,6,0,L|254:272,1,85,8|2,0:0|0:0,0:0:0:0:
284,304,8212,2,0,L|368:312,1,85,8|2,0:0|0:0,0:0:0:0:
398,344,8514,1,8,0:0:0:0:
445,226,8715,6,0,P|448:184|430:144,1,85,12|2,0:0|0:0,0:0:0:0:
397,121,9017,2,0,P|355:117|315:135,1,85,8|2,0:0|0:0,0:0:0:0:
296,172,9319,1,8,0:0:0:0:
222,215,9521,6,0,P|180:218|140:200,1,85,8|2,0:0|0:0,0:0:0:0:
117,166,9823,2,0,P|113:124|131:84,1,85,8|2,0:0|0:0,0:0:0:0:
168,65,10125,1,8,0:0:0:0:
292,91,10326,6,0,L|286:189,1,85,12|2,0:0|0:0,0:0:0:0:
318,204,10628,2,0,L|324:302,1,85,8|2,0:0|0:0,0:0:0:0:
350,321,10930,1,8,0:0:0:0:
433,307,11131,6,0,L|438:222,1,85,8|2,0:0|0:0,0:0:0:0:
407,194,11433,2,0,L|401:109,1,85,8|2,0:0|0:0,0:0:0:0:
375,77,11735,1,8,0:0:0:0:
261,136,11937,6,0,L|263:181,2,42.5,10|2|2,0:0|0:0|0:0,0:0:0:0:
245,96,12239,2,0,P|210:71|169:67,1,85,8|2,0:0|0:0,0:0:0:0:
127,79,12541,1,8,0:0:0:0:
77,148,12742,6,0,L|31:150,2,42.5,10|2|2,0:0|0:0|0:0,0:0:0:0:
114,168,13044,2,0,P|133:205|134:247,1,85,8|2,0:0|0:0,0:0:0:0:
117,286,13346,1,8,0:0:0:0:
233,336,13547,6,0,L|349:326,1,85,12|2,0:0|0:0,0:0:0:0:
344,295,13849,2,0,L|460:285,1,85,8|2,0:0|0:0,0:0:0:0:
459,257,14151,1,8,0:0:0:0:
394,201,14353,6,0,L|278:191,1,85,8|2,0:0|0:0,0:0:0:0:
283,160,14655,2,0,L|167:150,1,85,8|2,0:0|0:0,0:0:0:0:
168,122,14957,1,8,0:0:0:0:
43,95,15158,6,0,L|55:198,1,85,12|2,0:0|0:0,0:0:0:0:
79,212,15460,2,0,L|67:315,1,85,8|2,0:0|0:0,0:0:0:0:
99,325,15762,1,8,0:0:0:0:
174,285,15964,6,0,L|186:182,1,85,8|2,0:0|0:0,0:0:0:0:
210,168,16266,2,0,L|198:65,1,85,8|2,0:0|0:0,0:0:0:0:
230,55,16568,1,8,0:0:0:0:
352,24,16769,6,0,P|393:18|433:33,1,85,12|2,0:0|0:0,0:0:0:0:
464,63,17071,2,0,P|469:104|454:144,1,85,8|2,0:0|0:0,0:0:0:0:
423,173,17373,1,8,0:0:0:0:
342,145,17574,6,0,P|300:139|260:154,1,85,8|2,0:0|0:0,0:0:0:0:
231,184,17876,2,0,P|225:225|240:265,1,85,8|2,0:0|0:0,0:0:0:0:
272,294,18178,1,8,0:0:0:0:
394,258,18380,5,12,0:0:0:0:
467,300,18581,2,0,L|478:353,2,42.5,2|8|2,0:0|0:0|0:0,0:0:0:0:
467,216,18984,1,8,0:0:0:0:
396,169,19185,6,0,L|387:127,3,42.5,2|2|2|2,0:0|0:0|0:0|0:0,0:0:0:0:
421,101,19588,2,0,L|429:59,3,42.5,8|8|8|0,0:0|0:0|0:0|0:0,0:0:0:0:
408,22,19990,5,4,0:0:0:0:
183,143,32891,5,2,0:0:0:0:
183,143,33696,2,0,P|238:137|275:152,1,85,2|2,0:0|0:0,0:0:0:0:
317,213,34501,6,0,B|333:248|333:248|313:343,1,127.5,2|0,0:0|0:0,0:0:0:0:
234,364,35306,1,2,0:0:0:0:
119,238,36112,6,0,L|214:225,1,85,2|0,0:0|0:0,0:0:0:0:
219,143,36716,2,0,L|232:48,2,85,2|2|2,0:0|0:0|0:0,0:0:0:0:
219,143,38528,6,0,L|232:48,2,85,2|2|2,0:0|0:0|0:0,0:0:0:0:
224,277,39937,1,2,0:0:0:0:
224,277,40139,2,0,L|235:359,2,63.75,2|2|2,0:0|0:0|0:0,0:0:0:0:
166,209,40944,5,2,0:0:0:0:
346,209,41736,1,2,0:0:0:0:
256,53,42138,1,2,0:0:0:0:
166,209,42541,6,0,L|172:306,1,85,12|2,0:0|0:0,0:0:0:0:
174,336,42843,2,0,P|224:308|281:320,1,85,8|0,0:0|0:0,0:0:0:0:
288,326,43145,2,0,P|322:350|364:353,1,85,8|2,0:0|0:0,0:0:0:0:
443,322,43547,6,0,P|467:287|470:245,1,85,2|0,0:0|0:0,0:0:0:0:
412,183,43950,1,8,0:0:0:0:
336,222,44151,5,12,0:0:0:0:
238,138,44353,2,0,L|229:46,1,85,2|0,0:0|0:0,0:0:0:0:
152,18,44755,1,8,0:0:0:0:
74,53,44957,6,0,L|66:138,1,85,8|2,0:0|0:0,0:0:0:0:
36,169,45259,2,0,L|44:253,1,85,8|0,0:0|0:0,0:0:0:0:
75,282,45561,1,8,0:0:0:0:
181,213,45762,6,0,P|223:203|263:214,1,85,6|2,0:0|0:0,0:0:0:0:
301,234,46064,2,0,P|341:244|382:235,1,85,8|2,0:0|0:0,0:0:0:0:
420,216,46366,1,8,0:0:0:0:
429,131,46568,6,0,L|441:19,1,85,2|2,0:0|0:0,0:0:0:0:
418,8,46870,2,0,L|306:20,1,85,8|2,0:0|0:0,0:0:0:0:
291,24,47172,1,8,0:0:0:0:
229,82,47373,6,0,L|236:149,2,42.5,2|2|2,0:0|0:0|0:0,0:0:0:0:
193,58,47675,2,0,P|152:47|110:54,1,85,8|2,0:0|0:0,0:0:0:0:
78,81,47977,1,8,0:0:0:0:
41,202,48178,5,2,0:0:0:0:
122,176,48380,1,8,0:0:0:0:
185,233,48581,2,0,P|222:252|264:248,1,85,2|8,0:0|0:0,0:0:0:0:
337,143,48984,6,0,P|374:123|416:127,1,85,6|2,0:0|0:0,0:0:0:0:
453,148,49286,2,0,L|441:255,1,85,8|0,0:0|0:0,0:0:0:0:
410,259,49588,2,0,L|422:366,1,85,8|2,0:0|0:0,0:0:0:0:
336,325,49990,6,0,P|294:318|255:333,1,85,2|0,0:0|0:0,0:0:0:0:
187,384,50393,1,8,0:0:0:0:
111,345,50594,5,12,0:0:0:0:
175,234,50796,2,0,P|216:227|255:242,1,85,2|0,0:0|0:0,0:0:0:0:
333,210,51198,1,8,0:0:0:0:
410,177,51400,6,0,L|420:76,1,85,8|2,0:0|0:0,0:0:0:0:
390,60,51702,2,0,L|305:51,1,85,8|0,0:0|0:0,0:0:0:0:
270,75,52004,1,8,0:0:0:0:
180,165,52205,6,0,L|95:173,1,85,6|2,0:0|0:0,0:0:0:0:
69,139,52507,2,0,L|77:54,1,85,8|2,0:0|0:0,0:0:0:0:
112,30,52809,1,8,0:0:0:0:
188,68,53010,6,0,P|227:81|269:74,1,85,2|2,0:0|0:0,0:0:0:0:
308,56,53313,2,0,P|349:48|389:62,1,85,8|2,0:0|0:0,0:0:0:0:
419,92,53615,1,8,0:0:0:0:
394,216,53816,5,2,0:0:0:0:
311,236,54017,1,2,0:0:0:0:
311,236,54118,1,2,0:0:0:0:
311,236,54219,2,0,L|298:331,1,85,8|8,0:0|0:0,0:0:0:0:
178,362,54621,6,0,P|157:363|137:358,3,42.5,2|2|2|2,0:0|0:0|0:0|0:0,0:0:0:0:
103,332,55024,2,0,P|81:330|61:335,3,42.5,8|8|8|0,0:0|0:0|0:0|0:0,0:0:0:0:
27,310,55427,6,0,P|13:270|20:228,1,85,12|2,0:0|0:0,0:0:0:0:
41,191,55729,2,0,P|54:151|47:109,1,85,8|0,0:0|0:0,0:0:0:0:
76,78,56031,2,0,P|115:64|157:71,1,85,8|2,0:0|0:0,0:0:0:0:
228,117,56433,6,0,P|267:130|309:123,1,85,2|0,0:0|0:0,0:0:0:0:
374,68,56836,1,8,0:0:0:0:
452,99,57037,5,8,0:0:0:0:
433,225,57239,2,0,P|393:238|351:231,1,85,2|0,0:0|0:0,0:0:0:0:
280,185,57641,1,8,0:0:0:0:
208,138,57843,6,0,P|166:131|127:145,1,85,12|2,0:0|0:0,0:0:0:0:
100,178,58145,2,0,L|110:262,1,85,8|0,0:0|0:0,0:0:0:0:
117,304,58447,1,8,0:0:0:0:
232,358,58648,6,0,L|342:344,1,85,6|2,0:0|0:0,0:0:0:0:
339,311,58950,2,0,L|449:297,1,85,8|2,0:0|0:0,0:0:0:0:
446,264,59252,1,8,0:0:0:0:
372,221,59453,6,0,L|262:207,1,85,2|2,0:0|0:0,0:0:0:0:
265,174,59755,2,0,L|155:160,1,85,8|2,0:0|0:0,0:0:0:0:
158,127,60057,1,8,0:0:0:0:
214,63,60259,6,0,L|204:2,2,42.5,2|2|2,0:0|0:0|0:0,0:0:0:0:
253,78,60561,2,0,L|363:64,1,85,8|2,0:0|0:0,0:0:0:0:
379,62,60863,1,8,0:0:0:0:
464,156,61064,5,2,0:0:0:0:
431,234,61266,1,8,0:0:0:0:
346,243,61467,2,0,P|302:235|271:198,1,85,2|8,0:0|0:0,0:0:0:0:
167,138,61870,6,0,P|122:146|91:183,1,85,12|2,0:0|0:0,0:0:0:0:
76,212,62172,2,0,L|88:296,1,85,8|0,0:0|0:0,0:0:0:0:
118,326,62474,2,0,P|155:345|197:341,1,85,8|2,0:0|0:0,0:0:0:0:
275,309,62876,6,0,P|316:304|353:323,1,85,2|0,0:0|0:0,0:0:0:0:
425,369,63279,1,8,0:0:0:0:
498,326,63480,5,2,0:0:0:0:
468,195,63682,1,8,0:0:0:0:
395,238,63883,2,0,L|334:228,3,42.5,2|2|2|2,0:0|0:0|0:0|0:0,0:0:0:0:
318,206,64286,2,0,L|276:212,3,42.5,8|8|8|8,0:0|0:0|0:0|0:0,0:0:0:0:
241,238,64688,6,0,L|199:231,1,42.5,10|10,0:0|0:0,0:0:0:0:
164,206,64890,2,0,L|122:212,1,42.5,14|0,0:0|0:0,0:0:0:0:
71,280,65091,5,6,0:0:0:0:
168,162,77977,6,0,L|221:167,1,42.5,4|0,0:0|0:0,0:0:0:0:
283,121,78380,2,0,L|336:126,1,42.5,8|0,0:0|0:0,0:0:0:0:
330,209,78782,2,0,L|277:204,1,42.5,10|0,0:0|0:0,0:0:0:0:
215,250,79185,2,0,L|162:245,1,42.5,10|0,0:0|0:0,0:0:0:0:
101,293,79588,5,10,0:0:0:0:
176,330,79789,2,0,L|218:333,1,42.5,2|8,0:0|0:0,0:0:0:0:
291,289,80192,1,2,0:0:0:0:
366,326,80393,2,0,L|408:329,1,42.5,10|0,0:0|0:0,0:0:0:0:
403,244,80796,2,0,L|360:240,1,42.5,10|8,0:0|0:0,0:0:0:0:
291,289,81198,5,10,0:0:0:0:
215,250,81400,2,0,L|162:245,1,42.5,2|10,0:0|0:0,0:0:0:0:
240,89,82004,2,0,L|282:92,1,42.5,2|2,0:0|0:0,0:0:0:0:
360,240,82608,6,0,L|307:235,1,42.5,10|10,0:0|0:0,0:0:0:0:
385,81,83212,2,0,L|427:84,1,42.5,10|10,0:0|0:0,0:0:0:0:
474,155,83615,2,0,L|470:197,2,42.5,2|0|12,0:0|0:0|0:0,0:0:0:0:
299,160,84420,5,2,0:0:0:0:
315,186,86031,5,2,0:0:0:0:
331,212,86836,1,2,0:0:0:0:
288,285,87037,2,0,L|291:302,10,15.9375006079674
288,285,87641,6,0,L|191:296,1,85,12|2,0:0|0:0,0:0:0:0:
161,300,87943,2,0,P|119:297|83:272,1,85,8|0,0:0|0:0,0:0:0:0:
68,234,88245,2,0,P|70:192|94:157,1,85,8|2,0:0|0:0,0:0:0:0:
178,166,88648,6,0,L|262:175,1,85,2|0,0:0|0:0,0:0:0:0:
323,115,89051,1,8,0:0:0:0:
298,34,89252,5,8,0:0:0:0:
172,52,89453,2,0,L|87:61,1,85,2|0,0:0|0:0,0:0:0:0:
40,132,89856,1,8,0:0:0:0:
87,202,90057,6,0,L|171:211,1,85,8|2,0:0|0:0,0:0:0:0:
213,220,90359,2,0,P|246:245|261:284,1,85,8|0,0:0|0:0,0:0:0:0:
250,325,90661,1,8,0:0:0:0:
131,372,90863,6,0,L|46:362,1,85,6|2,0:0|0:0,0:0:0:0:
17,331,91165,2,0,P|5:290|16:249,1,85,8|2,0:0|0:0,0:0:0:0:
44,217,91467,1,8,0:0:0:0:
103,156,91668,6,0,P|114:115|103:74,1,85,2|2,0:0|0:0,0:0:0:0:
87,35,91970,2,0,P|117:10|173:7,1,85,8|2,0:0|0:0,0:0:0:0:
202,17,92272,1,8,0:0:0:0:
244,90,92474,6,0,L|233:138,2,42.5,2|2|2,0:0|0:0|0:0,0:0:0:0:
284,75,92776,2,0,L|368:72,1,85,8|2,0:0|0:0,0:0:0:0:
405,93,93078,1,8,0:0:0:0:
460,207,93279,5,8,0:0:0:0:
393,259,93480,1,8,0:0:0:0:
314,226,93682,2,0,P|272:219|232:233,1,85,2|8,0:0|0:0,0:0:0:0:
178,349,94084,6,0,P|217:362|259:356,1,85,12|2,0:0|0:0,0:0:0:0:
298,338,94386,2,0,P|339:331|379:345,1,85,8|0,0:0|0:0,0:0:0:0:
418,363,94688,2,0,P|455:344|481:310,1,85,8|2,0:0|0:0,0:0:0:0:
429,241,95091,6,0,P|417:201|423:160,1,85,2|0,0:0|0:0,0:0:0:0:
476,92,95494,1,8,0:0:0:0:
445,12,95695,5,8,0:0:0:0:
327,61,95896,2,0,L|215:48,1,85,2|0,0:0|0:0,0:0:0:0:
157,41,96299,1,8,0:0:0:0:
106,109,96500,6,0,L|56:178,1,85,8|2,0:0|0:0,0:0:0:0:
31,212,96802,2,0,P|26:253|43:292,1,85,8|0,0:0|0:0,0:0:0:0:
73,323,97104,1,8,0:0:0:0:
197,295,97306,6,0,P|238:286|283:298,1,85,6|2,0:0|0:0,0:0:0:0:
314,320,97608,2,0,P|354:330|396:321,1,85,8|2,0:0|0:0,0:0:0:0:
429,294,97910,1,8,0:0:0:0:
357,240,98111,6,0,P|348:198|360:153,1,85,2|2,0:0|0:0,0:0:0:0:
382,123,98413,2,0,P|392:82|383:40,1,85,8|2,0:0|0:0,0:0:0:0:
364,3,98715,1,8,0:0:0:0:
241,41,98917,5,2,0:0:0:0:
204,117,99118,1,2,0:0:0:0:
204,117,99219,1,2,0:0:0:0:
203,116,99319,2,0,P|244:127|285:115,1,85,2|8,0:0|0:0,0:0:0:0:
403,163,99722,6,0,L|419:220,3,42.5,8|8|8|8,0:0|0:0|0:0|0:0,0:0:0:0:
445,233,100125,2,0,L|429:290,3,42.5,2|2|2|2,0:0|0:0|0:0|0:0,0:0:0:0:
420,313,100527,6,0,P|380:326|339:317,1,85,12|2,0:0|0:0,0:0:0:0:
301,296,100829,2,0,P|259:287|220:300,1,85,8|0,0:0|0:0,0:0:0:0:
189,330,101131,2,0,P|149:343|108:334,1,85,8|2,0:0|0:0,0:0:0:0:
50,271,101534,6,0,P|36:231|45:190,1,85,2|0,0:0|0:0,0:0:0:0:
106,131,101937,1,8,0:0:0:0:
186,157,102138,5,8,0:0:0:0:
293,87,102339,2,0,P|334:81|375:91,1,85,2|0,0:0|0:0,0:0:0:0:
431,155,102742,1,8,0:0:0:0:
378,222,102943,6,0,P|368:262|375:304,1,85,8|2,0:0|0:0,0:0:0:0:
384,346,103245,2,0,P|343:335|301:342,1,85,8|0,0:0|0:0,0:0:0:0:
264,363,103547,1,8,0:0:0:0:
139,384,103749,6,0,L|18:370,1,85,6|2,0:0|0:0,0:0:0:0:
27,340,104051,2,0,L|41:219,1,85,8|2,0:0|0:0,0:0:0:0:
71,228,104353,1,8,0:0:0:0:
149,260,104554,6,0,L|270:246,1,85,2|2,0:0|0:0,0:0:0:0:
261,216,104856,2,0,L|247:95,1,85,8|2,0:0|0:0,0:0:0:0:
217,104,105158,1,8,0:0:0:0:
140,141,105359,6,0,L|79:134,2,42.5,2|2|2,0:0|0:0|0:0,0:0:0:0:
165,175,105661,2,0,L|174:259,1,85,8|2,0:0|0:0,0:0:0:0:
181,302,105964,1,8,0:0:0:0:
292,362,106165,5,2,0:0:0:0:
367,323,106366,1,8,0:0:0:0:
442,360,106568,2,0,P|483:357|517:332,1,85,8|8,0:0|0:0,0:0:0:0:
472,213,106970,6,0,P|430:215|396:240,1,85,12|2,0:0|0:0,0:0:0:0:
380,279,107272,2,0,P|337:282|300:261,1,85,8|0,0:0|0:0,0:0:0:0:
273,230,107574,1,8,0:0:0:0:
311,153,107776,5,2,0:0:0:0:
263,81,107977,2,0,P|219:78|183:99,1,85,8|2,0:0|0:0,0:0:0:0:
142,173,108380,1,8,0:0:0:0:
188,244,108581,5,0,0:0:0:0:
114,348,108782,2,0,P|70:350|34:329,1,85,8|0,0:0|0:0,0:0:0:0:
4,250,109185,1,8,0:0:0:0:
55,182,109386,6,0,L|105:171,3,42.5,2|2|2|2,0:0|0:0|0:0|0:0,0:0:0:0:
130,199,109789,2,0,L|171:208,1,42.5,8|8,0:0|0:0,0:0:0:0:
205,182,109990,2,0,L|246:172,1,42.5,8|8,0:0|0:0,0:0:0:0:
313,225,110192,6,0,L|401:244,1,85,6|2,0:0|0:0,0:0:0:0:
436,251,110494,2,0,P|473:230|494:193,1,85,8|2,0:0|0:0,0:0:0:0:
490,151,110796,1,8,0:0:0:0:
399,61,110997,6,0,L|315:79,1,85,2|2,0:0|0:0,0:0:0:0:
275,91,111299,2,0,P|238:111|217:149,1,85,8|2,0:0|0:0,0:0:0:0:
219,190,111601,1,8,0:0:0:0:
272,255,111802,6,0,L|282:321,3,42.5,2|2|2|2,0:0|0:0|0:0|0:0,0:0:0:0:
257,334,112205,2,0,L|250:376,3,42.5,2|2|2|2,0:0|0:0|0:0|0:0,0:0:0:0:
342,359,112608,6,0,L|408:349,1,42.5,8|8,0:0|0:0,0:0:0:0:
409,318,112809,2,0,L|475:308,1,42.5,8|8,0:0|0:0,0:0:0:0:
507,248,113010,5,8,0:0:0:0:
509,237,113110,1,8,0:0:0:0:
510,227,113211,1,8,0:0:0:0:
511,216,113312,1,8,0:0:0:0:
512,205,113412,5,4,0:0:0:0:
