osu file format v14

[General]
AudioFilename: audio.mp3
AudioLeadIn: 0
PreviewTime: 51412
Countdown: 0
SampleSet: Soft
StackLeniency: 0.7
Mode: 1
LetterboxInBreaks: 0
WidescreenStoryboard: 0

[Editor]
Bookmarks: 7294,49647,77883,81412,95530,104353,129059,157294,185530
DistanceSpacing: 0.9
BeatDivisor: 8
GridSize: 8
TimelineZoom: 2.200003

[Metadata]
Title:LA FAMA (feat. The Weeknd)
TitleUnicode:LA FAMA (feat. The Weeknd)
Artist:ROSALIA
ArtistUnicode:ROSALÍA
Creator:Ulqui
Version:TRAICIONERA
Source:
Tags:spanish español urban folk latin pop bachata weekend
BeatmapID:3525301
BeatmapSetID:1724925

[Difficulty]
HPDrainRate:6.6
CircleSize:6.6
OverallDifficulty:6.6
ApproachRate:6.6
SliderMultiplier:1.4
SliderTickRate:1

[Events]
//Background and Video events
0,0,"94236376_p0.jpg",0,0
//Break Periods
2,129038,142437
//Storyboard Layer 0 (Background)
//Storyboard Layer 1 (Fail)
//Storyboard Layer 2 (Pass)
//Storyboard Layer 3 (Foreground)
//Storyboard Layer 4 (Overlay)
//Storyboard Sound Samples

[TimingPoints]
236,441.176470588235,4,2,0,20,1,0
236,-125,4,2,0,20,0,8
6384,-125,4,2,0,40,0,0
6485,-122.465981671758,4,2,0,40,0,0
6559,-120,4,2,0,40,0,0
6633,-117.631368364897,4,2,0,40,0,0
6853,-111.111111111111,4,2,0,40,0,0
6927,-109.07741775909,4,2,0,40,0,0
7000,-107.142857142857,4,2,0,40,0,0
7074,-105.250596658711,4,2,0,40,0,0
7147,-103.448275862069,4,2,0,40,0,0
7221,-101.683191145953,4,2,0,40,0,0
7294,-100,4,2,0,40,0,0
20088,-90.9090909090909,4,2,0,40,0,0
20162,-89.5461912479741,4,2,0,40,0,0
20235,-88.2411659013775,4,2,0,40,0,0
20309,-86.9565217391304,4,2,0,40,0,0
20383,-85.7087453946093,4,2,0,40,0,0
20456,-84.5124282982792,4,2,0,40,0,0
20530,-83.3333333333333,4,2,0,40,0,0
20750,-100,4,2,0,40,0,0
35088,-100,4,2,0,40,0,0
35525,-100,4,2,0,40,0,0
35585,-102.563357358754,4,2,0,40,0,0
36186,-103.891898257183,4,2,0,40,0,0
36407,-105.261588021237,4,2,0,40,0,0
36848,-108.105624310746,4,2,0,40,0,0
37289,-111.107612870726,4,2,0,40,0,0
37510,-112.675606641124,4,2,0,40,0,0
37730,-114.281088082902,4,2,0,40,0,0
37951,-115.940600565083,4,2,0,40,0,0
38172,-117.649019869316,4,2,0,40,0,0
38613,-121.213162052621,4,2,0,40,0,0
39054,-125,4,2,0,40,0,0
49206,-125,4,2,0,40,0,0
49280,-119.967355821545,4,2,0,40,0,0
49353,-115.384615384615,4,2,0,40,0,0
49427,-111.083123425693,4,2,0,40,0,0
49500,-107.142857142857,4,2,0,40,0,0
49574,-103.424015009381,4,2,0,40,0,0
49647,-100,4,2,0,40,0,1
57147,-90.9090909090909,4,2,0,40,0,1
57221,-89.0982503364737,4,2,0,40,0,1
57294,-87.3812038014783,4,2,0,40,0,1
57368,-85.7068876229933,4,2,0,40,0,1
57441,-84.1168996188056,4,2,0,40,0,1
57515,-82.5642304814168,4,2,0,40,0,1
57588,-81.0877021068104,4,2,0,40,0,1
57662,-78.941092296685,4,2,0,40,0,1
57809,-76.9230769230769,4,2,0,40,0,1
58030,-100,4,2,0,40,0,1
62216,-100,4,2,0,40,0,1
62271,-97.5609756097561,4,2,0,40,0,1
62326,-95.2380952380952,4,2,0,40,0,1
62381,-93.0232558139535,4,2,0,40,0,1
62436,-90.9090909090909,4,2,0,40,0,1
62497,-100,4,2,0,40,0,1
63098,-90.9090909090909,4,2,0,40,0,1
63153,-93.013468013468,4,2,0,40,0,1
63208,-95.2175786299009,4,2,0,40,0,1
63264,-97.5717439293598,4,2,0,40,0,1
63319,-100,4,2,0,40,0,1
63379,-100,4,2,0,40,0,1
77883,-100,4,2,0,40,0,0
78103,-102.558139534884,4,2,0,40,0,0
78324,-105.263157894737,4,2,0,40,0,0
78471,-107.142857142857,4,2,0,40,0,0
78544,-108.10148302488,4,2,0,40,0,0
78618,-109.090909090909,4,2,0,40,0,0
78691,-110.084872690964,4,2,0,40,0,0
78765,-111.111111111111,4,2,0,40,0,0
78838,-112.142403051494,4,2,0,40,0,0
78912,-113.207547169811,4,2,0,40,0,0
78985,-114.27831044312,4,2,0,40,0,0
79059,-115.384615384615,4,2,0,40,0,0
79206,-117.647058823529,4,2,0,40,0,0
79427,-121.220450797141,4,2,0,40,0,0
79647,-125,4,2,0,40,0,0
79675,-125,4,2,0,20,0,0
81412,-125,4,2,0,20,0,0
95061,-125,4,2,0,40,0,0
95088,-125,4,2,0,40,0,0
95162,-119.978284473399,4,2,0,40,0,0
95235,-115.404699738903,4,2,0,40,0,0
95309,-111.111111111111,4,2,0,40,0,0
95383,-107.125545322346,4,2,0,40,0,0
95456,-103.464419475655,4,2,0,40,0,0
95530,-100,4,2,0,40,0,0
95750,-100.71754729289,4,2,0,40,0,0
95971,-101.44879923782,4,2,0,40,0,0
96191,-102.187365564711,4,2,0,40,0,0
96412,-102.940196013068,4,2,0,40,0,0
96633,-103.704201229137,4,2,0,40,0,0
96853,-104.476097032852,4,2,0,40,0,0
97074,-105.263157894737,4,2,0,40,0,0
97294,-106.058524522599,4,2,0,40,0,0
97515,-106.869700640249,4,2,0,40,0,0
97735,-107.68962510898,4,2,0,40,0,0
97956,-108.526042032755,4,2,0,40,0,0
98177,-109.375553430383,4,2,0,40,0,0
98397,-110.234533966373,4,2,0,40,0,0
98618,-111.111111111111,4,2,0,40,0,0
98838,-111.997678804584,4,2,0,40,0,0
99059,-112.902636101057,4,2,0,40,0,0
99280,-113.822336896425,4,2,0,40,0,0
99500,-114.752879970271,4,2,0,40,0,0
99721,-115.703098654876,4,2,0,40,0,0
99941,-116.664777664438,4,2,0,40,0,0
100162,-117.647058823529,4,2,0,40,0,0
100383,-118.646021439275,4,2,0,40,0,0
100603,-119.657457279033,4,2,0,40,0,0
100824,-120.691002892207,4,2,0,40,0,0
101044,-121.737759205235,4,2,0,40,0,0
101265,-122.804863072578,4,2,0,40,0,0
101370,-123.345154143684,4,2,0,40,0,0
101425,-123.617086404139,4,2,0,40,0,0
101485,-123.890220341988,4,2,0,40,0,0
101536,-124.169563252567,4,2,0,40,0,0
101591,-124.44514678037,4,2,0,40,0,0
101706,-125,4,2,0,40,0,0
103912,-125,4,2,0,40,0,0
104133,-111.083123425693,4,2,0,40,0,0
104206,-107.142857142857,4,2,0,40,0,0
104280,-103.424015009381,4,2,0,40,0,0
104353,-100,4,2,0,40,0,1
129059,-125,4,2,0,40,0,0
129133,-125,4,2,0,20,0,0
148471,-125,4,2,0,20,0,0
148691,-124.033595726736,4,2,0,20,0,0
148802,-123.551650505828,4,2,0,20,0,0
148912,-123.077727795795,4,2,0,20,0,0
149133,-122.13648003322,4,2,0,20,0,0
149353,-121.213682258397,4,2,0,20,0,0
149458,-120.757492815109,4,2,0,20,0,0
149574,-120.300623743141,4,2,0,20,0,0
149794,-119.405257282046,4,2,0,20,0,0
150015,-118.519140362659,4,2,0,20,0,0
150230,-117.65,4,2,0,20,0,0
150236,-117.646078464051,4,2,0,20,0,0
150456,-116.789649581417,4,2,0,20,0,0
150566,-116.36609409515,4,2,0,20,0,0
150677,-115.941790946718,4,2,0,20,0,0
150897,-115.109908029483,4,2,0,20,0,0
151118,-114.286176861056,4,2,0,20,0,0
151223,-113.88055367341,4,2,0,20,0,0
151338,-113.477799569173,4,2,0,20,0,0
151559,-112.677180436726,4,2,0,20,0,0
151780,-111.887779362815,4,2,0,20,0,0
152000,-111.112860066111,4,2,0,20,0,0
152221,-110.345151003564,4,2,0,20,0,0
152331,-109.966974077767,4,2,0,20,0,0
152441,-109.591380488108,4,2,0,20,0,0
152662,-108.844481450643,4,2,0,20,0,0
152883,-108.1076941926,4,2,0,20,0,0
152988,-107.744673056963,4,2,0,20,0,0
153103,-107.384081781672,4,2,0,20,0,0
153324,-106.666868143492,4,2,0,20,0,0
153544,-105.962352517338,4,2,0,20,0,0
153765,-105.263942737847,4,2,0,20,0,0
153985,-104.577777777778,4,2,0,20,0,0
154096,-104.234960574112,4,2,0,20,0,0
154206,-103.897441935769,4,2,0,20,0,0
154427,-103.225900795508,4,2,0,20,0,0
154647,-102.565965360921,4,2,0,20,0,0
154753,-102.236190365843,4,2,0,20,0,0
154868,-101.911471717726,4,2,0,20,0,0
155088,-101.268183513614,4,2,0,20,0,0
155309,-100.63009636768,4,2,0,20,0,0
155530,-100,4,2,0,20,0,0
156826,-125,4,2,0,40,0,0
156927,-119.967355821545,4,2,0,40,0,0
157000,-115.384615384615,4,2,0,40,0,0
157074,-111.083123425693,4,2,0,40,0,0
157147,-107.142857142857,4,2,0,40,0,0
157221,-103.424015009381,4,2,0,40,0,0
157294,-100,4,2,0,40,0,1
162588,-50,4,2,0,40,0,1
162699,-100,4,2,0,40,0,1
169647,-10,4,2,0,40,0,1
169868,-100,4,2,0,40,0,1
176706,-33.3333333333333,4,2,0,40,0,1
176927,-100,4,2,0,40,0,1
178250,-100,4,2,0,40,0,1
178691,-100,4,2,0,40,0,1
183765,-50,4,2,0,40,0,1
183875,-100,4,2,0,40,0,1
185309,-100,4,2,0,40,0,0

[HitObjects]
166,195,456,5,0,0:0:0:0:
161,195,566,1,0,0:0:0:0:
161,194,677,1,8,0:0:0:0:
177,180,897,1,8,0:0:0:0:
176,180,1118,1,8,0:0:0:0:
214,103,1228,1,0,0:0:0:0:
177,180,1338,1,0,0:0:0:0:
177,180,1559,1,0,0:0:0:0:
176,180,1780,1,8,0:0:0:0:
177,180,2221,1,0,0:0:0:0:
171,183,2331,1,0,0:0:0:0:
166,184,2441,1,8,0:0:0:0:
175,189,2662,1,8,0:0:0:0:
175,188,2883,1,8,0:0:0:0:
205,109,2993,1,0,0:0:0:0:
175,188,3103,1,0,0:0:0:0:
175,189,3324,1,0,0:0:0:0:
173,184,3544,1,8,0:0:0:0:
173,184,3985,1,0,0:0:0:0:
171,185,4096,1,8,0:0:0:0:
169,184,4206,1,8,0:0:0:0:
169,184,4427,1,8,0:0:0:0:
169,182,4647,1,8,0:0:0:0:
212,108,4758,1,8,0:0:0:0:
171,185,4868,1,0,0:0:0:0:
169,184,5088,1,0,0:0:0:0:
169,182,5309,1,8,0:0:0:0:
166,180,5750,1,0,0:0:0:0:
164,178,5860,1,8,0:0:0:0:
164,178,5971,1,8,0:0:0:0:
166,180,6191,1,8,0:0:0:0:
162,178,6412,1,0,0:0:0:0:
230,173,6485,1,8,0:0:0:0:
230,173,6559,1,8,0:0:0:0:
227,167,6633,1,0,0:0:0:0:
161,178,6853,1,0,0:0:0:0:
225,179,6927,1,8,0:0:0:0:
225,179,7000,1,8,0:0:0:0:
224,182,7074,1,8,0:0:0:0:
174,177,7147,1,8,0:0:0:0:
172,175,7221,1,8,0:0:0:0:
224,182,7294,1,0,0:0:0:0:
191,152,7515,1,0,0:0:0:0:
191,152,7625,1,0,0:0:0:0:
183,148,7735,1,8,0:0:0:0:
188,143,7956,1,8,0:0:0:0:
185,147,8177,1,8,0:0:0:0:
192,110,8250,1,0,0:0:0:0:
182,40,8324,1,0,0:0:0:0:
185,147,8397,1,8,0:0:0:0:
185,147,8618,1,0,0:0:0:0:
197,58,8838,1,8,0:0:0:0:
182,151,9059,1,0,0:0:0:0:
182,151,9280,1,0,0:0:0:0:
448,64,9390,1,8,0:0:0:0:
64,64,9445,1,0,0:0:0:0:
165,133,9500,1,8,0:0:0:0:
210,162,9721,1,8,0:0:0:0:
210,162,9941,1,8,0:0:0:0:
197,54,10015,1,0,0:0:0:0:
197,54,10088,1,0,0:0:0:0:
210,162,10162,1,8,0:0:0:0:
205,74,10383,1,0,0:0:0:0:
205,79,10603,1,8,0:0:0:0:
210,162,10824,5,0,0:0:0:0:
145,83,11044,1,0,0:0:0:0:
130,82,11155,1,8,0:0:0:0:
127,87,11265,1,8,0:0:0:0:
178,98,11485,1,8,0:0:0:0:
175,103,11706,1,8,0:0:0:0:
162,74,11780,1,8,0:0:0:0:
199,72,11853,1,0,0:0:0:0:
175,107,11927,1,8,0:0:0:0:
176,108,12147,1,0,0:0:0:0:
206,104,12368,1,8,0:0:0:0:
216,127,12588,1,0,0:0:0:0:
171,157,12809,1,0,0:0:0:0:
171,157,12919,1,8,0:0:0:0:
176,49,12974,1,0,0:0:0:0:
171,157,13030,1,8,0:0:0:0:
166,191,13250,1,8,0:0:0:0:
166,191,13471,1,8,0:0:0:0:
171,87,13544,1,8,0:0:0:0:
201,97,13618,1,0,0:0:0:0:
163,200,13691,1,8,0:0:0:0:
164,203,13912,1,0,0:0:0:0:
156,101,14133,1,8,0:0:0:0:
167,122,14353,1,0,0:0:0:0:
171,178,14574,1,0,0:0:0:0:
171,178,14684,1,0,0:0:0:0:
171,178,14794,1,8,0:0:0:0:
177,191,15015,1,8,0:0:0:0:
176,189,15235,1,8,0:0:0:0:
208,36,15309,1,0,0:0:0:0:
152,128,15383,1,0,0:0:0:0:
166,170,15456,1,8,0:0:0:0:
166,173,15677,1,0,0:0:0:0:
211,74,15897,1,8,0:0:0:0:
166,176,16118,1,0,0:0:0:0:
166,173,16338,1,0,0:0:0:0:
448,64,16449,1,8,0:0:0:0:
204,152,16504,1,0,0:0:0:0:
161,186,16559,1,8,0:0:0:0:
168,198,16780,1,8,0:0:0:0:
171,205,17000,1,8,0:0:0:0:
173,50,17074,1,0,0:0:0:0:
203,130,17147,1,0,0:0:0:0:
169,207,17221,1,8,0:0:0:0:
169,207,17441,1,0,0:0:0:0:
171,205,17662,1,8,0:0:0:0:
169,207,17883,1,0,0:0:0:0:
169,207,18103,1,0,0:0:0:0:
169,210,18213,1,8,0:0:0:0:
168,210,18324,1,8,0:0:0:0:
167,217,18544,1,8,0:0:0:0:
164,222,18765,1,8,0:0:0:0:
217,57,18838,1,8,0:0:0:0:
217,57,18912,1,0,0:0:0:0:
163,223,18985,1,8,0:0:0:0:
163,223,19206,1,0,0:0:0:0:
164,222,19427,1,8,0:0:0:0:
163,223,19647,1,0,0:0:0:0:
163,223,19868,1,0,0:0:0:0:
159,225,19978,1,8,0:0:0:0:
159,225,20088,1,8,0:0:0:0:
256,132,20162,1,0,0:0:0:0:
258,128,20235,1,0,0:0:0:0:
153,232,20309,1,8,0:0:0:0:
257,128,20383,1,0,0:0:0:0:
256,132,20456,1,0,0:0:0:0:
153,232,20530,1,8,0:0:0:0:
195,163,20750,1,8,0:0:0:0:
162,80,20971,1,0,0:0:0:0:
193,77,21191,1,8,0:0:0:0:
166,70,21412,1,0,0:0:0:0:
164,154,21633,1,8,0:0:0:0:
164,154,21743,1,0,0:0:0:0:
156,146,21798,1,8,0:0:0:0:
156,161,21853,1,8,0:0:0:0:
171,146,22074,1,8,0:0:0:0:
165,149,22294,1,8,0:0:0:0:
252,94,22368,1,0,0:0:0:0:
252,94,22441,1,0,0:0:0:0:
122,217,22515,1,8,0:0:0:0:
122,217,22735,1,0,0:0:0:0:
122,217,22956,1,8,0:0:0:0:
119,221,23177,1,0,0:0:0:0:
165,153,23397,1,8,0:0:0:0:
161,154,23508,1,0,0:0:0:0:
197,73,23563,1,0,0:0:0:0:
158,155,23618,1,8,0:0:0:0:
202,129,23838,1,8,0:0:0:0:
202,129,24059,1,8,0:0:0:0:
190,120,24133,1,0,0:0:0:0:
189,119,24206,1,0,0:0:0:0:
190,119,24280,1,8,0:0:0:0:
175,127,24500,1,0,0:0:0:0:
171,130,24721,1,8,0:0:0:0:
183,108,24941,1,0,0:0:0:0:
234,170,25162,1,8,0:0:0:0:
234,170,25217,1,8,0:0:0:0:
226,171,25272,1,0,0:0:0:0:
183,112,25383,1,8,0:0:0:0:
183,108,25603,1,8,0:0:0:0:
184,107,25824,1,8,0:0:0:0:
185,104,25897,1,8,0:0:0:0:
186,106,25971,1,0,0:0:0:0:
184,107,26044,1,8,0:0:0:0:
183,108,26265,1,0,0:0:0:0:
183,108,26485,1,8,0:0:0:0:
219,69,26706,1,0,0:0:0:0:
215,77,26927,1,8,0:0:0:0:
226,169,26982,1,0,0:0:0:0:
216,76,27037,1,0,0:0:0:0:
216,76,27147,1,8,0:0:0:0:
208,71,27368,1,8,0:0:0:0:
206,74,27588,1,8,0:0:0:0:
206,73,27662,1,8,0:0:0:0:
206,73,27735,1,0,0:0:0:0:
207,74,27809,1,8,0:0:0:0:
205,77,28030,1,0,0:0:0:0:
206,74,28250,1,8,0:0:0:0:
206,73,28471,1,8,0:0:0:0:
187,162,28691,1,0,0:0:0:0:
187,162,28802,1,0,0:0:0:0:
223,84,28857,1,8,0:0:0:0:
183,163,28912,1,0,0:0:0:0:
227,95,29133,1,8,0:0:0:0:
217,98,29353,1,8,0:0:0:0:
266,87,29427,1,0,0:0:0:0:
266,87,29500,1,0,0:0:0:0:
257,95,29574,1,0,0:0:0:0:
257,93,29794,1,0,0:0:0:0:
191,72,30015,1,8,0:0:0:0:
182,76,30235,1,8,0:0:0:0:
185,87,30456,1,0,0:0:0:0:
163,92,30566,1,0,0:0:0:0:
198,101,30622,1,8,0:0:0:0:
163,92,30677,1,0,0:0:0:0:
195,97,30897,1,8,0:0:0:0:
164,133,31118,1,8,0:0:0:0:
164,133,31191,1,0,0:0:0:0:
162,140,31265,1,0,0:0:0:0:
164,133,31338,1,0,0:0:0:0:
183,125,31559,1,0,0:0:0:0:
176,133,31780,1,8,0:0:0:0:
177,133,32000,1,0,0:0:0:0:
183,139,32221,1,0,0:0:0:0:
176,142,32331,1,8,0:0:0:0:
197,100,32386,1,0,0:0:0:0:
175,141,32441,1,8,0:0:0:0:
205,102,32662,1,8,0:0:0:0:
164,138,32883,1,8,0:0:0:0:
162,142,32956,1,8,0:0:0:0:
169,56,33030,1,0,0:0:0:0:
155,142,33103,1,0,0:0:0:0:
206,128,33324,1,0,0:0:0:0:
206,128,33544,1,8,0:0:0:0:
206,128,33765,1,0,0:0:0:0:
206,128,33985,1,0,0:0:0:0:
196,129,34096,1,8,0:0:0:0:
198,104,34151,1,0,0:0:0:0:
196,129,34206,1,8,0:0:0:0:
203,135,34427,1,8,0:0:0:0:
170,106,34647,1,8,0:0:0:0:
170,106,34721,1,8,0:0:0:0:
133,92,34794,1,0,0:0:0:0:
129,92,34868,1,0,0:0:0:0:
164,112,35088,1,0,0:0:0:0:
162,110,35309,1,8,0:0:0:0:
161,112,35530,1,8,0:0:0:0:
160,134,35971,1,0,0:0:0:0:
175,93,36191,1,8,0:0:0:0:
176,122,36412,1,8,0:0:0:0:
171,159,36853,1,0,0:0:0:0:
173,177,37294,1,8,0:0:0:0:
216,120,37515,1,0,0:0:0:0:
216,120,37735,1,8,0:0:0:0:
216,120,37956,1,0,0:0:0:0:
216,120,38177,1,8,0:0:0:0:
216,125,38618,1,0,0:0:0:0:
216,125,39059,1,8,0:0:0:0:
168,136,39280,1,0,0:0:0:0:
164,138,39390,1,0,0:0:0:0:
163,138,39500,1,0,0:0:0:0:
158,98,39721,1,8,0:0:0:0:
158,98,39941,1,8,0:0:0:0:
205,82,40052,1,8,0:0:0:0:
158,98,40162,1,8,0:0:0:0:
158,98,40383,1,0,0:0:0:0:
158,98,40603,1,8,0:0:0:0:
201,117,41044,1,0,0:0:0:0:
197,112,41155,1,0,0:0:0:0:
197,106,41265,1,0,0:0:0:0:
205,133,41485,1,8,0:0:0:0:
201,138,41706,1,8,0:0:0:0:
203,53,41816,1,8,0:0:0:0:
201,139,41927,1,8,0:0:0:0:
201,139,42147,1,0,0:0:0:0:
201,138,42368,1,8,0:0:0:0:
201,139,42588,1,8,0:0:0:0:
196,112,43030,1,0,0:0:0:0:
196,112,43250,1,8,0:0:0:0:
194,117,43471,1,8,0:0:0:0:
189,118,43912,1,0,0:0:0:0:
191,124,44353,1,8,0:0:0:0:
191,124,44574,1,0,0:0:0:0:
191,125,44794,1,8,0:0:0:0:
210,110,45015,1,0,0:0:0:0:
207,114,45235,1,8,0:0:0:0:
203,108,45677,1,0,0:0:0:0:
206,113,46118,1,8,0:0:0:0:
209,115,46338,1,0,0:0:0:0:
207,115,46449,1,0,0:0:0:0:
206,113,46559,1,0,0:0:0:0:
204,121,46780,1,8,0:0:0:0:
202,122,47000,1,8,0:0:0:0:
218,62,47110,1,8,0:0:0:0:
202,121,47221,1,8,0:0:0:0:
204,121,47441,1,0,0:0:0:0:
202,122,47662,1,8,0:0:0:0:
319,109,49206,1,8,0:0:0:0:
319,109,49280,1,8,0:0:0:0:
319,109,49353,1,0,0:0:0:0:
319,109,49427,1,8,0:0:0:0:
319,109,49500,1,8,0:0:0:0:
319,109,49574,1,8,0:0:0:0:
171,102,49647,1,0,0:0:0:0:
177,214,49868,1,0,0:0:0:0:
177,214,49978,1,0,0:0:0:0:
171,216,50088,1,8,0:0:0:0:
180,168,50309,1,8,0:0:0:0:
180,168,50530,1,8,0:0:0:0:
268,135,50603,1,0,0:0:0:0:
268,135,50677,1,8,0:0:0:0:
180,168,50750,1,8,0:0:0:0:
176,171,50971,1,0,0:0:0:0:
175,172,51191,1,8,0:0:0:0:
201,101,51412,1,0,0:0:0:0:
185,149,51633,1,0,0:0:0:0:
185,149,51743,1,0,0:0:0:0:
185,149,51853,1,8,0:0:0:0:
209,141,52074,1,8,0:0:0:0:
205,143,52294,1,8,0:0:0:0:
239,97,52368,1,0,0:0:0:0:
239,97,52441,1,8,0:0:0:0:
202,144,52515,1,8,0:0:0:0:
201,146,52735,1,0,0:0:0:0:
200,146,52956,1,8,0:0:0:0:
209,57,53177,1,0,0:0:0:0:
218,135,53397,1,0,0:0:0:0:
208,137,53508,1,8,0:0:0:0:
210,137,53618,1,8,0:0:0:0:
184,134,53838,1,8,0:0:0:0:
180,138,54059,1,8,0:0:0:0:
261,108,54133,1,8,0:0:0:0:
261,108,54206,1,0,0:0:0:0:
261,108,54280,1,8,0:0:0:0:
166,65,54500,1,0,0:0:0:0:
158,81,54721,1,8,0:0:0:0:
156,84,54941,1,0,0:0:0:0:
153,109,55162,1,0,0:0:0:0:
146,112,55272,1,8,0:0:0:0:
145,113,55383,1,8,0:0:0:0:
195,129,55603,1,8,0:0:0:0:
144,112,55824,1,8,0:0:0:0:
144,112,55897,1,8,0:0:0:0:
145,107,55971,1,0,0:0:0:0:
144,112,56044,1,8,0:0:0:0:
196,141,56265,1,0,0:0:0:0:
193,143,56485,1,8,0:0:0:0:
207,174,56706,1,0,0:0:0:0:
207,174,56927,1,0,0:0:0:0:
207,174,57037,1,0,0:0:0:0:
207,174,57147,1,8,0:0:0:0:
257,158,57221,1,8,0:0:0:0:
257,163,57294,1,0,0:0:0:0:
207,174,57368,1,8,0:0:0:0:
261,167,57441,1,8,0:0:0:0:
261,169,57515,1,0,0:0:0:0:
207,174,57588,1,8,0:0:0:0:
64,64,57699,1,0,0:0:0:0:
207,174,57809,1,8,0:0:0:0:
207,174,58030,1,0,0:0:0:0:
203,174,58250,1,8,0:0:0:0:
203,174,58471,1,0,0:0:0:0:
204,176,58691,1,0,0:0:0:0:
204,176,58802,1,0,0:0:0:0:
203,174,58912,1,8,0:0:0:0:
203,174,59133,1,8,0:0:0:0:
204,176,59353,1,8,0:0:0:0:
195,176,59427,1,0,0:0:0:0:
193,176,59500,1,8,0:0:0:0:
204,176,59574,1,8,0:0:0:0:
201,178,59794,1,0,0:0:0:0:
204,176,60015,1,8,0:0:0:0:
200,183,60125,1,0,0:0:0:0:
204,176,60235,1,0,0:0:0:0:
201,178,60456,1,0,0:0:0:0:
201,178,60566,1,8,0:0:0:0:
201,178,60677,1,8,0:0:0:0:
201,178,60897,1,8,0:0:0:0:
201,178,61118,1,8,0:0:0:0:
195,180,61191,1,8,0:0:0:0:
191,181,61265,1,0,0:0:0:0:
216,184,61338,1,8,0:0:0:0:
216,183,61559,1,0,0:0:0:0:
216,182,61780,1,8,0:0:0:0:
216,184,62000,1,0,0:0:0:0:
216,183,62221,1,8,0:0:0:0:
191,187,62276,1,0,0:0:0:0:
216,183,62331,1,8,0:0:0:0:
186,189,62386,1,0,0:0:0:0:
216,182,62441,1,8,0:0:0:0:
215,180,62662,1,8,0:0:0:0:
225,178,62883,1,8,0:0:0:0:
64,64,63103,1,0,0:0:0:0:
196,189,63158,1,8,0:0:0:0:
64,64,63213,1,0,0:0:0:0:
196,189,63269,1,8,0:0:0:0:
226,175,63324,1,0,0:0:0:0:
237,167,63544,1,8,0:0:0:0:
235,172,63655,1,8,0:0:0:0:
236,169,63765,1,0,0:0:0:0:
212,153,63985,1,0,0:0:0:0:
212,153,64096,1,0,0:0:0:0:
209,155,64206,1,8,0:0:0:0:
221,99,64427,1,8,0:0:0:0:
224,101,64537,1,0,0:0:0:0:
216,105,64647,1,8,0:0:0:0:
264,127,64721,1,0,0:0:0:0:
265,121,64794,1,8,0:0:0:0:
263,122,64868,1,8,0:0:0:0:
223,79,65088,1,0,0:0:0:0:
215,92,65309,1,8,0:0:0:0:
216,95,65530,1,0,0:0:0:0:
237,97,65750,1,0,0:0:0:0:
215,103,65860,1,0,0:0:0:0:
216,95,65971,1,8,0:0:0:0:
206,101,66191,1,8,0:0:0:0:
201,107,66412,1,8,0:0:0:0:
209,157,66485,1,0,0:0:0:0:
209,157,66559,1,8,0:0:0:0:
201,108,66633,1,8,0:0:0:0:
201,108,66853,1,0,0:0:0:0:
201,107,67074,1,8,0:0:0:0:
223,102,67184,1,0,0:0:0:0:
201,108,67294,1,0,0:0:0:0:
201,108,67515,1,0,0:0:0:0:
201,108,67625,1,8,0:0:0:0:
196,107,67735,1,8,0:0:0:0:
211,118,67956,1,8,0:0:0:0:
211,122,68177,1,8,0:0:0:0:
192,135,68250,1,8,0:0:0:0:
196,142,68324,1,0,0:0:0:0:
211,114,68397,1,8,0:0:0:0:
198,111,68618,1,0,0:0:0:0:
199,121,68838,1,8,0:0:0:0:
200,125,69059,1,0,0:0:0:0:
200,125,69280,1,0,0:0:0:0:
200,125,69390,1,8,0:0:0:0:
201,125,69500,1,8,0:0:0:0:
200,138,69721,1,8,0:0:0:0:
198,143,69941,1,8,0:0:0:0:
192,147,70015,1,8,0:0:0:0:
191,147,70088,1,0,0:0:0:0:
197,145,70162,1,8,0:0:0:0:
197,145,70383,1,0,0:0:0:0:
196,146,70603,1,8,0:0:0:0:
173,215,70713,1,8,0:0:0:0:
266,149,70824,1,0,0:0:0:0:
254,160,71044,1,0,0:0:0:0:
255,163,71155,1,0,0:0:0:0:
252,164,71265,1,8,0:0:0:0:
259,173,71485,1,8,0:0:0:0:
253,173,71706,1,0,0:0:0:0:
216,163,71780,1,0,0:0:0:0:
211,163,71853,1,0,0:0:0:0:
250,173,71927,1,8,0:0:0:0:
250,173,72147,1,0,0:0:0:0:
246,173,72368,1,8,0:0:0:0:
246,171,72588,1,0,0:0:0:0:
250,173,72809,1,0,0:0:0:0:
250,173,72919,1,0,0:0:0:0:
246,173,73030,1,8,0:0:0:0:
246,176,73250,1,8,0:0:0:0:
201,92,73305,1,8,0:0:0:0:
201,92,73360,1,8,0:0:0:0:
201,92,73416,1,8,0:0:0:0:
242,183,73471,1,0,0:0:0:0:
410,96,73544,1,0,0:0:0:0:
178,24,73618,1,0,0:0:0:0:
245,178,73691,1,8,0:0:0:0:
243,178,73912,1,0,0:0:0:0:
242,183,74133,1,8,0:0:0:0:
202,72,74243,1,0,0:0:0:0:
238,180,74353,1,0,0:0:0:0:
237,183,74574,1,0,0:0:0:0:
237,183,74684,1,8,0:0:0:0:
237,183,74794,1,8,0:0:0:0:
166,173,75015,1,8,0:0:0:0:
168,122,75235,1,8,0:0:0:0:
164,122,75309,1,8,0:0:0:0:
160,113,75383,1,8,0:0:0:0:
161,117,75456,1,0,0:0:0:0:
167,185,75677,1,0,0:0:0:0:
167,190,75897,1,8,0:0:0:0:
191,92,76118,1,0,0:0:0:0:
191,99,76338,1,0,0:0:0:0:
190,102,76449,1,8,0:0:0:0:
190,103,76559,1,8,0:0:0:0:
191,115,76780,1,8,0:0:0:0:
175,118,77000,1,8,0:0:0:0:
175,118,77074,1,8,0:0:0:0:
181,143,77147,1,8,0:0:0:0:
175,118,77221,1,0,0:0:0:0:
163,132,77441,1,0,0:0:0:0:
166,142,77662,1,8,0:0:0:0:
171,131,77883,1,8,0:0:0:0:
169,134,78103,1,0,0:0:0:0:
169,136,78324,1,8,0:0:0:0:
234,148,78471,1,0,0:0:0:0:
234,148,78544,1,8,0:0:0:0:
232,144,78618,1,8,0:0:0:0:
221,146,78691,1,0,0:0:0:0:
234,148,78765,1,8,0:0:0:0:
228,94,78838,1,8,0:0:0:0:
216,102,78912,1,0,0:0:0:0:
216,98,78985,1,8,0:0:0:0:
210,101,79059,1,0,0:0:0:0:
209,101,79206,1,8,0:0:0:0:
227,77,79427,1,8,0:0:0:0:
191,70,79647,1,0,0:0:0:0:
199,204,81412,1,0,0:0:0:0:
166,193,81633,1,0,0:0:0:0:
166,193,81743,1,0,0:0:0:0:
166,193,81853,1,8,0:0:0:0:
158,111,82074,1,8,0:0:0:0:
158,111,82294,1,8,0:0:0:0:
158,111,82515,1,0,0:0:0:0:
158,111,82735,1,0,0:0:0:0:
158,111,82956,1,8,0:0:0:0:
153,122,83177,1,0,0:0:0:0:
151,126,83397,1,0,0:0:0:0:
148,127,83508,1,0,0:0:0:0:
196,86,83618,1,8,0:0:0:0:
186,111,83838,1,8,0:0:0:0:
186,116,84059,1,8,0:0:0:0:
185,116,84280,1,0,0:0:0:0:
185,116,84500,1,0,0:0:0:0:
186,116,84721,1,8,0:0:0:0:
185,116,84941,1,0,0:0:0:0:
185,116,85162,1,8,0:0:0:0:
185,116,85272,1,0,0:0:0:0:
179,113,85383,1,8,0:0:0:0:
162,115,85603,1,8,0:0:0:0:
162,115,85824,1,8,0:0:0:0:
162,115,86044,1,0,0:0:0:0:
162,115,86265,1,0,0:0:0:0:
162,115,86485,1,8,0:0:0:0:
162,115,86706,1,0,0:0:0:0:
162,115,86927,1,8,0:0:0:0:
157,117,87037,1,0,0:0:0:0:
151,117,87147,1,8,0:0:0:0:
186,102,87588,1,8,0:0:0:0:
186,107,87809,1,0,0:0:0:0:
186,108,88030,1,0,0:0:0:0:
186,108,88250,1,8,0:0:0:0:
186,107,88471,1,0,0:0:0:0:
185,114,88691,1,0,0:0:0:0:
182,114,88802,1,0,0:0:0:0:
181,113,88912,1,8,0:0:0:0:
178,113,89133,1,8,0:0:0:0:
184,121,89353,1,8,0:0:0:0:
180,120,89574,1,0,0:0:0:0:
179,119,89794,1,0,0:0:0:0:
176,119,90015,1,8,0:0:0:0:
180,120,90235,1,0,0:0:0:0:
179,119,90456,1,0,0:0:0:0:
179,119,90566,1,0,0:0:0:0:
175,115,90677,1,8,0:0:0:0:
172,116,90897,1,8,0:0:0:0:
171,117,91118,1,8,0:0:0:0:
171,118,91338,1,0,0:0:0:0:
169,118,91559,1,0,0:0:0:0:
171,117,91780,1,8,0:0:0:0:
171,118,92000,1,0,0:0:0:0:
169,118,92221,1,8,0:0:0:0:
169,118,92331,1,0,0:0:0:0:
171,117,92441,1,8,0:0:0:0:
167,122,92662,1,8,0:0:0:0:
166,123,92883,1,8,0:0:0:0:
168,122,93103,1,0,0:0:0:0:
167,122,93324,1,0,0:0:0:0:
166,123,93544,1,8,0:0:0:0:
163,125,93765,1,0,0:0:0:0:
162,127,93985,1,8,0:0:0:0:
161,125,94096,1,0,0:0:0:0:
160,124,94206,1,8,0:0:0:0:
178,118,94427,1,8,0:0:0:0:
173,127,94647,1,8,0:0:0:0:
171,129,94868,1,0,0:0:0:0:
171,129,95088,1,8,0:0:0:0:
239,143,95162,1,8,0:0:0:0:
239,143,95235,1,0,0:0:0:0:
239,143,95309,1,8,0:0:0:0:
239,143,95383,1,8,0:0:0:0:
235,142,95456,1,8,0:0:0:0:
234,139,95530,1,0,0:0:0:0:
271,163,95750,1,0,0:0:0:0:
266,167,95971,1,8,0:0:0:0:
265,167,96191,1,8,0:0:0:0:
266,167,96412,1,8,0:0:0:0:
194,211,96633,1,0,0:0:0:0:
193,214,96853,1,8,0:0:0:0:
191,215,97074,1,8,0:0:0:0:
191,215,97294,1,0,0:0:0:0:
191,223,97515,1,8,0:0:0:0:
191,225,97735,1,8,0:0:0:0:
191,225,97956,1,0,0:0:0:0:
191,223,98177,1,8,0:0:0:0:
191,225,98397,1,0,0:0:0:0:
191,225,98618,1,8,0:0:0:0:
182,229,98838,1,8,0:0:0:0:
182,229,99059,1,8,0:0:0:0:
151,171,99280,1,0,0:0:0:0:
150,174,99500,1,8,0:0:0:0:
149,174,99721,1,8,0:0:0:0:
147,175,99941,1,8,0:0:0:0:
147,179,100162,1,0,0:0:0:0:
138,107,100383,1,8,0:0:0:0:
136,123,100603,1,8,0:0:0:0:
137,124,100824,1,0,0:0:0:0:
137,124,101044,1,8,0:0:0:0:
136,123,101265,1,8,0:0:0:0:
166,165,101375,1,0,0:0:0:0:
166,165,101430,1,8,0:0:0:0:
199,102,101485,1,0,0:0:0:0:
162,140,101541,1,8,0:0:0:0:
162,140,101596,1,0,0:0:0:0:
200,111,101706,1,8,0:0:0:0:
222,95,101927,1,8,0:0:0:0:
219,101,102368,1,8,0:0:0:0:
195,209,103912,1,8,0:0:0:0:
195,209,104133,1,0,0:0:0:0:
353,161,104206,1,0,0:0:0:0:
348,163,104280,1,0,0:0:0:0:
195,209,104353,1,8,0:0:0:0:
127,161,104574,1,0,0:0:0:0:
127,161,104684,1,8,0:0:0:0:
127,161,104794,1,8,0:0:0:0:
175,107,105015,1,8,0:0:0:0:
175,107,105235,1,8,0:0:0:0:
228,96,105309,1,0,0:0:0:0:
225,97,105383,1,0,0:0:0:0:
175,107,105456,1,8,0:0:0:0:
175,107,105677,1,0,0:0:0:0:
175,107,105897,1,8,0:0:0:0:
120,165,106118,1,8,0:0:0:0:
199,83,106338,1,0,0:0:0:0:
108,82,106449,1,8,0:0:0:0:
110,76,106504,1,8,0:0:0:0:
170,120,106559,1,8,0:0:0:0:
178,127,106780,1,8,0:0:0:0:
178,127,107000,1,8,0:0:0:0:
195,168,107074,1,0,0:0:0:0:
195,168,107147,1,0,0:0:0:0:
176,148,107221,1,8,0:0:0:0:
175,158,107441,1,0,0:0:0:0:
173,158,107662,1,8,0:0:0:0:
152,146,107772,1,8,0:0:0:0:
152,146,107883,1,0,0:0:0:0:
152,146,108103,1,0,0:0:0:0:
152,146,108213,1,0,0:0:0:0:
180,123,108324,1,8,0:0:0:0:
202,215,108544,1,8,0:0:0:0:
181,249,108655,1,0,0:0:0:0:
202,221,108765,1,8,0:0:0:0:
274,147,108838,1,8,0:0:0:0:
259,158,108912,1,8,0:0:0:0:
259,158,108985,1,0,0:0:0:0:
175,64,109206,1,0,0:0:0:0:
182,116,109427,1,8,0:0:0:0:
182,116,109647,1,0,0:0:0:0:
200,163,109868,1,8,0:0:0:0:
200,163,109978,1,0,0:0:0:0:
168,135,110033,1,0,0:0:0:0:
200,163,110088,1,0,0:0:0:0:
151,158,110309,1,8,0:0:0:0:
151,158,110530,1,8,0:0:0:0:
191,148,110603,1,8,0:0:0:0:
193,148,110677,1,8,0:0:0:0:
151,158,110750,1,0,0:0:0:0:
195,162,110824,1,0,0:0:0:0:
195,162,110897,1,0,0:0:0:0:
151,158,110971,1,8,0:0:0:0:
150,162,111191,1,8,0:0:0:0:
191,148,111302,1,0,0:0:0:0:
129,133,111412,1,0,0:0:0:0:
137,138,111633,1,0,0:0:0:0:
138,137,111743,1,8,0:0:0:0:
139,138,111853,1,8,0:0:0:0:
190,138,112074,1,8,0:0:0:0:
190,138,112294,1,8,0:0:0:0:
169,87,112368,1,0,0:0:0:0:
169,87,112441,1,0,0:0:0:0:
154,142,112515,1,8,0:0:0:0:
156,148,112735,1,0,0:0:0:0:
155,154,112956,1,8,0:0:0:0:
154,158,113177,1,8,0:0:0:0:
156,161,113397,1,0,0:0:0:0:
150,162,113508,1,8,0:0:0:0:
191,74,113563,1,8,0:0:0:0:
149,163,113618,1,8,0:0:0:0:
153,76,113838,1,8,0:0:0:0:
155,78,114059,1,8,0:0:0:0:
181,55,114133,1,0,0:0:0:0:
179,58,114206,1,0,0:0:0:0:
166,98,114280,1,8,0:0:0:0:
166,98,114500,1,0,0:0:0:0:
166,98,114721,1,8,0:0:0:0:
194,150,114831,1,8,0:0:0:0:
190,227,114941,1,0,0:0:0:0:
190,227,115162,1,0,0:0:0:0:
190,227,115272,1,8,0:0:0:0:
190,227,115383,1,0,0:0:0:0:
203,168,115603,1,8,0:0:0:0:
276,108,115713,1,0,0:0:0:0:
276,108,115824,1,8,0:0:0:0:
219,67,115897,1,8,0:0:0:0:
211,71,115971,1,8,0:0:0:0:
195,61,116044,1,0,0:0:0:0:
179,163,116265,1,0,0:0:0:0:
170,168,116485,1,8,0:0:0:0:
175,136,116706,1,0,0:0:0:0:
186,143,116927,1,8,0:0:0:0:
186,143,117037,1,0,0:0:0:0:
198,105,117092,1,0,0:0:0:0:
187,144,117147,1,0,0:0:0:0:
187,149,117368,1,8,0:0:0:0:
186,153,117588,1,8,0:0:0:0:
161,134,117662,1,8,0:0:0:0:
161,134,117735,1,8,0:0:0:0:
206,170,117809,1,0,0:0:0:0:
203,176,118030,1,0,0:0:0:0:
201,178,118250,1,8,0:0:0:0:
215,130,118360,1,0,0:0:0:0:
199,180,118471,1,0,0:0:0:0:
199,183,118691,1,0,0:0:0:0:
193,183,118802,1,8,0:0:0:0:
183,184,118912,1,8,0:0:0:0:
192,155,119133,1,8,0:0:0:0:
192,155,119353,1,8,0:0:0:0:
207,125,119427,1,0,0:0:0:0:
215,97,119500,1,0,0:0:0:0:
190,158,119574,1,8,0:0:0:0:
188,161,119794,1,0,0:0:0:0:
187,162,120015,1,8,0:0:0:0:
202,177,120235,1,8,0:0:0:0:
201,183,120456,1,0,0:0:0:0:
205,154,120566,1,8,0:0:0:0:
209,113,120622,1,8,0:0:0:0:
201,183,120677,1,8,0:0:0:0:
202,177,120897,1,8,0:0:0:0:
201,183,121118,1,8,0:0:0:0:
181,95,121191,1,0,0:0:0:0:
181,95,121265,1,0,0:0:0:0:
197,181,121338,1,8,0:0:0:0:
196,183,121559,1,0,0:0:0:0:
196,182,121780,1,8,0:0:0:0:
204,94,121890,1,0,0:0:0:0:
266,139,122000,1,8,0:0:0:0:
267,132,122074,1,8,0:0:0:0:
266,139,122147,1,8,0:0:0:0:
267,132,122221,1,0,0:0:0:0:
258,134,122331,1,0,0:0:0:0:
253,137,122441,1,8,0:0:0:0:
171,116,122662,1,8,0:0:0:0:
166,121,122883,1,8,0:0:0:0:
220,177,122956,1,8,0:0:0:0:
213,159,123030,1,8,0:0:0:0:
156,125,123103,1,0,0:0:0:0:
179,120,123324,1,0,0:0:0:0:
176,125,123544,1,8,0:0:0:0:
181,139,123765,1,0,0:0:0:0:
184,143,123985,1,8,0:0:0:0:
181,146,124096,1,0,0:0:0:0:
187,69,124151,1,0,0:0:0:0:
182,153,124206,1,0,0:0:0:0:
185,158,124427,1,8,0:0:0:0:
185,158,124647,1,8,0:0:0:0:
183,84,124721,1,8,0:0:0:0:
178,87,124794,1,8,0:0:0:0:
183,157,124868,1,0,0:0:0:0:
185,158,125088,1,0,0:0:0:0:
181,161,125309,1,8,0:0:0:0:
198,107,125419,1,0,0:0:0:0:
198,110,125530,1,0,0:0:0:0:
198,117,125750,1,0,0:0:0:0:
197,122,125860,1,8,0:0:0:0:
194,127,125971,1,8,0:0:0:0:
193,136,126191,1,8,0:0:0:0:
194,136,126412,1,8,0:0:0:0:
219,112,126485,1,0,0:0:0:0:
215,115,126559,1,0,0:0:0:0:
192,135,126633,1,8,0:0:0:0:
190,131,126853,1,0,0:0:0:0:
194,136,127074,1,8,0:0:0:0:
224,145,127294,1,8,0:0:0:0:
172,121,127515,1,0,0:0:0:0:
167,127,127625,1,8,0:0:0:0:
180,64,127680,1,8,0:0:0:0:
169,139,127735,1,8,0:0:0:0:
179,168,127956,1,8,0:0:0:0:
176,172,128177,1,8,0:0:0:0:
161,88,128250,1,0,0:0:0:0:
161,88,128324,1,0,0:0:0:0:
176,173,128397,1,8,0:0:0:0:
204,137,128618,1,0,0:0:0:0:
204,153,128838,1,8,0:0:0:0:
246,60,143397,5,0,0:0:0:0:
243,63,143508,1,0,0:0:0:0:
231,82,143618,1,8,0:0:0:0:
190,92,143838,1,8,0:0:0:0:
202,116,144059,1,8,0:0:0:0:
187,169,144169,1,0,0:0:0:0:
202,116,144280,1,0,0:0:0:0:
202,116,144500,1,0,0:0:0:0:
202,116,144721,1,8,0:0:0:0:
187,163,145162,1,0,0:0:0:0:
187,163,145272,1,0,0:0:0:0:
181,169,145383,1,8,0:0:0:0:
179,177,145603,1,8,0:0:0:0:
178,176,145824,1,8,0:0:0:0:
181,120,145934,1,0,0:0:0:0:
178,175,146044,1,0,0:0:0:0:
174,178,146265,1,0,0:0:0:0:
174,177,146485,1,8,0:0:0:0:
174,178,146927,1,0,0:0:0:0:
174,178,147037,1,8,0:0:0:0:
174,177,147147,1,8,0:0:0:0:
168,180,147368,1,8,0:0:0:0:
169,179,147588,1,8,0:0:0:0:
192,139,147699,1,8,0:0:0:0:
169,179,147809,1,0,0:0:0:0:
168,180,148030,1,0,0:0:0:0:
169,179,148250,1,8,0:0:0:0:
168,180,148691,1,0,0:0:0:0:
168,180,148802,1,8,0:0:0:0:
169,179,148912,1,8,0:0:0:0:
168,180,149133,1,8,0:0:0:0:
168,180,149353,1,8,0:0:0:0:
194,137,149463,1,8,0:0:0:0:
165,182,149574,1,0,0:0:0:0:
165,182,149794,1,0,0:0:0:0:
168,180,150015,1,8,0:0:0:0:
165,182,150456,1,0,0:0:0:0:
163,178,150566,1,0,0:0:0:0:
163,178,150677,1,8,0:0:0:0:
163,178,150897,1,8,0:0:0:0:
165,182,151118,1,8,0:0:0:0:
195,164,151228,1,0,0:0:0:0:
163,178,151338,1,0,0:0:0:0:
163,178,151559,1,0,0:0:0:0:
165,182,151780,1,8,0:0:0:0:
163,178,152221,1,0,0:0:0:0:
163,178,152331,1,0,0:0:0:0:
161,180,152441,1,8,0:0:0:0:
161,181,152662,1,8,0:0:0:0:
163,178,152883,1,8,0:0:0:0:
200,137,152993,1,0,0:0:0:0:
163,178,153103,1,0,0:0:0:0:
165,180,153324,1,0,0:0:0:0:
163,178,153544,1,8,0:0:0:0:
165,180,153985,1,0,0:0:0:0:
165,180,154096,1,8,0:0:0:0:
163,178,154206,1,8,0:0:0:0:
165,180,154427,1,8,0:0:0:0:
165,180,154647,1,8,0:0:0:0:
198,152,154758,1,8,0:0:0:0:
165,180,154868,1,0,0:0:0:0:
165,180,155088,1,0,0:0:0:0:
165,180,155309,1,8,0:0:0:0:
250,143,156853,1,8,0:0:0:0:
250,143,156927,1,8,0:0:0:0:
255,143,157000,1,8,0:0:0:0:
250,143,157074,1,0,0:0:0:0:
244,142,157147,1,8,0:0:0:0:
245,141,157221,1,8,0:0:0:0:
243,142,157294,1,8,0:0:0:0:
288,157,157515,1,0,0:0:0:0:
281,162,157625,1,0,0:0:0:0:
267,171,157735,1,8,0:0:0:0:
148,230,157956,1,8,0:0:0:0:
198,178,158177,1,8,0:0:0:0:
194,178,158250,1,0,0:0:0:0:
221,107,158324,1,8,0:0:0:0:
191,177,158397,1,8,0:0:0:0:
148,230,158618,1,0,0:0:0:0:
148,230,158838,1,8,0:0:0:0:
148,230,159059,1,0,0:0:0:0:
238,176,159280,1,0,0:0:0:0:
231,176,159390,1,0,0:0:0:0:
229,177,159500,1,8,0:0:0:0:
148,230,159721,1,8,0:0:0:0:
160,107,159941,1,8,0:0:0:0:
182,75,160015,1,0,0:0:0:0:
160,107,160088,1,8,0:0:0:0:
155,107,160162,1,8,0:0:0:0:
148,230,160383,1,0,0:0:0:0:
231,173,160603,1,8,0:0:0:0:
221,173,160713,1,0,0:0:0:0:
228,129,160769,1,8,0:0:0:0:
211,179,160824,1,0,0:0:0:0:
218,178,161044,1,0,0:0:0:0:
206,180,161155,1,8,0:0:0:0:
204,181,161265,1,8,0:0:0:0:
146,230,161485,1,8,0:0:0:0:
161,107,161706,1,8,0:0:0:0:
149,112,161780,1,8,0:0:0:0:
137,117,161853,1,0,0:0:0:0:
139,116,161927,1,8,0:0:0:0:
146,230,162147,1,0,0:0:0:0:
146,230,162368,1,8,0:0:0:0:
146,230,162588,1,12,0:0:0:0:
232,169,162809,1,0,0:0:0:0:
207,82,162919,1,8,0:0:0:0:
232,169,162974,1,0,0:0:0:0:
226,173,163030,1,8,0:0:0:0:
146,230,163250,1,8,0:0:0:0:
182,131,163471,1,8,0:0:0:0:
178,131,163544,1,8,0:0:0:0:
174,131,163618,1,0,0:0:0:0:
172,134,163691,1,8,0:0:0:0:
136,55,163912,1,0,0:0:0:0:
202,127,164133,1,8,0:0:0:0:
202,127,164243,1,8,0:0:0:0:
198,128,164353,1,0,0:0:0:0:
248,161,164574,1,0,0:0:0:0:
241,163,164684,1,0,0:0:0:0:
241,166,164794,1,8,0:0:0:0:
177,96,165015,1,8,0:0:0:0:
182,157,165235,1,8,0:0:0:0:
176,154,165309,1,0,0:0:0:0:
178,157,165383,1,8,0:0:0:0:
176,158,165456,1,8,0:0:0:0:
177,96,165677,1,0,0:0:0:0:
177,96,165897,1,8,0:0:0:0:
177,96,166118,1,0,0:0:0:0:
243,152,166338,1,0,0:0:0:0:
243,152,166449,1,0,0:0:0:0:
238,151,166559,1,8,0:0:0:0:
177,96,166780,1,8,0:0:0:0:
171,128,167000,1,8,0:0:0:0:
163,127,167074,1,0,0:0:0:0:
184,64,167147,1,8,0:0:0:0:
161,132,167221,1,8,0:0:0:0:
177,96,167441,1,0,0:0:0:0:
216,161,167662,1,8,0:0:0:0:
216,161,167772,1,0,0:0:0:0:
215,102,167827,1,8,0:0:0:0:
216,161,167883,1,0,0:0:0:0:
241,154,168103,1,0,0:0:0:0:
237,155,168213,1,8,0:0:0:0:
233,156,168324,1,8,0:0:0:0:
179,109,168544,1,8,0:0:0:0:
180,127,168765,1,8,0:0:0:0:
174,127,168838,1,8,0:0:0:0:
171,122,168912,1,0,0:0:0:0:
172,130,168985,1,8,0:0:0:0:
197,111,169206,1,0,0:0:0:0:
193,116,169427,1,8,0:0:0:0:
192,116,169647,1,12,0:0:0:0:
239,158,169868,1,0,0:0:0:0:
239,158,169978,1,8,0:0:0:0:
195,42,170033,1,0,0:0:0:0:
239,158,170088,1,8,0:0:0:0:
202,115,170309,1,8,0:0:0:0:
186,133,170530,1,8,0:0:0:0:
181,133,170603,1,8,0:0:0:0:
176,138,170677,1,0,0:0:0:0:
176,140,170750,1,8,0:0:0:0:
242,146,170971,1,8,0:0:0:0:
236,144,171081,1,8,0:0:0:0:
242,146,171191,1,8,0:0:0:0:
242,146,171302,1,8,0:0:0:0:
236,148,171412,1,0,0:0:0:0:
197,132,171633,1,0,0:0:0:0:
197,132,171743,1,0,0:0:0:0:
194,135,171853,1,8,0:0:0:0:
179,117,172074,1,8,0:0:0:0:
115,95,172184,1,0,0:0:0:0:
180,138,172294,1,8,0:0:0:0:
177,136,172368,1,0,0:0:0:0:
178,138,172441,1,8,0:0:0:0:
177,134,172515,1,8,0:0:0:0:
185,135,172735,1,0,0:0:0:0:
185,139,172956,1,8,0:0:0:0:
185,140,173177,1,0,0:0:0:0:
161,163,173397,1,0,0:0:0:0:
161,163,173508,1,0,0:0:0:0:
154,170,173618,1,8,0:0:0:0:
184,136,173838,1,8,0:0:0:0:
202,146,174059,1,8,0:0:0:0:
202,146,174133,1,0,0:0:0:0:
191,143,174206,1,8,0:0:0:0:
202,146,174280,1,8,0:0:0:0:
184,136,174500,1,0,0:0:0:0:
251,194,174721,1,8,0:0:0:0:
167,80,174831,1,0,0:0:0:0:
167,80,174886,1,8,0:0:0:0:
244,193,174941,1,0,0:0:0:0:
172,169,175162,1,0,0:0:0:0:
167,169,175272,1,8,0:0:0:0:
166,174,175383,1,8,0:0:0:0:
182,129,175603,1,8,0:0:0:0:
182,80,175824,1,8,0:0:0:0:
182,80,175897,1,8,0:0:0:0:
179,83,175971,1,0,0:0:0:0:
182,80,176044,1,8,0:0:0:0:
181,133,176265,1,0,0:0:0:0:
181,133,176485,1,8,0:0:0:0:
181,133,176706,1,12,0:0:0:0:
170,170,176927,1,0,0:0:0:0:
170,170,177037,1,8,0:0:0:0:
190,64,177092,1,0,0:0:0:0:
170,170,177147,1,8,0:0:0:0:
209,118,177368,1,8,0:0:0:0:
159,89,177588,1,8,0:0:0:0:
159,89,177662,1,8,0:0:0:0:
159,95,177735,1,0,0:0:0:0:
159,96,177809,1,8,0:0:0:0:
209,118,178030,1,0,0:0:0:0:
217,183,178250,1,8,0:0:0:0:
217,183,178360,1,8,0:0:0:0:
211,181,178471,1,8,0:0:0:0:
141,143,178691,1,0,0:0:0:0:
141,143,178802,1,0,0:0:0:0:
136,148,178912,1,8,0:0:0:0:
200,93,179133,1,8,0:0:0:0:
170,130,179353,1,8,0:0:0:0:
167,126,179427,1,0,0:0:0:0:
170,130,179500,1,8,0:0:0:0:
168,126,179574,1,8,0:0:0:0:
192,107,179794,1,0,0:0:0:0:
192,107,180015,1,8,0:0:0:0:
192,107,180235,1,0,0:0:0:0:
221,153,180456,1,0,0:0:0:0:
221,153,180566,1,0,0:0:0:0:
217,154,180677,1,8,0:0:0:0:
193,112,180897,1,8,0:0:0:0:
171,129,181118,1,8,0:0:0:0:
171,129,181191,1,0,0:0:0:0:
171,129,181265,1,8,0:0:0:0:
171,129,181338,1,8,0:0:0:0:
193,112,181559,1,0,0:0:0:0:
181,199,181780,1,8,0:0:0:0:
191,94,181890,1,0,0:0:0:0:
192,91,181945,1,8,0:0:0:0:
175,202,182000,1,0,0:0:0:0:
227,153,182221,1,0,0:0:0:0:
227,153,182331,1,8,0:0:0:0:
222,155,182441,1,8,0:0:0:0:
197,118,182662,1,8,0:0:0:0:
171,130,182883,1,8,0:0:0:0:
171,130,182956,1,8,0:0:0:0:
171,130,183030,1,0,0:0:0:0:
171,130,183103,1,8,0:0:0:0:
197,118,183324,1,0,0:0:0:0:
197,118,183544,1,8,0:0:0:0:
197,118,183765,1,12,0:0:0:0:
226,153,183985,1,8,0:0:0:0:
186,39,184041,1,0,0:0:0:0:
186,39,184096,1,8,0:0:0:0:
226,153,184151,1,0,0:0:0:0:
226,153,184206,1,8,0:0:0:0:
208,109,184427,1,0,0:0:0:0:
237,72,184537,1,0,0:0:0:0:
171,133,184647,1,8,0:0:0:0:
171,133,184721,1,8,0:0:0:0:
206,94,184794,1,0,0:0:0:0:
171,133,184868,1,8,0:0:0:0:
222,82,185088,1,0,0:0:0:0:
221,86,185309,1,8,0:0:0:0:
