osu file format v14

[General]
AudioFilename: audio.mp3
AudioLeadIn: 0
PreviewTime: 37204
Countdown: 0
SampleSet: Normal
StackLeniency: 0.7
Mode: 3
LetterboxInBreaks: 0
SpecialStyle: 0
WidescreenStoryboard: 1

[Editor]
Bookmarks: 29835,37639,53249,68859,84469,100078,115688,131298
DistanceSpacing: 0.8
BeatDivisor: 16
GridSize: 16
TimelineZoom: 2.4

[Metadata]
Title:A Pale
TitleUnicode:A Palé
Artist:ROSALIA
ArtistUnicode:ROSALÍA
Creator:Parachor
Version:Manufactured
Source:
Tags:avant hip hop experimental glitch flamenco el guincho frank dukes noah goldstein vila columbia sony spanish pop single españa spain reguetón reggaeton
BeatmapID:2234305
BeatmapSetID:1067184

[Difficulty]
HPDrainRate:8.8
CircleSize:4
OverallDifficulty:7.4
ApproachRate:5
SliderMultiplier:1.4
SliderTickRate:1

[Events]
//Background and Video events
0,0,"a-pale-rosalia.jpg",0,0
//Break Periods
//Storyboard Layer 0 (Background)
//Storyboard Layer 1 (Fail)
//Storyboard Layer 2 (Pass)
//Storyboard Layer 3 (Foreground)
//Storyboard Layer 4 (Overlay)
//Storyboard Sound Samples

[TimingPoints]
139,408.163265306122,3,1,1,15,1,0
139,-119.047619047619,3,1,1,15,0,0
29522,487.80487804878,4,1,1,30,1,0
29522,-100,4,1,1,30,0,0
76351,-100,4,1,1,30,0,1
84156,-100,4,1,1,30,0,0
123180,-100,4,1,1,30,0,1
130985,-100,4,1,1,30,0,0
133088,975.609756097561,4,1,1,30,1,0
133088,-62.5,4,1,1,30,0,0

[HitObjects]
64,192,164,5,0,0:0:0:0:
448,192,164,1,0,0:0:0:0:
192,192,623,1,0,0:0:0:0:
320,192,980,1,0,0:0:0:0:
192,192,1184,128,0,1542:0:0:0:0:
320,192,1388,1,0,0:0:0:0:
192,192,1618,128,0,1950:0:0:0:0:
448,192,1822,1,0,0:0:0:0:
320,192,1950,128,0,2052:0:0:0:0:
320,192,2128,128,0,2383:0:0:0:0:
64,192,2230,1,0,0:0:0:0:
448,192,2587,128,0,2817:0:0:0:0:
64,192,2638,1,0,0:0:0:0:
320,192,2817,128,0,3123:0:0:0:0:
192,192,3123,128,0,3251:0:0:0:0:
320,192,3251,128,0,3353:0:0:0:0:
192,192,3353,128,0,4424:0:0:0:0:
448,192,3429,1,0,0:0:0:0:
448,192,3837,1,0,0:0:0:0:
64,192,4271,1,0,0:0:0:0:
448,192,4679,1,0,0:0:0:0:
448,192,5062,1,0,0:0:0:0:
64,192,5138,1,0,0:0:0:0:
192,192,5164,1,0,0:0:0:0:
320,192,5190,128,0,6082:0:0:0:0:
192,192,5878,1,0,0:0:0:0:
448,192,6082,128,0,6286:0:0:0:0:
192,192,6261,1,0,0:0:0:0:
320,192,6286,128,0,6542:0:0:0:0:
64,192,6542,1,0,0:0:0:0:
192,192,6567,128,0,7256:0:0:0:0:
448,192,6695,1,0,0:0:0:0:
64,192,7103,1,0,0:0:0:0:
320,192,7256,128,0,7485:0:0:0:0:
192,192,7485,128,0,7741:0:0:0:0:
448,192,7536,1,0,0:0:0:0:
64,192,7741,128,0,8327:0:0:0:0:
320,192,8327,1,0,0:0:0:0:
64,192,8404,128,0,9552:0:0:0:0:
320,192,8735,1,0,0:0:0:0:
448,192,9144,1,0,0:0:0:0:
192,192,9552,1,0,0:0:0:0:
192,192,9960,1,0,0:0:0:0:
64,192,10725,1,0,0:0:0:0:
320,192,10776,128,0,11210:0:0:0:0:
64,192,11108,1,0,0:0:0:0:
448,192,11210,128,0,11363:0:0:0:0:
320,192,11491,128,0,11950:0:0:0:0:
192,192,11516,1,0,0:0:0:0:
448,192,11899,1,0,0:0:0:0:
192,192,11950,128,0,12281:0:0:0:0:
64,192,12281,128,0,12485:0:0:0:0:
448,192,12332,1,0,0:0:0:0:
192,192,12485,128,0,12715:0:0:0:0:
64,192,12715,128,0,12843:0:0:0:0:
448,192,12843,128,0,12919:0:0:0:0:
320,192,12919,128,0,13021:0:0:0:0:
192,192,13021,128,0,13123:0:0:0:0:
64,192,13123,128,0,14756:0:0:0:0:
320,192,13200,1,0,0:0:0:0:
320,192,13608,1,0,0:0:0:0:
192,192,14067,1,0,0:0:0:0:
448,192,14450,1,0,0:0:0:0:
64,192,14832,128,0,15674:0:0:0:0:
448,192,14858,1,0,0:0:0:0:
320,192,15674,1,0,0:0:0:0:
64,192,15751,128,0,16031:0:0:0:0:
448,192,16031,128,0,16261:0:0:0:0:
320,192,16082,1,0,0:0:0:0:
192,192,16261,1,0,0:0:0:0:
320,192,16286,128,0,16618:0:0:0:0:
64,192,16516,1,0,0:0:0:0:
192,192,16618,128,0,17103:0:0:0:0:
448,192,16899,1,0,0:0:0:0:
320,192,17103,128,0,17230:0:0:0:0:
192,192,17230,128,0,17562:0:0:0:0:
448,192,17307,1,0,0:0:0:0:
64,192,17562,128,0,19348:0:0:0:0:
320,192,18149,1,0,0:0:0:0:
320,192,18557,1,0,0:0:0:0:
192,192,18965,1,0,0:0:0:0:
448,192,19348,1,0,0:0:0:0:
192,192,19756,1,0,0:0:0:0:
320,192,19781,128,0,20470:0:0:0:0:
320,192,20547,128,0,20751:0:0:0:0:
64,192,20572,1,0,0:0:0:0:
448,192,20751,128,0,20980:0:0:0:0:
64,192,20980,1,0,0:0:0:0:
192,192,21006,1,0,0:0:0:0:
320,192,21031,128,0,21337:0:0:0:0:
192,192,21337,128,0,21848:0:0:0:0:
448,192,21414,1,0,0:0:0:0:
448,192,21797,1,0,0:0:0:0:
64,192,21848,128,0,21924:0:0:0:0:
192,192,21924,128,0,22001:0:0:0:0:
320,192,22001,128,0,22128:0:0:0:0:
448,192,22128,128,0,22307:0:0:0:0:
64,192,22179,1,0,0:0:0:0:
320,192,22307,128,0,22562:0:0:0:0:
192,192,22562,128,0,22690:0:0:0:0:
320,192,22690,128,0,22766:0:0:0:0:
192,192,22766,128,0,22894:0:0:0:0:
64,192,22894,128,0,24424:0:0:0:0:
448,192,23021,1,0,0:0:0:0:
448,192,23429,1,0,0:0:0:0:
320,192,23863,1,0,0:0:0:0:
192,192,24246,1,0,0:0:0:0:
320,192,24424,128,0,24679:0:0:0:0:
192,192,24628,1,0,0:0:0:0:
320,192,24756,128,0,25470:0:0:0:0:
320,192,25547,128,0,25904:0:0:0:0:
64,192,25853,1,0,0:0:0:0:
448,192,25904,128,0,26133:0:0:0:0:
192,192,26133,1,0,0:0:0:0:
320,192,26159,128,0,26465:0:0:0:0:
64,192,26261,1,0,0:0:0:0:
192,192,26465,128,0,26975:0:0:0:0:
64,192,26669,1,0,0:0:0:0:
320,192,26975,128,0,27128:0:0:0:0:
448,192,27103,1,0,0:0:0:0:
192,192,27128,128,0,27460:0:0:0:0:
64,192,27460,128,0,29475:0:0:0:0:
320,192,27919,1,0,0:0:0:0:
448,192,28302,128,0,29475:0:0:0:0:
320,192,28302,1,0,0:0:0:0:
192,192,29522,5,0,0:0:0:0:
448,192,29522,1,0,0:0:0:0:
64,192,29522,128,0,29582:0:0:0:0:
64,192,29765,128,0,29826:0:0:0:0:
320,192,29765,1,0,0:0:0:0:
192,192,29887,1,0,0:0:0:0:
448,192,30009,1,0,0:0:0:0:
64,192,30131,128,0,30192:0:0:0:0:
320,192,30131,1,0,0:0:0:0:
448,192,30253,1,0,0:0:0:0:
64,192,30375,128,0,30436:0:0:0:0:
192,192,30375,1,0,0:0:0:0:
448,192,30497,1,0,0:0:0:0:
64,192,30619,128,0,30680:0:0:0:0:
320,192,30619,1,0,0:0:0:0:
320,192,30863,1,0,0:0:0:0:
448,192,30985,128,0,31229:0:0:0:0:
64,192,30985,1,0,0:0:0:0:
192,192,30985,1,0,0:0:0:0:
320,192,31107,1,0,0:0:0:0:
192,192,31229,1,0,0:0:0:0:
320,192,31351,1,0,0:0:0:0:
64,192,31473,128,0,31534:0:0:0:0:
192,192,31473,1,0,0:0:0:0:
64,192,31717,128,0,31778:0:0:0:0:
320,192,31717,1,0,0:0:0:0:
448,192,31839,1,0,0:0:0:0:
192,192,31961,1,0,0:0:0:0:
64,192,32082,128,0,32143:0:0:0:0:
320,192,32082,1,0,0:0:0:0:
448,192,32204,1,0,0:0:0:0:
64,192,32326,128,0,32387:0:0:0:0:
192,192,32326,1,0,0:0:0:0:
448,192,32448,1,0,0:0:0:0:
64,192,32570,128,0,32631:0:0:0:0:
320,192,32570,1,0,0:0:0:0:
192,192,32814,1,0,0:0:0:0:
448,192,32936,128,0,32997:0:0:0:0:
64,192,32936,1,0,0:0:0:0:
320,192,33058,1,0,0:0:0:0:
192,192,33180,1,0,0:0:0:0:
320,192,33302,1,0,0:0:0:0:
64,192,33424,128,0,33485:0:0:0:0:
192,192,33424,1,0,0:0:0:0:
448,192,33424,1,0,0:0:0:0:
64,192,33668,128,0,33729:0:0:0:0:
320,192,33668,1,0,0:0:0:0:
192,192,33790,1,0,0:0:0:0:
448,192,33912,1,0,0:0:0:0:
64,192,34034,128,0,34095:0:0:0:0:
320,192,34034,1,0,0:0:0:0:
448,192,34156,1,0,0:0:0:0:
64,192,34278,128,0,34339:0:0:0:0:
192,192,34278,1,0,0:0:0:0:
448,192,34400,1,0,0:0:0:0:
64,192,34521,128,0,34582:0:0:0:0:
320,192,34521,1,0,0:0:0:0:
320,192,34765,1,0,0:0:0:0:
448,192,34887,128,0,34948:0:0:0:0:
64,192,34887,1,0,0:0:0:0:
192,192,34887,1,0,0:0:0:0:
320,192,35009,128,0,35131:0:0:0:0:
192,192,35131,128,0,35375:0:0:0:0:
448,192,35131,1,0,0:0:0:0:
64,192,35375,128,0,35436:0:0:0:0:
320,192,35375,1,0,0:0:0:0:
64,192,35619,128,0,35680:0:0:0:0:
320,192,35619,1,0,0:0:0:0:
192,192,35741,1,0,0:0:0:0:
448,192,35863,1,0,0:0:0:0:
64,192,35985,128,0,36046:0:0:0:0:
320,192,35985,1,0,0:0:0:0:
448,192,36107,1,0,0:0:0:0:
64,192,36229,128,0,36290:0:0:0:0:
192,192,36229,1,0,0:0:0:0:
448,192,36351,1,0,0:0:0:0:
64,192,36473,128,0,36534:0:0:0:0:
320,192,36473,1,0,0:0:0:0:
192,192,36717,1,0,0:0:0:0:
448,192,36839,128,0,36961:0:0:0:0:
320,192,37326,128,0,37570:0:0:0:0:
64,192,37326,128,0,37387:0:0:0:0:
448,192,37326,1,0,0:0:0:0:
192,192,37570,128,0,37814:0:0:0:0:
64,192,37570,128,0,37631:0:0:0:0:
448,192,37692,1,0,0:0:0:0:
320,192,37814,128,0,38058:0:0:0:0:
64,192,37936,128,0,37997:0:0:0:0:
192,192,38058,128,0,38302:0:0:0:0:
448,192,38058,1,0,0:0:0:0:
64,192,38180,128,0,38241:0:0:0:0:
320,192,38302,128,0,38546:0:0:0:0:
448,192,38302,1,0,0:0:0:0:
64,192,38424,128,0,38485:0:0:0:0:
192,192,38546,128,0,38668:0:0:0:0:
64,192,38668,1,0,0:0:0:0:
320,192,38790,128,0,39034:0:0:0:0:
448,192,38790,128,0,38851:0:0:0:0:
192,192,38790,1,0,0:0:0:0:
64,192,38912,1,0,0:0:0:0:
192,192,39034,128,0,39278:0:0:0:0:
448,192,39156,1,0,0:0:0:0:
320,192,39278,128,0,39765:0:0:0:0:
64,192,39278,128,0,39339:0:0:0:0:
64,192,39521,128,0,39582:0:0:0:0:
192,192,39521,1,0,0:0:0:0:
448,192,39643,1,0,0:0:0:0:
192,192,39765,128,0,40009:0:0:0:0:
64,192,39887,128,0,39948:0:0:0:0:
320,192,39887,1,0,0:0:0:0:
448,192,40009,1,0,0:0:0:0:
64,192,40131,128,0,40192:0:0:0:0:
192,192,40131,1,0,0:0:0:0:
448,192,40253,1,0,0:0:0:0:
64,192,40375,128,0,40436:0:0:0:0:
320,192,40375,1,0,0:0:0:0:
64,192,40619,1,0,0:0:0:0:
448,192,40741,128,0,40802:0:0:0:0:
320,192,40741,1,0,0:0:0:0:
192,192,40863,1,0,0:0:0:0:
320,192,40985,1,0,0:0:0:0:
192,192,41107,1,0,0:0:0:0:
320,192,41229,128,0,41473:0:0:0:0:
64,192,41229,128,0,41290:0:0:0:0:
448,192,41229,1,0,0:0:0:0:
192,192,41473,128,0,41717:0:0:0:0:
64,192,41473,128,0,41534:0:0:0:0:
448,192,41595,1,0,0:0:0:0:
320,192,41717,128,0,41961:0:0:0:0:
64,192,41839,128,0,41900:0:0:0:0:
192,192,41961,128,0,42204:0:0:0:0:
448,192,41961,1,0,0:0:0:0:
64,192,42082,128,0,42143:0:0:0:0:
320,192,42204,128,0,42448:0:0:0:0:
448,192,42204,1,0,0:0:0:0:
64,192,42326,128,0,42387:0:0:0:0:
192,192,42448,128,0,42570:0:0:0:0:
64,192,42570,1,0,0:0:0:0:
320,192,42692,128,0,42936:0:0:0:0:
448,192,42692,128,0,42753:0:0:0:0:
192,192,42692,1,0,0:0:0:0:
64,192,42814,1,0,0:0:0:0:
192,192,42936,128,0,43180:0:0:0:0:
448,192,43058,1,0,0:0:0:0:
320,192,43180,128,0,43668:0:0:0:0:
64,192,43180,128,0,43241:0:0:0:0:
64,192,43424,128,0,43485:0:0:0:0:
448,192,43546,1,0,0:0:0:0:
192,192,43668,128,0,43912:0:0:0:0:
64,192,43790,128,0,43851:0:0:0:0:
320,192,43790,1,0,0:0:0:0:
448,192,43912,1,0,0:0:0:0:
64,192,44034,128,0,44095:0:0:0:0:
448,192,44156,1,0,0:0:0:0:
192,192,44156,1,0,0:0:0:0:
320,192,44156,1,0,0:0:0:0:
64,192,44278,128,0,44339:0:0:0:0:
192,192,44521,1,0,0:0:0:0:
448,192,44643,128,0,44704:0:0:0:0:
64,192,44643,1,0,0:0:0:0:
320,192,44765,1,0,0:0:0:0:
192,192,44887,128,0,45131:0:0:0:0:
448,192,44887,1,0,0:0:0:0:
320,192,45131,128,0,45375:0:0:0:0:
64,192,45131,128,0,45192:0:0:0:0:
448,192,45131,1,0,0:0:0:0:
192,192,45375,128,0,45619:0:0:0:0:
64,192,45375,128,0,45436:0:0:0:0:
448,192,45497,1,0,0:0:0:0:
320,192,45619,128,0,45863:0:0:0:0:
64,192,45741,128,0,45802:0:0:0:0:
192,192,45863,128,0,46107:0:0:0:0:
448,192,45863,1,0,0:0:0:0:
64,192,45985,128,0,46046:0:0:0:0:
320,192,46107,128,0,46351:0:0:0:0:
448,192,46107,1,0,0:0:0:0:
64,192,46229,128,0,46290:0:0:0:0:
192,192,46351,128,0,46473:0:0:0:0:
64,192,46473,1,0,0:0:0:0:
320,192,46595,128,0,46839:0:0:0:0:
448,192,46595,128,0,46656:0:0:0:0:
192,192,46595,1,0,0:0:0:0:
64,192,46717,1,0,0:0:0:0:
192,192,46839,128,0,47082:0:0:0:0:
448,192,46961,1,0,0:0:0:0:
320,192,47082,128,0,47570:0:0:0:0:
64,192,47082,128,0,47143:0:0:0:0:
64,192,47326,128,0,47387:0:0:0:0:
448,192,47448,1,0,0:0:0:0:
192,192,47570,128,0,47814:0:0:0:0:
64,192,47692,128,0,47753:0:0:0:0:
320,192,47692,1,0,0:0:0:0:
448,192,47814,1,0,0:0:0:0:
64,192,47936,128,0,47997:0:0:0:0:
192,192,47936,1,0,0:0:0:0:
448,192,48058,1,0,0:0:0:0:
64,192,48180,128,0,48241:0:0:0:0:
320,192,48180,1,0,0:0:0:0:
192,192,48424,1,0,0:0:0:0:
448,192,48546,128,0,48607:0:0:0:0:
64,192,48546,1,0,0:0:0:0:
192,192,48668,1,0,0:0:0:0:
320,192,48790,128,0,48912:0:0:0:0:
448,192,48790,1,0,0:0:0:0:
192,192,48912,1,0,0:0:0:0:
320,192,49034,128,0,49278:0:0:0:0:
64,192,49034,128,0,49095:0:0:0:0:
448,192,49034,1,0,0:0:0:0:
192,192,49278,128,0,49521:0:0:0:0:
64,192,49278,128,0,49339:0:0:0:0:
448,192,49400,1,0,0:0:0:0:
320,192,49521,128,0,49765:0:0:0:0:
64,192,49643,128,0,49704:0:0:0:0:
192,192,49765,128,0,50009:0:0:0:0:
448,192,49765,1,0,0:0:0:0:
64,192,49887,128,0,49948:0:0:0:0:
320,192,50009,128,0,50253:0:0:0:0:
448,192,50009,1,0,0:0:0:0:
64,192,50131,128,0,50192:0:0:0:0:
192,192,50253,128,0,50375:0:0:0:0:
64,192,50375,1,0,0:0:0:0:
320,192,50497,128,0,50741:0:0:0:0:
448,192,50497,128,0,50558:0:0:0:0:
192,192,50497,1,0,0:0:0:0:
64,192,50619,1,0,0:0:0:0:
192,192,50741,128,0,50985:0:0:0:0:
448,192,50863,1,0,0:0:0:0:
320,192,50985,128,0,51473:0:0:0:0:
64,192,50985,128,0,51046:0:0:0:0:
64,192,51229,128,0,51290:0:0:0:0:
448,192,51351,1,0,0:0:0:0:
192,192,51473,128,0,51717:0:0:0:0:
64,192,51595,128,0,51656:0:0:0:0:
320,192,51595,1,0,0:0:0:0:
448,192,51717,1,0,0:0:0:0:
64,192,51839,128,0,51900:0:0:0:0:
192,192,51839,1,0,0:0:0:0:
448,192,51961,1,0,0:0:0:0:
64,192,52082,128,0,52143:0:0:0:0:
320,192,52082,1,0,0:0:0:0:
192,192,52326,1,0,0:0:0:0:
448,192,52448,128,0,52692:0:0:0:0:
320,192,52936,128,0,52997:0:0:0:0:
64,192,52936,1,0,0:0:0:0:
448,192,52936,128,0,53180:0:0:0:0:
320,192,53058,128,0,53119:0:0:0:0:
192,192,53180,128,0,53302:0:0:0:0:
64,192,53180,128,0,53424:0:0:0:0:
448,192,53302,1,0,0:0:0:0:
320,192,53424,128,0,53485:0:0:0:0:
320,192,53546,128,0,53607:0:0:0:0:
448,192,53546,1,0,0:0:0:0:
192,192,53668,128,0,53790:0:0:0:0:
64,192,53790,1,0,0:0:0:0:
320,192,53912,128,0,53973:0:0:0:0:
320,192,54034,128,0,54095:0:0:0:0:
448,192,54034,1,0,0:0:0:0:
192,192,54156,128,0,54278:0:0:0:0:
320,192,54278,1,0,0:0:0:0:
64,192,54400,128,0,54582:0:0:0:0:
448,192,54400,128,0,54582:0:0:0:0:
192,192,54400,1,0,0:0:0:0:
320,192,54643,1,0,0:0:0:0:
448,192,54765,1,0,0:0:0:0:
192,192,54887,128,0,54948:0:0:0:0:
64,192,54887,128,0,55375:0:0:0:0:
320,192,55009,128,0,55070:0:0:0:0:
320,192,55131,128,0,55253:0:0:0:0:
448,192,55253,1,0,0:0:0:0:
192,192,55375,128,0,55436:0:0:0:0:
320,192,55497,128,0,55558:0:0:0:0:
448,192,55497,1,0,0:0:0:0:
320,192,55619,128,0,55741:0:0:0:0:
64,192,55741,1,0,0:0:0:0:
320,192,55863,128,0,55985:0:0:0:0:
448,192,55985,1,0,0:0:0:0:
64,192,56229,128,0,56290:0:0:0:0:
320,192,56229,128,0,56290:0:0:0:0:
448,192,56351,128,0,56595:0:0:0:0:
320,192,56351,128,0,56534:0:0:0:0:
64,192,56351,128,0,56534:0:0:0:0:
192,192,56595,1,0,0:0:0:0:
320,192,56717,1,0,0:0:0:0:
192,192,56839,128,0,56900:0:0:0:0:
448,192,56839,128,0,57326:0:0:0:0:
64,192,56839,1,0,0:0:0:0:
192,192,56961,128,0,57021:0:0:0:0:
320,192,57082,128,0,57204:0:0:0:0:
192,192,57204,1,0,0:0:0:0:
320,192,57326,128,0,57387:0:0:0:0:
64,192,57326,128,0,57570:0:0:0:0:
320,192,57448,128,0,57509:0:0:0:0:
448,192,57448,1,0,0:0:0:0:
192,192,57570,128,0,57692:0:0:0:0:
64,192,57692,1,0,0:0:0:0:
320,192,57814,128,0,57936:0:0:0:0:
192,192,57936,128,0,58058:0:0:0:0:
448,192,57936,1,0,0:0:0:0:
320,192,58058,128,0,58180:0:0:0:0:
192,192,58180,1,0,0:0:0:0:
64,192,58302,128,0,58424:0:0:0:0:
448,192,58302,128,0,58424:0:0:0:0:
320,192,58302,1,0,0:0:0:0:
320,192,58546,1,0,0:0:0:0:
192,192,58668,1,0,0:0:0:0:
320,192,58790,128,0,58851:0:0:0:0:
64,192,58790,128,0,59278:0:0:0:0:
320,192,58912,128,0,58973:0:0:0:0:
192,192,59034,128,0,59156:0:0:0:0:
448,192,59156,1,0,0:0:0:0:
320,192,59278,128,0,59339:0:0:0:0:
320,192,59400,128,0,59461:0:0:0:0:
448,192,59400,1,0,0:0:0:0:
192,192,59521,128,0,59643:0:0:0:0:
64,192,59643,1,0,0:0:0:0:
320,192,59765,128,0,59887:0:0:0:0:
448,192,59765,128,0,60009:0:0:0:0:
192,192,59765,1,0,0:0:0:0:
64,192,59887,1,0,0:0:0:0:
64,192,60131,128,0,60192:0:0:0:0:
320,192,60131,128,0,60192:0:0:0:0:
448,192,60253,128,0,60497:0:0:0:0:
64,192,60253,128,0,60436:0:0:0:0:
320,192,60253,128,0,60436:0:0:0:0:
192,192,60497,1,0,0:0:0:0:
64,192,60619,1,0,0:0:0:0:
320,192,60741,128,0,60802:0:0:0:0:
448,192,60741,128,0,60985:0:0:0:0:
192,192,60741,1,0,0:0:0:0:
320,192,60863,128,0,60924:0:0:0:0:
192,192,60985,128,0,61107:0:0:0:0:
64,192,60985,128,0,61229:0:0:0:0:
448,192,61107,1,0,0:0:0:0:
320,192,61229,128,0,61290:0:0:0:0:
320,192,61351,128,0,61412:0:0:0:0:
448,192,61351,1,0,0:0:0:0:
192,192,61473,128,0,61595:0:0:0:0:
64,192,61595,1,0,0:0:0:0:
320,192,61717,128,0,61778:0:0:0:0:
192,192,61839,128,0,61900:0:0:0:0:
448,192,61839,1,0,0:0:0:0:
320,192,61961,128,0,62021:0:0:0:0:
448,192,62082,1,0,0:0:0:0:
64,192,62204,128,0,62387:0:0:0:0:
320,192,62204,128,0,62387:0:0:0:0:
192,192,62204,1,0,0:0:0:0:
448,192,62448,1,0,0:0:0:0:
192,192,62570,1,0,0:0:0:0:
320,192,62692,128,0,62753:0:0:0:0:
64,192,62692,128,0,63180:0:0:0:0:
192,192,62814,128,0,62875:0:0:0:0:
192,192,62936,128,0,63058:0:0:0:0:
448,192,63058,1,0,0:0:0:0:
320,192,63180,128,0,63241:0:0:0:0:
320,192,63302,128,0,63363:0:0:0:0:
448,192,63302,1,0,0:0:0:0:
192,192,63424,128,0,63546:0:0:0:0:
64,192,63546,1,0,0:0:0:0:
320,192,63668,128,0,63790:0:0:0:0:
448,192,63790,1,0,0:0:0:0:
64,192,64034,128,0,64095:0:0:0:0:
320,192,64034,128,0,64095:0:0:0:0:
64,192,64156,128,0,64339:0:0:0:0:
320,192,64156,128,0,64339:0:0:0:0:
448,192,64400,1,0,0:0:0:0:
192,192,64521,1,0,0:0:0:0:
320,192,64643,128,0,64704:0:0:0:0:
448,192,64643,128,0,64887:0:0:0:0:
64,192,64643,1,0,0:0:0:0:
192,192,64765,128,0,64826:0:0:0:0:
192,192,64887,128,0,65009:0:0:0:0:
64,192,64887,128,0,65131:0:0:0:0:
448,192,65009,1,0,0:0:0:0:
320,192,65131,128,0,65192:0:0:0:0:
320,192,65253,128,0,65314:0:0:0:0:
448,192,65253,1,0,0:0:0:0:
192,192,65375,128,0,65497:0:0:0:0:
64,192,65497,1,0,0:0:0:0:
320,192,65619,128,0,65741:0:0:0:0:
448,192,65741,1,0,0:0:0:0:
192,192,65985,1,0,0:0:0:0:
64,192,66107,128,0,66290:0:0:0:0:
320,192,66107,128,0,66290:0:0:0:0:
448,192,66107,1,0,0:0:0:0:
192,192,66351,1,0,0:0:0:0:
448,192,66473,1,0,0:0:0:0:
320,192,66595,128,0,66656:0:0:0:0:
64,192,66595,128,0,67082:0:0:0:0:
192,192,66717,128,0,66778:0:0:0:0:
192,192,66839,128,0,66961:0:0:0:0:
448,192,66961,1,0,0:0:0:0:
320,192,67082,128,0,67143:0:0:0:0:
320,192,67204,128,0,67265:0:0:0:0:
448,192,67204,1,0,0:0:0:0:
192,192,67326,128,0,67448:0:0:0:0:
64,192,67448,1,0,0:0:0:0:
320,192,67570,128,0,67692:0:0:0:0:
192,192,67570,1,0,0:0:0:0:
448,192,67570,1,0,0:0:0:0:
64,192,67692,1,0,0:0:0:0:
448,192,67936,1,0,0:0:0:0:
192,192,68058,1,0,0:0:0:0:
192,192,68546,128,0,68607:0:0:0:0:
448,192,68546,1,0,0:0:0:0:
192,192,68668,128,0,68729:0:0:0:0:
64,192,68790,128,0,69034:0:0:0:0:
320,192,68790,1,0,0:0:0:0:
192,192,69034,128,0,69095:0:0:0:0:
192,192,69156,128,0,69217:0:0:0:0:
448,192,69156,1,0,0:0:0:0:
64,192,69278,128,0,69521:0:0:0:0:
448,192,69400,1,0,0:0:0:0:
192,192,69521,128,0,69582:0:0:0:0:
192,192,69643,128,0,69704:0:0:0:0:
320,192,69643,1,0,0:0:0:0:
64,192,69765,128,0,70009:0:0:0:0:
192,192,70009,128,0,70070:0:0:0:0:
448,192,70009,1,0,0:0:0:0:
192,192,70131,128,0,70192:0:0:0:0:
64,192,70253,128,0,70497:0:0:0:0:
320,192,70253,1,0,0:0:0:0:
192,192,70497,128,0,70558:0:0:0:0:
448,192,70497,1,0,0:0:0:0:
192,192,70619,128,0,70680:0:0:0:0:
64,192,70741,128,0,70985:0:0:0:0:
320,192,70741,1,0,0:0:0:0:
192,192,70985,128,0,71046:0:0:0:0:
192,192,71107,128,0,71168:0:0:0:0:
448,192,71107,1,0,0:0:0:0:
64,192,71229,128,0,71473:0:0:0:0:
448,192,71351,1,0,0:0:0:0:
192,192,71473,128,0,71534:0:0:0:0:
192,192,71595,128,0,71656:0:0:0:0:
320,192,71595,1,0,0:0:0:0:
64,192,71717,128,0,71961:0:0:0:0:
192,192,71961,128,0,72021:0:0:0:0:
448,192,71961,1,0,0:0:0:0:
320,192,72204,1,0,0:0:0:0:
192,192,72448,128,0,72509:0:0:0:0:
448,192,72448,1,0,0:0:0:0:
192,192,72570,128,0,72631:0:0:0:0:
64,192,72692,128,0,72936:0:0:0:0:
320,192,72692,1,0,0:0:0:0:
192,192,72936,128,0,72997:0:0:0:0:
192,192,73058,128,0,73119:0:0:0:0:
448,192,73058,1,0,0:0:0:0:
64,192,73180,128,0,73424:0:0:0:0:
448,192,73302,1,0,0:0:0:0:
192,192,73424,128,0,73485:0:0:0:0:
192,192,73546,128,0,73607:0:0:0:0:
320,192,73546,1,0,0:0:0:0:
64,192,73668,128,0,73912:0:0:0:0:
192,192,73912,128,0,73973:0:0:0:0:
448,192,73912,1,0,0:0:0:0:
192,192,74034,128,0,74095:0:0:0:0:
64,192,74156,128,0,74400:0:0:0:0:
320,192,74156,1,0,0:0:0:0:
192,192,74400,128,0,74461:0:0:0:0:
448,192,74400,1,0,0:0:0:0:
192,192,74521,128,0,74582:0:0:0:0:
64,192,74643,128,0,74887:0:0:0:0:
320,192,74643,1,0,0:0:0:0:
192,192,74887,128,0,74948:0:0:0:0:
192,192,75009,128,0,75070:0:0:0:0:
448,192,75009,1,0,0:0:0:0:
64,192,75131,128,0,75375:0:0:0:0:
448,192,75253,1,0,0:0:0:0:
192,192,75375,128,0,75436:0:0:0:0:
320,192,75375,1,0,0:0:0:0:
192,192,75497,128,0,75558:0:0:0:0:
448,192,75497,1,0,0:0:0:0:
64,192,75619,128,0,75863:0:0:0:0:
448,192,75863,1,0,0:0:0:0:
192,192,75863,128,0,75944:0:0:0:0:
192,192,76026,128,0,76107:0:0:0:0:
320,192,76107,1,0,0:0:0:0:
192,192,76188,128,0,76269:0:0:0:0:
448,192,76351,128,0,76412:0:0:0:0:
64,192,76351,128,0,76534:0:0:0:0:
192,192,76351,1,0,0:0:0:0:
448,192,76473,128,0,76534:0:0:0:0:
320,192,76595,128,0,76839:0:0:0:0:
64,192,76595,128,0,76900:0:0:0:0:
192,192,76717,1,0,0:0:0:0:
448,192,76839,128,0,76900:0:0:0:0:
448,192,76961,128,0,77021:0:0:0:0:
64,192,76961,128,0,77143:0:0:0:0:
320,192,77082,128,0,77326:0:0:0:0:
64,192,77204,128,0,77387:0:0:0:0:
448,192,77326,128,0,77387:0:0:0:0:
448,192,77448,128,0,77509:0:0:0:0:
64,192,77448,128,0,77753:0:0:0:0:
320,192,77570,128,0,77814:0:0:0:0:
448,192,77814,128,0,77875:0:0:0:0:
64,192,77814,1,0,0:0:0:0:
192,192,77814,1,0,0:0:0:0:
448,192,77936,128,0,77997:0:0:0:0:
320,192,78058,128,0,78302:0:0:0:0:
192,192,78058,128,0,78241:0:0:0:0:
448,192,78302,128,0,78363:0:0:0:0:
192,192,78302,128,0,78485:0:0:0:0:
448,192,78424,128,0,78485:0:0:0:0:
320,192,78546,128,0,78790:0:0:0:0:
192,192,78546,128,0,78851:0:0:0:0:
64,192,78668,1,0,0:0:0:0:
448,192,78790,128,0,78851:0:0:0:0:
448,192,78912,128,0,78973:0:0:0:0:
192,192,78912,128,0,79095:0:0:0:0:
320,192,79034,128,0,79278:0:0:0:0:
192,192,79156,128,0,79339:0:0:0:0:
448,192,79278,128,0,79339:0:0:0:0:
448,192,79400,128,0,79461:0:0:0:0:
192,192,79400,128,0,79704:0:0:0:0:
320,192,79521,128,0,79765:0:0:0:0:
64,192,79643,1,0,0:0:0:0:
448,192,79765,128,0,79826:0:0:0:0:
192,192,79765,1,0,0:0:0:0:
320,192,79887,1,0,0:0:0:0:
64,192,80009,1,0,0:0:0:0:
320,192,80131,1,0,0:0:0:0:
448,192,80253,128,0,80314:0:0:0:0:
64,192,80253,128,0,80436:0:0:0:0:
192,192,80253,1,0,0:0:0:0:
448,192,80375,128,0,80436:0:0:0:0:
320,192,80497,128,0,80741:0:0:0:0:
64,192,80497,128,0,80802:0:0:0:0:
192,192,80619,1,0,0:0:0:0:
448,192,80741,128,0,80802:0:0:0:0:
448,192,80863,128,0,80924:0:0:0:0:
64,192,80863,128,0,81046:0:0:0:0:
320,192,80985,128,0,81229:0:0:0:0:
64,192,81107,128,0,81290:0:0:0:0:
448,192,81229,128,0,81290:0:0:0:0:
448,192,81351,128,0,81412:0:0:0:0:
64,192,81351,128,0,81656:0:0:0:0:
320,192,81473,128,0,81717:0:0:0:0:
448,192,81717,128,0,81778:0:0:0:0:
64,192,81717,1,0,0:0:0:0:
192,192,81717,1,0,0:0:0:0:
448,192,81839,128,0,81900:0:0:0:0:
320,192,81961,128,0,82204:0:0:0:0:
192,192,81961,128,0,82143:0:0:0:0:
448,192,82204,128,0,82265:0:0:0:0:
192,192,82204,128,0,82387:0:0:0:0:
448,192,82326,128,0,82387:0:0:0:0:
320,192,82448,128,0,82692:0:0:0:0:
192,192,82448,128,0,82753:0:0:0:0:
64,192,82570,1,0,0:0:0:0:
448,192,82692,128,0,82753:0:0:0:0:
448,192,82814,128,0,82875:0:0:0:0:
192,192,82814,128,0,82997:0:0:0:0:
320,192,82936,128,0,83180:0:0:0:0:
192,192,83058,128,0,83241:0:0:0:0:
448,192,83180,128,0,83241:0:0:0:0:
448,192,83302,128,0,83363:0:0:0:0:
192,192,83302,128,0,83607:0:0:0:0:
320,192,83424,128,0,83607:0:0:0:0:
64,192,83546,1,0,0:0:0:0:
192,192,83668,1,0,0:0:0:0:
448,192,83668,128,0,83749:0:0:0:0:
320,192,83668,1,0,0:0:0:0:
448,192,83830,128,0,83912:0:0:0:0:
64,192,83912,1,0,0:0:0:0:
448,192,83993,128,0,84074:0:0:0:0:
320,192,84156,128,0,84400:0:0:0:0:
192,192,84400,128,0,84643:0:0:0:0:
320,192,84643,128,0,84887:0:0:0:0:
192,192,84887,128,0,85131:0:0:0:0:
320,192,85131,128,0,85375:0:0:0:0:
192,192,85375,128,0,85619:0:0:0:0:
320,192,85619,128,0,85863:0:0:0:0:
192,192,85863,128,0,86107:0:0:0:0:
448,192,86107,1,0,0:0:0:0:
320,192,86168,128,0,87082:0:0:0:0:
192,192,86595,128,0,87570:0:0:0:0:
448,192,87570,128,0,87631:0:0:0:0:
320,192,88058,128,0,88302:0:0:0:0:
64,192,88058,1,0,0:0:0:0:
448,192,88058,1,0,0:0:0:0:
192,192,88302,128,0,88546:0:0:0:0:
320,192,88546,128,0,88790:0:0:0:0:
192,192,88790,128,0,89034:0:0:0:0:
320,192,89034,128,0,89278:0:0:0:0:
192,192,89278,128,0,89521:0:0:0:0:
448,192,89521,128,0,89765:0:0:0:0:
64,192,89521,1,0,0:0:0:0:
320,192,89521,1,0,0:0:0:0:
64,192,89765,128,0,90009:0:0:0:0:
448,192,90009,128,0,90253:0:0:0:0:
64,192,90253,128,0,90497:0:0:0:0:
320,192,90497,128,0,90741:0:0:0:0:
192,192,90741,128,0,90985:0:0:0:0:
320,192,90985,128,0,91473:0:0:0:0:
64,192,90985,1,0,0:0:0:0:
448,192,90985,1,0,0:0:0:0:
192,192,91473,128,0,91717:0:0:0:0:
448,192,91473,128,0,91534:0:0:0:0:
320,192,91961,128,0,92204:0:0:0:0:
64,192,91961,128,0,92021:0:0:0:0:
448,192,91961,1,0,0:0:0:0:
192,192,92204,128,0,92448:0:0:0:0:
64,192,92204,128,0,92265:0:0:0:0:
320,192,92448,128,0,92692:0:0:0:0:
64,192,92570,128,0,92631:0:0:0:0:
192,192,92692,128,0,92936:0:0:0:0:
64,192,92814,128,0,92875:0:0:0:0:
320,192,92936,128,0,93180:0:0:0:0:
64,192,93058,128,0,93119:0:0:0:0:
192,192,93180,128,0,93424:0:0:0:0:
320,192,93424,128,0,93668:0:0:0:0:
448,192,93424,128,0,93485:0:0:0:0:
64,192,93424,1,0,0:0:0:0:
192,192,93668,128,0,93912:0:0:0:0:
320,192,93912,128,0,94400:0:0:0:0:
64,192,93912,128,0,93973:0:0:0:0:
64,192,94156,128,0,94217:0:0:0:0:
192,192,94400,128,0,94643:0:0:0:0:
64,192,94521,128,0,94582:0:0:0:0:
64,192,94765,128,0,94826:0:0:0:0:
64,192,95009,128,0,95070:0:0:0:0:
448,192,95375,128,0,95436:0:0:0:0:
320,192,95619,128,0,95741:0:0:0:0:
320,192,95863,128,0,96107:0:0:0:0:
64,192,95863,128,0,95924:0:0:0:0:
448,192,95863,1,0,0:0:0:0:
192,192,96107,128,0,96351:0:0:0:0:
64,192,96107,128,0,96168:0:0:0:0:
320,192,96351,128,0,96595:0:0:0:0:
64,192,96473,128,0,96534:0:0:0:0:
192,192,96595,128,0,96839:0:0:0:0:
64,192,96717,128,0,96778:0:0:0:0:
320,192,96839,128,0,96920:0:0:0:0:
64,192,96961,128,0,97021:0:0:0:0:
320,192,97001,128,0,97082:0:0:0:0:
192,192,97164,128,0,97326:0:0:0:0:
320,192,97326,128,0,97570:0:0:0:0:
448,192,97326,128,0,97387:0:0:0:0:
64,192,97326,1,0,0:0:0:0:
192,192,97570,128,0,97814:0:0:0:0:
320,192,97814,128,0,98302:0:0:0:0:
64,192,97814,128,0,97875:0:0:0:0:
64,192,98058,128,0,98119:0:0:0:0:
192,192,98302,128,0,98546:0:0:0:0:
320,192,98912,128,0,98993:0:0:0:0:
448,192,98993,128,0,99074:0:0:0:0:
320,192,99156,128,0,99278:0:0:0:0:
448,192,99278,128,0,99400:0:0:0:0:
320,192,99765,128,0,99826:0:0:0:0:
64,192,99765,1,0,0:0:0:0:
448,192,99765,128,0,100009:0:0:0:0:
320,192,99887,128,0,99948:0:0:0:0:
192,192,100009,128,0,100131:0:0:0:0:
64,192,100009,128,0,100253:0:0:0:0:
448,192,100131,1,0,0:0:0:0:
320,192,100253,128,0,100314:0:0:0:0:
320,192,100375,128,0,100436:0:0:0:0:
448,192,100375,1,0,0:0:0:0:
192,192,100497,128,0,100619:0:0:0:0:
64,192,100619,1,0,0:0:0:0:
320,192,100741,128,0,100802:0:0:0:0:
320,192,100863,128,0,100924:0:0:0:0:
448,192,100863,1,0,0:0:0:0:
192,192,100985,128,0,101107:0:0:0:0:
320,192,101107,1,0,0:0:0:0:
64,192,101229,128,0,101412:0:0:0:0:
448,192,101229,128,0,101412:0:0:0:0:
192,192,101229,128,0,101473:0:0:0:0:
320,192,101473,1,0,0:0:0:0:
448,192,101595,1,0,0:0:0:0:
192,192,101717,128,0,101778:0:0:0:0:
64,192,101717,128,0,102204:0:0:0:0:
320,192,101839,128,0,101900:0:0:0:0:
320,192,101961,128,0,102082:0:0:0:0:
448,192,102082,1,0,0:0:0:0:
192,192,102204,128,0,102265:0:0:0:0:
320,192,102326,128,0,102387:0:0:0:0:
448,192,102326,1,0,0:0:0:0:
320,192,102448,128,0,102570:0:0:0:0:
64,192,102570,1,0,0:0:0:0:
320,192,102692,128,0,102814:0:0:0:0:
448,192,102814,1,0,0:0:0:0:
64,192,103058,128,0,103119:0:0:0:0:
320,192,103058,128,0,103119:0:0:0:0:
192,192,103058,128,0,103119:0:0:0:0:
448,192,103180,128,0,103424:0:0:0:0:
320,192,103180,128,0,103363:0:0:0:0:
64,192,103180,128,0,103363:0:0:0:0:
192,192,103424,1,0,0:0:0:0:
320,192,103546,1,0,0:0:0:0:
192,192,103668,128,0,103729:0:0:0:0:
448,192,103668,128,0,104156:0:0:0:0:
64,192,103668,1,0,0:0:0:0:
192,192,103790,128,0,103851:0:0:0:0:
320,192,103912,128,0,104034:0:0:0:0:
192,192,104034,1,0,0:0:0:0:
320,192,104156,128,0,104217:0:0:0:0:
64,192,104156,128,0,104400:0:0:0:0:
320,192,104278,128,0,104339:0:0:0:0:
448,192,104278,1,0,0:0:0:0:
192,192,104400,128,0,104521:0:0:0:0:
64,192,104521,1,0,0:0:0:0:
320,192,104643,128,0,104765:0:0:0:0:
192,192,104765,128,0,104887:0:0:0:0:
448,192,104765,1,0,0:0:0:0:
320,192,104887,128,0,105009:0:0:0:0:
192,192,105009,1,0,0:0:0:0:
320,192,105131,1,0,0:0:0:0:
64,192,105131,128,0,105558:0:0:0:0:
448,192,105131,128,0,105924:0:0:0:0:
320,192,105375,1,0,0:0:0:0:
192,192,105497,1,0,0:0:0:0:
320,192,105619,128,0,105680:0:0:0:0:
64,192,105619,128,0,106107:0:0:0:0:
320,192,105741,128,0,105802:0:0:0:0:
192,192,105863,128,0,105985:0:0:0:0:
448,192,105985,1,0,0:0:0:0:
320,192,106107,128,0,106168:0:0:0:0:
320,192,106229,128,0,106290:0:0:0:0:
448,192,106229,1,0,0:0:0:0:
192,192,106351,128,0,106473:0:0:0:0:
64,192,106473,1,0,0:0:0:0:
320,192,106595,128,0,106717:0:0:0:0:
448,192,106595,128,0,106839:0:0:0:0:
192,192,106595,1,0,0:0:0:0:
64,192,106717,1,0,0:0:0:0:
192,192,106839,128,0,106900:0:0:0:0:
64,192,106961,128,0,107021:0:0:0:0:
320,192,106961,128,0,107021:0:0:0:0:
192,192,106961,128,0,107021:0:0:0:0:
64,192,107082,128,0,107265:0:0:0:0:
320,192,107082,128,0,107326:0:0:0:0:
448,192,107082,128,0,107265:0:0:0:0:
192,192,107326,128,0,107509:0:0:0:0:
64,192,107448,1,0,0:0:0:0:
320,192,107570,128,0,107631:0:0:0:0:
448,192,107570,128,0,107814:0:0:0:0:
192,192,107570,1,0,0:0:0:0:
320,192,107692,128,0,107753:0:0:0:0:
192,192,107814,128,0,107936:0:0:0:0:
64,192,107814,128,0,108058:0:0:0:0:
448,192,107936,1,0,0:0:0:0:
320,192,108058,128,0,108119:0:0:0:0:
320,192,108180,128,0,108241:0:0:0:0:
448,192,108180,1,0,0:0:0:0:
192,192,108302,128,0,108424:0:0:0:0:
64,192,108424,1,0,0:0:0:0:
320,192,108546,128,0,108607:0:0:0:0:
192,192,108668,128,0,108729:0:0:0:0:
448,192,108668,1,0,0:0:0:0:
320,192,108790,128,0,108851:0:0:0:0:
448,192,108912,1,0,0:0:0:0:
64,192,109034,128,0,109217:0:0:0:0:
320,192,109034,128,0,109217:0:0:0:0:
192,192,109034,1,0,0:0:0:0:
448,192,109278,1,0,0:0:0:0:
192,192,109400,1,0,0:0:0:0:
320,192,109521,128,0,109582:0:0:0:0:
64,192,109521,128,0,110009:0:0:0:0:
192,192,109643,128,0,109704:0:0:0:0:
192,192,109765,128,0,109887:0:0:0:0:
448,192,109887,1,0,0:0:0:0:
320,192,110009,128,0,110070:0:0:0:0:
320,192,110131,128,0,110192:0:0:0:0:
448,192,110131,1,0,0:0:0:0:
192,192,110253,128,0,110375:0:0:0:0:
64,192,110375,1,0,0:0:0:0:
320,192,110497,128,0,110619:0:0:0:0:
448,192,110619,1,0,0:0:0:0:
64,192,110863,128,0,110924:0:0:0:0:
320,192,110863,128,0,110924:0:0:0:0:
64,192,110985,128,0,111168:0:0:0:0:
320,192,110985,128,0,111168:0:0:0:0:
448,192,111229,1,0,0:0:0:0:
192,192,111351,1,0,0:0:0:0:
320,192,111473,128,0,111534:0:0:0:0:
448,192,111473,128,0,111717:0:0:0:0:
64,192,111473,1,0,0:0:0:0:
192,192,111595,128,0,111656:0:0:0:0:
320,192,111595,128,0,111656:0:0:0:0:
192,192,111717,128,0,111839:0:0:0:0:
64,192,111717,128,0,111961:0:0:0:0:
448,192,111839,1,0,0:0:0:0:
320,192,111961,128,0,112021:0:0:0:0:
192,192,111961,128,0,112021:0:0:0:0:
320,192,112082,128,0,112143:0:0:0:0:
448,192,112082,1,0,0:0:0:0:
192,192,112082,128,0,112143:0:0:0:0:
192,192,112204,128,0,112326:0:0:0:0:
64,192,112204,128,0,112326:0:0:0:0:
320,192,112326,1,0,0:0:0:0:
320,192,112448,128,0,112570:0:0:0:0:
192,192,112448,128,0,112631:0:0:0:0:
448,192,112570,1,0,0:0:0:0:
192,192,112814,1,0,0:0:0:0:
64,192,112936,128,0,113119:0:0:0:0:
320,192,112936,128,0,113119:0:0:0:0:
448,192,112936,1,0,0:0:0:0:
192,192,113180,1,0,0:0:0:0:
448,192,113302,1,0,0:0:0:0:
320,192,113424,128,0,113485:0:0:0:0:
64,192,113424,128,0,113912:0:0:0:0:
192,192,113546,128,0,113607:0:0:0:0:
192,192,113668,128,0,113790:0:0:0:0:
448,192,113790,1,0,0:0:0:0:
320,192,113912,128,0,113973:0:0:0:0:
320,192,114034,128,0,114095:0:0:0:0:
448,192,114034,1,0,0:0:0:0:
192,192,114156,128,0,114278:0:0:0:0:
64,192,114278,1,0,0:0:0:0:
320,192,114400,128,0,114521:0:0:0:0:
448,192,114887,128,0,115070:0:0:0:0:
64,192,114887,128,0,115070:0:0:0:0:
192,192,115375,128,0,115436:0:0:0:0:
448,192,115375,1,0,0:0:0:0:
192,192,115497,128,0,115558:0:0:0:0:
64,192,115619,128,0,115863:0:0:0:0:
320,192,115619,1,0,0:0:0:0:
192,192,115863,128,0,115924:0:0:0:0:
192,192,115985,128,0,116046:0:0:0:0:
448,192,115985,1,0,0:0:0:0:
64,192,116107,128,0,116351:0:0:0:0:
448,192,116229,1,0,0:0:0:0:
192,192,116351,128,0,116412:0:0:0:0:
192,192,116473,128,0,116534:0:0:0:0:
320,192,116473,1,0,0:0:0:0:
64,192,116595,128,0,116839:0:0:0:0:
192,192,116839,128,0,116900:0:0:0:0:
448,192,116839,1,0,0:0:0:0:
192,192,116961,128,0,117021:0:0:0:0:
64,192,117082,128,0,117326:0:0:0:0:
320,192,117082,1,0,0:0:0:0:
192,192,117326,128,0,117387:0:0:0:0:
448,192,117326,1,0,0:0:0:0:
192,192,117448,128,0,117509:0:0:0:0:
64,192,117570,128,0,117814:0:0:0:0:
320,192,117570,1,0,0:0:0:0:
192,192,117814,128,0,117875:0:0:0:0:
192,192,117936,128,0,117997:0:0:0:0:
448,192,117936,1,0,0:0:0:0:
64,192,118058,128,0,118302:0:0:0:0:
448,192,118180,1,0,0:0:0:0:
192,192,118302,128,0,118363:0:0:0:0:
192,192,118424,128,0,118485:0:0:0:0:
320,192,118424,1,0,0:0:0:0:
64,192,118546,128,0,118790:0:0:0:0:
192,192,118790,128,0,118851:0:0:0:0:
448,192,118790,1,0,0:0:0:0:
320,192,119034,1,0,0:0:0:0:
192,192,119278,128,0,119339:0:0:0:0:
448,192,119278,1,0,0:0:0:0:
192,192,119400,128,0,119461:0:0:0:0:
64,192,119521,128,0,119765:0:0:0:0:
320,192,119521,1,0,0:0:0:0:
192,192,119765,128,0,119826:0:0:0:0:
192,192,119887,128,0,119948:0:0:0:0:
448,192,119887,1,0,0:0:0:0:
64,192,120009,128,0,120253:0:0:0:0:
448,192,120131,1,0,0:0:0:0:
192,192,120253,128,0,120314:0:0:0:0:
192,192,120375,128,0,120436:0:0:0:0:
320,192,120375,1,0,0:0:0:0:
64,192,120497,128,0,120741:0:0:0:0:
192,192,120741,128,0,120802:0:0:0:0:
448,192,120741,1,0,0:0:0:0:
192,192,120863,128,0,120924:0:0:0:0:
64,192,120985,128,0,121229:0:0:0:0:
320,192,120985,1,0,0:0:0:0:
192,192,121229,128,0,121290:0:0:0:0:
448,192,121229,1,0,0:0:0:0:
192,192,121351,128,0,121412:0:0:0:0:
64,192,121473,128,0,121717:0:0:0:0:
320,192,121473,1,0,0:0:0:0:
192,192,121717,128,0,121778:0:0:0:0:
192,192,121839,128,0,121900:0:0:0:0:
448,192,121839,1,0,0:0:0:0:
64,192,121961,128,0,122204:0:0:0:0:
448,192,122082,1,0,0:0:0:0:
192,192,122204,128,0,122265:0:0:0:0:
320,192,122204,1,0,0:0:0:0:
192,192,122326,128,0,122387:0:0:0:0:
448,192,122326,1,0,0:0:0:0:
64,192,122448,128,0,122692:0:0:0:0:
448,192,122692,1,0,0:0:0:0:
192,192,122692,128,0,122774:0:0:0:0:
192,192,122855,128,0,122936:0:0:0:0:
320,192,122936,1,0,0:0:0:0:
192,192,123017,128,0,123099:0:0:0:0:
448,192,123180,128,0,123241:0:0:0:0:
64,192,123180,128,0,123363:0:0:0:0:
192,192,123180,1,0,0:0:0:0:
448,192,123302,128,0,123363:0:0:0:0:
320,192,123424,128,0,123668:0:0:0:0:
64,192,123424,128,0,123729:0:0:0:0:
192,192,123546,1,0,0:0:0:0:
448,192,123668,128,0,123729:0:0:0:0:
448,192,123790,128,0,123851:0:0:0:0:
64,192,123790,128,0,123973:0:0:0:0:
320,192,123912,128,0,124156:0:0:0:0:
64,192,124034,128,0,124217:0:0:0:0:
448,192,124156,128,0,124217:0:0:0:0:
448,192,124278,128,0,124339:0:0:0:0:
64,192,124278,128,0,124582:0:0:0:0:
320,192,124400,128,0,124643:0:0:0:0:
448,192,124643,128,0,124704:0:0:0:0:
64,192,124643,1,0,0:0:0:0:
192,192,124643,1,0,0:0:0:0:
448,192,124765,128,0,124826:0:0:0:0:
320,192,124887,128,0,125131:0:0:0:0:
192,192,124887,128,0,125070:0:0:0:0:
448,192,125131,128,0,125192:0:0:0:0:
192,192,125131,128,0,125314:0:0:0:0:
448,192,125253,128,0,125314:0:0:0:0:
320,192,125375,128,0,125619:0:0:0:0:
192,192,125375,128,0,125680:0:0:0:0:
64,192,125497,1,0,0:0:0:0:
448,192,125619,128,0,125680:0:0:0:0:
448,192,125741,128,0,125802:0:0:0:0:
192,192,125741,128,0,125924:0:0:0:0:
320,192,125863,128,0,126107:0:0:0:0:
192,192,125985,128,0,126168:0:0:0:0:
448,192,126107,128,0,126168:0:0:0:0:
448,192,126229,128,0,126290:0:0:0:0:
192,192,126229,128,0,126534:0:0:0:0:
320,192,126351,128,0,126595:0:0:0:0:
64,192,126473,1,0,0:0:0:0:
448,192,126595,128,0,126656:0:0:0:0:
192,192,126595,1,0,0:0:0:0:
320,192,126717,1,0,0:0:0:0:
64,192,126839,1,0,0:0:0:0:
320,192,126961,1,0,0:0:0:0:
448,192,127082,128,0,127143:0:0:0:0:
64,192,127082,128,0,127265:0:0:0:0:
192,192,127082,1,0,0:0:0:0:
448,192,127204,128,0,127265:0:0:0:0:
320,192,127326,128,0,127570:0:0:0:0:
64,192,127326,128,0,127631:0:0:0:0:
192,192,127448,1,0,0:0:0:0:
448,192,127570,128,0,127631:0:0:0:0:
448,192,127692,128,0,127753:0:0:0:0:
64,192,127692,128,0,127875:0:0:0:0:
320,192,127814,128,0,128058:0:0:0:0:
64,192,127936,128,0,128119:0:0:0:0:
448,192,128058,128,0,128119:0:0:0:0:
448,192,128180,128,0,128241:0:0:0:0:
64,192,128180,128,0,128485:0:0:0:0:
320,192,128302,128,0,128546:0:0:0:0:
448,192,128546,128,0,128607:0:0:0:0:
64,192,128546,1,0,0:0:0:0:
192,192,128546,1,0,0:0:0:0:
448,192,128668,128,0,128729:0:0:0:0:
320,192,128790,128,0,129034:0:0:0:0:
192,192,128790,128,0,128973:0:0:0:0:
448,192,129034,128,0,129095:0:0:0:0:
192,192,129034,128,0,129217:0:0:0:0:
448,192,129156,128,0,129217:0:0:0:0:
320,192,129278,128,0,129521:0:0:0:0:
192,192,129278,128,0,129582:0:0:0:0:
64,192,129278,128,0,129400:0:0:0:0:
448,192,129521,128,0,129582:0:0:0:0:
448,192,129643,128,0,129704:0:0:0:0:
192,192,129643,128,0,129826:0:0:0:0:
320,192,129765,128,0,130009:0:0:0:0:
64,192,129765,128,0,129887:0:0:0:0:
192,192,129887,128,0,130070:0:0:0:0:
448,192,130009,128,0,130070:0:0:0:0:
448,192,130131,128,0,130192:0:0:0:0:
192,192,130131,128,0,130436:0:0:0:0:
320,192,130253,128,0,130436:0:0:0:0:
448,192,130253,128,0,130375:0:0:0:0:
64,192,130375,128,0,130497:0:0:0:0:
192,192,130497,1,0,0:0:0:0:
448,192,130497,128,0,130578:0:0:0:0:
320,192,130497,1,0,0:0:0:0:
448,192,130660,128,0,130741:0:0:0:0:
192,192,130741,1,0,0:0:0:0:
448,192,130822,128,0,130904:0:0:0:0:
448,192,131961,128,0,132113:0:0:0:0:
320,192,132113,128,0,132235:0:0:0:0:
192,192,132235,128,0,132326:0:0:0:0:
64,192,132387,128,0,132570:0:0:0:0:
192,192,132570,128,0,133088:0:0:0:0:
64,192,133088,1,0,0:0:0:0:
448,192,133088,128,0,134063:0:0:0:0:
320,192,133088,1,0,0:0:0:0:
192,192,134063,1,0,0:0:0:0:
320,192,134063,1,0,0:0:0:0:
448,192,135039,1,0,0:0:0:0:
320,192,135100,1,0,0:0:0:0:
64,192,135161,1,0,0:0:0:0:
192,192,135222,1,0,0:0:0:0:
448,192,135283,1,0,0:0:0:0:
320,192,135344,1,0,0:0:0:0:
64,192,135405,1,0,0:0:0:0:
192,192,135466,1,0,0:0:0:0:
448,192,135527,1,0,0:0:0:0:
320,192,135527,1,0,0:0:0:0:
192,192,135588,1,0,0:0:0:0:
64,192,135588,1,0,0:0:0:0:
320,192,135648,1,0,0:0:0:0:
448,192,135648,1,0,0:0:0:0:
192,192,135709,1,0,0:0:0:0:
64,192,135709,1,0,0:0:0:0:
448,192,135770,1,0,0:0:0:0:
320,192,135770,1,0,0:0:0:0:
64,192,135831,1,0,0:0:0:0:
192,192,135831,1,0,0:0:0:0:
64,192,136014,1,0,0:0:0:0:
192,192,136014,1,0,0:0:0:0:
448,192,136014,128,0,136096:0:0:0:0:
64,192,136258,1,0,0:0:0:0:
192,192,136258,1,0,0:0:0:0:
448,192,136258,1,0,0:0:0:0:
64,192,136502,1,0,0:0:0:0:
192,192,136502,1,0,0:0:0:0:
448,192,136502,1,0,0:0:0:0:
320,192,137051,128,0,137966:0:0:0:0:
448,192,137722,1,0,0:0:0:0:
64,192,137722,1,0,0:0:0:0:
448,192,137966,1,0,0:0:0:0:
64,192,137966,1,0,0:0:0:0:
192,192,138209,1,0,0:0:0:0:
192,192,138453,1,0,0:0:0:0:
192,192,138697,1,0,0:0:0:0:
320,192,138779,1,0,0:0:0:0:
192,192,138860,1,0,0:0:0:0:
320,192,138941,1,0,0:0:0:0:
320,192,139185,1,0,0:0:0:0:
64,192,139429,1,0,0:0:0:0:
192,192,139429,128,0,139734:0:0:0:0:
64,192,139734,128,0,139978:0:0:0:0:
448,192,139978,128,0,140344:0:0:0:0:
