osu file format v14

[General]
AudioFilename: audio.mp3
AudioLeadIn: 0
PreviewTime: 37204
Countdown: 0
SampleSet: Normal
StackLeniency: 0.7
Mode: 3
LetterboxInBreaks: 0
SpecialStyle: 0
WidescreenStoryboard: 1

[Editor]
Bookmarks: 29835,37639,53249,68859,84469,100078,115688,131298
DistanceSpacing: 0.8
BeatDivisor: 16
GridSize: 16
TimelineZoom: 2.3

[Metadata]
Title:A Pale
TitleUnicode:A Palé
Artist:ROSALIA
ArtistUnicode:ROSALÍA
Creator:Parachor
Version:Intermediate
Source:
Tags:avant hip hop experimental glitch flamenco el guincho frank dukes noah goldstein vila columbia sony spanish pop single españa spain reguetón reggaeton
BeatmapID:2787881
BeatmapSetID:1067184

[Difficulty]
HPDrainRate:7
CircleSize:4
OverallDifficulty:6.5
ApproachRate:5
SliderMultiplier:1.4
SliderTickRate:1

[Events]
//Background and Video events
0,0,"a-pale-rosalia.jpg",0,0
//Break Periods
//Storyboard Layer 0 (Background)
//Storyboard Layer 1 (Fail)
//Storyboard Layer 2 (Pass)
//Storyboard Layer 3 (Foreground)
//Storyboard Layer 4 (Overlay)
//Storyboard Sound Samples

[TimingPoints]
139,408.163265306122,3,1,1,15,1,0
139,-119.047619047619,3,1,1,15,0,0
29522,487.80487804878,4,1,1,30,1,0
29522,-100,4,1,1,30,0,0
76351,-100,4,1,1,30,0,1
84156,-100,4,1,1,30,0,0
123180,-100,4,1,1,30,0,1
130985,-100,4,1,1,30,0,0
133088,975.609756097561,4,1,1,30,1,0
133088,-50,4,1,1,30,0,0

[HitObjects]
448,192,164,5,0,0:0:0:0:
320,192,1184,128,0,1388:0:0:0:0:
192,192,1618,128,0,1950:0:0:0:0:
320,192,1950,128,0,2383:0:0:0:0:
448,192,2587,128,0,2817:0:0:0:0:
320,192,2817,128,0,3123:0:0:0:0:
192,192,3123,128,0,4424:0:0:0:0:
320,192,5138,128,0,6082:0:0:0:0:
448,192,6082,128,0,6286:0:0:0:0:
320,192,6286,128,0,6542:0:0:0:0:
192,192,6542,128,0,7256:0:0:0:0:
320,192,7256,128,0,7485:0:0:0:0:
192,192,7485,128,0,7741:0:0:0:0:
64,192,7741,128,0,8404:0:0:0:0:
192,192,8404,128,0,9552:0:0:0:0:
320,192,10776,128,0,11210:0:0:0:0:
448,192,11210,128,0,11491:0:0:0:0:
320,192,11491,128,0,11950:0:0:0:0:
192,192,11950,128,0,12281:0:0:0:0:
64,192,12281,128,0,12485:0:0:0:0:
448,192,12485,128,0,12690:0:0:0:0:
320,192,12690,128,0,12919:0:0:0:0:
192,192,12919,128,0,13123:0:0:0:0:
64,192,13123,128,0,14832:0:0:0:0:
192,192,14832,128,0,15751:0:0:0:0:
64,192,15751,128,0,16031:0:0:0:0:
448,192,16031,128,0,16261:0:0:0:0:
320,192,16261,128,0,16618:0:0:0:0:
192,192,16618,128,0,17103:0:0:0:0:
448,192,17103,128,0,17230:0:0:0:0:
320,192,17230,128,0,17562:0:0:0:0:
64,192,17562,128,0,19348:0:0:0:0:
320,192,19781,128,0,20547:0:0:0:0:
192,192,20547,128,0,20751:0:0:0:0:
448,192,20751,128,0,21006:0:0:0:0:
320,192,21006,128,0,21337:0:0:0:0:
192,192,21337,128,0,21848:0:0:0:0:
320,192,21848,128,0,22128:0:0:0:0:
448,192,22128,128,0,22307:0:0:0:0:
320,192,22307,128,0,22562:0:0:0:0:
192,192,22562,128,0,22894:0:0:0:0:
64,192,22894,128,0,24424:0:0:0:0:
320,192,24424,128,0,24756:0:0:0:0:
192,192,24756,128,0,25547:0:0:0:0:
320,192,25547,128,0,25904:0:0:0:0:
448,192,25904,128,0,26133:0:0:0:0:
320,192,26133,128,0,26465:0:0:0:0:
192,192,26465,128,0,26975:0:0:0:0:
448,192,26975,128,0,27128:0:0:0:0:
320,192,27128,128,0,27460:0:0:0:0:
64,192,27460,128,0,28302:0:0:0:0:
448,192,28302,128,0,29522:0:0:0:0:
320,192,28302,128,0,29522:0:0:0:0:
192,192,29522,1,0,0:0:0:0:
64,192,29522,1,0,0:0:0:0:
64,192,29765,1,0,0:0:0:0:
192,192,29887,1,0,0:0:0:0:
448,192,30009,1,0,0:0:0:0:
64,192,30131,1,0,0:0:0:0:
320,192,30253,1,0,0:0:0:0:
64,192,30375,1,0,0:0:0:0:
448,192,30497,1,0,0:0:0:0:
64,192,30619,1,0,0:0:0:0:
448,192,30863,1,0,0:0:0:0:
320,192,30985,1,0,0:0:0:0:
192,192,30985,1,0,0:0:0:0:
448,192,31107,1,0,0:0:0:0:
192,192,31229,1,0,0:0:0:0:
320,192,31351,1,0,0:0:0:0:
64,192,31473,1,0,0:0:0:0:
64,192,31717,1,0,0:0:0:0:
192,192,31839,1,0,0:0:0:0:
448,192,31961,1,0,0:0:0:0:
64,192,32082,1,0,0:0:0:0:
320,192,32204,1,0,0:0:0:0:
64,192,32326,1,0,0:0:0:0:
448,192,32448,1,0,0:0:0:0:
64,192,32570,1,0,0:0:0:0:
192,192,32814,1,0,0:0:0:0:
320,192,32936,128,0,33058:0:0:0:0:
448,192,33058,1,0,0:0:0:0:
192,192,33180,1,0,0:0:0:0:
448,192,33302,1,0,0:0:0:0:
192,192,33424,1,0,0:0:0:0:
64,192,33424,1,0,0:0:0:0:
64,192,33668,1,0,0:0:0:0:
192,192,33790,1,0,0:0:0:0:
448,192,33912,1,0,0:0:0:0:
64,192,34034,1,0,0:0:0:0:
320,192,34156,1,0,0:0:0:0:
64,192,34278,1,0,0:0:0:0:
448,192,34400,1,0,0:0:0:0:
64,192,34521,1,0,0:0:0:0:
192,192,34765,1,0,0:0:0:0:
320,192,34887,1,0,0:0:0:0:
448,192,34887,1,0,0:0:0:0:
192,192,35009,1,0,0:0:0:0:
320,192,35131,128,0,35375:0:0:0:0:
64,192,35375,1,0,0:0:0:0:
64,192,35619,1,0,0:0:0:0:
192,192,35741,1,0,0:0:0:0:
448,192,35863,1,0,0:0:0:0:
64,192,35985,1,0,0:0:0:0:
320,192,36107,1,0,0:0:0:0:
64,192,36229,1,0,0:0:0:0:
448,192,36351,1,0,0:0:0:0:
64,192,36473,1,0,0:0:0:0:
192,192,36717,1,0,0:0:0:0:
320,192,36839,128,0,37082:0:0:0:0:
448,192,37326,128,0,37570:0:0:0:0:
64,192,37326,1,0,0:0:0:0:
320,192,37570,128,0,37814:0:0:0:0:
64,192,37570,1,0,0:0:0:0:
448,192,37814,128,0,38058:0:0:0:0:
64,192,37936,1,0,0:0:0:0:
320,192,38058,128,0,38302:0:0:0:0:
64,192,38180,1,0,0:0:0:0:
448,192,38302,128,0,38546:0:0:0:0:
64,192,38424,1,0,0:0:0:0:
320,192,38546,128,0,38790:0:0:0:0:
448,192,38790,128,0,39034:0:0:0:0:
192,192,38790,1,0,0:0:0:0:
320,192,39034,128,0,39278:0:0:0:0:
448,192,39278,128,0,39765:0:0:0:0:
64,192,39278,1,0,0:0:0:0:
64,192,39521,1,0,0:0:0:0:
320,192,39765,128,0,40009:0:0:0:0:
64,192,39887,1,0,0:0:0:0:
64,192,40131,1,0,0:0:0:0:
448,192,40253,1,0,0:0:0:0:
64,192,40375,1,0,0:0:0:0:
320,192,40619,1,0,0:0:0:0:
192,192,40741,1,0,0:0:0:0:
448,192,40863,1,0,0:0:0:0:
192,192,40985,1,0,0:0:0:0:
320,192,41107,1,0,0:0:0:0:
448,192,41229,128,0,41473:0:0:0:0:
64,192,41229,1,0,0:0:0:0:
320,192,41473,128,0,41717:0:0:0:0:
64,192,41473,1,0,0:0:0:0:
448,192,41717,128,0,41961:0:0:0:0:
64,192,41839,1,0,0:0:0:0:
320,192,41961,128,0,42204:0:0:0:0:
64,192,42082,1,0,0:0:0:0:
448,192,42204,128,0,42448:0:0:0:0:
64,192,42326,1,0,0:0:0:0:
320,192,42448,128,0,42692:0:0:0:0:
448,192,42692,128,0,42936:0:0:0:0:
192,192,42692,1,0,0:0:0:0:
320,192,42936,128,0,43180:0:0:0:0:
448,192,43180,128,0,43668:0:0:0:0:
64,192,43180,1,0,0:0:0:0:
64,192,43424,1,0,0:0:0:0:
320,192,43668,128,0,43912:0:0:0:0:
64,192,43790,1,0,0:0:0:0:
64,192,44034,1,0,0:0:0:0:
448,192,44156,1,0,0:0:0:0:
320,192,44156,1,0,0:0:0:0:
64,192,44278,1,0,0:0:0:0:
192,192,44521,1,0,0:0:0:0:
448,192,44643,1,0,0:0:0:0:
192,192,44765,1,0,0:0:0:0:
320,192,44887,128,0,45131:0:0:0:0:
448,192,45131,128,0,45375:0:0:0:0:
64,192,45131,1,0,0:0:0:0:
320,192,45375,128,0,45619:0:0:0:0:
64,192,45375,1,0,0:0:0:0:
448,192,45619,128,0,45863:0:0:0:0:
64,192,45741,1,0,0:0:0:0:
320,192,45863,128,0,46107:0:0:0:0:
64,192,45985,1,0,0:0:0:0:
448,192,46107,128,0,46351:0:0:0:0:
64,192,46229,1,0,0:0:0:0:
320,192,46351,128,0,46595:0:0:0:0:
448,192,46595,128,0,46839:0:0:0:0:
192,192,46595,1,0,0:0:0:0:
320,192,46839,128,0,47082:0:0:0:0:
448,192,47082,128,0,47570:0:0:0:0:
64,192,47082,1,0,0:0:0:0:
64,192,47326,1,0,0:0:0:0:
320,192,47570,128,0,47814:0:0:0:0:
64,192,47692,1,0,0:0:0:0:
64,192,47936,1,0,0:0:0:0:
448,192,48058,1,0,0:0:0:0:
64,192,48180,1,0,0:0:0:0:
192,192,48424,1,0,0:0:0:0:
448,192,48546,1,0,0:0:0:0:
192,192,48668,1,0,0:0:0:0:
320,192,48790,128,0,49034:0:0:0:0:
448,192,49034,128,0,49278:0:0:0:0:
64,192,49034,1,0,0:0:0:0:
320,192,49278,128,0,49521:0:0:0:0:
64,192,49278,1,0,0:0:0:0:
448,192,49521,128,0,49765:0:0:0:0:
64,192,49643,1,0,0:0:0:0:
320,192,49765,128,0,50009:0:0:0:0:
64,192,49887,1,0,0:0:0:0:
448,192,50009,128,0,50253:0:0:0:0:
64,192,50131,1,0,0:0:0:0:
320,192,50253,128,0,50497:0:0:0:0:
448,192,50497,128,0,50741:0:0:0:0:
192,192,50497,1,0,0:0:0:0:
320,192,50741,128,0,50985:0:0:0:0:
448,192,50985,128,0,51473:0:0:0:0:
64,192,50985,1,0,0:0:0:0:
64,192,51229,1,0,0:0:0:0:
320,192,51473,128,0,51717:0:0:0:0:
64,192,51595,1,0,0:0:0:0:
64,192,51839,1,0,0:0:0:0:
448,192,51961,1,0,0:0:0:0:
64,192,52082,1,0,0:0:0:0:
192,192,52326,1,0,0:0:0:0:
320,192,52448,128,0,52692:0:0:0:0:
64,192,52936,1,0,0:0:0:0:
192,192,52936,1,0,0:0:0:0:
320,192,53058,1,0,0:0:0:0:
192,192,53180,1,0,0:0:0:0:
192,192,53424,1,0,0:0:0:0:
320,192,53546,1,0,0:0:0:0:
192,192,53668,1,0,0:0:0:0:
448,192,53790,1,0,0:0:0:0:
320,192,53912,1,0,0:0:0:0:
192,192,54034,1,0,0:0:0:0:
320,192,54156,1,0,0:0:0:0:
64,192,54400,128,0,54643:0:0:0:0:
192,192,54400,128,0,54643:0:0:0:0:
448,192,54643,1,0,0:0:0:0:
320,192,54887,1,0,0:0:0:0:
192,192,55009,1,0,0:0:0:0:
320,192,55131,1,0,0:0:0:0:
192,192,55375,1,0,0:0:0:0:
320,192,55497,1,0,0:0:0:0:
192,192,55619,1,0,0:0:0:0:
64,192,55741,1,0,0:0:0:0:
320,192,55863,1,0,0:0:0:0:
192,192,55985,1,0,0:0:0:0:
64,192,56229,128,0,56351:0:0:0:0:
448,192,56351,128,0,56595:0:0:0:0:
320,192,56351,128,0,56595:0:0:0:0:
192,192,56595,1,0,0:0:0:0:
320,192,56839,1,0,0:0:0:0:
448,192,56839,1,0,0:0:0:0:
192,192,56961,1,0,0:0:0:0:
320,192,57082,1,0,0:0:0:0:
192,192,57326,1,0,0:0:0:0:
320,192,57448,1,0,0:0:0:0:
192,192,57570,1,0,0:0:0:0:
448,192,57692,1,0,0:0:0:0:
320,192,57814,1,0,0:0:0:0:
64,192,57936,1,0,0:0:0:0:
320,192,58058,1,0,0:0:0:0:
64,192,58302,128,0,58546:0:0:0:0:
192,192,58302,128,0,58546:0:0:0:0:
448,192,58546,1,0,0:0:0:0:
320,192,58790,1,0,0:0:0:0:
192,192,58912,1,0,0:0:0:0:
320,192,59034,1,0,0:0:0:0:
320,192,59278,1,0,0:0:0:0:
192,192,59400,1,0,0:0:0:0:
320,192,59521,1,0,0:0:0:0:
448,192,59643,1,0,0:0:0:0:
192,192,59765,1,0,0:0:0:0:
64,192,59765,1,0,0:0:0:0:
320,192,59887,1,0,0:0:0:0:
192,192,60131,128,0,60253:0:0:0:0:
320,192,60253,128,0,60497:0:0:0:0:
448,192,60253,128,0,60497:0:0:0:0:
64,192,60497,1,0,0:0:0:0:
192,192,60741,1,0,0:0:0:0:
64,192,60741,1,0,0:0:0:0:
320,192,60863,1,0,0:0:0:0:
192,192,60985,1,0,0:0:0:0:
192,192,61229,1,0,0:0:0:0:
320,192,61351,1,0,0:0:0:0:
192,192,61473,1,0,0:0:0:0:
64,192,61595,1,0,0:0:0:0:
448,192,61717,1,0,0:0:0:0:
320,192,61839,1,0,0:0:0:0:
448,192,61961,1,0,0:0:0:0:
64,192,62204,128,0,62448:0:0:0:0:
192,192,62204,128,0,62448:0:0:0:0:
320,192,62448,1,0,0:0:0:0:
192,192,62692,1,0,0:0:0:0:
320,192,62814,1,0,0:0:0:0:
192,192,62936,1,0,0:0:0:0:
320,192,63180,1,0,0:0:0:0:
192,192,63302,1,0,0:0:0:0:
320,192,63424,1,0,0:0:0:0:
64,192,63546,1,0,0:0:0:0:
320,192,63668,1,0,0:0:0:0:
448,192,63790,1,0,0:0:0:0:
192,192,64034,128,0,64156:0:0:0:0:
448,192,64156,128,0,64400:0:0:0:0:
320,192,64156,128,0,64400:0:0:0:0:
64,192,64400,1,0,0:0:0:0:
64,192,64643,1,0,0:0:0:0:
192,192,64643,1,0,0:0:0:0:
320,192,64765,1,0,0:0:0:0:
192,192,64887,1,0,0:0:0:0:
320,192,65131,1,0,0:0:0:0:
192,192,65253,1,0,0:0:0:0:
320,192,65375,1,0,0:0:0:0:
64,192,65497,1,0,0:0:0:0:
192,192,65619,1,0,0:0:0:0:
448,192,65741,1,0,0:0:0:0:
320,192,65985,1,0,0:0:0:0:
64,192,66107,128,0,66351:0:0:0:0:
192,192,66107,128,0,66351:0:0:0:0:
448,192,66351,1,0,0:0:0:0:
192,192,66595,1,0,0:0:0:0:
320,192,66717,1,0,0:0:0:0:
192,192,66839,1,0,0:0:0:0:
320,192,67082,1,0,0:0:0:0:
192,192,67204,1,0,0:0:0:0:
320,192,67326,1,0,0:0:0:0:
64,192,67448,1,0,0:0:0:0:
320,192,67570,1,0,0:0:0:0:
192,192,67570,1,0,0:0:0:0:
448,192,67692,1,0,0:0:0:0:
320,192,67936,1,0,0:0:0:0:
64,192,68058,1,0,0:0:0:0:
64,192,68546,1,0,0:0:0:0:
448,192,68546,128,0,68790:0:0:0:0:
320,192,68790,1,0,0:0:0:0:
192,192,68790,1,0,0:0:0:0:
448,192,69034,128,0,69278:0:0:0:0:
64,192,69156,1,0,0:0:0:0:
320,192,69278,1,0,0:0:0:0:
64,192,69400,1,0,0:0:0:0:
448,192,69521,128,0,69765:0:0:0:0:
64,192,69643,1,0,0:0:0:0:
320,192,69765,1,0,0:0:0:0:
448,192,70009,128,0,70253:0:0:0:0:
192,192,70009,1,0,0:0:0:0:
320,192,70253,1,0,0:0:0:0:
64,192,70253,1,0,0:0:0:0:
448,192,70497,128,0,70741:0:0:0:0:
192,192,70497,1,0,0:0:0:0:
320,192,70741,1,0,0:0:0:0:
64,192,70741,1,0,0:0:0:0:
448,192,70985,128,0,71229:0:0:0:0:
64,192,71107,1,0,0:0:0:0:
320,192,71229,1,0,0:0:0:0:
64,192,71351,1,0,0:0:0:0:
448,192,71473,128,0,71717:0:0:0:0:
64,192,71595,1,0,0:0:0:0:
320,192,71717,1,0,0:0:0:0:
448,192,71961,1,0,0:0:0:0:
192,192,71961,1,0,0:0:0:0:
320,192,72204,1,0,0:0:0:0:
64,192,72448,128,0,72692:0:0:0:0:
448,192,72448,1,0,0:0:0:0:
192,192,72692,1,0,0:0:0:0:
320,192,72692,1,0,0:0:0:0:
64,192,72936,128,0,73180:0:0:0:0:
448,192,73058,1,0,0:0:0:0:
192,192,73180,1,0,0:0:0:0:
448,192,73302,1,0,0:0:0:0:
64,192,73424,128,0,73668:0:0:0:0:
448,192,73546,1,0,0:0:0:0:
192,192,73668,1,0,0:0:0:0:
64,192,73912,128,0,74156:0:0:0:0:
320,192,73912,1,0,0:0:0:0:
192,192,74156,1,0,0:0:0:0:
448,192,74156,1,0,0:0:0:0:
64,192,74400,128,0,74643:0:0:0:0:
320,192,74400,1,0,0:0:0:0:
192,192,74643,1,0,0:0:0:0:
448,192,74643,1,0,0:0:0:0:
64,192,74887,128,0,75131:0:0:0:0:
448,192,75009,1,0,0:0:0:0:
192,192,75131,1,0,0:0:0:0:
448,192,75253,1,0,0:0:0:0:
64,192,75375,128,0,75619:0:0:0:0:
320,192,75375,1,0,0:0:0:0:
448,192,75497,1,0,0:0:0:0:
192,192,75619,1,0,0:0:0:0:
320,192,75863,1,0,0:0:0:0:
320,192,76026,1,0,0:0:0:0:
320,192,76188,1,0,0:0:0:0:
64,192,76351,128,0,76595:0:0:0:0:
448,192,76351,128,0,76595:0:0:0:0:
192,192,76595,128,0,76961:0:0:0:0:
320,192,76595,1,0,0:0:0:0:
448,192,76839,128,0,77082:0:0:0:0:
64,192,76961,128,0,77204:0:0:0:0:
320,192,77082,1,0,0:0:0:0:
192,192,77204,128,0,77448:0:0:0:0:
448,192,77326,128,0,77570:0:0:0:0:
64,192,77448,128,0,77814:0:0:0:0:
320,192,77570,1,0,0:0:0:0:
192,192,77814,1,0,0:0:0:0:
448,192,77814,128,0,78058:0:0:0:0:
64,192,78058,128,0,78302:0:0:0:0:
320,192,78058,1,0,0:0:0:0:
192,192,78302,128,0,78546:0:0:0:0:
448,192,78302,128,0,78546:0:0:0:0:
64,192,78546,128,0,78912:0:0:0:0:
320,192,78546,1,0,0:0:0:0:
448,192,78790,128,0,79034:0:0:0:0:
192,192,78912,128,0,79156:0:0:0:0:
320,192,79034,1,0,0:0:0:0:
64,192,79156,128,0,79400:0:0:0:0:
448,192,79278,128,0,79521:0:0:0:0:
192,192,79400,128,0,79765:0:0:0:0:
320,192,79521,1,0,0:0:0:0:
448,192,79765,1,0,0:0:0:0:
320,192,80009,1,0,0:0:0:0:
448,192,80253,128,0,80497:0:0:0:0:
64,192,80253,128,0,80497:0:0:0:0:
320,192,80497,128,0,80863:0:0:0:0:
192,192,80497,1,0,0:0:0:0:
64,192,80741,128,0,80985:0:0:0:0:
448,192,80863,128,0,81107:0:0:0:0:
192,192,80985,1,0,0:0:0:0:
320,192,81107,128,0,81351:0:0:0:0:
64,192,81229,128,0,81473:0:0:0:0:
448,192,81351,128,0,81717:0:0:0:0:
192,192,81473,1,0,0:0:0:0:
320,192,81717,1,0,0:0:0:0:
64,192,81717,128,0,81961:0:0:0:0:
448,192,81961,128,0,82204:0:0:0:0:
192,192,81961,1,0,0:0:0:0:
320,192,82204,128,0,82448:0:0:0:0:
64,192,82204,128,0,82448:0:0:0:0:
448,192,82448,128,0,82814:0:0:0:0:
192,192,82448,1,0,0:0:0:0:
64,192,82692,128,0,82936:0:0:0:0:
320,192,82814,128,0,83058:0:0:0:0:
192,192,82936,1,0,0:0:0:0:
448,192,83058,128,0,83302:0:0:0:0:
64,192,83180,128,0,83424:0:0:0:0:
320,192,83302,128,0,83668:0:0:0:0:
192,192,83424,1,0,0:0:0:0:
448,192,83668,1,0,0:0:0:0:
64,192,83668,1,0,0:0:0:0:
448,192,83830,1,0,0:0:0:0:
448,192,83993,1,0,0:0:0:0:
192,192,84156,128,0,84400:0:0:0:0:
64,192,84400,128,0,84643:0:0:0:0:
192,192,84643,128,0,84887:0:0:0:0:
64,192,84887,128,0,85131:0:0:0:0:
192,192,85131,128,0,85375:0:0:0:0:
64,192,85375,128,0,85619:0:0:0:0:
192,192,85619,128,0,85863:0:0:0:0:
64,192,85863,128,0,86107:0:0:0:0:
192,192,86107,128,0,87082:0:0:0:0:
64,192,86595,128,0,87570:0:0:0:0:
448,192,87570,1,0,0:0:0:0:
192,192,88058,128,0,88302:0:0:0:0:
320,192,88058,1,0,0:0:0:0:
64,192,88302,128,0,88546:0:0:0:0:
192,192,88546,128,0,88790:0:0:0:0:
64,192,88790,128,0,89034:0:0:0:0:
192,192,89034,128,0,89278:0:0:0:0:
64,192,89278,128,0,89521:0:0:0:0:
448,192,89521,128,0,89765:0:0:0:0:
320,192,89521,1,0,0:0:0:0:
320,192,89765,128,0,90009:0:0:0:0:
448,192,90009,128,0,90253:0:0:0:0:
320,192,90253,128,0,90497:0:0:0:0:
192,192,90497,128,0,90741:0:0:0:0:
64,192,90741,128,0,90985:0:0:0:0:
192,192,90985,128,0,91473:0:0:0:0:
320,192,90985,1,0,0:0:0:0:
64,192,91473,128,0,91717:0:0:0:0:
448,192,91473,1,0,0:0:0:0:
192,192,91961,128,0,92204:0:0:0:0:
448,192,91961,1,0,0:0:0:0:
64,192,92204,128,0,92448:0:0:0:0:
448,192,92204,1,0,0:0:0:0:
192,192,92448,128,0,92692:0:0:0:0:
448,192,92570,1,0,0:0:0:0:
64,192,92692,128,0,92936:0:0:0:0:
448,192,92814,1,0,0:0:0:0:
192,192,92936,128,0,93180:0:0:0:0:
448,192,93058,1,0,0:0:0:0:
64,192,93180,128,0,93424:0:0:0:0:
192,192,93424,128,0,93668:0:0:0:0:
320,192,93424,1,0,0:0:0:0:
64,192,93668,128,0,93912:0:0:0:0:
192,192,93912,128,0,94400:0:0:0:0:
448,192,93912,1,0,0:0:0:0:
448,192,94156,1,0,0:0:0:0:
64,192,94400,128,0,94643:0:0:0:0:
448,192,94521,1,0,0:0:0:0:
448,192,94765,1,0,0:0:0:0:
448,192,95009,1,0,0:0:0:0:
320,192,95375,1,0,0:0:0:0:
64,192,95619,128,0,95863:0:0:0:0:
192,192,95863,128,0,96107:0:0:0:0:
448,192,95863,1,0,0:0:0:0:
64,192,96107,128,0,96351:0:0:0:0:
448,192,96107,1,0,0:0:0:0:
192,192,96351,128,0,96595:0:0:0:0:
448,192,96473,1,0,0:0:0:0:
64,192,96595,128,0,96839:0:0:0:0:
448,192,96717,1,0,0:0:0:0:
320,192,96839,128,0,97001:0:0:0:0:
192,192,97001,128,0,97164:0:0:0:0:
64,192,97164,128,0,97326:0:0:0:0:
192,192,97326,128,0,97570:0:0:0:0:
320,192,97326,1,0,0:0:0:0:
64,192,97570,128,0,97814:0:0:0:0:
192,192,97814,128,0,98302:0:0:0:0:
448,192,97814,1,0,0:0:0:0:
448,192,98058,1,0,0:0:0:0:
64,192,98302,128,0,98546:0:0:0:0:
320,192,98912,1,0,0:0:0:0:
448,192,98993,1,0,0:0:0:0:
320,192,99156,1,0,0:0:0:0:
448,192,99278,1,0,0:0:0:0:
64,192,99765,1,0,0:0:0:0:
192,192,99765,1,0,0:0:0:0:
320,192,99887,1,0,0:0:0:0:
192,192,100009,1,0,0:0:0:0:
192,192,100253,1,0,0:0:0:0:
320,192,100375,1,0,0:0:0:0:
192,192,100497,1,0,0:0:0:0:
448,192,100619,1,0,0:0:0:0:
320,192,100741,1,0,0:0:0:0:
192,192,100863,1,0,0:0:0:0:
320,192,100985,1,0,0:0:0:0:
64,192,101229,128,0,101473:0:0:0:0:
192,192,101351,128,0,101473:0:0:0:0:
448,192,101473,1,0,0:0:0:0:
320,192,101717,1,0,0:0:0:0:
192,192,101839,1,0,0:0:0:0:
320,192,101961,1,0,0:0:0:0:
192,192,102204,1,0,0:0:0:0:
320,192,102326,1,0,0:0:0:0:
192,192,102448,1,0,0:0:0:0:
64,192,102570,1,0,0:0:0:0:
320,192,102692,1,0,0:0:0:0:
448,192,102814,1,0,0:0:0:0:
64,192,103058,128,0,103180:0:0:0:0:
192,192,103058,128,0,103180:0:0:0:0:
448,192,103180,128,0,103424:0:0:0:0:
320,192,103180,128,0,103424:0:0:0:0:
192,192,103424,1,0,0:0:0:0:
320,192,103668,1,0,0:0:0:0:
448,192,103668,1,0,0:0:0:0:
192,192,103790,1,0,0:0:0:0:
320,192,103912,1,0,0:0:0:0:
192,192,104156,1,0,0:0:0:0:
320,192,104278,1,0,0:0:0:0:
192,192,104400,1,0,0:0:0:0:
448,192,104521,1,0,0:0:0:0:
320,192,104643,1,0,0:0:0:0:
64,192,104765,1,0,0:0:0:0:
320,192,104887,1,0,0:0:0:0:
64,192,105131,128,0,105619:0:0:0:0:
192,192,105131,128,0,105375:0:0:0:0:
320,192,105375,1,0,0:0:0:0:
320,192,105619,1,0,0:0:0:0:
192,192,105741,1,0,0:0:0:0:
320,192,105863,1,0,0:0:0:0:
320,192,106107,1,0,0:0:0:0:
192,192,106229,1,0,0:0:0:0:
320,192,106351,1,0,0:0:0:0:
448,192,106473,1,0,0:0:0:0:
192,192,106595,1,0,0:0:0:0:
64,192,106595,1,0,0:0:0:0:
320,192,106717,1,0,0:0:0:0:
192,192,106839,128,0,106961:0:0:0:0:
64,192,106961,128,0,107082:0:0:0:0:
320,192,107082,128,0,107326:0:0:0:0:
448,192,107082,128,0,107326:0:0:0:0:
192,192,107326,128,0,107570:0:0:0:0:
64,192,107570,1,0,0:0:0:0:
448,192,107570,1,0,0:0:0:0:
320,192,107692,1,0,0:0:0:0:
192,192,107814,1,0,0:0:0:0:
192,192,108058,1,0,0:0:0:0:
320,192,108180,1,0,0:0:0:0:
192,192,108302,1,0,0:0:0:0:
64,192,108424,1,0,0:0:0:0:
448,192,108546,1,0,0:0:0:0:
320,192,108668,1,0,0:0:0:0:
448,192,108790,1,0,0:0:0:0:
64,192,109034,128,0,109278:0:0:0:0:
192,192,109034,128,0,109278:0:0:0:0:
320,192,109278,1,0,0:0:0:0:
192,192,109521,1,0,0:0:0:0:
320,192,109643,1,0,0:0:0:0:
192,192,109765,1,0,0:0:0:0:
320,192,110009,1,0,0:0:0:0:
192,192,110131,1,0,0:0:0:0:
320,192,110253,1,0,0:0:0:0:
64,192,110375,1,0,0:0:0:0:
320,192,110497,1,0,0:0:0:0:
448,192,110619,1,0,0:0:0:0:
192,192,110863,128,0,110985:0:0:0:0:
448,192,110985,128,0,111229:0:0:0:0:
320,192,110985,128,0,111229:0:0:0:0:
64,192,111229,1,0,0:0:0:0:
64,192,111473,1,0,0:0:0:0:
192,192,111473,1,0,0:0:0:0:
448,192,111595,1,0,0:0:0:0:
192,192,111717,1,0,0:0:0:0:
320,192,111961,1,0,0:0:0:0:
64,192,112082,1,0,0:0:0:0:
320,192,112204,1,0,0:0:0:0:
192,192,112326,1,0,0:0:0:0:
448,192,112448,1,0,0:0:0:0:
192,192,112570,1,0,0:0:0:0:
320,192,112814,1,0,0:0:0:0:
64,192,112936,128,0,113180:0:0:0:0:
192,192,112936,128,0,113180:0:0:0:0:
448,192,113180,1,0,0:0:0:0:
192,192,113424,1,0,0:0:0:0:
320,192,113546,1,0,0:0:0:0:
192,192,113668,1,0,0:0:0:0:
320,192,113912,1,0,0:0:0:0:
192,192,114034,1,0,0:0:0:0:
320,192,114156,1,0,0:0:0:0:
448,192,114278,1,0,0:0:0:0:
192,192,114400,1,0,0:0:0:0:
64,192,114887,128,0,115131:0:0:0:0:
448,192,114887,128,0,115131:0:0:0:0:
64,192,115375,1,0,0:0:0:0:
448,192,115375,128,0,115619:0:0:0:0:
320,192,115619,1,0,0:0:0:0:
192,192,115619,1,0,0:0:0:0:
448,192,115863,128,0,116107:0:0:0:0:
64,192,115985,1,0,0:0:0:0:
320,192,116107,1,0,0:0:0:0:
64,192,116229,1,0,0:0:0:0:
448,192,116351,128,0,116595:0:0:0:0:
64,192,116473,1,0,0:0:0:0:
320,192,116595,1,0,0:0:0:0:
448,192,116839,128,0,117082:0:0:0:0:
192,192,116839,1,0,0:0:0:0:
320,192,117082,1,0,0:0:0:0:
64,192,117082,1,0,0:0:0:0:
448,192,117326,128,0,117570:0:0:0:0:
192,192,117326,1,0,0:0:0:0:
320,192,117570,1,0,0:0:0:0:
64,192,117570,1,0,0:0:0:0:
448,192,117814,128,0,118058:0:0:0:0:
64,192,117936,1,0,0:0:0:0:
320,192,118058,1,0,0:0:0:0:
64,192,118180,1,0,0:0:0:0:
448,192,118302,128,0,118546:0:0:0:0:
64,192,118424,1,0,0:0:0:0:
320,192,118546,1,0,0:0:0:0:
448,192,118790,1,0,0:0:0:0:
192,192,118790,1,0,0:0:0:0:
320,192,119034,1,0,0:0:0:0:
64,192,119278,128,0,119521:0:0:0:0:
448,192,119278,1,0,0:0:0:0:
192,192,119521,1,0,0:0:0:0:
320,192,119521,1,0,0:0:0:0:
64,192,119765,128,0,120009:0:0:0:0:
448,192,119887,1,0,0:0:0:0:
192,192,120009,1,0,0:0:0:0:
448,192,120131,1,0,0:0:0:0:
64,192,120253,128,0,120497:0:0:0:0:
448,192,120375,1,0,0:0:0:0:
192,192,120497,1,0,0:0:0:0:
64,192,120741,128,0,120985:0:0:0:0:
320,192,120741,1,0,0:0:0:0:
192,192,120985,1,0,0:0:0:0:
448,192,120985,1,0,0:0:0:0:
64,192,121229,128,0,121473:0:0:0:0:
320,192,121229,1,0,0:0:0:0:
192,192,121473,1,0,0:0:0:0:
448,192,121473,1,0,0:0:0:0:
64,192,121717,128,0,121961:0:0:0:0:
448,192,121839,1,0,0:0:0:0:
192,192,121961,1,0,0:0:0:0:
448,192,122082,1,0,0:0:0:0:
64,192,122204,128,0,122448:0:0:0:0:
320,192,122204,1,0,0:0:0:0:
448,192,122326,1,0,0:0:0:0:
192,192,122448,1,0,0:0:0:0:
320,192,122692,1,0,0:0:0:0:
320,192,122855,1,0,0:0:0:0:
320,192,123017,1,0,0:0:0:0:
64,192,123180,128,0,123424:0:0:0:0:
448,192,123180,128,0,123424:0:0:0:0:
192,192,123424,128,0,123790:0:0:0:0:
320,192,123424,1,0,0:0:0:0:
448,192,123668,128,0,123912:0:0:0:0:
64,192,123790,128,0,124034:0:0:0:0:
320,192,123912,1,0,0:0:0:0:
192,192,124034,128,0,124278:0:0:0:0:
448,192,124156,128,0,124400:0:0:0:0:
64,192,124278,128,0,124643:0:0:0:0:
320,192,124400,1,0,0:0:0:0:
192,192,124643,1,0,0:0:0:0:
448,192,124643,128,0,124887:0:0:0:0:
64,192,124887,128,0,125131:0:0:0:0:
320,192,124887,1,0,0:0:0:0:
192,192,125131,128,0,125375:0:0:0:0:
448,192,125131,128,0,125375:0:0:0:0:
64,192,125375,128,0,125741:0:0:0:0:
320,192,125375,1,0,0:0:0:0:
448,192,125619,128,0,125863:0:0:0:0:
192,192,125741,128,0,125985:0:0:0:0:
320,192,125863,1,0,0:0:0:0:
64,192,125985,128,0,126229:0:0:0:0:
448,192,126107,128,0,126351:0:0:0:0:
192,192,126229,128,0,126595:0:0:0:0:
320,192,126351,1,0,0:0:0:0:
448,192,126595,1,0,0:0:0:0:
320,192,126839,1,0,0:0:0:0:
448,192,127082,128,0,127326:0:0:0:0:
64,192,127082,128,0,127326:0:0:0:0:
320,192,127326,128,0,127692:0:0:0:0:
192,192,127326,1,0,0:0:0:0:
64,192,127570,128,0,127814:0:0:0:0:
448,192,127692,128,0,127936:0:0:0:0:
192,192,127814,1,0,0:0:0:0:
320,192,127936,128,0,128180:0:0:0:0:
64,192,128058,128,0,128302:0:0:0:0:
448,192,128180,128,0,128546:0:0:0:0:
192,192,128302,1,0,0:0:0:0:
320,192,128546,1,0,0:0:0:0:
64,192,128546,128,0,128790:0:0:0:0:
448,192,128790,128,0,129034:0:0:0:0:
192,192,128790,1,0,0:0:0:0:
320,192,129034,128,0,129278:0:0:0:0:
64,192,129034,128,0,129278:0:0:0:0:
448,192,129278,128,0,129643:0:0:0:0:
192,192,129278,128,0,129521:0:0:0:0:
64,192,129521,128,0,129765:0:0:0:0:
320,192,129643,128,0,129887:0:0:0:0:
192,192,129765,128,0,130009:0:0:0:0:
448,192,129887,128,0,130131:0:0:0:0:
64,192,130009,128,0,130253:0:0:0:0:
320,192,130131,128,0,130497:0:0:0:0:
192,192,130253,128,0,130497:0:0:0:0:
448,192,130497,1,0,0:0:0:0:
64,192,130497,1,0,0:0:0:0:
448,192,130660,1,0,0:0:0:0:
448,192,130822,1,0,0:0:0:0:
448,192,131961,128,0,132113:0:0:0:0:
320,192,132113,128,0,132235:0:0:0:0:
192,192,132235,128,0,132387:0:0:0:0:
64,192,132387,128,0,132570:0:0:0:0:
320,192,132570,128,0,133088:0:0:0:0:
448,192,133088,128,0,134063:0:0:0:0:
192,192,133088,1,0,0:0:0:0:
64,192,133088,1,0,0:0:0:0:
192,192,134063,1,0,0:0:0:0:
320,192,134063,1,0,0:0:0:0:
448,192,135039,128,0,135831:0:0:0:0:
320,192,135039,128,0,135831:0:0:0:0:
64,192,135527,128,0,135831:0:0:0:0:
192,192,135527,128,0,135831:0:0:0:0:
64,192,136014,1,0,0:0:0:0:
448,192,136014,1,0,0:0:0:0:
64,192,136258,1,0,0:0:0:0:
448,192,136258,1,0,0:0:0:0:
64,192,136502,1,0,0:0:0:0:
448,192,136502,1,0,0:0:0:0:
320,192,137051,128,0,137966:0:0:0:0:
64,192,137722,1,0,0:0:0:0:
192,192,137722,1,0,0:0:0:0:
64,192,137966,1,0,0:0:0:0:
192,192,137966,1,0,0:0:0:0:
320,192,138209,1,0,0:0:0:0:
320,192,138453,1,0,0:0:0:0:
320,192,138697,1,0,0:0:0:0:
192,192,138779,1,0,0:0:0:0:
64,192,138860,1,0,0:0:0:0:
320,192,138941,1,0,0:0:0:0:
320,192,139185,1,0,0:0:0:0:
64,192,139429,1,0,0:0:0:0:
192,192,139429,128,0,139734:0:0:0:0:
64,192,139734,128,0,139978:0:0:0:0:
448,192,139978,128,0,140344:0:0:0:0:
