osu file format v14

[General]
AudioFilename: audio.mp3
AudioLeadIn: 0
PreviewTime: 39831
Countdown: 0
SampleSet: Soft
StackLeniency: 0.7
Mode: 0
LetterboxInBreaks: 0
WidescreenStoryboard: 1

[Editor]
DistanceSpacing: 1.1
BeatDivisor: 4
GridSize: 32
TimelineZoom: 2

[Metadata]
Title:Song for... (TV Size)
TitleUnicode:Song for... (TV Size)
Artist:ROOKiEZ is PUNK'D
ArtistUnicode:ROOKiEZ is PUNK'D
Creator:-Mikan
Version:Normal
Source:BLEACH
Tags:schoolboy Komore AYE1337 japanese rock jrock anime ed ending 市丸 ギン Ichimaru Gin ブリーチ
BeatmapID:2485514
BeatmapSetID:1186654

[Difficulty]
HPDrainRate:5
CircleSize:3.4
OverallDifficulty:5
ApproachRate:6
SliderMultiplier:1.5
SliderTickRate:1

[Events]
//Background and Video events
0,0,"bg.jpg",0,0
Video,50,"vid.mp4"
//Break Periods
//Storyboard Layer 0 (Background)
//Storyboard Layer 1 (Fail)
//Storyboard Layer 2 (Pass)
//Storyboard Layer 3 (Foreground)
//Storyboard Layer 4 (Overlay)
//Storyboard Sound Samples

[TimingPoints]
498,666.666666666667,4,2,1,50,1,0
3081,-100,4,2,1,5,0,0
3164,-100,4,2,1,70,0,0
4331,-100,4,2,1,60,0,0
5081,-100,4,2,1,5,0,0
5164,-100,4,2,1,60,0,0
5331,-100,4,2,1,60,0,0
6164,-100,4,2,1,60,0,0
7998,-100,4,2,1,60,0,0
8498,-100,4,2,1,60,0,0
11414,-100,4,2,1,5,0,0
11498,-100,4,2,1,60,0,0
13498,-100,4,2,1,60,0,0
13748,-100,4,2,1,5,0,0
13831,-100,4,2,1,60,0,0
14831,-100,4,2,1,60,0,0
15164,-100,4,2,1,60,0,0
16498,-100,4,2,1,60,0,0
22081,-100,4,2,1,5,0,0
22164,-100,4,2,1,60,0,0
23164,-100,4,2,1,60,0,0
24164,-100,4,2,1,60,0,0
24414,-100,4,2,1,5,0,0
24498,-100,4,2,1,70,0,0
29831,-100,4,2,1,60,0,0
30498,-100,4,2,1,70,0,0
31164,-100,4,2,1,60,0,0
31831,-100,4,2,1,70,0,0
32498,-100,4,2,1,60,0,0
33164,-100,4,2,1,70,0,0
33831,-100,4,2,1,60,0,0
34498,-100,4,2,1,70,0,0
39081,-100,4,2,1,5,0,0
39164,-100,4,2,1,60,0,0
40498,659.340659340659,4,2,1,80,1,1
40498,-100,4,2,1,80,0,1
41157,666.666666666667,4,2,1,80,1,1
41157,-100,4,2,1,80,0,1
41740,-100,4,2,1,5,0,1
41823,-100,4,2,1,80,0,1
43073,-100,4,2,1,5,0,1
43157,666.666666666667,4,2,1,80,1,1
43157,-100,4,2,1,80,0,1
45407,-100,4,2,1,5,0,1
45490,-100,4,2,1,80,0,1
47073,-100,4,2,1,5,0,1
47157,-100,4,2,1,80,0,1
48740,-100,4,2,1,5,0,1
48823,-100,4,2,1,80,0,1
50740,-100,4,2,1,5,0,1
50823,-100,4,2,1,80,0,1
57740,-100,4,2,1,5,0,1
57823,-100,4,2,1,80,0,1
58740,-100,4,2,1,5,0,1
58823,-100,4,2,1,80,0,1
61157,-100,4,2,1,90,0,1
61657,-100,4,2,1,80,0,0
62498,666.666666666667,4,2,1,80,1,0
62498,-100,4,2,1,80,0,1
63831,-100,4,2,1,80,0,1
65164,638.297872340426,4,2,1,80,1,1
65808,625,4,2,1,80,1,1
65808,-100,4,2,1,80,0,1
66120,-101.010101010101,4,2,1,80,0,1
66537,750,4,2,1,80,1,1
67149,666.666666666667,4,2,1,80,1,1
67149,-100,4,2,1,80,0,1
70065,-100,4,2,1,5,0,1
70149,-100,4,2,1,80,0,1
77830,666.666666666667,4,2,1,80,1,1
77830,-100,4,2,1,80,0,1
79746,-100,4,2,1,5,0,1
79830,-100,4,2,1,80,0,1
81164,-100,4,2,1,80,0,1
81497,-100,4,2,1,80,0,1
81830,-100,4,2,1,85,0,1
82163,-100,4,2,1,90,0,1
82498,-100,4,2,1,95,0,1
83163,-100,4,2,1,80,0,0
84496,-100,4,2,1,70,0,0
85830,-100,4,2,1,60,0,0
86496,-100,4,2,1,50,0,0
87163,-100,4,2,1,40,0,0
87830,-100,4,2,1,20,0,0
88496,-100,4,2,1,5,0,0

[Colours]
Combo1 : 180,236,252
Combo2 : 211,187,253

[HitObjects]
39,102,498,6,0,P|84:91|126:86,1,75
174,33,1164,2,0,L|221:43,1,37.5,2|0,0:0|0:0,0:0:0:0:
249,26,1498,2,0,P|289:57|275:162,1,150,2|2,0:0|0:0,0:0:0:0:
221,200,2498,2,0,L|164:190,1,37.5,2|0,0:0|0:0,0:0:0:0:
146,210,2831,1,2,0:0:0:0:
78,257,3164,6,0,L|88:358,1,75,4|0,3:2|3:0,0:0:0:0:
118,356,3664,1,0,3:0:0:0:
118,356,3831,2,0,P|174:344|218:341,1,75,8|0,0:0|0:0,0:0:0:0:
229,359,4331,1,0,3:0:0:0:
336,297,4831,2,0,L|401:309,1,37.5,2|0,0:0|0:0,0:0:0:0:
412,292,5164,2,0,P|433:257|426:202,1,75,10|0,0:0|0:0,0:0:0:0:
401,197,5664,5,0,0:0:0:0:
401,197,5831,2,0,P|385:151|392:107,1,75,2|2,3:2|0:0,0:0:0:0:
417,98,6331,1,0,3:0:0:0:
417,98,6498,1,10,0:0:0:0:
369,30,6831,1,0,3:0:0:0:
290,56,7164,2,0,L|206:43,1,75,2|0,0:0|3:0,0:0:0:0:
179,63,7664,1,0,0:0:0:0:
179,63,7831,2,0,L|190:122,2,37.5,10|0|0,0:0|3:0|0:0,0:0:0:0:
104,27,8498,6,0,L|18:37,1,75,2|0,3:2|0:0,0:0:0:0:
9,71,8998,1,0,3:0:0:0:
9,71,9164,2,0,L|25:158,1,75,8|0,0:0|3:0,0:0:0:0:
93,187,9831,1,2,0:0:0:0:
50,257,10164,1,0,3:0:0:0:
116,305,10498,2,0,L|179:312,1,37.5,10|0,0:0|3:0,0:0:0:0:
192,295,10831,2,0,L|246:301,1,37.5,2|2,0:0|0:0,0:0:0:0:
267,284,11164,2,0,P|286:220|276:181,1,75,2|2,3:2|3:2,0:0:0:0:
252,188,11664,1,0,3:0:0:0:
252,188,11831,2,0,P|229:137|231:103,1,75,8|2,0:0|3:2,0:0:0:0:
279,53,12498,6,0,P|320:59|371:59,1,75,2|2,0:0|3:0,0:0:0:0:
427,24,13164,2,0,L|484:13,1,37.5,10|10,0:0|0:0,0:0:0:0:
496,41,13498,1,2,0:3:0:0:
507,122,13831,6,0,P|496:159|487:205,1,75,4|0,3:2|0:0,0:0:0:0:
451,211,14331,1,0,3:0:0:0:
451,211,14498,1,8,0:0:0:0:
401,276,14831,2,0,L|336:288,1,37.5,2|0,3:2|0:0,0:0:0:0:
336,313,15164,2,0,L|245:301,1,75,2|0,0:2|3:0,0:0:0:0:
184,333,15831,1,10,0:0:0:0:
184,333,15998,2,0,L|95:348,1,75,0|2,3:0|0:0,0:0:0:0:
71,329,16498,6,0,P|39:274|42:242,1,75,2|2,3:2|0:0,0:0:0:0:
58,228,16998,1,0,3:0:0:0:
58,228,17164,1,10,0:0:0:0:
4,165,17498,1,0,3:0:0:0:
54,99,17831,2,0,L|137:114,1,75,2|2,0:0|3:2,0:0:0:0:
163,91,18331,1,0,0:0:0:0:
163,91,18498,2,0,L|155:45,2,37.5,10|0|0,0:0|3:0|0:0,0:0:0:0:
243,74,19164,6,0,B|312:73|285:117|362:116,1,112.5,2|0,3:2|3:0,0:0:0:0:
382,98,19831,2,0,L|393:41,1,37.5,8|0,0:0|0:0,0:0:0:0:
425,40,20164,1,0,3:0:0:0:
499,75,20498,1,2,0:0:0:0:
505,157,20831,1,0,3:0:0:0:
441,208,21164,6,0,L|382:200,1,37.5,8|0,0:0|3:0,0:0:0:0:
364,217,21498,2,0,L|372:264,1,37.5,2|2,0:0|0:0,0:0:0:0:
343,285,21831,2,0,L|238:277,1,75,2|2,3:2|0:0,0:0:0:0:
237,306,22331,1,0,3:0:0:0:
237,306,22498,1,8,0:0:0:0:
172,357,22831,5,0,3:0:0:0:
99,317,23164,2,0,L|105:266,1,37.5,12|2,0:0|0:0,0:0:0:0:
79,245,23498,2,0,L|85:194,1,37.5,4|10,3:2|0:0,0:0:0:0:
55,177,23831,2,0,L|2:185,2,37.5,8|10|2,0:0|0:0|0:3,0:0:0:0:
101,108,24498,6,0,L|166:117,1,37.5,6|2,3:2|0:0,0:0:0:0:
170,87,24831,2,0,L|160:23,1,37.5,2|2,0:0|0:0,0:0:0:0:
192,20,25164,1,8,0:0:0:0:
264,59,25498,2,0,L|259:108,1,37.5,2|2,3:2|3:2,0:0:0:0:
288,126,25831,2,0,L|345:133,1,37.5,2|2,0:0|0:0,0:0:0:0:
359,108,26164,1,0,0:0:0:0:
411,171,26498,2,0,L|461:163,1,37.5,10|0,0:0|0:0,0:0:0:0:
486,179,26831,1,2,0:0:0:0:
500,260,27164,6,0,L|491:309,1,37.5,2|2,3:2|3:2,0:0:0:0:
461,324,27498,2,0,L|410:328,1,37.5,2|2,0:0|0:0,0:0:0:0:
396,295,27831,1,8,0:0:0:0:
332,347,28164,2,0,L|271:343,1,37.5,2|2,3:2|3:2,0:0:0:0:
260,320,28498,2,0,L|249:267,1,37.5,2|0,0:0|0:0,0:0:0:0:
271,246,28831,1,2,0:0:0:0:
194,214,29164,2,0,L|116:227,1,75,10|2,0:0|0:0,0:0:0:0:
89,253,29664,1,8,0:0:0:0:
89,253,29831,5,4,3:2:0:0:
32,193,30164,1,2,3:2:0:0:
79,125,30498,2,0,L|83:24,1,75,10|2,0:0|0:0,0:0:0:0:
113,23,30998,1,10,0:0:0:0:
113,23,31164,1,4,3:2:0:0:
184,64,31498,1,2,3:2:0:0:
255,23,31831,2,0,L|343:29,1,75,10|2,0:0|0:0,0:0:0:0:
356,59,32331,1,10,0:0:0:0:
356,59,32498,5,4,3:2:0:0:
430,24,32831,1,2,3:2:0:0:
482,87,33164,2,0,L|472:177,1,75,10|2,0:0|0:0,0:0:0:0:
499,194,33664,1,10,0:0:0:0:
499,194,33831,1,4,3:2:0:0:
430,239,34164,1,2,3:2:0:0:
357,198,34498,2,0,B|296:205|301:266|223:269,1,150,10|4,0:0|3:2,0:0:0:0:
164,320,35498,5,2,0:0:0:0:
229,370,35831,2,0,L|322:375,1,75,8|2,0:0|0:0,0:0:0:0:
337,349,36331,1,0,0:0:0:0:
337,349,36498,1,0,3:0:0:0:
415,374,36831,1,2,3:2:0:0:
479,323,37164,2,0,L|466:238,1,75,8|2,0:0|0:0,0:0:0:0:
488,213,37664,1,2,0:0:0:0:
488,213,37831,5,12,0:0:0:0:
418,168,38164,1,0,0:0:0:0:
479,113,38498,1,8,0:0:0:0:
402,83,38831,1,10,0:0:0:0:
463,27,39164,1,10,0:0:0:0:
137,101,40498,6,0,L|39:92,1,75,4|0,3:2|0:0,0:0:0:0:
29,118,40992,1,0,3:0:0:0:
29,118,41157,2,0,L|50:200,1,75,10|2,0:0|0:0,0:0:0:0:
23,269,41823,2,0,L|47:358,1,75,2|2,3:2|0:2,0:0:0:0:
80,356,42323,1,0,0:0:0:0:
80,356,42490,2,0,L|126:361,1,37.5,10|0,0:0|3:0,0:0:0:0:
150,335,42823,1,2,0:0:0:0:
209,277,43157,6,0,L|183:182,1,75,2|2,3:2|0:0,0:0:0:0:
208,168,43657,1,0,3:0:0:0:
208,168,43823,2,0,P|253:141|299:146,1,75,10|2,0:0|0:0,0:0:0:0:
341,188,44490,2,0,L|445:197,1,75,0|2,3:0|3:2,0:0:0:0:
454,179,44990,1,0,0:0:0:0:
454,179,45157,2,0,L|441:118,1,37.5,10|0,0:0|0:0,0:0:0:0:
468,107,45490,2,0,L|478:44,1,37.5,2|0,0:0|3:0,0:0:0:0:
451,35,45823,5,4,3:2:0:0:
372,62,46157,1,0,0:0:0:0:
297,25,46490,2,0,L|219:35,1,75,10|2,0:0|0:0,0:0:0:0:
200,69,46990,1,0,0:0:0:0:
200,69,47157,1,0,3:0:0:0:
247,135,47490,2,0,L|239:186,1,37.5,2|0,0:0|0:0,0:0:0:0:
261,207,47823,2,0,L|272:288,1,75,10|2,0:0|0:0,0:0:0:0:
210,338,48490,6,0,L|124:326,1,75,2|2,3:2|3:2,0:0:0:0:
99,347,48990,1,0,3:0:0:0:
99,347,49157,1,8,0:0:0:0:
39,289,49490,2,0,L|32:235,1,37.5,2|0,0:0|3:0,0:0:0:0:
48,213,49823,2,0,P|80:190|121:192,1,75,2|2,3:2|0:0,0:0:0:0:
146,215,50323,1,0,3:0:0:0:
146,215,50490,1,8,0:0:0:0:
209,161,50823,6,0,L|199:114,1,37.5,10|10,0:0|0:0,0:0:0:0:
229,93,51157,2,0,B|296:97|292:125|362:127,1,112.5,4|2,3:2|0:0,0:0:0:0:
371,103,51823,1,10,0:0:0:0:
371,103,51990,2,0,L|363:60,1,37.5,2|4,0:0|3:2,0:0:0:0:
387,32,52323,1,2,0:0:0:0:
469,61,52657,1,2,0:0:0:0:
469,61,52823,2,0,L|462:115,1,37.5,0|2,3:0|0:0,0:0:0:0:
491,129,53157,2,0,L|506:209,1,75,8|2,0:0|0:0,0:0:0:0:
475,232,53657,1,2,0:0:0:0:
475,232,53823,5,4,3:2:0:0:
422,296,54157,2,0,L|368:288,1,37.5,2|2,0:0|0:0,0:0:0:0:
350,313,54490,1,10,0:0:0:0:
350,313,54657,2,0,L|278:304,1,37.5,2|4,0:0|3:2,0:0:0:0:
273,321,54990,2,0,P|253:279|259:236,1,75,2|0,0:0|0:0,0:0:0:0:
284,223,55490,1,0,3:0:0:0:
224,165,55823,6,0,L|143:180,1,75,8|2,0:0|0:0,0:0:0:0:
113,159,56323,1,2,0:0:0:0:
113,159,56490,2,0,L|126:77,2,75,4|2|8,3:2|0:0|0:0,0:0:0:0:
43,203,57490,2,0,L|61:307,1,75,2|2,3:2|0:3,0:0:0:0:
87,303,57990,1,8,0:0:0:0:
87,303,58157,2,0,L|150:314,1,37.5,2|0,3:2|3:0,0:0:0:0:
159,287,58490,1,10,0:0:0:0:
224,336,58823,6,0,L|284:327,1,37.5,2|2,0:0|0:0,0:0:0:0:
294,304,59157,1,2,3:0:0:0:
294,304,59323,2,0,L|386:320,1,75,2|2,0:0|0:0,0:0:0:0:
392,350,59823,1,8,0:0:0:0:
467,316,60157,1,2,3:2:0:0:
435,239,60490,6,0,L|428:184,1,37.5,10|8,0:0|0:0,0:0:0:0:
454,168,60823,2,0,L|447:113,1,37.5,10|8,0:0|0:0,0:0:0:0:
418,102,61157,2,0,L|411:47,1,37.5,10|8,0:0|0:0,0:0:0:0:
433,28,61490,1,10,0:0:0:0:
433,28,61657,1,10,0:0:0:0:
239,105,62498,6,0,B|165:112|195:171|79:183,1,150,4|0,3:1|0:0,0:0:0:0:
49,123,63498,1,0,3:0:0:0:
4,192,63831,2,0,L|21:283,1,75,10|2,0:0|0:0,0:0:0:0:
4,304,64331,1,0,0:0:0:0:
4,304,64498,2,0,L|90:318,1,75,2|8,3:0|0:0,0:0:0:0:
163,320,65164,6,0,P|163:349|156:382,2,50,8|0|0,0:0|3:0|3:0,0:0:0:0:
212,289,65808,1,8,0:0:0:0:
293,285,66120,2,0,P|333:312|389:289,1,98.999999697876,0|0,3:0|3:0,0:0:0:0:
423,266,66787,1,0,3:0:0:0:
401,178,67149,6,0,P|342:172|304:165,1,75,4|0,3:2|0:0,0:0:0:0:
292,146,67649,1,0,3:0:0:0:
292,146,67815,2,0,P|233:155|199:162,1,75,10|2,0:0|0:0,0:0:0:0:
194,191,68315,1,8,0:0:0:0:
194,191,68482,1,2,3:2:0:0:
127,239,68815,6,0,L|67:226,1,37.5,2|0,3:2|0:0,0:0:0:0:
52,247,69149,2,0,P|31:213|35:168,1,75,10|2,0:0|0:0,0:0:0:0:
61,150,69649,1,0,0:0:0:0:
61,150,69815,1,2,3:2:0:0:
17,79,70149,1,2,0:0:0:0:
86,34,70482,6,0,L|181:49,1,75,8|2,0:0|0:0,0:0:0:0:
185,78,70982,1,0,0:0:0:0:
185,78,71149,2,0,L|247:71,1,37.5,2|8,0:0|0:0,0:0:0:0:
259,90,71482,1,2,3:2:0:0:
320,34,71815,1,10,0:0:0:0:
394,70,72149,1,2,0:0:0:0:
473,49,72482,6,0,L|480:2,2,37.5,10|2|2,0:0|0:3|0:3,0:0:0:0:
498,81,72982,1,8,3:0:0:0:
498,81,73149,2,0,L|476:238,1,150,14|0,0:0|3:0,0:0:0:0:
410,277,74149,1,0,3:0:0:0:
331,252,74482,2,0,L|285:260,1,37.5,8|0,0:0|0:0,0:0:0:0:
283,298,74815,1,2,3:2:0:0:
201,310,75149,6,0,L|196:360,2,37.5,10|2|2,0:0|0:3|0:3,0:0:0:0:
170,282,75649,1,8,3:0:0:0:
170,282,75815,2,0,L|187:146,1,112.5,14|10,0:0|0:0,0:0:0:0:
159,136,76482,1,0,0:0:0:0:
103,74,76815,1,0,3:0:0:0:
165,19,77149,2,0,L|231:30,1,37.5,8|2,0:0|0:0,0:0:0:0:
230,54,77482,1,2,3:2:0:0:
305,13,77830,6,0,L|402:3,1,75,4|2,3:2|0:0,0:0:0:0:
413,29,78330,1,0,0:0:0:0:
413,29,78496,2,0,L|398:112,1,75,10|2,0:0|0:0,0:0:0:0:
457,161,79163,2,0,L|442:244,1,75,8|2,0:0|0:0,0:0:0:0:
468,267,79663,1,0,0:0:0:0:
468,267,79830,1,8,0:0:0:0:
403,318,80163,2,0,L|353:312,1,37.5,2|0,0:0|0:0,0:0:0:0:
333,287,80496,6,0,L|243:303,1,75,12|0,0:0|0:0,0:0:0:0:
194,351,81163,1,2,3:2:0:0:
111,351,81496,1,10,0:0:0:0:
62,283,81830,1,8,0:0:0:0:
85,204,82163,1,10,0:0:0:0:
162,176,82496,2,0,L|172:224,2,37.5,10|0|4,0:0|3:0|0:3,0:0:0:0:
209,108,83163,5,4,3:1:0:0:
256,192,83330,12,0,88496,0:0:0:0:
