osu file format v14

[General]
AudioFilename: audio.mp3
AudioLeadIn: 0
PreviewTime: 39831
Countdown: 0
SampleSet: Soft
StackLeniency: 0.7
Mode: 0
LetterboxInBreaks: 0
WidescreenStoryboard: 1

[Editor]
DistanceSpacing: 0.9
BeatDivisor: 8
GridSize: 32
TimelineZoom: 1.3

[Metadata]
Title:Song for... (TV Size)
TitleUnicode:Song for... (TV Size)
Artist:ROOKiEZ is PUNK'D
ArtistUnicode:ROOKiEZ is PUNK'D
Creator:-Mikan
Version:AYE1337's Hard
Source:BLEACH
Tags:schoolboy Komore AYE1337 japanese rock jrock anime ed ending 市丸 ギン Ichimaru Gin ブリーチ
BeatmapID:2494220
BeatmapSetID:1186654

[Difficulty]
HPDrainRate:4
CircleSize:3.4
OverallDifficulty:6
ApproachRate:7.5
SliderMultiplier:1.3
SliderTickRate:1

[Events]
//Background and Video events
0,0,"bg.jpg",0,0
Video,50,"vid.mp4"
//Break Periods
//Storyboard Layer 0 (Background)
//Storyboard Layer 1 (Fail)
//Storyboard Layer 2 (Pass)
//Storyboard Layer 3 (Foreground)
//Storyboard Layer 4 (Overlay)
//Storyboard Sound Samples

[TimingPoints]
498,666.666666666667,4,2,1,50,1,0
498,-100,4,2,1,50,0,0
3081,-100,4,2,1,5,0,0
3164,-76.9230769230769,4,2,1,70,0,0
4331,-76.9230769230769,4,2,1,60,0,0
5081,-76.9230769230769,4,2,1,5,0,0
5164,-76.9230769230769,4,2,1,60,0,0
11414,-76.9230769230769,4,2,1,5,0,0
11498,-76.9230769230769,4,2,1,60,0,0
13748,-76.9230769230769,4,2,1,5,0,0
13831,-76.9230769230769,4,2,1,60,0,0
22081,-76.9230769230769,4,2,1,5,0,0
22164,-76.9230769230769,4,2,1,60,0,0
24414,-76.9230769230769,4,2,1,5,0,0
24498,-76.9230769230769,4,2,1,70,0,0
29831,-76.9230769230769,4,2,1,60,0,0
30498,-76.9230769230769,4,2,1,70,0,0
31164,-76.9230769230769,4,2,1,60,0,0
31831,-76.9230769230769,4,2,1,70,0,0
32498,-76.9230769230769,4,2,1,60,0,0
33164,-76.9230769230769,4,2,1,70,0,0
33831,-76.9230769230769,4,2,1,60,0,0
34498,-76.9230769230769,4,2,1,70,0,0
39081,-76.9230769230769,4,2,1,5,0,0
39164,-76.9230769230769,4,2,1,60,0,0
40498,659.340659340659,4,2,1,80,1,1
40498,-66.6666666666667,4,2,1,80,0,0
41157,666.666666666667,4,2,1,80,1,1
41157,-66.6666666666667,4,2,1,80,0,1
41740,-66.6666666666667,4,2,1,5,0,1
41823,-66.6666666666667,4,2,1,80,0,1
43073,-66.6666666666667,4,2,1,5,0,1
43157,666.666666666667,4,2,1,80,1,1
43157,-66.6666666666667,4,2,1,80,0,1
45407,-66.6666666666667,4,2,1,5,0,1
45490,-66.6666666666667,4,2,1,80,0,1
47073,-66.6666666666667,4,2,1,5,0,1
47157,-66.6666666666667,4,2,1,80,0,1
48740,-66.6666666666667,4,2,1,5,0,1
48823,-66.6666666666667,4,2,1,80,0,1
50740,-66.6666666666667,4,2,1,5,0,1
50823,-66.6666666666667,4,2,1,80,0,1
57740,-66.6666666666667,4,2,1,5,0,1
57823,-66.6666666666667,4,2,1,80,0,1
58740,-66.6666666666667,4,2,1,5,0,1
58823,-66.6666666666667,4,2,1,80,0,1
61157,-66.6666666666667,4,2,1,90,0,1
61657,-66.6666666666667,4,2,1,80,0,1
62498,666.666666666667,4,2,1,80,1,0
62498,-66.6666666666667,4,2,1,80,0,0
64498,-66.6666666666667,4,2,1,80,0,1
65164,638.297872340426,4,2,1,80,1,1
65164,-68.9655172413793,4,2,1,80,0,1
65808,625,4,2,1,80,1,1
65808,-71.4285714285714,4,2,1,80,0,1
66537,750,4,2,1,80,1,1
66537,-62.5,4,2,1,80,0,1
67149,666.666666666667,4,2,1,80,1,1
67149,-66.6666666666667,4,2,1,80,0,1
70065,-66.6666666666667,4,2,1,5,0,1
70149,-66.6666666666667,4,2,1,80,0,1
77830,666.666666666667,4,2,1,80,1,1
77830,-66.6666666666667,4,2,1,80,0,1
79746,-66.6666666666667,4,2,1,5,0,1
79830,-66.6666666666667,4,2,1,80,0,1
81830,-66.6666666666667,4,2,1,85,0,1
82163,-66.6666666666667,4,2,1,90,0,1
82498,-66.6666666666667,4,2,1,95,0,1
83163,-66.6666666666667,4,2,1,80,0,0
84496,-66.6666666666667,4,2,1,70,0,0
85830,-66.6666666666667,4,2,1,60,0,0
86496,-66.6666666666667,4,2,1,50,0,0
87163,-66.6666666666667,4,2,1,40,0,0
87830,-66.6666666666667,4,2,1,20,0,0
88496,-66.6666666666667,4,2,1,5,0,0

[Colours]
Combo1 : 180,236,252
Combo2 : 211,187,253

[HitObjects]
441,68,498,6,0,P|465:88|496:104,1,65
327,27,1164,6,0,L|283:33,1,32.5,2|0,0:0|0:0,0:0:0:0:
240,88,1498,2,0,B|198:94|198:94|177:72|177:72|109:60,1,130,2|2,0:0|0:0,0:0:0:0:
15,164,2498,2,0,L|53:170,1,32.5,2|0,0:0|0:0,0:0:0:0:
113,209,2831,1,2,0:0:0:0:
318,215,3164,6,0,P|298:185|241:167,1,84.4999961318971,4|0,3:2|3:0,0:0:0:0:
230,267,3664,1,0,3:0:0:0:
325,226,3831,1,8,0:0:0:0:
471,365,4164,2,0,L|483:318,1,42.2499980659486,0|0,0:0|3:0,0:0:0:0:
435,241,4498,1,0,0:0:0:0:
512,119,4831,1,2,0:0:0:0:
431,11,5164,2,0,P|395:40|355:40,1,84.4999961318971,10|0,0:0|0:0,0:0:0:0:
281,8,5664,1,0,0:0:0:0:
281,8,5831,6,0,L|178:14,1,84.4999961318971,2|2,3:2|0:0,0:0:0:0:
126,67,6331,1,0,3:0:0:0:
203,113,6498,2,0,L|306:107,1,84.4999961318971,10|0,0:0|3:0,0:0:0:0:
155,306,7164,2,0,P|133:271|128:223,1,84.4999961318971,2|0,0:0|3:0,0:0:0:0:
213,206,7664,1,0,0:0:0:0:
296,240,7831,2,0,L|346:228,1,42.2499980659486,10|0,0:0|3:0,0:0:0:0:
418,258,8164,1,0,0:0:0:0:
240,345,8498,6,0,B|226:342|226:342|177:369|177:369|157:365,1,84.4999961318971,2|0,3:2|0:0,0:0:0:0:
78,343,8998,1,0,3:0:0:0:
43,264,9164,2,0,P|61:225|104:203,1,84.4999961318971,8|0,0:0|3:0,0:0:0:0:
141,39,9831,2,0,L|152:125,1,84.4999961318971,2|0,0:0|3:0,0:0:0:0:
0,113,10498,2,0,L|11:52,1,42.2499980659486,10|0,0:0|3:0,0:0:0:0:
63,0,10831,1,2,0:0:0:0:
141,39,10998,1,2,0:0:0:0:
226,13,11164,6,0,L|274:7,2,42.2499980659486,2|0|2,3:2|0:0|3:2,0:0:0:0:
224,97,11664,1,0,3:0:0:0:
301,140,11831,2,0,P|341:113|358:62,1,84.4999961318971,8|2,0:0|3:2,0:0:0:0:
418,15,12331,2,0,P|496:27|513:78,1,126.749994197846,2|2,0:0|3:0,0:0:0:0:
484,138,12998,1,0,0:0:0:0:
403,175,13164,5,10,0:0:0:0:
403,175,13331,1,10,0:0:0:0:
452,248,13498,1,2,0:3:0:0:
344,354,13831,6,0,L|241:348,1,84.4999961318971,4|0,3:2|0:0,0:0:0:0:
175,359,14331,1,0,3:0:0:0:
127,292,14498,2,0,P|85:301|47:335,1,84.4999961318971,8|2,0:0|3:2,0:0:0:0:
30,169,15164,1,2,0:2:0:0:
104,41,15498,1,0,3:0:0:0:
232,117,15831,2,0,L|279:110,1,42.2499980659486,10|0,0:0|3:0,0:0:0:0:
323,37,16164,1,0,0:0:0:0:
323,37,16331,1,2,0:0:0:0:
417,20,16498,6,0,P|422:60|411:113,1,84.4999961318971,2|2,3:2|0:0,0:0:0:0:
346,163,16998,1,0,3:0:0:0:
425,206,17164,2,0,P|457:207|510:188,1,84.4999961318971,10|0,0:0|3:0,0:0:0:0:
512,285,17664,2,0,P|490:312|453:363,1,84.4999961318971,2|0,0:0|0:0,0:0:0:0:
398,284,18164,2,0,L|346:288,1,42.2499980659486,2|0,3:2|0:0,0:0:0:0:
276,326,18498,1,10,0:0:0:0:
276,326,18664,2,0,L|229:315,1,42.2499980659486,0|0,3:0|0:0,0:0:0:0:
184,245,18998,1,2,0:0:0:0:
228,172,19164,6,0,P|200:150|136:141,1,84.4999961318971,2|0,3:2|0:0,0:0:0:0:
72,177,19664,1,0,3:0:0:0:
27,107,19831,1,8,0:0:0:0:
142,19,20164,1,0,3:0:0:0:
285,48,20498,2,0,P|304:87|309:140,1,84.4999961318971,2|0,0:0|3:0,0:0:0:0:
411,260,21164,2,0,L|420:205,1,42.2499980659486,8|0,0:0|3:0,0:0:0:0:
403,132,21498,1,2,0:0:0:0:
403,132,21664,1,2,0:0:0:0:
445,52,21831,6,0,P|485:69|517:107,1,84.4999961318971,2|2,3:2|0:0,0:0:0:0:
483,183,22331,1,0,3:0:0:0:
512,268,22498,2,0,L|498:324,2,42.2499980659486,8|2|0,0:0|0:0|3:0,0:0:0:0:
478,191,22998,1,2,0:0:0:0:
412,293,23164,2,0,L|422:341,1,42.2499980659486,12|2,0:0|0:0,0:0:0:0:
350,384,23498,1,4,3:2:0:0:
273,357,23664,1,10,0:0:0:0:
267,361,23748,1,10,0:0:0:0:
260,366,23831,2,0,L|213:359,1,42.2499980659486,8|10,0:0|0:0,0:0:0:0:
137,331,24164,2,0,P|131:303|128:272,1,42.2499980659486,2|0,0:3|0:0,0:0:0:0:
236,220,24498,5,6,3:2:0:0:
240,132,24664,1,2,0:0:0:0:
150,97,24831,2,0,L|145:139,1,42.2499980659486,2|2,0:0|0:0,0:0:0:0:
76,201,25164,1,8,0:0:0:0:
237,54,25498,5,2,3:2:0:0:
310,4,25664,1,2,3:2:0:0:
398,33,25831,2,0,L|402:94,1,42.2499980659486,2|2,0:0|0:0,0:0:0:0:
379,162,26164,1,0,0:0:0:0:
379,162,26331,1,2,3:2:0:0:
465,132,26498,2,0,P|460:173|433:222,1,84.4999961318971,10|2,0:0|0:0,0:0:0:0:
486,289,26998,1,0,3:0:0:0:
482,300,27081,1,0,3:0:0:0:
478,310,27164,6,0,L|433:302,1,42.2499980659486,2|2,3:2|3:2,0:0:0:0:
367,345,27498,1,2,0:0:0:0:
367,345,27664,1,2,0:0:0:0:
338,263,27831,1,8,0:0:0:0:
212,384,28164,5,2,3:2:0:0:
221,299,28331,1,2,3:2:0:0:
178,227,28498,2,0,L|118:238,1,42.2499980659486,2|0,0:0|0:0,0:0:0:0:
54,218,28831,1,2,0:0:0:0:
54,218,28998,1,0,3:0:0:0:
12,298,29164,2,0,P|41:345|120:355,1,126.749994197846,10|8,0:0|0:0,0:0:0:0:
194,341,29831,5,4,3:2:0:0:
333,356,30164,1,2,3:2:0:0:
362,213,30498,2,0,L|464:197,1,84.4999961318971,10|2,0:0|0:0,0:0:0:0:
504,144,30998,1,10,0:0:0:0:
504,144,31164,2,0,L|506:52,1,84.4999961318971,4|2,3:2|3:2,0:0:0:0:
444,12,31664,1,0,0:0:0:0:
444,12,31831,2,0,P|390:40|375:77,1,84.4999961318971,10|2,0:0|0:0,0:0:0:0:
235,93,32498,6,0,P|215:91|182:93,1,42.2499980659486,4|0,3:2|0:0,0:0:0:0:
160,175,32831,2,0,P|141:183|114:201,1,42.2499980659486,2|0,3:2|0:0,0:0:0:0:
120,278,33164,2,0,P|99:316|92:374,1,84.4999961318971,10|2,0:0|0:0,0:0:0:0:
185,384,33664,1,10,0:0:0:0:
184,384,33831,1,4,3:2:0:0:
312,324,34164,1,2,3:2:0:0:
276,176,34498,1,10,0:0:0:0:
360,145,34664,1,0,3:0:0:0:
400,69,34831,2,0,L|410:24,1,42.2499980659486,2|0,3:2|3:0,0:0:0:0:
512,82,35164,6,0,P|487:120|448:140,1,84.4999961318971,4|2,3:2|0:0,0:0:0:0:
304,66,35831,2,0,L|217:58,1,84.4999961318971,8|2,0:0|0:0,0:0:0:0:
38,138,36498,2,0,P|30:181|45:228,1,84.4999961318971,0|2,3:0|3:2,0:0:0:0:
199,341,37164,2,0,L|283:333,1,84.4999961318971,8|2,0:0|0:0,0:0:0:0:
360,283,37664,1,2,0:0:0:0:
345,195,37831,5,12,0:0:0:0:
345,195,37998,1,2,0:0:0:0:
194,116,38331,1,2,0:0:0:0:
206,203,38497,2,0,L|215:251,1,42.2499980659486,8|2,0:0|0:0,0:0:0:0:
145,309,38831,1,10,0:0:0:0:
145,309,38998,1,0,0:0:0:0:
59,278,39164,1,10,0:0:0:0:
1,23,40498,6,0,B|37:28|38:84|86:91,1,97.50000371933,4|0,3:2|0:0,0:0:0:0:
167,59,40992,1,0,3:0:0:0:
238,116,41157,2,0,P|235:151|224:177,1,48.750001859665,10|0,0:0|0:0,0:0:0:0:
301,231,41490,2,0,P|278:254|260:264,1,48.750001859665,2|0,0:0|0:0,0:0:0:0:
171,302,41823,2,0,P|203:338|220:396,1,97.50000371933,2|2,3:2|0:2,0:0:0:0:
305,384,42323,1,0,0:0:0:0:
370,333,42490,2,0,P|397:337|423:348,1,48.750001859665,10|0,0:0|3:0,0:0:0:0:
466,273,42823,2,0,P|499:282|543:301,1,48.750001859665,2|0,0:0|0:0,0:0:0:0:
409,211,43157,6,0,P|408:165|436:104,1,97.50000371933,2|2,3:2|0:0,0:0:0:0:
428,33,43657,1,0,3:0:0:0:
337,49,43823,2,0,P|333:87|340:116,1,48.750001859665,10|0,0:0|0:0,0:0:0:0:
297,179,44157,2,0,B|265:186|252:218|195:219,1,97.50000371933,2|0,0:0|3:0,0:0:0:0:
119,242,44657,1,0,0:0:0:0:
81,127,44823,2,0,P|108:144|124:173,1,48.750001859665,2|0,3:2|0:0,0:0:0:0:
192,101,45157,2,0,P|215:69|227:47,1,48.750001859665,10|0,0:0|0:0,0:0:0:0:
158,0,45490,1,2,0:0:0:0:
158,0,45657,1,0,3:0:0:0:
58,4,45823,6,0,P|22:29|-2:84,1,97.50000371933,4|0,3:2|0:0,0:0:0:0:
0,174,46323,1,0,3:0:0:0:
80,218,46490,2,0,P|115:214|148:197,1,48.750001859665,10|0,0:0|0:0,0:0:0:0:
205,260,46823,2,0,P|221:222|224:185,1,48.750001859665,2|0,0:0|0:0,0:0:0:0:
291,153,47157,2,0,P|322:205|376:250,1,97.50000371933,0|2,3:0|0:0,0:0:0:0:
431,199,47657,1,0,0:0:0:0:
494,257,47823,2,0,P|504:311|503:329,1,48.750001859665,10|0,0:0|0:0,0:0:0:0:
441,375,48157,2,0,P|403:359|373:331,1,48.750001859665,2|0,0:0|0:0,0:0:0:0:
329,291,48490,5,2,3:2:0:0:
329,291,48657,1,0,0:0:0:0:
245,334,48823,2,0,P|216:349|198:367,1,48.750001859665,2|0,3:2|3:0,0:0:0:0:
108,373,49157,2,0,P|81:340|71:301,1,48.750001859665,8|0,0:0|0:0,0:0:0:0:
110,243,49490,2,0,P|113:179|85:129,1,97.50000371933,2|2,0:0|3:2,0:0:0:0:
34,86,49990,1,0,0:0:0:0:
93,22,50157,2,0,P|136:9|159:10,1,48.750001859665,2|0,0:0|3:0,0:0:0:0:
178,84,50490,1,8,0:0:0:0:
241,21,50657,1,0,0:0:0:0:
326,52,50823,2,0,L|380:39,1,48.750001859665,10|10,0:0|0:0,0:0:0:0:
290,126,51157,6,0,P|301:177|343:231,1,97.50000371933,4|2,3:2|0:0,0:0:0:0:
419,212,51657,1,2,0:0:0:0:
457,133,51823,1,10,0:0:0:0:
457,133,51990,2,0,P|483:125|516:120,1,48.750001859665,2|4,0:0|3:2,0:0:0:0:
414,50,52323,2,0,P|348:39|293:36,1,97.50000371933,2|2,0:0|0:0,0:0:0:0:
240,79,52823,1,0,3:0:0:0:
154,41,52990,2,0,P|130:11|122:-11,1,48.750001859665,2|8,0:0|0:0,0:0:0:0:
87,114,53323,1,2,3:2:0:0:
87,114,53490,1,2,0:0:0:0:
142,193,53657,1,2,0:0:0:0:
237,180,53823,6,0,P|279:216|322:281,1,97.50000371933,4|2,3:2|0:0,0:0:0:0:
303,343,54323,1,2,0:0:0:0:
215,315,54490,2,0,P|167:324|130:342,1,48.750001859665,10|2,0:0|0:0,0:0:0:0:
113,244,54823,1,4,3:2:0:0:
27,287,54990,2,0,P|11:338|17:392,1,97.50000371933,2|0,0:0|0:0,0:0:0:0:
111,384,55490,1,0,3:0:0:0:
197,323,55657,1,2,3:2:0:0:
197,323,55823,2,0,P|221:319|267:313,1,48.750001859665,8|0,0:0|3:0,0:0:0:0:
310,376,56157,2,0,L|369:365,1,48.750001859665,2|2,0:0|0:0,0:0:0:0:
422,295,56490,6,0,B|456:290|469:335|532:329,2,97.50000371933,4|2|8,3:2|0:0|0:0,0:0:0:0:
351,238,57323,1,0,0:0:0:0:
301,161,57490,2,0,P|308:125|331:91,1,48.750001859665,2|0,3:2|0:0,0:0:0:0:
364,42,57823,1,2,0:3:0:0:
364,42,57990,2,0,P|401:41|453:50,1,48.750001859665,8|2,0:0|3:2,0:0:0:0:
496,102,58323,1,0,3:0:0:0:
429,177,58490,2,0,P|442:233|498:290,1,97.50000371933,10|2,0:0|0:0,0:0:0:0:
512,348,58990,1,2,0:0:0:0:
422,369,59157,6,0,P|386:372|346:387,1,48.750001859665,2|2,3:0|0:0,0:0:0:0:
294,348,59490,1,0,3:0:0:0:
316,260,59657,2,0,L|313:202,2,48.750001859665,2|8|0,0:0|0:0|0:0,0:0:0:0:
226,275,60157,1,2,3:2:0:0:
202,192,60323,1,0,0:0:0:0:
136,125,60490,2,0,L|75:131,1,48.750001859665,10|8,0:0|0:0,0:0:0:0:
0,204,60823,2,0,L|61:210,1,48.750001859665,10|8,0:0|0:0,0:0:0:0:
120,265,61157,1,10,0:0:0:0:
120,265,61323,1,8,0:0:0:0:
138,350,61490,1,10,0:0:0:0:
52,324,61657,1,10,0:0:0:0:
503,34,62498,6,0,B|326:45|457:170|269:184,1,292.50001115799,4|0,3:1|3:0,0:0:0:0:
164,316,63831,2,0,P|225:301|260:259,1,97.50000371933,10|2,0:0|0:0,0:0:0:0:
219,186,64331,1,0,0:0:0:0:
125,170,64498,6,0,P|78:184|45:205,1,65.0000024795533,2|8,3:0|0:0,0:0:0:0:
32,234,64831,2,0,L|-13:235,2,32.5000012397767,8|0|8,0:0|0:0|0:0,0:0:0:0:
13,310,65164,2,0,L|2:352,2,31.4166676254273,8|0|0,0:0|3:0|3:0,0:0:0:0:
76,370,65483,2,0,L|123:362,2,31.4166676254273,0|0|8,3:0|3:0|0:0,0:0:0:0:
149,296,65808,2,0,L|198:305,2,30.3333324076335,8|0|8,0:0|0:0|0:0,0:0:0:0:
190,222,66120,2,0,L|235:217,2,30.3333324076335,0|0|8,3:0|0:0|0:0,0:0:0:0:
208,142,66433,2,0,L|253:134,1,30.3333324076335,8|8,0:0|0:0,0:0:0:0:
129,143,66662,1,0,3:0:0:0:
129,143,66787,2,0,L|85:132,2,34.6666666666667,0|0|0,3:0|3:0|3:0,0:0:0:0:
163,69,67149,6,0,P|206:36|278:33,1,97.50000371933,4|0,3:2|0:0,0:0:0:0:
327,72,67649,1,0,3:0:0:0:
424,45,67815,2,0,P|433:86|436:126,1,48.750001859665,10|0,0:0|0:0,0:0:0:0:
476,188,68149,2,0,P|468:225|455:255,1,48.750001859665,2|8,0:0|0:0,0:0:0:0:
396,312,68482,2,0,P|446:356|471:399,2,97.50000371933,2|2|10,3:2|3:2|0:0,0:0:0:0:
303,280,69315,1,0,0:0:0:0:
227,346,69482,2,0,P|196:343|155:330,1,48.750001859665,2|0,0:0|0:0,0:0:0:0:
79,381,69815,6,0,P|36:333|22:271,1,97.50000371933,2|2,3:2|0:0,0:0:0:0:
72,216,70315,1,0,3:0:0:0:
161,253,70482,2,0,P|203:235|222:211,1,48.750001859665,8|0,0:0|0:0,0:0:0:0:
146,152,70815,2,0,P|153:91|181:47,1,97.50000371933,2|2,0:0|0:0,0:0:0:0:
82,45,71315,5,8,0:0:0:0:
46,127,71482,1,2,3:2:0:0:
72,216,71649,1,0,3:0:0:0:
136,282,71815,2,0,P|138:316|135:356,1,48.750001859665,10|0,0:0|0:0,0:0:0:0:
223,366,72149,2,0,P|239:340|254:303,1,48.750001859665,2|0,0:0|3:0,0:0:0:0:
328,276,72482,5,10,0:0:0:0:
328,276,72649,1,2,0:3:0:0:
328,276,72815,1,2,0:3:0:0:
400,337,72982,1,8,3:0:0:0:
463,268,73149,2,0,L|477:157,1,97.50000371933,14|0,0:0|0:0,0:0:0:0:
420,103,73649,2,0,L|316:115,1,97.50000371933,2|2,0:0|0:0,0:0:0:0:
234,124,74149,2,0,P|206:95|187:67,1,48.750001859665,0|2,3:0|3:2,0:0:0:0:
134,33,74482,2,0,P|84:64|54:101,1,97.50000371933,8|2,0:0|3:2,0:0:0:0:
95,165,74982,1,0,3:0:0:0:
183,221,75149,5,10,0:0:0:0:
183,221,75315,1,2,0:3:0:0:
183,221,75482,1,2,0:3:0:0:
115,281,75649,1,8,3:0:0:0:
33,297,75815,2,0,L|-3:174,1,97.50000371933,14|0,0:0|0:0,0:0:0:0:
30,118,76315,2,0,P|84:97|139:93,1,97.50000371933,10|2,0:0|0:0,0:0:0:0:
211,117,76815,1,0,3:0:0:0:
263,50,76982,1,2,3:2:0:0:
350,53,77149,2,0,P|361:88|366:125,2,48.750001859665,8|2|2,0:0|0:0|3:2,0:0:0:0:
356,179,77649,1,2,0:0:0:0:
446,192,77830,6,0,L|434:310,2,97.50000371933,4|2|10,3:2|0:0|0:0,0:0:0:0:
461,45,78830,1,2,0:0:0:0:
312,46,79163,2,0,P|248:52|174:48,1,97.50000371933,8|2,0:0|0:0,0:0:0:0:
44,96,79830,2,0,L|61:206,1,97.50000371933,8|2,0:0|0:0,0:0:0:0:
128,266,80330,1,0,0:0:0:0:
189,196,80496,6,0,P|242:209|282:255,1,97.50000371933,12|0,0:0|0:0,0:0:0:0:
303,332,80996,1,2,0:0:0:0:
303,332,81163,2,0,L|359:328,1,48.750001859665,2|0,3:2|0:0,0:0:0:0:
209,370,81496,2,0,L|143:382,1,48.750001859665,10|0,0:0|0:0,0:0:0:0:
68,347,81830,2,0,P|46:316|34:277,1,48.750001859665,8|0,0:0|0:0,0:0:0:0:
46,206,82163,2,0,L|112:194,1,48.750001859665,10|0,0:0|0:0,0:0:0:0:
191,142,82496,2,0,P|183:82|170:62,1,48.750001859665,10|0,0:0|3:0,0:0:0:0:
100,47,82830,1,4,0:3:0:0:
23,95,82996,1,4,0:3:0:0:
46,206,83163,5,4,3:1:0:0:
256,192,83330,12,0,88496,0:0:0:0:
