osu file format v14

[General]
AudioFilename: audio.mp3
AudioLeadIn: 0
PreviewTime: -1
Countdown: 0
SampleSet: None
StackLeniency: 0.3
Mode: 0
LetterboxInBreaks: 0
WidescreenStoryboard: 1

[Editor]
Bookmarks: 17608,20839,32377,42223,52069,70531,81608,87762,90223,100069,128685,152992,158531,192377
DistanceSpacing: 0.6
BeatDivisor: 4
GridSize: 16
TimelineZoom: 4.199998

[Metadata]
Title:SHIN-RAI
TitleUnicode:神蕾-シン・ライ-
Artist:RONDO, eMPIRE SOUND SYSTeMS,
ArtistUnicode:RONDO, eMPIRE SOUND SYSTeMS, 星熊南巫
Creator:anirrech
Version:edit 1
Source:
Tags:japanese
BeatmapID:4584070
BeatmapSetID:1765249

[Difficulty]
HPDrainRate:4
CircleSize:4
OverallDifficulty:9.5
ApproachRate:9.5
SliderMultiplier:2
SliderTickRate:1

[Events]
//Background and Video events
0,0,"97790192_p0_master1200.jpg",0,0
//Break Periods
2,173304,192467
//Storyboard Layer 0 (Background)
//Storyboard Layer 1 (Fail)
//Storyboard Layer 2 (Pass)
//Storyboard Layer 3 (Foreground)
//Storyboard Layer 4 (Overlay)
//Storyboard Sound Samples

[TimingPoints]
2839,307.692307692308,4,2,0,100,1,0
2875,-200,4,2,0,80,0,0
9300,-84.7457627118644,4,2,0,80,0,0
12685,-66.6666666666667,4,2,0,80,0,0
14069,-100,4,2,0,80,0,0
16069,-222.222222222222,4,2,0,80,0,0
16377,-100,4,2,0,80,0,0
17762,-133.333333333333,4,2,0,80,0,0
23915,-50,4,2,0,80,0,0
44685,-103.092783505155,4,2,0,80,0,0
61762,-66.6666666666667,4,2,0,80,0,0
64839,-133.333333333333,4,2,0,80,0,0
65300,-133.333333333333,4,2,0,80,0,0
67454,-100,4,2,0,80,0,0
76685,-66.6666666666667,4,2,0,80,0,0
77915,-50,4,2,0,80,0,0
81454,-33.3333333333333,4,2,0,80,0,0
86685,-66.6666666666667,4,2,0,80,0,0
112992,-80,4,2,0,80,0,0
119531,-90.9090909090909,4,2,0,80,0,0
129454,-66.6666666666667,4,2,0,80,0,0
137454,-38.4615384615385,4,2,0,80,0,0
139300,-45.4545454545455,4,2,0,80,0,0
199608,-66.6666666666667,4,2,0,80,0,0
205762,-66.6666666666667,4,2,0,80,0,0
205762,-40,4,2,0,80,0,0
208223,-66.6666666666667,4,2,0,80,0,0
209454,-100,4,2,0,80,0,0
213377,-66.6666666666667,4,2,0,80,0,0
216839,-50,4,2,0,80,0,0
225608,-66.6666666666667,4,2,0,80,0,0
230531,-57.1428571428571,4,2,0,80,0,0
241454,-50,4,2,0,80,0,0

[HitObjects]
259,215,6531,6,0,L|352:275,1,100
386,230,6996,1,0,0:0:0:0:
384,224,7071,1,0,0:0:0:0:
382,219,7146,1,0,0:0:0:0:
433,39,7296,1,0,0:0:0:0:
357,50,7762,5,0,0:0:0:0:
243,293,7915,1,0,0:0:0:0:
171,32,8069,1,0,0:0:0:0:
136,300,8223,5,0,0:0:0:0:
231,47,8377,1,0,0:0:0:0:
307,306,8531,1,0,0:0:0:0:
290,36,8685,5,0,0:0:0:0:
174,280,8839,1,0,0:0:0:0:
206,31,8992,1,0,0:0:0:0:
318,317,9146,1,0,0:0:0:0:
420,41,9300,2,0,B|471:192,1,117.999995858765
464,205,9608,5,0,0:3:0:0:
447,231,9685,1,0,0:3:0:0:
424,254,9762,1,0,0:3:0:0:
402,276,9839,1,0,0:3:0:0:
372,302,9915,1,0,0:0:0:0:
342,314,9992,1,0,0:0:0:0:
313,319,10069,1,0,0:0:0:0:
283,318,10146,1,0,0:0:0:0:
263,300,10223,2,0,B|254:236|195:248|173:302,1,117.999995858765
70,321,10531,5,0,0:0:0:0:
135,313,10685,2,0,L|103:259,1,58.9999979293824
62,187,10839,5,0,0:0:0:0:
45,159,10915,1,0,0:0:0:0:
38,125,10992,1,0,0:0:0:0:
39,94,11069,1,0,0:0:0:0:
52,66,11146,1,0,0:0:0:0:
89,41,11300,6,0,L|227:36,1,117.999995858765
275,50,11608,5,0,0:0:0:0:
298,64,11685,1,0,0:0:0:0:
314,76,11762,1,0,0:0:0:0:
332,91,11839,1,0,0:0:0:0:
349,103,11915,1,0,0:0:0:0:
367,116,11992,1,0,0:0:0:0:
384,128,12069,1,0,0:0:0:0:
447,301,12377,5,0,0:0:0:0:
447,301,12531,1,0,0:0:0:0:
362,201,12685,2,0,L|212:41,1,150.000005722046
190,30,12992,1,0,0:0:0:0:
101,297,13146,1,0,0:0:0:0:
29,32,13300,5,0,0:0:0:0:
137,301,13454,1,0,0:0:0:0:
229,34,13608,1,0,0:0:0:0:
244,42,13685,1,0,0:0:0:0:
261,56,13762,1,0,0:0:0:0:
382,41,13915,2,0,L|422:192,1,150.000005722046
426,211,14146,1,0,0:0:0:0:
431,232,14223,1,0,0:0:0:0:
379,302,14377,1,0,0:0:0:0:
309,139,14531,1,0,0:0:0:0:
236,294,14685,1,0,0:0:0:0:
172,133,14839,1,0,0:0:0:0:
112,293,14992,1,0,0:0:0:0:
40,152,15146,2,0,B|144:136,1,100
172,133,15377,1,0,0:0:0:0:
201,127,15454,1,0,0:0:0:0:
236,294,15608,1,0,0:0:0:0:
306,129,15762,1,0,0:0:0:0:
370,294,15915,1,0,0:0:0:0:
429,133,16069,6,0,L|383:98,1,44.999998626709
273,49,16377,2,0,L|147:73,1,100
140,77,16608,1,0,0:0:0:0:
104,85,16685,1,0,0:0:0:0:
52,163,16839,1,0,0:0:0:0:
119,298,16992,5,0,0:0:0:0:
215,90,17146,1,0,0:0:0:0:
300,92,17300,1,0,0:0:0:0:
331,96,17377,1,0,0:0:0:0:
365,100,17454,1,0,0:0:0:0:
394,107,17530,1,0,0:0:0:0:
417,120,17608,2,0,P|454:149|445:207,1,100
441,224,17839,1,0,0:0:0:0:
425,257,17915,1,0,0:0:0:0:
333,204,18069,6,0,L|331:100,1,75.0000028610231
330,79,18377,1,0,0:0:0:0:
68,54,18531,5,0,0:0:0:0:
92,301,18839,5,0,0:0:0:0:
332,144,18992,1,0,0:3:0:0:
349,136,19069,1,0,0:3:0:0:
364,124,19146,1,0,0:3:0:0:
121,313,19300,1,0,0:0:0:0:
348,174,19454,1,0,0:0:0:0:
116,52,19608,6,0,L|104:152,1,75.0000028610231
101,182,19915,5,0,0:0:0:0:
180,177,20069,1,0,0:0:0:0:
196,176,20146,1,0,0:0:0:0:
214,176,20223,1,0,0:0:0:0:
295,174,20377,2,0,B|372:171,1,75.0000028610231
418,172,20685,1,0,0:0:0:0:
446,230,20839,5,0,0:0:0:0:
440,242,20915,1,0,0:0:0:0:
433,259,20992,1,0,0:0:0:0:
367,241,21146,5,0,0:0:0:0:
361,253,21223,1,0,0:0:0:0:
354,271,21300,1,0,0:0:0:0:
324,322,21454,5,0,0:0:0:0:
249,312,21608,1,0,0:0:0:0:
174,300,21762,1,0,0:0:0:0:
101,287,21915,1,0,0:0:0:0:
57,250,22069,5,0,0:0:0:0:
75,217,22145,1,0,0:0:0:0:
93,184,22222,1,0,0:0:0:0:
112,152,22299,1,0,0:0:0:0:
130,119,22376,1,0,0:0:0:0:
149,86,22453,1,0,0:0:0:0:
167,54,22530,1,0,0:0:0:0:
297,122,22685,5,0,0:0:0:0:
396,177,22839,5,0,0:0:0:0:
171,337,22992,1,0,0:0:0:0:
86,88,23146,1,0,0:0:0:0:
365,330,23300,5,0,0:0:0:0:
262,35,23454,1,0,0:0:0:0:
93,321,23608,1,0,0:0:0:0:
386,113,23762,1,0,0:0:0:0:
108,62,23915,2,0,L|112:286,1,200
256,330,24223,5,0,0:0:0:0:
363,162,24377,1,0,0:0:0:0:
472,333,24531,1,0,0:0:0:0:
273,137,24685,1,0,0:0:0:0:
73,327,24839,1,0,0:0:0:0:
154,87,24992,1,0,0:0:0:0:
269,318,25146,1,0,0:0:0:0:
370,60,25300,1,0,0:0:0:0:
441,315,25454,1,0,0:0:0:0:
251,80,25608,1,0,0:0:0:0:
465,46,25762,1,0,0:0:0:0:
346,35,25915,2,0,L|130:37,1,200
133,104,26223,5,0,0:0:0:0:
169,112,26300,1,0,0:0:0:0:
196,116,26377,1,0,0:0:0:0:
439,48,26531,1,0,0:0:0:0:
345,44,26685,1,0,0:0:0:0:
390,211,26838,5,0,0:0:0:0:
366,219,26915,1,0,0:0:0:0:
338,228,26992,1,0,0:0:0:0:
312,234,27069,1,0,0:0:0:0:
280,244,27146,1,0,0:0:0:0:
204,268,27300,1,0,0:0:0:0:
128,295,27454,5,0,0:0:0:0:
315,10,27608,1,0,0:0:0:0:
433,337,27762,1,0,0:0:0:0:
61,88,27915,5,0,0:0:0:0:
309,348,28069,1,0,0:0:0:0:
410,11,28223,1,0,0:0:0:0:
71,340,28377,1,0,0:0:0:0:
94,315,28531,5,0,0:0:0:0:
242,15,28685,5,0,0:0:0:0:
479,324,28839,1,0,0:0:0:0:
47,222,28992,1,0,0:0:0:0:
441,9,29146,1,0,0:0:0:0:
40,158,29300,1,0,0:0:0:0:
251,330,29454,1,0,0:0:0:0:
168,115,29608,1,0,0:0:0:0:
379,200,29762,1,0,0:0:0:0:
243,225,29915,2,0,B|135:306|54:152|140:-39|291:-40|462:40|423:232|270:166|241:133,1,600.000022888185
256,192,31223,12,0,32222,0:0:0:0:
256,192,32377,5,0,0:0:0:0:
256,64,32685,1,0,0:0:0:0:
384,64,32992,1,0,0:0:0:0:
384,192,33300,1,0,0:0:0:0:
384,320,33608,1,0,0:0:0:0:
256,320,33915,1,0,0:0:0:0:
128,320,34223,1,0,0:0:0:0:
128,192,34531,1,0,0:0:0:0:
128,128,34685,1,0,0:0:0:0:
128,64,34839,1,0,0:0:0:0:
256,64,35146,1,0,0:0:0:0:
384,64,35454,1,0,0:0:0:0:
384,192,35762,1,0,0:0:0:0:
384,320,36069,1,0,0:0:0:0:
256,320,36377,1,0,0:0:0:0:
128,320,36685,1,0,0:0:0:0:
128,192,36992,1,0,0:0:0:0:
128,128,37146,1,0,0:0:0:0:
128,96,37223,1,0,0:0:0:0:
128,64,37300,1,0,0:0:0:0:
256,64,37608,1,0,0:0:0:0:
256,192,37915,1,0,0:0:0:0:
256,320,38223,1,0,0:0:0:0:
384,320,38531,1,0,0:0:0:0:
384,192,38839,1,0,0:0:0:0:
256,192,39146,1,0,0:0:0:0:
192,192,39300,1,0,0:0:0:0:
128,256,39608,1,0,0:0:0:0:
128,320,39762,1,0,0:0:0:0:
256,320,40069,5,0,0:0:0:0:
286,320,40146,1,0,0:0:0:0:
315,318,40222,1,0,0:0:0:0:
344,312,40299,1,0,0:0:0:0:
372,301,40377,1,0,0:0:0:0:
400,292,40453,1,0,0:0:0:0:
427,279,40530,1,0,0:0:0:0:
451,261,40607,1,0,0:0:0:0:
468,239,40684,1,0,0:0:0:0:
476,216,40761,1,0,0:0:0:0:
479,192,40838,1,0,0:0:0:0:
48,192,41454,6,0,L|65:148,1,37.5000014305115
83,104,41608,5,0,0:0:0:0:
112,69,41685,1,0,0:0:0:0:
154,54,41762,1,0,0:0:0:0:
193,44,41838,1,0,0:0:0:0:
237,47,41915,1,0,0:0:0:0:
277,66,41993,1,0,0:0:0:0:
300,100,42070,1,0,0:0:0:0:
301,141,42147,1,0,0:0:0:0:
274,165,42223,1,0,0:0:0:0:
416,320,42531,5,0,0:0:0:0:
368,224,42685,1,0,0:0:0:0:
320,320,42839,1,0,0:0:0:0:
272,224,42992,1,0,0:0:0:0:
224,320,43146,1,0,0:0:0:0:
128,320,43454,5,0,0:0:0:0:
80,224,43608,1,0,0:0:0:0:
176,80,43915,5,0,0:0:0:0:
272,224,44223,5,0,0:0:0:0:
320,128,44377,1,0,0:0:0:0:
368,224,44531,1,0,0:0:0:0:
416,128,44685,2,0,L|416:240,1,97.000002294159
368,224,44992,1,0,0:0:0:0:
368,128,45146,1,0,0:0:0:0:
272,128,45300,1,0,0:0:0:0:
272,224,45454,2,0,L|160:224,1,97.000002294159
176,128,45762,1,0,0:0:0:0:
176,320,46069,5,2,0:0:0:0:
176,224,46223,1,2,0:0:0:0:
176,128,46377,5,0,0:0:0:0:
272,128,46531,1,0,0:0:0:0:
368,128,46685,1,0,0:0:0:0:
368,224,46839,1,0,0:0:0:0:
272,224,46992,5,0,0:0:0:0:
224,224,47069,1,0,0:0:0:0:
176,224,47146,1,0,0:0:0:0:
80,224,47300,1,0,0:0:0:0:
80,112,47454,5,0,0:0:0:0:
192,112,47608,1,0,0:0:0:0:
192,224,47762,1,0,0:0:0:0:
192,336,47915,1,0,0:0:0:0:
304,336,48069,1,0,0:0:0:0:
304,224,48223,1,0,0:0:0:0:
192,224,48377,1,0,0:0:0:0:
80,224,48531,1,0,0:0:0:0:
80,0,48839,5,0,0:0:0:0:
192,0,48992,1,0,0:0:0:0:
304,0,49146,1,0,0:0:0:0:
304,112,49300,1,0,0:0:0:0:
192,112,49454,1,0,0:0:0:0:
80,112,49608,1,0,0:0:0:0:
256,112,49915,5,0,0:0:0:0:
416,112,50069,5,0,0:0:0:0:
416,224,50223,1,0,0:0:0:0:
416,336,50377,1,0,0:0:0:0:
304,336,50531,1,0,0:0:0:0:
304,224,50685,1,0,0:0:0:0:
80,224,50992,1,0,0:0:0:0:
240,304,51300,1,0,0:0:0:0:
272,304,51377,1,0,0:0:0:0:
304,304,51454,1,0,0:0:0:0:
416,304,51608,5,0,0:0:0:0:
416,192,51762,1,0,0:0:0:0:
320,192,51915,2,0,L|208:192,1,97.000002294159
190,264,53454,5,0,0:0:0:0:
215,232,53608,1,0,0:0:0:0:
240,208,53762,1,0,0:0:0:0:
256,192,53915,1,0,0:0:0:0:
272,176,54069,1,0,0:0:0:0:
288,160,54223,1,0,0:0:0:0:
356,107,54531,6,0,P|350:248|147:297,1,375.000014305115
112,272,55454,6,0,L|212:201,1,112.500004291535
231,191,55762,1,0,0:0:0:0:
289,157,55915,5,0,0:0:0:0:
388,182,56069,1,0,0:0:0:0:
370,285,56223,1,0,0:0:0:0:
260,258,56377,1,0,0:0:0:0:
205,247,56454,1,0,0:0:0:0:
151,230,56531,1,0,0:0:0:0:
163,178,56608,1,0,0:0:0:0:
181,125,56685,1,0,0:0:0:0:
234,141,56762,1,0,0:0:0:0:
286,152,56839,1,0,0:0:0:0:
346,332,56992,2,0,L|381:313,1,37.5000014305115
431,284,57146,1,0,0:0:0:0:
275,38,57300,5,0,0:0:0:0:
164,292,57454,1,0,0:0:0:0:
136,314,57531,1,0,0:0:0:0:
126,278,57608,1,0,0:0:0:0:
228,21,57762,5,0,0:0:0:0:
392,350,57915,1,0,0:0:0:0:
77,347,58069,1,0,0:0:0:0:
228,91,58223,5,0,0:0:0:0:
345,296,58377,1,0,0:0:0:0:
126,298,58531,1,0,0:0:0:0:
228,158,58685,5,0,0:0:0:0:
293,251,58839,1,0,0:0:0:0:
173,251,58992,1,0,0:0:0:0:
284,290,59146,1,0,0:0:0:0:
393,327,59300,1,0,0:0:0:0:
512,368,59454,1,0,0:0:0:0:
32,192,60069,1,0,0:0:0:0:
496,16,60685,1,0,0:0:0:0:
455,199,61300,2,0,B|454:276|454:275,1,75.0000028610231
305,333,61762,6,0,P|188:353|82:322,1,225.000008583069
74,316,62069,1,0,0:0:0:0:
280,20,62223,1,0,0:0:0:0:
407,338,62377,1,0,0:0:0:0:
98,68,62531,1,0,0:0:0:0:
421,122,62685,1,0,0:0:0:0:
91,306,62992,6,0,P|210:250|306:281,1,225.000008583069,0|0,0:3|0:3,0:3:0:0:
325,294,63300,1,0,0:0:0:0:
475,197,63454,1,0,0:0:0:0:
151,31,63608,1,0,0:0:0:0:
148,331,63762,1,0,0:0:0:0:
432,47,63915,1,0,0:0:0:0:
445,192,64223,6,0,L|341:308,1,150.000005722046
266,333,64531,1,0,0:0:0:0:
193,330,64685,1,0,0:0:0:0:
123,324,64839,2,0,P|72:287|55:205,1,150.000005722046
61,163,65300,5,0,0:0:0:0:
63,124,65454,2,0,B|11:7|329:312|219:-78|394:95,1,375.000014305115
355,160,66377,5,0,0:0:0:0:
328,232,66531,1,0,0:0:0:0:
294,299,66685,2,0,L|80:303,1,187.500007152558
89,267,67146,1,0,0:0:0:0:
89,254,67454,6,0,P|147:124|328:86,1,300
392,119,68069,1,0,0:0:0:0:
257,317,68300,1,0,0:0:0:0:
366,315,68531,1,0,0:0:0:0:
34,30,68685,5,0,0:0:0:0:
31,128,68915,1,0,0:0:0:0:
31,208,69146,1,0,0:0:0:0:
32,280,69300,2,0,L|94:280,1,50
234,101,69454,5,0,0:0:0:0:
316,318,69608,1,0,0:0:0:0:
316,318,69915,5,0,0:0:0:0:
491,261,70069,5,0,0:0:0:0:
449,179,70223,1,0,0:0:0:0:
401,92,70377,1,0,0:0:0:0:
385,70,70454,1,0,0:0:0:0:
367,42,70531,1,0,0:0:0:0:
87,200,70839,5,0,0:0:0:0:
430,134,71146,1,0,0:0:0:0:
448,217,71300,1,0,0:0:0:0:
333,338,71608,6,0,P|237:289|241:176,1,200
256,112,72069,1,0,0:0:0:0:
320,112,72223,1,0,0:0:0:0:
368,225,72377,5,0,0:0:0:0:
430,226,72531,1,0,0:0:0:0:
430,62,72685,5,0,0:0:0:0:
430,226,72839,1,0,0:0:0:0:
430,226,72992,2,0,P|427:275|381:325,1,100
47,227,73608,5,0,0:0:0:0:
109,78,73762,1,0,0:0:0:0:
458,208,73915,1,0,0:0:0:0:
458,208,74069,2,0,P|338:312|296:325,1,200
205,326,74531,1,0,0:0:0:0:
103,133,74839,5,0,0:0:0:0:
244,55,74992,1,0,0:0:0:0:
443,289,75146,1,0,0:0:0:0:
439,296,75300,6,0,L|366:313,1,50
345,319,75454,1,0,0:0:0:0:
301,324,75531,1,0,0:0:0:0:
256,325,75608,1,0,0:0:0:0:
152,322,75762,1,0,0:0:0:0:
112,224,75915,1,0,0:0:0:0:
74,136,76069,1,0,0:0:0:0:
48,48,76223,5,0,0:0:0:0:
256,128,76377,1,0,0:0:0:0:
480,208,76531,1,0,0:0:0:0:
480,208,76685,2,0,L|162:316,1,300.000011444092
148,321,77069,1,0,0:0:0:0:
144,316,77146,2,0,L|106:157,1,150.000005722046
48,240,77454,5,0,0:0:0:0:
240,192,77608,1,0,0:0:0:0:
416,144,77762,1,0,0:0:0:0:
416,144,77915,2,0,L|94:81,1,300
75,74,78223,1,0,0:0:0:0:
65,238,78377,1,0,0:0:0:0:
444,315,78685,5,0,0:0:0:0:
250,297,78839,1,0,0:0:0:0:
199,295,78915,1,0,0:0:0:0:
148,293,78992,1,0,0:0:0:0:
96,288,79069,1,0,0:0:0:0:
60,283,79146,6,0,P|136:92|310:56,1,400
432,32,79608,5,0,0:0:0:0:
128,32,79762,5,0,0:0:0:0:
128,320,79915,5,0,0:0:0:0:
433,321,80069,5,0,0:0:0:0:
256,256,80223,5,0,0:0:0:0:
80,192,80377,5,0,0:0:0:0:
256,0,80531,1,0,0:0:0:0:
432,192,80685,1,0,0:0:0:0:
256,368,80839,1,0,0:0:0:0:
80,0,80992,5,0,0:0:0:0:
432,0,81146,1,0,0:0:0:0:
256,288,81300,1,0,0:0:0:0:
256,224,81454,2,0,L|256:59,1,150.000005722046
273,29,81762,5,0,0:0:0:0:
305,33,81839,1,0,0:0:0:0:
341,59,81915,1,0,0:0:0:0:
367,102,81992,1,0,0:0:0:0:
372,156,82069,1,0,0:0:0:0:
372,321,82223,5,0,0:0:0:0:
64,32,82377,1,0,0:0:0:0:
58,315,82531,5,0,0:0:0:0:
64,32,82685,1,0,0:0:0:0:
108,308,82839,5,0,0:0:0:0:
162,48,82992,1,0,0:0:0:0:
257,204,83146,1,0,0:0:0:0:
109,64,83300,5,0,0:0:0:0:
182,274,83454,1,0,0:0:0:0:
264,99,83608,1,0,0:0:0:0:
432,320,83762,5,0,0:0:0:0:
352,32,83915,1,0,0:0:0:0:
432,320,84069,5,0,0:0:0:0:
432,32,84223,1,0,0:0:0:0:
409,316,84377,5,0,0:0:0:0:
336,32,84531,1,0,0:0:0:0:
384,320,84685,5,0,0:0:0:0:
256,64,84839,1,0,0:0:0:0:
368,336,84992,5,0,0:0:0:0:
192,144,85146,1,0,0:0:0:0:
368,336,85300,5,0,0:0:0:0:
144,224,85454,1,0,0:0:0:0:
368,336,85608,5,0,0:0:0:0:
144,336,85762,1,0,0:0:0:0:
128,336,85915,1,0,0:0:0:0:
368,256,86069,5,0,0:0:0:0:
112,256,86223,1,0,0:0:0:0:
96,256,86377,1,0,0:0:0:0:
368,96,86531,5,0,0:0:0:0:
64,96,86685,1,0,0:0:0:0:
448,48,86839,5,0,0:0:0:0:
288,336,86992,1,0,0:0:0:0:
352,48,87146,5,0,0:0:0:0:
192,336,87300,1,0,0:0:0:0:
256,48,87454,5,0,0:0:0:0:
96,336,87608,1,0,0:0:0:0:
111,46,87762,5,0,0:0:0:0:
384,352,87915,1,0,0:0:0:0:
384,32,88069,5,0,0:0:0:0:
128,352,88223,1,0,0:0:0:0:
48,64,88377,5,0,0:0:0:0:
416,224,88531,1,0,0:0:0:0:
48,208,88685,5,0,0:0:0:0:
416,352,88839,1,0,0:0:0:0:
88,258,88992,5,0,0:0:0:0:
123,306,89069,1,0,0:0:0:0:
180,328,89146,1,0,0:0:0:0:
240,337,89223,1,0,0:0:0:0:
298,316,89300,1,0,0:0:0:0:
342,281,89377,1,0,0:0:0:0:
379,243,89454,2,0,L|311:202,1,50
44,116,89608,5,0,0:0:0:0:
93,85,89685,1,0,0:0:0:0:
146,75,89762,1,0,0:0:0:0:
201,70,89839,1,0,0:0:0:0:
251,86,89915,1,0,0:0:0:0:
288,113,89992,1,0,0:0:0:0:
319,137,90069,1,0,0:0:0:0:
336,160,90146,1,0,0:0:0:0:
347,181,90223,1,0,0:0:0:0:
32,32,90531,5,2,0:0:0:0:
256,32,90839,5,0,0:0:0:0:
144,112,90992,1,0,0:0:0:0:
32,192,91146,1,0,0:0:0:0:
128,192,91300,1,0,0:0:0:0:
256,192,91454,1,0,0:0:0:0:
352,192,91608,1,0,0:0:0:0:
419,340,91762,5,0,0:0:0:0:
288,336,91915,5,0,0:0:0:0:
256,336,91992,1,0,0:0:0:0:
224,336,92069,1,0,0:0:0:0:
128,336,92223,5,0,0:0:0:0:
128,208,92377,5,0,0:0:0:0:
224,208,92531,1,0,0:0:0:0:
352,208,92685,1,0,0:0:0:0:
112,80,92992,5,0,0:0:0:0:
224,80,93146,5,0,0:0:0:0:
256,80,93223,1,0,0:0:0:0:
288,80,93300,1,0,0:0:0:0:
400,80,93454,5,0,0:0:0:0:
400,192,93608,1,0,0:0:0:0:
400,304,93762,2,0,P|256:304|259:304,1,100
256,304,94069,5,0,0:0:0:0:
128,304,94223,5,0,0:0:0:0:
128,208,94377,5,0,0:0:0:0:
96,208,94454,1,0,0:0:0:0:
64,208,94531,1,0,0:0:0:0:
64,112,94685,5,0,0:0:0:0:
192,112,94839,5,0,0:0:0:0:
320,112,94992,5,0,0:0:0:0:
352,112,95069,1,0,0:0:0:0:
384,112,95146,2,0,L|384:224,1,100
384,320,95454,5,0,0:0:0:0:
256,320,95608,5,0,0:0:0:0:
224,320,95685,1,0,0:0:0:0:
192,320,95762,1,0,0:0:0:0:
64,320,95915,5,0,0:0:0:0:
64,192,96069,1,0,0:0:0:0:
64,96,96223,1,0,0:0:0:0:
192,96,96377,1,0,0:0:0:0:
192,192,96531,1,0,0:0:0:0:
192,320,96685,1,0,0:0:0:0:
320,320,96839,1,0,0:0:0:0:
352,320,96915,1,0,0:0:0:0:
384,320,96992,1,0,0:0:0:0:
480,320,97146,1,0,0:0:0:0:
480,192,97300,1,0,0:0:0:0:
384,192,97454,1,0,0:0:0:0:
384,64,97608,1,0,0:0:0:0:
288,64,97762,1,0,0:0:0:0:
288,192,97915,1,0,0:0:0:0:
288,288,98069,1,0,0:0:0:0:
256,288,98146,1,0,0:0:0:0:
224,288,98223,1,0,0:0:0:0:
128,288,98377,1,0,0:0:0:0:
128,160,98531,1,0,0:0:0:0:
256,160,98685,1,0,0:0:0:0:
128,192,99300,5,0,0:0:0:0:
256,64,99454,1,0,0:0:0:0:
368,192,99608,1,0,0:0:0:0:
256,320,99762,6,0,P|194:267|258:191,1,200
256,191,100377,5,0,0:0:0:0:
256,48,100531,1,0,0:0:0:0:
400,48,100685,1,0,0:0:0:0:
400,192,100839,1,0,0:0:0:0:
400,336,100992,1,0,0:0:0:0:
256,336,101146,1,0,0:0:0:0:
112,336,101300,1,0,0:0:0:0:
112,192,101454,1,0,0:0:0:0:
112,48,101608,1,0,0:0:0:0:
256,48,101762,1,0,0:0:0:0:
256,336,102069,5,0,0:0:0:0:
256,48,102377,5,0,0:0:0:0:
400,48,102531,1,0,0:0:0:0:
400,336,102839,5,0,0:0:0:0:
256,336,102992,1,0,0:0:0:0:
256,48,103300,5,0,0:0:0:0:
256,336,103608,5,0,0:0:0:0:
144,192,104223,5,0,0:0:0:0:
256,192,104377,1,0,0:0:0:0:
368,192,104531,2,0,L|288:112,1,100
256,80,104839,1,0,0:0:0:0:
224,80,104915,1,0,0:0:0:0:
192,80,104992,1,0,0:0:0:0:
114,108,105300,5,0,0:0:0:0:
166,274,105454,1,0,0:0:0:0:
386,86,105608,1,0,0:0:0:0:
372,188,105762,1,0,0:0:0:0:
141,56,105915,1,0,0:0:0:0:
91,212,106069,1,0,0:0:0:0:
411,46,106223,1,0,0:0:0:0:
435,170,106377,1,0,0:0:0:0:
68,328,106685,5,0,0:0:0:0:
419,68,106992,5,0,0:0:0:0:
379,355,107146,1,0,0:0:0:0:
92,315,107300,1,0,0:0:0:0:
132,28,107454,1,0,0:0:0:0:
111,97,107915,5,0,0:0:0:0:
440,183,108069,1,0,0:0:0:0:
78,320,108223,1,0,0:0:0:0:
315,35,108377,1,0,0:0:0:0:
368,354,108531,1,0,0:0:0:0:
423,145,108685,6,0,L|363:176,2,66.6666666666667
337,186,108992,2,0,L|259:191,2,66.6666666666667
241,189,109300,2,0,L|175:184,2,66.6666666666667
143,176,109608,2,0,L|79:137,2,66.6666666666667
77,108,109915,6,0,L|302:106,1,200
144,320,111146,5,0,0:0:0:0:
217,303,111300,1,0,0:0:0:0:
286,259,111454,1,0,0:0:0:0:
342,197,111608,1,0,0:0:0:0:
380,114,111762,1,0,0:0:0:0:
389,24,111915,2,0,B|401:142|335:243|216:343|110:316,1,425.000008106232
142,320,112377,5,0,0:0:0:0:
71,246,112531,1,0,0:0:0:0:
122,157,112685,1,0,0:0:0:0:
222,176,112839,1,0,0:0:0:0:
233,276,112992,2,0,B|138:323|138:323|64:246|64:246|121:154|121:154|225:176|225:176|235:274,1,500
256,128,113762,5,0,0:0:0:0:
192,192,113915,1,0,0:0:0:0:
256,256,114069,1,0,0:0:0:0:
320,192,114223,1,0,0:0:0:0:
256,64,114377,1,0,0:0:0:0:
128,256,114531,1,0,0:0:0:0:
384,256,114685,1,0,0:0:0:0:
256,192,114839,12,0,116069,0:0:0:0:
176,160,116531,5,0,0:0:0:0:
192,208,116685,1,0,0:0:0:0:
208,256,116839,1,0,0:0:0:0:
336,224,116992,5,0,0:0:0:0:
62,48,117300,6,0,L|64:208,1,125
64,256,117608,1,0,0:0:0:0:
64,336,117762,2,0,L|240:336,1,125
256,336,118069,1,0,0:0:0:0:
400,192,118223,1,0,0:0:0:0:
304,96,118377,5,0,0:0:0:0:
160,256,118531,2,0,L|288:128,1,125
368,32,118839,5,0,0:0:0:0:
464,128,118992,2,0,L|256:336,1,250
103,173,119454,5,0,0:0:0:0:
80,336,119608,2,0,B|80:48|448:336|448:48,1,550.000016784668
117,59,120531,5,0,0:0:0:0:
188,320,120685,1,0,0:0:0:0:
316,311,120839,2,0,B|119:137,1,220.000006713867
83,78,121300,5,0,0:0:0:0:
437,81,121608,5,0,0:0:0:0:
383,301,121762,5,0,0:0:0:0:
184,304,121915,1,0,0:0:0:0:
65,188,122069,1,0,0:0:0:0:
182,99,122223,2,0,L|371:221,1,220.000006713867
427,252,122685,5,0,0:0:0:0:
297,332,122839,1,0,0:0:0:0:
73,194,122992,5,0,0:0:0:0:
241,60,123146,1,0,0:0:0:0:
438,119,123300,1,0,0:0:0:0:
400,220,123454,2,0,L|257:258,1,110.000003356934
217,273,123762,1,0,0:0:0:0:
97,195,123915,1,0,0:0:0:0:
454,310,124223,5,0,0:0:0:0:
416,182,124377,1,0,0:0:0:0:
377,113,124531,1,0,0:0:0:0:
351,89,124608,1,0,0:0:0:0:
308,78,124685,1,0,0:0:0:0:
209,60,124992,5,0,0:0:0:0:
64,284,125146,1,0,0:0:0:0:
369,311,125300,1,0,0:0:0:0:
100,75,125454,5,0,0:0:0:0:
421,195,125608,1,0,0:0:0:0:
167,334,125762,1,0,0:0:0:0:
115,329,125915,5,0,0:0:0:0:
78,271,125992,1,0,0:0:0:0:
77,201,126069,1,0,0:0:0:0:
103,137,126146,1,0,0:0:0:0:
150,85,126223,1,0,0:0:0:0:
217,67,126300,1,0,0:0:0:0:
287,68,126377,1,0,0:0:0:0:
367,231,126531,5,0,0:0:0:0:
337,285,126608,1,0,0:0:0:0:
283,292,126685,1,0,0:0:0:0:
191,207,126839,5,0,0:0:0:0:
212,131,126915,1,0,0:0:0:0:
293,125,126992,1,0,0:0:0:0:
384,128,127146,2,0,L|113:319,1,330.000010070801
114,318,127762,2,0,L|235:79,1,220.000006713867
245,88,128223,1,0,0:3:0:0:
300,105,128300,1,0,0:3:0:0:
346,67,128377,1,0,0:3:0:0:
404,180,128531,1,0,0:0:0:0:
138,105,128992,5,0,0:0:0:0:
389,256,129146,1,0,0:0:0:0:
375,272,129454,6,0,P|263:305|151:245,1,200
97,223,129762,1,0,0:0:0:0:
224,165,129915,1,0,0:0:0:0:
354,150,130069,5,0,0:0:0:0:
258,322,130223,1,0,0:0:0:0:
164,81,130377,1,0,0:0:0:0:
213,48,130685,6,0,P|317:57|427:158,1,200
421,204,130992,1,0,0:0:0:0:
326,316,131146,1,0,0:0:0:0:
207,210,131300,5,0,0:0:0:0:
301,37,131454,1,0,0:0:0:0:
377,301,131608,1,0,0:0:0:0:
135,62,131915,6,0,P|79:176|123:241,1,200
146,300,132223,1,0,0:0:0:0:
236,338,132377,1,0,0:0:0:0:
338,334,132531,2,0,P|460:214|431:171,1,200
459,110,132839,1,0,0:0:0:0:
111,39,133146,2,0,B|14:172|54:238|72:267,1,200
131,177,134069,5,2,0:0:0:0:
375,142,134223,1,2,0:0:0:0:
282,305,134377,1,2,0:0:0:0:
194,50,135146,6,0,B|23:170|197:290,1,300.000011444092
395,160,135762,5,0,0:0:0:0:
84,301,136069,1,0,0:0:0:0:
183,118,136223,1,0,0:0:0:0:
426,288,136377,1,0,0:0:0:0:
322,42,136685,5,0,0:0:0:0:
161,50,136839,1,0,0:0:0:0:
71,162,136992,2,0,B|71:253|119:312|210:332|291:328|371:314,1,375.000014305115
339,295,137454,2,0,B|457:246|531:87|359:-26|66:-34|159:401|415:262|375:260|306:92|371:133,1,519.99997619629
341,181,137839,1,0,0:0:0:0:
325,158,137915,1,0,0:0:0:0:
249,92,138069,1,0,0:0:0:0:
216,127,138146,1,0,0:0:0:0:
187,163,138223,1,0,0:0:0:0:
106,308,138377,5,0,0:0:0:0:
336,265,138531,1,0,0:0:0:0:
345,313,138608,1,0,0:0:0:0:
355,359,138685,1,0,0:0:0:0:
464,192,138839,5,0,0:0:0:0:
77,192,138992,1,0,0:0:0:0:
464,192,139300,2,0,B|368:81|256:66|129:81|78:189|78:189,1,440.000013427735
446,66,139762,1,0,0:0:0:0:
444,332,139915,2,0,B|221:339|105:209,1,350.00000333786
112,47,140377,1,0,0:0:0:0:
112,328,140531,2,0,B|297:327|448:219,1,350.00000333786
452,82,140992,1,0,0:0:0:0:
152,81,141300,5,0,0:0:0:0:
352,82,141454,1,0,0:0:0:0:
409,275,141762,2,0,P|224:348|75:252,1,350.00000333786
85,121,142223,1,0,0:0:0:0:
331,37,142377,1,0,0:0:0:0:
409,298,142531,1,0,0:0:0:0:
171,383,142685,1,0,0:0:0:0:
85,121,142839,1,0,0:0:0:0:
331,37,142992,2,0,P|478:125|310:358,1,525.00000500679
85,119,144069,6,0,L|275:71,1,175.00000166893
460,37,144377,1,0,0:0:0:0:
384,381,144531,1,0,0:0:0:0:
324,39,144685,1,0,0:0:0:0:
245,372,144839,1,0,0:0:0:0:
154,36,144992,1,0,0:0:0:0:
91,379,145146,1,0,0:0:0:0:
52,37,145300,2,0,L|401:81,1,350.00000333786
407,97,146223,6,0,P|415:215|337:308,1,175.00000166893
310,311,146531,1,0,0:0:0:0:
271,328,146608,1,0,0:0:0:0:
229,333,146685,1,0,0:0:0:0:
185,323,146762,1,0,0:0:0:0:
72,183,146839,2,0,P|153:68|247:40,1,175.00000166893
247,43,147146,1,0,0:0:0:0:
276,50,147223,1,0,0:0:0:0:
311,73,147300,2,0,P|405:175|380:316,1,262.500002503395
373,314,147608,2,0,P|213:374|81:298,1,262.500002503395
102,309,147915,2,0,P|49:148|131:81,1,262.500002503395
137,78,148223,1,0,0:0:0:0:
181,68,148300,1,0,0:0:0:0:
220,74,148377,1,0,0:0:0:0:
346,97,148531,1,0,0:0:0:0:
352,267,148685,1,0,0:0:0:0:
238,293,148839,1,0,0:0:0:0:
196,283,148915,1,0,0:0:0:0:
160,257,148992,1,0,0:0:0:0:
122,218,149069,1,0,0:0:0:0:
88,174,149146,1,0,0:0:0:0:
66,120,149223,1,0,0:0:0:0:
59,54,149300,5,0,0:0:0:0:
438,93,149454,1,0,0:0:0:0:
42,210,149608,1,0,0:0:0:0:
454,262,149762,1,0,0:0:0:0:
149,42,149915,1,0,0:0:0:0:
73,332,150069,1,0,0:0:0:0:
446,53,150223,1,0,0:0:0:0:
356,226,150377,1,0,0:0:0:0:
275,54,150531,1,0,0:0:0:0:
211,241,150685,1,0,0:0:0:0:
125,63,150839,1,0,0:0:0:0:
71,317,151146,5,0,0:0:0:0:
101,298,151223,1,0,0:0:0:0:
136,296,151300,1,0,0:0:0:0:
176,313,151377,1,0,0:0:0:0:
205,332,151454,1,0,0:0:0:0:
243,342,151531,1,0,0:0:0:0:
280,338,151608,2,0,P|328:309|328:255,1,87.500000834465
433,67,151762,5,0,0:0:0:0:
448,118,151839,1,0,0:0:0:0:
441,163,151915,1,0,0:0:0:0:
409,185,151992,1,0,0:0:0:0:
373,192,152069,1,0,0:0:0:0:
334,181,152146,1,0,0:0:0:0:
303,164,152223,2,0,B|299:110|241:95,1,87.500000834465
136,47,152377,5,0,0:0:0:0:
103,81,152454,1,0,0:0:0:0:
98,115,152531,1,0,0:0:0:0:
107,159,152608,1,0,0:0:0:0:
125,199,152685,2,0,L|398:328,1,300.000011444092
434,41,152992,5,0,0:0:0:0:
416,83,153069,1,0,0:0:0:0:
408,138,153146,1,0,0:0:0:0:
411,184,153223,1,0,0:0:0:0:
423,218,153300,1,0,0:0:0:0:
433,256,153377,1,0,0:0:0:0:
426,299,153454,1,0,0:0:0:0:
403,322,153531,1,0,0:0:0:0:
364,327,153608,1,0,0:0:0:0:
322,317,153685,1,0,0:0:0:0:
298,297,153762,1,0,0:0:0:0:
283,262,153839,1,0,0:0:0:0:
282,219,153915,1,0,0:0:0:0:
292,184,153992,1,0,0:0:0:0:
303,155,154069,1,0,0:0:0:0:
310,122,154146,1,0,0:0:0:0:
313,96,154223,1,0,0:0:0:0:
298,64,154300,1,0,0:0:0:0:
270,41,154377,1,0,0:0:0:0:
238,47,154454,1,0,0:0:0:0:
216,67,154531,1,0,0:0:0:0:
197,97,154608,1,0,0:0:0:0:
162,119,154685,1,0,0:0:0:0:
125,121,154762,1,0,0:0:0:0:
90,104,154839,1,0,0:0:0:0:
65,76,154915,1,0,0:0:0:0:
66,40,154992,1,0,0:0:0:0:
90,16,155069,1,0,0:0:0:0:
126,24,155146,1,0,0:0:0:0:
149,54,155223,1,0,0:0:0:0:
151,95,155300,1,0,0:0:0:0:
141,126,155377,1,0,0:0:0:0:
128,168,155454,1,0,0:0:0:0:
116,198,155531,1,0,0:0:0:0:
100,231,155608,1,0,0:0:0:0:
87,263,155685,1,0,0:0:0:0:
86,303,155762,1,0,0:0:0:0:
102,336,155839,1,0,0:0:0:0:
133,350,155915,1,0,0:0:0:0:
173,343,155992,1,0,0:0:0:0:
210,329,156069,1,0,0:0:0:0:
253,310,156146,1,0,0:0:0:0:
287,291,156223,1,0,0:0:0:0:
321,270,156300,1,0,0:0:0:0:
350,246,156377,1,0,0:0:0:0:
379,219,156454,1,0,0:0:0:0:
402,194,156531,1,0,0:0:0:0:
414,152,156608,1,0,0:0:0:0:
400,119,156685,1,0,0:0:0:0:
363,101,156762,1,0,0:0:0:0:
329,111,156839,1,0,0:0:0:0:
299,137,156915,1,0,0:0:0:0:
263,166,156992,1,0,0:0:0:0:
219,177,157069,1,0,0:0:0:0:
173,173,157146,1,0,0:0:0:0:
131,159,157223,1,0,0:0:0:0:
101,118,157300,1,0,0:0:0:0:
108,78,157377,1,0,0:0:0:0:
147,59,157454,1,0,0:0:0:0:
194,58,157531,1,0,0:0:0:0:
243,66,157608,1,0,0:0:0:0:
278,84,157685,1,0,0:0:0:0:
313,115,157762,1,0,0:0:0:0:
339,157,157839,1,0,0:0:0:0:
350,208,157915,1,0,0:0:0:0:
336,264,157992,1,0,0:0:0:0:
297,294,158069,1,0,0:0:0:0:
252,312,158146,1,0,0:0:0:0:
205,322,158223,1,0,0:0:0:0:
157,311,158300,1,0,0:0:0:0:
105,288,158377,1,0,0:0:0:0:
64,244,158454,1,0,0:0:0:0:
49,195,158531,2,0,B|36:75|110:21|221:29|284:76,1,300.000011444092
318,81,158992,6,0,L|396:232,1,150.000005722046
448,320,159300,1,0,0:0:0:0:
256,320,159454,1,0,0:0:0:0:
80,320,159608,1,0,0:0:0:0:
80,160,159762,1,0,0:0:0:0:
256,160,159915,1,0,0:0:0:0:
256,16,160069,1,0,0:0:0:0:
432,16,160223,1,0,0:0:0:0:
432,160,160377,2,0,L|432:336,1,150.000005722046
432,320,160685,1,0,0:0:0:0:
256,320,160839,1,0,0:0:0:0:
112,96,161146,5,0,0:0:0:0:
384,96,161300,1,0,0:0:0:0:
368,96,161454,2,0,L|112:96,1,250
121,194,161762,1,0,0:0:0:0:
136,220,161839,1,0,0:0:0:0:
153,248,161915,1,0,0:0:0:0:
451,274,162223,5,0,0:0:0:0:
409,191,162377,5,0,0:0:0:0:
389,156,162454,1,0,0:0:0:0:
372,123,162531,1,0,0:0:0:0:
181,128,162685,5,0,0:0:0:0:
199,172,162762,1,0,0:0:0:0:
219,223,162839,1,0,0:0:0:0:
259,338,162992,5,0,0:0:0:0:
116,121,163146,1,0,0:0:0:0:
157,98,163223,1,0,0:0:0:0:
200,73,163300,1,0,0:0:0:0:
406,64,163454,5,0,0:0:0:0:
415,298,163608,1,0,0:0:0:0:
362,303,163685,1,0,0:0:0:0:
310,309,163762,1,0,0:0:0:0:
256,315,163839,1,0,0:0:0:0:
199,319,163915,2,0,L|56:108,1,250
254,59,164223,5,0,0:0:0:0:
281,106,164300,1,0,0:0:0:0:
309,154,164377,1,0,0:0:0:0:
336,198,164454,1,0,0:0:0:0:
364,243,164531,1,0,0:0:0:0:
386,289,164608,1,0,0:0:0:0:
405,325,164685,1,0,0:0:0:0:
351,328,164762,1,0,0:0:0:0:
295,332,164839,1,0,0:0:0:0:
241,335,164915,1,0,0:0:0:0:
191,334,164992,1,0,0:0:0:0:
138,335,165069,1,0,0:0:0:0:
96,339,165146,1,0,0:0:0:0:
87,292,165223,1,0,0:0:0:0:
79,244,165300,1,0,0:0:0:0:
71,195,165377,1,0,0:0:0:0:
63,145,165454,1,0,0:0:0:0:
56,95,165531,1,0,0:0:0:0:
98,76,165608,1,0,0:0:0:0:
149,60,165685,1,0,0:0:0:0:
207,37,165762,1,0,0:0:0:0:
273,13,165839,1,0,0:0:0:0:
330,1,165915,2,0,B|490:266|139:394|98:268,1,500
49,214,166377,6,0,P|73:98|248:87,1,250
411,110,166685,5,0,0:0:0:0:
173,301,166839,1,0,0:0:0:0:
309,94,166992,1,0,0:0:0:0:
360,316,167146,1,0,0:0:0:0:
465,70,167300,5,0,0:0:0:0:
119,344,167454,1,0,0:0:0:0:
295,23,167608,1,0,0:0:0:0:
371,383,167762,1,0,0:0:0:0:
191,39,167915,1,0,0:0:0:0:
180,48,167992,1,0,0:0:0:0:
172,56,168069,1,0,0:0:0:0:
32,192,168223,5,0,0:0:0:0:
176,192,168377,1,0,0:0:0:0:
320,192,168531,1,0,0:0:0:0:
464,192,168685,1,0,0:0:0:0:
148,322,168839,2,0,B|119:173|145:28|378:22|457:59,1,500
409,158,169300,5,0,0:0:0:0:
337,265,169454,1,0,0:0:0:0:
286,322,169531,1,0,0:0:0:0:
218,303,169608,1,0,0:0:0:0:
102,174,169762,1,0,0:0:0:0:
181,53,169915,1,0,0:0:0:0:
323,61,170069,1,0,0:0:0:0:
399,159,170223,1,0,0:0:0:0:
379,288,170377,1,0,0:0:0:0:
239,343,170531,1,0,0:0:0:0:
111,293,170685,1,0,0:0:0:0:
80,165,170839,1,0,0:0:0:0:
178,51,170992,1,0,0:0:0:0:
310,43,171146,2,0,L|440:189,1,150.000005722046
355,337,171454,5,0,0:0:0:0:
187,340,171659,1,0,0:0:0:0:
112,228,171864,1,0,0:0:0:0:
156,80,172069,1,0,0:0:0:0:
427,149,172274,1,0,0:0:0:0:
242,312,172480,1,0,0:0:0:0:
99,311,172685,2,0,P|32:164|112:52,2,300.000011444092
109,109,192992,5,0,0:0:0:0:
416,80,193300,1,0,0:0:0:0:
96,320,193608,5,0,0:0:0:0:
416,320,193915,1,0,0:0:0:0:
96,32,194223,1,0,0:0:0:0:
416,32,194531,1,0,0:0:0:0:
416,336,194839,1,0,0:0:0:0:
96,336,195146,1,0,0:0:0:0:
96,32,195454,1,0,0:0:0:0:
416,32,195762,1,0,0:0:0:0:
256,336,196069,1,0,0:0:0:0:
96,32,196377,1,0,0:0:0:0:
83,331,196685,5,0,0:0:0:0:
100,296,196762,1,0,0:0:0:0:
123,268,196839,1,0,0:0:0:0:
159,245,196915,1,0,0:0:0:0:
193,246,196992,1,0,0:0:0:0:
232,269,197069,1,0,0:0:0:0:
249,304,197146,1,0,0:0:0:0:
271,339,197223,1,0,0:0:0:0:
308,350,197300,1,0,0:0:0:0:
352,341,197377,1,0,0:0:0:0:
394,308,197454,1,0,0:0:0:0:
421,258,197531,1,0,0:0:0:0:
435,212,197608,1,0,0:0:0:0:
435,157,197685,1,0,0:0:0:0:
421,104,197762,1,0,0:0:0:0:
381,61,197839,1,0,0:0:0:0:
334,41,197915,1,0,0:0:0:0:
272,32,197992,1,0,0:0:0:0:
203,37,198069,1,0,0:0:0:0:
140,78,198146,1,0,0:0:0:0:
107,150,198223,1,0,0:0:0:0:
426,305,198531,5,0,0:0:0:0:
311,325,198685,1,0,0:0:0:0:
243,317,198762,1,0,0:0:0:0:
185,298,198839,1,0,0:0:0:0:
148,246,198915,1,0,0:0:0:0:
136,185,198992,1,0,0:0:0:0:
235,57,199146,5,0,0:0:0:0:
296,70,199223,1,0,0:0:0:0:
340,115,199300,1,0,0:0:0:0:
352,174,199377,1,0,0:0:0:0:
330,232,199454,1,0,0:0:0:0:
292,275,199531,1,0,0:0:0:0:
244,292,199608,2,0,P|186:292|106:165,1,150.000005722046
104,66,199915,5,0,0:0:0:0:
422,101,200069,1,0,0:0:0:0:
95,285,200223,1,0,0:0:0:0:
457,328,200377,1,0,0:0:0:0:
84,194,200531,1,0,0:0:0:0:
461,146,200685,1,0,0:0:0:0:
67,78,200839,1,0,0:0:0:0:
475,38,200992,1,0,0:0:0:0:
460,66,201069,1,0,0:0:0:0:
112,208,201197,5,0,0:0:0:0:
448,304,201403,5,0,0:0:0:0:
64,336,201608,5,0,0:0:0:0:
448,208,201813,5,0,0:0:0:0:
69,180,202018,5,0,0:0:0:0:
431,90,202223,5,0,0:0:0:0:
72,45,202428,5,0,0:0:0:0:
251,39,202531,1,0,0:0:0:0:
443,140,202685,5,0,0:0:0:0:
435,177,202762,1,0,0:0:0:0:
422,218,202839,1,0,0:0:0:0:
401,251,202915,1,0,0:0:0:0:
366,281,202992,1,0,0:0:0:0:
312,303,203069,1,0,0:0:0:0:
261,314,203146,1,0,0:0:0:0:
219,308,203223,1,0,0:0:0:0:
176,284,203300,1,0,0:0:0:0:
133,254,203377,1,0,0:0:0:0:
114,225,203454,2,0,P|105:126|304:23,1,300.000011444092
309,26,203915,6,0,P|430:76|442:247,1,300.000011444092
410,280,204377,6,0,P|356:340|250:326,1,150.000005722046
224,341,204685,1,0,0:0:0:0:
109,124,204839,1,0,0:0:0:0:
116,329,205300,5,0,0:0:0:0:
417,77,205454,1,0,0:0:0:0:
407,312,205762,6,0,P|273:298|107:115,1,375
96,85,206069,5,0,0:0:0:0:
422,93,206223,1,0,0:0:0:0:
411,142,206300,1,0,0:0:0:0:
399,186,206377,1,0,0:0:0:0:
369,231,206454,1,0,0:0:0:0:
338,273,206531,1,0,0:0:0:0:
294,308,206608,1,0,0:0:0:0:
252,332,206685,1,0,0:0:0:0:
194,335,206762,1,0,0:0:0:0:
148,322,206839,1,0,0:0:0:0:
110,291,206915,1,0,0:0:0:0:
78,256,206992,1,0,0:0:0:0:
63,208,207069,1,0,0:0:0:0:
58,160,207146,1,0,0:0:0:0:
62,112,207223,1,0,0:0:0:0:
88,69,207300,1,0,0:0:0:0:
124,43,207377,1,0,0:0:0:0:
177,38,207454,1,0,0:0:0:0:
226,45,207531,1,0,0:0:0:0:
271,71,207608,1,0,0:0:0:0:
293,116,207685,1,0,0:0:0:0:
276,162,207762,1,0,0:0:0:0:
250,201,207839,1,0,0:0:0:0:
244,248,207915,1,0,0:0:0:0:
276,293,207992,1,0,0:0:0:0:
325,306,208069,1,0,0:0:0:0:
368,292,208146,1,0,0:0:0:0:
256,192,208300,12,0,209146,0:0:0:0:
85,121,209454,6,0,B|218:56,1,100
286,34,209762,1,0,0:0:0:0:
344,59,209839,1,0,0:0:0:0:
388,102,209915,1,0,0:0:0:0:
415,156,209992,1,0,0:0:0:0:
425,210,210069,1,0,0:0:0:0:
403,263,210146,1,0,0:0:0:0:
378,311,210223,1,0,0:0:0:0:
329,344,210300,1,0,0:0:0:0:
262,359,210377,5,0,0:0:0:0:
93,66,210531,1,0,0:0:0:0:
439,280,210685,2,0,P|401:338|331:340,1,100
124,250,210992,1,0,0:0:0:0:
330,188,211146,1,0,0:0:0:0:
245,75,211454,5,0,0:0:0:0:
96,64,211608,1,0,0:0:0:0:
151,202,211762,1,0,0:0:0:0:
458,232,212069,5,0,0:0:0:0:
101,198,212377,5,0,0:0:0:0:
369,111,212531,1,0,0:0:0:0:
422,190,212685,1,0,0:0:0:0:
219,286,212890,5,0,0:0:0:0:
81,69,213146,5,0,0:0:0:0:
415,78,213377,2,0,P|433:233|261:346,1,375.000014305115
133,97,213915,5,0,0:0:0:0:
430,181,214069,1,0,0:0:0:0:
101,316,214223,1,0,0:0:0:0:
352,267,214377,5,0,0:0:0:0:
399,253,214454,1,0,0:0:0:0:
445,243,214531,1,0,0:0:0:0:
157,156,214685,5,0,0:0:0:0:
109,142,214762,1,0,0:0:0:0:
55,128,214839,1,0,0:0:0:0:
439,331,214992,5,0,0:0:0:0:
216,42,215146,1,0,0:0:0:0:
53,315,215300,1,0,0:0:0:0:
416,109,215454,1,0,0:0:0:0:
327,42,215608,2,0,P|159:79|62:194,1,300.000011444092
36,263,216069,5,0,0:0:0:0:
396,233,216223,1,0,0:0:0:0:
350,240,216300,1,0,0:0:0:0:
303,247,216377,1,0,0:0:0:0:
55,74,216685,5,0,0:0:0:0:
446,76,216839,2,0,B|341:175|152:187|78:111,1,400
55,74,217300,1,0,0:0:0:0:
139,98,217454,1,0,0:0:0:0:
222,127,217608,5,0,0:0:0:0:
481,328,217762,1,0,0:0:0:0:
48,266,217915,1,0,0:0:0:0:
450,43,218069,2,0,B|470:190|387:314|176:348,1,400
97,350,218531,1,0,0:0:0:0:
447,53,218839,5,0,0:0:0:0:
376,260,218992,1,0,0:0:0:0:
261,220,219146,1,0,0:0:0:0:
336,26,219300,1,0,0:0:0:0:
182,36,219454,1,0,0:0:0:0:
136,66,219531,1,0,0:0:0:0:
102,106,219608,1,0,0:0:0:0:
75,154,219685,1,0,0:0:0:0:
60,212,219762,1,0,0:0:0:0:
69,267,219839,1,0,0:0:0:0:
95,317,219915,1,0,0:0:0:0:
137,349,219992,1,0,0:0:0:0:
192,362,220069,1,0,0:0:0:0:
246,361,220146,1,0,0:0:0:0:
304,349,220223,1,0,0:0:0:0:
349,331,220300,1,0,0:0:0:0:
390,293,220377,1,0,0:0:0:0:
410,242,220454,1,0,0:0:0:0:
415,186,220531,1,0,0:0:0:0:
402,126,220608,1,0,0:0:0:0:
380,87,220685,6,0,P|255:36|180:70,1,200
55,113,220992,1,0,0:0:0:0:
45,351,221146,1,0,0:0:0:0:
447,54,221454,5,0,0:0:0:0:
85,354,221762,2,0,P|193:362|339:293,1,200
400,240,222069,1,0,0:0:0:0:
432,176,222146,1,0,0:0:0:0:
400,112,222223,1,0,0:0:0:0:
283,115,222377,1,0,0:0:0:0:
284,178,222454,1,0,0:0:0:0:
259,232,222531,1,0,0:0:0:0:
213,268,222608,1,0,0:0:0:0:
157,268,222685,1,0,0:0:0:0:
102,246,222762,1,0,0:0:0:0:
71,196,222839,1,0,0:0:0:0:
72,138,222915,1,0,0:0:0:0:
92,82,222992,1,0,0:0:0:0:
451,50,223146,6,0,L|247:216,1,200
70,341,223454,1,0,0:0:0:0:
461,228,223608,1,0,0:0:0:0:
48,164,223762,1,0,0:0:0:0:
454,52,223915,1,0,0:0:0:0:
118,271,224069,1,0,0:0:0:0:
443,346,224223,6,0,L|249:191,1,200
71,51,224531,1,0,0:0:0:0:
461,163,224685,1,0,0:0:0:0:
81,280,224839,1,0,0:0:0:0:
449,339,224992,1,0,0:0:0:0:
79,182,225146,1,0,0:0:0:0:
411,105,225454,5,0,0:0:0:0:
116,70,225608,2,0,L|115:268,1,150.000005722046
111,321,225915,1,0,0:0:0:0:
405,277,226069,1,0,0:0:0:0:
76,61,226377,5,0,0:0:0:0:
436,334,226685,2,0,P|258:354|120:294,1,300.000011444092
69,255,227146,1,0,0:0:0:0:
106,67,227454,5,0,0:0:0:0:
279,55,227608,1,0,0:0:0:0:
410,153,227762,1,0,0:0:0:0:
380,319,227915,1,0,0:0:0:0:
53,165,228223,5,0,0:0:0:0:
186,331,228377,1,0,0:0:0:0:
434,188,228685,6,0,P|311:71|163:67,1,300.000011444092
458,348,229300,5,0,0:0:0:0:
48,85,229608,5,0,0:0:0:0:
434,138,229762,1,0,0:0:0:0:
65,293,229915,1,0,0:0:0:0:
453,338,230121,5,0,0:0:0:0:
86,46,230326,1,0,0:0:0:0:
375,48,230531,2,0,B|476:108|469:246|443:380|309:394|207:387|82:378|30:280|21:212|28:103|86:53|144:18|220:4|384:50,1,1050.00001001358
255,195,231608,1,0,0:0:0:0:
255,195,231685,1,0,0:0:0:0:
259,199,231762,1,0,0:0:0:0:
51,68,232069,5,0,0:0:0:0:
480,208,232377,1,0,0:0:0:0:
384,272,232454,1,0,0:0:0:0:
288,336,232531,1,0,0:0:0:0:
437,68,232839,6,0,P|240:55|28:115,1,350.00000333786
150,318,233300,1,0,0:0:0:0:
434,329,233454,2,0,B|492:155|306:35,1,350.00000333786
41,52,233915,5,0,0:0:0:0:
469,351,234223,1,0,0:0:0:0:
65,337,234531,5,0,0:0:0:0:
458,248,234839,5,0,0:0:0:0:
256,50,234992,1,0,0:0:0:0:
66,244,235146,1,0,0:0:0:0:
391,71,235300,2,0,P|392:256|222:335,1,350.00000333786
181,338,235762,2,0,P|111:293|137:179,1,175.00000166893
361,47,236069,5,0,0:0:0:0:
46,146,236223,1,0,0:0:0:0:
451,233,236377,1,0,0:0:0:0:
58,340,236531,1,0,0:0:0:0:
411,127,236685,5,0,0:0:0:0:
422,113,236762,1,0,0:0:0:0:
434,96,236839,1,0,0:0:0:0:
133,90,236992,1,0,0:0:0:0:
344,328,237146,5,0,0:0:0:0:
384,334,237223,1,0,0:0:0:0:
426,340,237300,1,0,0:0:0:0:
132,337,237454,5,0,0:0:0:0:
96,312,237531,1,0,0:0:0:0:
77,265,237608,1,0,0:0:0:0:
67,222,237685,1,0,0:0:0:0:
74,180,237762,1,0,0:0:0:0:
102,143,237839,1,0,0:0:0:0:
133,115,237915,1,0,0:0:0:0:
440,46,238069,6,0,P|296:77|253:148,1,175.00000166893
93,329,238377,1,0,0:0:0:0:
377,276,238531,1,0,0:0:0:0:
96,100,238685,1,0,0:0:0:0:
383,43,238839,2,0,B|311:240|96:207,1,350.00000333786
51,147,239300,1,0,0:0:0:0:
64,280,239454,1,0,0:0:0:0:
417,105,239762,6,0,L|221:68,1,175.00000166893
164,53,240069,1,0,0:0:0:0:
114,92,240146,1,0,0:0:0:0:
82,147,240223,1,0,0:0:0:0:
78,211,240300,1,0,0:0:0:0:
89,271,240377,2,0,P|171:343|234:320,1,175.00000166893
475,232,240685,1,0,0:0:0:0:
78,86,240890,5,0,0:0:0:0:
139,38,240992,6,0,P|301:79|347:136,1,175.00000166893
442,331,241300,5,0,0:0:0:0:
55,186,241454,2,0,P|169:72|266:49,1,200
453,56,241762,1,0,0:0:0:0:
453,56,241839,1,0,0:0:0:0:
453,56,241915,1,0,0:0:0:0:
358,315,242069,1,0,0:0:0:0:
90,300,242223,1,0,0:0:0:0:
63,46,242377,1,0,0:0:0:0:
87,73,242454,1,0,0:0:0:0:
106,96,242531,1,0,0:0:0:0:
125,118,242608,1,0,0:0:0:0:
153,151,242685,1,0,0:0:0:0:
176,176,242762,1,0,0:0:0:0:
199,209,242839,5,0,0:0:0:0:
455,37,242992,1,0,0:0:0:0:
46,191,243146,1,0,0:0:0:0:
448,337,243300,1,0,0:0:0:0:
51,72,243454,1,0,0:0:0:0:
471,108,243608,1,0,0:0:0:0:
83,342,243762,2,0,B|-2:150|61:41|179:118|274:293|481:344|492:200|485:83|390:21,1,800
90,77,244685,5,0,0:0:0:0:
73,283,244839,1,0,0:0:0:0:
115,316,244915,1,0,0:0:0:0:
175,336,244992,1,0,0:0:0:0:
242,343,245069,1,0,0:0:0:0:
316,335,245146,1,0,0:0:0:0:
389,294,245223,1,0,0:0:0:0:
433,211,245300,1,0,0:0:0:0:
329,59,245454,5,0,0:0:0:0:
256,49,245531,1,0,0:0:0:0:
177,64,245608,1,0,0:0:0:0:
104,115,245685,1,0,0:0:0:0:
57,215,245762,1,0,0:0:0:0:
172,349,245915,5,0,0:0:0:0:
262,327,245992,1,0,0:0:0:0:
352,280,246069,1,0,0:0:0:0:
415,188,246146,1,0,0:0:0:0:
431,74,246223,1,0,0:0:0:0:
177,192,246377,5,0,0:0:0:0:
262,251,246454,1,0,0:0:0:0:
279,146,246531,1,0,0:0:0:0:
90,68,246685,5,0,0:0:0:0:
63,115,246762,1,0,0:0:0:0:
54,172,246839,1,0,0:0:0:0:
56,232,246915,1,0,0:0:0:0:
79,283,246992,1,0,0:0:0:0:
120,328,247069,1,0,0:0:0:0:
178,350,247146,1,0,0:0:0:0:
239,342,247223,1,0,0:0:0:0:
304,327,247300,1,0,0:0:0:0:
351,280,247377,1,0,0:0:0:0:
378,224,247454,1,0,0:0:0:0:
371,160,247531,1,0,0:0:0:0:
344,102,247608,1,0,0:0:0:0:
26,25,247762,5,0,0:0:0:0:
291,374,247915,1,0,0:0:0:0:
483,20,248069,1,0,0:0:0:0:
42,349,248223,1,0,0:0:0:0:
482,163,248377,2,0,P|368:117|248:145,1,200
31,207,248685,1,0,0:0:0:0:
475,341,248839,2,0,P|261:369|71:320,1,400
82,62,249608,5,0,0:0:0:0:
431,108,249915,1,0,0:0:0:0:
125,208,250223,1,0,0:0:0:0:
363,246,250531,1,0,0:0:0:0:
149,298,250685,1,0,0:0:0:0:
307,318,250839,1,0,0:0:0:0:
218,352,250992,1,0,0:0:0:0:
256,192,251146,12,0,251762,0:0:0:0:
