osu file format v14

[General]
AudioFilename: audio.mp3
AudioLeadIn: 0
PreviewTime: 45117
Countdown: 0
SampleSet: Normal
StackLeniency: 0.7
Mode: 1
LetterboxInBreaks: 0
WidescreenStoryboard: 0

[Editor]
DistanceSpacing: 0.5
BeatDivisor: 4
GridSize: 32
TimelineZoom: 1.8

[Metadata]
Title:MachinaRegina
TitleUnicode:MachinaRegina
Artist:ROKINA
ArtistUnicode:ロキナ
Creator:Jaltzu
Version:Regal Oni
Source:
Tags:BMS instrumental electronic artcore video game BOF2013 team おまえをみているぞ omae wo miteiru zo
BeatmapID:2401576
BeatmapSetID:1150483

[Difficulty]
HPDrainRate:6
CircleSize:2
OverallDifficulty:6.5
ApproachRate:0
SliderMultiplier:1.4
SliderTickRate:1

[Events]
//Background and Video events
0,0,"anime-girl-piano.jpg",0,-38
//Break Periods
//Storyboard Layer 0 (Background)
//Storyboard Layer 1 (Fail)
//Storyboard Layer 2 (Pass)
//Storyboard Layer 3 (Foreground)
//Storyboard Layer 4 (Overlay)
//Storyboard Sound Samples

[TimingPoints]
717,342.857142857143,6,1,0,50,1,0
717,-142.857142857143,6,1,0,50,0,0
15031,-125,6,1,0,60,0,0
22383,-122.443981878291,6,1,0,60,0,0
22469,-120.004800192008,6,1,0,60,0,0
22640,-115.380177685474,6,1,0,60,0,0
22811,-111.111111111111,6,1,0,60,0,0
22983,-107.146683810136,6,1,0,60,0,0
23040,-105.887335874629,6,1,0,60,0,0
23097,-104.646295521139,6,1,0,60,0,0
23154,-103.444708803145,6,1,0,60,0,0
23303,-100,6,1,0,70,0,0
23346,342.857142857143,4,1,0,70,1,0
44217,-100,4,1,0,50,0,0
44297,-99.009900990099,4,1,0,52,0,0
44354,-98.0392156862745,4,1,0,54,0,0
44411,-97.0873786407767,4,1,0,56,0,0
44469,-96.1538461538461,4,1,0,58,0,0
44526,-95.2380952380952,4,1,0,62,0,0
44583,-94.3396226415094,4,1,0,66,0,0
44640,-93.4579439252336,4,1,0,70,0,0
44697,-92.5925925925926,4,1,0,74,0,0
44754,-91.743119266055,4,1,0,78,0,0
44811,-90.9090909090909,4,1,0,82,0,0
44869,-90.0900900900901,4,1,0,86,0,0
44926,-89.2857142857143,4,1,0,90,0,0
45074,-90.9090909090909,4,1,0,70,0,0
45269,-90.9090909090909,4,1,0,80,0,0
66603,-90.0900900900901,4,1,0,60,0,0
66697,-89.2857142857143,4,1,0,63,0,0
66783,-88.4955752212389,4,1,0,66,0,0
66869,-87.719298245614,4,1,0,70,0,0
66926,-86.9565217391304,4,1,0,72,0,0
66983,-86.2068965517241,4,1,0,74,0,0
67040,-85.4700854700855,4,1,0,76,0,0
67097,-84.7457627118644,4,1,0,78,0,0
67154,-84.0336134453781,4,1,0,80,0,0
67211,-83.3333333333333,4,1,0,70,0,0
67383,-86.2068965517241,4,1,0,70,0,0
67469,-87.719298245614,4,1,0,70,0,0
67640,-90.9090909090909,4,1,0,70,0,0
77840,-90.0900900900901,4,1,0,70,0,0
77926,-89.2857142857143,4,1,0,70,0,0
78011,-88.4955752212389,4,1,0,70,0,0
78097,-87.719298245614,4,1,0,70,0,0
78183,-86.9565217391304,4,1,0,70,0,0
88040,-86.9565217391304,4,1,0,70,0,0
88297,-84.7457627118644,4,1,0,70,0,0
88469,-83.3333333333333,4,1,0,80,0,0
88640,-81.9672131147541,4,1,0,80,0,0
88697,-81.3008130081301,4,1,0,80,0,0
88754,-80.6451612903226,4,1,0,80,0,0
88811,-80,4,1,0,80,0,0
89174,-80,4,1,0,90,0,1
111117,-80,4,1,0,70,0,0
111354,-80,4,1,0,70,0,0
111440,-80.6451612903226,4,1,0,70,0,0
111611,-81.9672131147541,4,1,0,70,0,0
111697,-82.6446280991736,4,1,0,70,0,0
111869,-84.0336134453781,4,1,0,70,0,0
111954,-84.7457627118644,4,1,0,70,0,0
112126,-86.2068965517241,4,1,0,70,0,0
112469,-89.2857142857143,4,1,0,70,0,0
112640,-90.9090909090909,4,1,0,70,0,0
112726,-91.743119266055,4,1,0,70,0,0
112811,-92.5925925925926,4,1,0,70,0,0
112983,-94.3396226415094,4,1,0,70,0,0
113069,-95.2380952380952,4,1,0,70,0,0
113240,-97.0873786407767,4,1,0,70,0,0
113326,-98.0392156862745,4,1,0,70,0,0
113497,-100,4,1,0,70,0,0
116240,-98.0392156862745,4,1,0,70,0,0
116326,-96.1538461538461,4,1,0,70,0,0
116411,-94.3396226415094,4,1,0,70,0,0
116497,-92.5925925925926,4,1,0,70,0,0
116583,-90.9090909090909,4,1,0,80,0,0
121469,-90.0900900900901,4,1,0,80,0,0
121554,-89.2857142857143,4,1,0,80,0,0
121640,-88.4955752212389,4,1,0,80,0,0
121726,-87.719298245614,4,1,0,80,0,0
121783,-86.9565217391304,4,1,0,80,0,0
121840,-86.2068965517241,4,1,0,80,0,0
121897,-85.4700854700855,4,1,0,80,0,0
121954,-84.7457627118644,4,1,0,80,0,0
122011,-84.0336134453781,4,1,0,80,0,0
122069,-83.3333333333333,4,1,0,80,0,0
122731,-41.6666666666667,4,1,0,80,0,0
122860,-100,4,1,0,85,0,0
122946,-100,4,1,0,90,0,0
123203,-100,4,1,0,86,0,0
123289,-100,4,1,0,82,0,0
123374,-100,4,1,0,78,0,0
123460,-100,4,1,0,74,0,0
123546,-100,4,1,0,70,0,0
123631,-100,4,1,0,66,0,0
123717,-100,4,1,0,62,0,0
123803,-100,4,1,0,58,0,0
123889,-100,4,1,0,54,0,0
123974,-100,4,1,0,50,0,0
124060,-100,4,1,0,46,0,0
124146,-100,4,1,0,42,0,0
124231,-100,4,1,0,38,0,0
124317,-100,4,1,0,34,0,0
124403,-100,4,1,0,30,0,0
124489,-100,4,1,0,26,0,0
124574,-100,4,1,0,22,0,0
124660,-100,4,1,0,18,0,0
124746,-100,4,1,0,14,0,0
124831,-100,4,1,0,10,0,0

[HitObjects]
256,192,6888,5,0,0:0:0:0:
256,192,7059,1,0,0:0:0:0:
256,192,7231,1,8,0:0:0:0:
256,192,7402,1,0,0:0:0:0:
256,192,7917,1,8,0:0:0:0:
256,192,8088,1,0,0:0:0:0:
256,192,8259,1,8,0:0:0:0:
256,192,8602,1,0,0:0:0:0:
256,192,8945,1,0,0:0:0:0:
256,192,9117,1,0,0:0:0:0:
256,192,9288,1,8,0:0:0:0:
256,192,9459,1,0,0:0:0:0:
256,192,9974,1,8,0:0:0:0:
256,192,10145,1,8,0:0:0:0:
256,192,10317,1,0,0:0:0:0:
256,192,10659,1,8,0:0:0:0:
256,192,11002,1,0,0:0:0:0:
256,192,11174,1,0,0:0:0:0:
256,192,11345,1,8,0:0:0:0:
256,192,11517,1,0,0:0:0:0:
256,192,12031,1,8,0:0:0:0:
256,192,12202,1,0,0:0:0:0:
256,192,12374,1,0,0:0:0:0:
256,192,12545,1,8,0:0:0:0:
256,192,12717,1,0,0:0:0:0:
256,192,13059,1,0,0:0:0:0:
256,192,13231,1,0,0:0:0:0:
256,192,13402,1,8,0:0:0:0:
256,192,13574,1,0,0:0:0:0:
256,192,14088,1,0,0:0:0:0:
256,192,14259,1,8,0:0:0:0:
256,192,14431,1,0,0:0:0:0:
256,192,14602,1,8,0:0:0:0:
256,192,14774,1,8,0:0:0:0:
256,192,14945,1,0,0:0:0:0:
256,192,15117,1,0,0:0:0:0:
256,192,15288,1,0,0:0:0:0:
256,192,15459,1,8,0:0:0:0:
256,192,15631,1,0,0:0:0:0:
256,192,16145,1,0,0:0:0:0:
256,192,16231,1,0,0:0:0:0:
256,192,16317,1,8,0:0:0:0:
256,192,16488,1,0,0:0:0:0:
256,192,16831,1,8,0:0:0:0:
256,192,16917,1,8,0:0:0:0:
256,192,17002,1,0,0:0:0:0:
256,192,17174,1,0,0:0:0:0:
256,192,17345,1,0,0:0:0:0:
256,192,17517,1,0,0:0:0:0:
256,192,17688,1,8,0:0:0:0:
256,192,17745,1,8,0:0:0:0:
256,192,17802,1,8,0:0:0:0:
256,192,17859,1,0,0:0:0:0:
256,192,18202,1,0,0:0:0:0:
256,192,18288,1,0,0:0:0:0:
256,192,18374,1,8,0:0:0:0:
256,192,18545,1,0,0:0:0:0:
256,192,18717,1,0,0:0:0:0:
256,192,18888,1,8,0:0:0:0:
256,192,18974,1,8,0:0:0:0:
256,192,19059,1,0,0:0:0:0:
256,192,19231,1,0,0:0:0:0:
256,192,19402,1,0,0:0:0:0:
256,192,19574,1,0,0:0:0:0:
256,192,19745,1,8,0:0:0:0:
256,192,20259,1,0,0:0:0:0:
256,192,20345,1,0,0:0:0:0:
256,192,20431,1,8,0:0:0:0:
256,192,20602,1,0,0:0:0:0:
256,192,20774,1,8,0:0:0:0:
256,192,20945,1,8,0:0:0:0:
256,192,21117,1,0,0:0:0:0:
256,192,21288,1,0,0:0:0:0:
256,192,21459,1,0,0:0:0:0:
256,192,21631,1,8,0:0:0:0:
256,192,21717,1,8,0:0:0:0:
256,192,21802,1,0,0:0:0:0:
256,192,21974,1,0,0:0:0:0:
256,192,22145,1,8,0:0:0:0:
256,192,22317,1,0,0:0:0:0:
256,192,22402,1,0,0:0:0:0:
256,192,22488,1,8,0:0:0:0:
256,192,22659,1,0,0:0:0:0:
256,192,22831,1,8,0:0:0:0:
256,192,23002,1,8,0:0:0:0:
256,192,23059,1,8,0:0:0:0:
256,192,23117,1,8,0:0:0:0:
256,192,23174,1,0,0:0:0:0:
256,192,23345,5,4,0:0:0:0:
256,192,23517,1,0,0:0:0:0:
256,192,23688,1,8,0:0:0:0:
256,192,23860,1,0,0:0:0:0:
256,192,23946,1,8,0:0:0:0:
256,192,24117,1,8,0:0:0:0:
256,192,24203,1,0,0:0:0:0:
256,192,24288,1,0,0:0:0:0:
256,192,24374,1,8,0:0:0:0:
256,192,24460,1,0,0:0:0:0:
256,192,24546,1,0,0:0:0:0:
256,192,24631,1,8,0:0:0:0:
256,192,24717,1,0,0:0:0:0:
256,192,24888,1,0,0:0:0:0:
256,192,25060,1,8,0:0:0:0:
256,192,25231,1,0,0:0:0:0:
256,192,25317,1,8,0:0:0:0:
256,192,25488,1,0,0:0:0:0:
256,192,25574,1,8,0:0:0:0:
256,192,25660,1,0,0:0:0:0:
256,192,25746,1,8,0:0:0:0:
256,192,25831,1,0,0:0:0:0:
256,192,25917,1,8,0:0:0:0:
256,192,26003,1,8,0:0:0:0:
256,192,26088,1,0,0:0:0:0:
256,192,26260,1,0,0:0:0:0:
256,192,26431,1,8,0:0:0:0:
256,192,26603,1,0,0:0:0:0:
256,192,26688,1,8,0:0:0:0:
256,192,26860,1,8,0:0:0:0:
256,192,26946,1,0,0:0:0:0:
256,192,27031,1,0,0:0:0:0:
256,192,27117,1,8,0:0:0:0:
256,192,27203,1,8,0:0:0:0:
256,192,27288,1,0,0:0:0:0:
256,192,27374,1,8,0:0:0:0:
256,192,27460,1,0,0:0:0:0:
256,192,27631,1,0,0:0:0:0:
256,192,27717,1,0,0:0:0:0:
256,192,27803,1,8,0:0:0:0:
256,192,27974,1,0,0:0:0:0:
256,192,28060,1,8,0:0:0:0:
256,192,28231,1,0,0:0:0:0:
256,192,28317,1,8,0:0:0:0:
256,192,28403,1,0,0:0:0:0:
256,192,28488,1,8,0:0:0:0:
256,192,28574,1,8,0:0:0:0:
256,192,28660,1,0,0:0:0:0:
256,192,28746,1,0,0:0:0:0:
256,192,28831,1,12,0:0:0:0:
256,192,29003,1,0,0:0:0:0:
256,192,29174,1,8,0:0:0:0:
256,192,29346,1,0,0:0:0:0:
256,192,29431,1,8,0:0:0:0:
256,192,29603,1,8,0:0:0:0:
256,192,29688,1,0,0:0:0:0:
256,192,29774,1,0,0:0:0:0:
256,192,29860,1,8,0:0:0:0:
256,192,29946,1,8,0:0:0:0:
256,192,30031,1,0,0:0:0:0:
256,192,30117,1,8,0:0:0:0:
256,192,30203,1,0,0:0:0:0:
256,192,30374,1,0,0:0:0:0:
256,192,30546,1,8,0:0:0:0:
256,192,30717,1,0,0:0:0:0:
256,192,30803,1,8,0:0:0:0:
256,192,30974,1,0,0:0:0:0:
256,192,31060,1,8,0:0:0:0:
256,192,31146,1,0,0:0:0:0:
256,192,31231,1,8,0:0:0:0:
256,192,31317,1,8,0:0:0:0:
256,192,31403,1,0,0:0:0:0:
256,192,31488,1,8,0:0:0:0:
256,192,31574,1,0,0:0:0:0:
256,192,31746,1,0,0:0:0:0:
256,192,31917,1,8,0:0:0:0:
256,192,32088,1,0,0:0:0:0:
256,192,32174,1,8,0:0:0:0:
256,192,32346,1,8,0:0:0:0:
256,192,32431,1,0,0:0:0:0:
256,192,32517,1,0,0:0:0:0:
256,192,32603,1,8,0:0:0:0:
256,192,32688,1,0,0:0:0:0:
256,192,32774,1,8,0:0:0:0:
256,192,32860,1,8,0:0:0:0:
256,192,32946,1,0,0:0:0:0:
256,192,33117,1,0,0:0:0:0:
256,192,33288,1,8,0:0:0:0:
256,192,33460,1,0,0:0:0:0:
256,192,33631,1,0,0:0:0:0:
256,192,33717,1,8,0:0:0:0:
256,192,33803,1,0,0:0:0:0:
256,192,33888,1,0,0:0:0:0:
256,192,33974,1,8,0:0:0:0:
256,192,34060,1,0,0:0:0:0:
256,192,34146,1,8,0:0:0:0:
256,192,34231,1,8,0:0:0:0:
256,192,34317,5,4,0:0:0:0:
256,192,34488,1,0,0:0:0:0:
256,192,34660,1,8,0:0:0:0:
256,192,34746,1,8,0:0:0:0:
256,192,34831,1,0,0:0:0:0:
256,192,34917,1,8,0:0:0:0:
256,192,35088,1,8,0:0:0:0:
256,192,35174,1,0,0:0:0:0:
256,192,35260,1,0,0:0:0:0:
256,192,35346,1,8,0:0:0:0:
256,192,35431,1,0,0:0:0:0:
256,192,35517,1,8,0:0:0:0:
256,192,35603,1,8,0:0:0:0:
256,192,35688,1,0,0:0:0:0:
256,192,35860,1,0,0:0:0:0:
256,192,36031,1,8,0:0:0:0:
256,192,36117,1,8,0:0:0:0:
256,192,36203,1,8,0:0:0:0:
256,192,36288,1,0,0:0:0:0:
256,192,36460,1,0,0:0:0:0:
256,192,36546,1,8,0:0:0:0:
256,192,36631,1,0,0:0:0:0:
256,192,36717,1,8,0:0:0:0:
256,192,36803,1,0,0:0:0:0:
256,192,36888,1,0,0:0:0:0:
256,192,36974,1,8,0:0:0:0:
256,192,37060,1,0,0:0:0:0:
256,192,37231,1,0,0:0:0:0:
256,192,37403,1,8,0:0:0:0:
256,192,37488,1,0,0:0:0:0:
256,192,37574,1,0,0:0:0:0:
256,192,37660,1,8,0:0:0:0:
256,192,37831,1,8,0:0:0:0:
256,192,37917,1,0,0:0:0:0:
256,192,38003,1,0,0:0:0:0:
256,192,38088,1,8,0:0:0:0:
256,192,38174,1,0,0:0:0:0:
256,192,38260,1,8,0:0:0:0:
256,192,38346,1,8,0:0:0:0:
256,192,38431,1,0,0:0:0:0:
256,192,38603,1,0,0:0:0:0:
256,192,38688,1,0,0:0:0:0:
256,192,38774,1,8,0:0:0:0:
256,192,38946,1,0,0:0:0:0:
256,192,39031,1,8,0:0:0:0:
256,192,39203,1,8,0:0:0:0:
256,192,39288,1,0,0:0:0:0:
256,192,39374,1,0,0:0:0:0:
256,192,39460,1,8,0:0:0:0:
256,192,39546,1,8,0:0:0:0:
256,192,39631,1,0,0:0:0:0:
256,192,39717,1,8,0:0:0:0:
256,192,39803,1,4,0:0:0:0:
256,192,39974,1,0,0:0:0:0:
256,192,40146,1,8,0:0:0:0:
256,192,40231,1,8,0:0:0:0:
256,192,40317,1,0,0:0:0:0:
256,192,40403,1,8,0:0:0:0:
256,192,40574,1,8,0:0:0:0:
256,192,40660,1,0,0:0:0:0:
256,192,40746,1,0,0:0:0:0:
256,192,40831,1,8,0:0:0:0:
256,192,40917,1,0,0:0:0:0:
256,192,41003,1,8,0:0:0:0:
256,192,41088,1,0,0:0:0:0:
256,192,41174,1,12,0:0:0:0:
256,192,41346,1,0,0:0:0:0:
256,192,41517,1,8,0:0:0:0:
256,192,41603,1,0,0:0:0:0:
256,192,41688,1,0,0:0:0:0:
256,192,41774,1,8,0:0:0:0:
256,192,41946,1,8,0:0:0:0:
256,192,42031,1,0,0:0:0:0:
256,192,42117,1,0,0:0:0:0:
256,192,42203,1,8,0:0:0:0:
256,192,42288,1,0,0:0:0:0:
256,192,42374,1,0,0:0:0:0:
256,192,42460,1,8,0:0:0:0:
256,192,42546,1,4,0:0:0:0:
256,192,42717,1,0,0:0:0:0:
256,192,42888,1,8,0:0:0:0:
256,192,42974,1,8,0:0:0:0:
256,192,43060,1,0,0:0:0:0:
256,192,43146,1,8,0:0:0:0:
256,192,43231,1,0,0:0:0:0:
256,192,43317,1,8,0:0:0:0:
256,192,43403,1,0,0:0:0:0:
256,192,43574,1,8,0:0:0:0:
256,192,43660,1,0,0:0:0:0:
256,192,43746,1,0,0:0:0:0:
256,192,43831,1,8,0:0:0:0:
256,192,43917,1,0,0:0:0:0:
256,192,44088,1,0,0:0:0:0:
256,192,44260,1,8,0:0:0:0:
256,192,44317,1,0,0:0:0:0:
256,192,44374,1,0,0:0:0:0:
256,192,44431,1,8,0:0:0:0:
256,192,44488,1,0,0:0:0:0:
256,192,44546,1,0,0:0:0:0:
256,192,44603,1,8,0:0:0:0:
256,192,44660,1,0,0:0:0:0:
256,192,44717,1,0,0:0:0:0:
256,192,44774,1,8,0:0:0:0:
256,192,44831,1,0,0:0:0:0:
256,192,44888,1,0,0:0:0:0:
256,192,44946,1,8,0:0:0:0:
256,192,45117,1,0,0:0:0:0:
256,192,45174,1,0,0:0:0:0:
256,192,45231,1,0,0:0:0:0:
256,192,45288,5,8,0:0:0:0:
256,192,45460,1,0,0:0:0:0:
256,192,45631,1,8,0:0:0:0:
256,192,45803,1,8,0:0:0:0:
256,192,45888,1,0,0:0:0:0:
256,192,45974,1,8,0:0:0:0:
256,192,46146,1,0,0:0:0:0:
256,192,46317,1,8,0:0:0:0:
256,192,46403,1,8,0:0:0:0:
256,192,46488,1,0,0:0:0:0:
256,192,46660,1,0,0:0:0:0:
256,192,46831,1,0,0:0:0:0:
256,192,46917,1,0,0:0:0:0:
256,192,47003,1,8,0:0:0:0:
256,192,47174,1,8,0:0:0:0:
256,192,47260,1,0,0:0:0:0:
256,192,47431,1,8,0:0:0:0:
256,192,47517,1,0,0:0:0:0:
256,192,47603,1,0,0:0:0:0:
256,192,47688,1,8,0:0:0:0:
256,192,47774,1,8,0:0:0:0:
256,192,47860,1,0,0:0:0:0:
256,192,47946,1,8,0:0:0:0:
256,192,48031,1,0,0:0:0:0:
256,192,48203,1,0,0:0:0:0:
256,192,48374,1,8,0:0:0:0:
256,192,48546,1,0,0:0:0:0:
256,192,48631,1,8,0:0:0:0:
256,192,48717,1,0,0:0:0:0:
256,192,48888,1,0,0:0:0:0:
256,192,49060,1,8,0:0:0:0:
256,192,49231,1,0,0:0:0:0:
256,192,49403,1,0,0:0:0:0:
256,192,49574,1,0,0:0:0:0:
256,192,49660,1,0,0:0:0:0:
256,192,49746,1,8,0:0:0:0:
256,192,49917,1,0,0:0:0:0:
256,192,50003,1,8,0:0:0:0:
256,192,50088,1,0,0:0:0:0:
256,192,50174,1,8,0:0:0:0:
256,192,50260,1,0,0:0:0:0:
256,192,50346,1,0,0:0:0:0:
256,192,50431,1,8,0:0:0:0:
256,192,50517,1,8,0:0:0:0:
256,192,50603,1,0,0:0:0:0:
256,192,50660,1,0,0:0:0:0:
256,192,50717,1,0,0:0:0:0:
256,192,50774,1,8,0:0:0:0:
256,192,50946,1,0,0:0:0:0:
256,192,51117,1,8,0:0:0:0:
256,192,51288,1,0,0:0:0:0:
256,192,51374,1,8,0:0:0:0:
256,192,51460,1,0,0:0:0:0:
256,192,51631,1,0,0:0:0:0:
256,192,51803,1,8,0:0:0:0:
256,192,51888,1,8,0:0:0:0:
256,192,51974,1,0,0:0:0:0:
256,192,52146,1,0,0:0:0:0:
256,192,52317,1,0,0:0:0:0:
256,192,52403,1,8,0:0:0:0:
256,192,52488,1,8,0:0:0:0:
256,192,52660,1,0,0:0:0:0:
256,192,52746,1,0,0:0:0:0:
256,192,52917,1,8,0:0:0:0:
256,192,53003,1,0,0:0:0:0:
256,192,53088,1,0,0:0:0:0:
256,192,53174,1,8,0:0:0:0:
256,192,53260,1,8,0:0:0:0:
256,192,53346,1,0,0:0:0:0:
256,192,53431,1,8,0:0:0:0:
256,192,53517,1,8,0:0:0:0:
256,192,53688,1,0,0:0:0:0:
256,192,53860,1,8,0:0:0:0:
256,192,54031,1,8,0:0:0:0:
256,192,54117,1,0,0:0:0:0:
256,192,54203,1,8,0:0:0:0:
256,192,54374,1,0,0:0:0:0:
256,192,54546,1,8,0:0:0:0:
256,192,54631,1,8,0:0:0:0:
256,192,54717,1,0,0:0:0:0:
256,192,54888,1,0,0:0:0:0:
256,192,55060,1,8,0:0:0:0:
256,192,55146,1,0,0:0:0:0:
256,192,55231,1,8,0:0:0:0:
256,192,55403,1,8,0:0:0:0:
256,192,55488,1,0,0:0:0:0:
256,192,55574,1,0,0:0:0:0:
256,192,55660,1,8,0:0:0:0:
256,192,55746,1,0,0:0:0:0:
256,192,55831,1,0,0:0:0:0:
256,192,55917,1,8,0:0:0:0:
256,192,56003,1,0,0:0:0:0:
256,192,56088,1,8,0:0:0:0:
256,192,56174,1,8,0:0:0:0:
256,192,56260,1,4,0:0:0:0:
256,192,56431,1,0,0:0:0:0:
256,192,56603,1,8,0:0:0:0:
256,192,56774,1,8,0:0:0:0:
256,192,56860,1,0,0:0:0:0:
256,192,56946,1,8,0:0:0:0:
256,192,57117,1,0,0:0:0:0:
256,192,57288,1,8,0:0:0:0:
256,192,57374,1,8,0:0:0:0:
256,192,57460,1,0,0:0:0:0:
256,192,57631,1,0,0:0:0:0:
256,192,57803,1,0,0:0:0:0:
256,192,57888,1,0,0:0:0:0:
256,192,57974,1,8,0:0:0:0:
256,192,58146,1,8,0:0:0:0:
256,192,58231,1,0,0:0:0:0:
256,192,58403,1,8,0:0:0:0:
256,192,58488,1,0,0:0:0:0:
256,192,58574,1,0,0:0:0:0:
256,192,58660,1,8,0:0:0:0:
256,192,58746,1,0,0:0:0:0:
256,192,58831,1,0,0:0:0:0:
256,192,58917,1,8,0:0:0:0:
256,192,59003,1,0,0:0:0:0:
256,192,59174,1,0,0:0:0:0:
256,192,59346,1,8,0:0:0:0:
256,192,59517,1,0,0:0:0:0:
256,192,59603,1,0,0:0:0:0:
256,192,59688,1,8,0:0:0:0:
256,192,59860,1,0,0:0:0:0:
256,192,60031,1,8,0:0:0:0:
256,192,60203,1,0,0:0:0:0:
256,192,60374,1,0,0:0:0:0:
256,192,60546,1,0,0:0:0:0:
256,192,60631,1,8,0:0:0:0:
256,192,60717,1,0,0:0:0:0:
256,192,60888,1,8,0:0:0:0:
256,192,60974,1,8,0:0:0:0:
256,192,61060,1,0,0:0:0:0:
256,192,61146,1,8,0:0:0:0:
256,192,61231,1,0,0:0:0:0:
256,192,61317,1,0,0:0:0:0:
256,192,61403,1,8,0:0:0:0:
256,192,61488,1,8,0:0:0:0:
256,192,61574,1,0,0:0:0:0:
256,192,61631,1,0,0:0:0:0:
256,192,61688,1,0,0:0:0:0:
256,192,61746,1,8,0:0:0:0:
256,192,61917,1,0,0:0:0:0:
256,192,62088,1,8,0:0:0:0:
256,192,62260,1,8,0:0:0:0:
256,192,62346,1,0,0:0:0:0:
256,192,62431,1,0,0:0:0:0:
256,192,62603,1,0,0:0:0:0:
256,192,62774,1,8,0:0:0:0:
256,192,62946,1,0,0:0:0:0:
256,192,63117,1,12,0:0:0:0:
256,192,63288,1,0,0:0:0:0:
256,192,63374,1,0,0:0:0:0:
256,192,63460,1,8,0:0:0:0:
256,192,63631,1,0,0:0:0:0:
256,192,63717,1,0,0:0:0:0:
256,192,63888,1,8,0:0:0:0:
256,192,63974,1,0,0:0:0:0:
256,192,64060,1,0,0:0:0:0:
256,192,64146,1,8,0:0:0:0:
256,192,64231,1,8,0:0:0:0:
256,192,64317,1,0,0:0:0:0:
256,192,64403,1,0,0:0:0:0:
256,192,64488,1,12,0:0:0:0:
256,192,64660,1,0,0:0:0:0:
256,192,64831,1,8,0:0:0:0:
256,192,65003,1,0,0:0:0:0:
256,192,65088,1,0,0:0:0:0:
256,192,65174,1,12,0:0:0:0:
256,192,65346,1,0,0:0:0:0:
256,192,65431,1,8,0:0:0:0:
256,192,65517,1,8,0:0:0:0:
256,192,65603,1,0,0:0:0:0:
256,192,65688,1,8,0:0:0:0:
256,192,65860,1,0,0:0:0:0:
256,192,65946,1,0,0:0:0:0:
256,192,66031,1,8,0:0:0:0:
256,192,66117,1,0,0:0:0:0:
256,192,66203,1,8,0:0:0:0:
256,192,66288,1,0,0:0:0:0:
256,192,66374,1,8,0:0:0:0:
256,192,66460,1,0,0:0:0:0:
256,192,66546,1,8,0:0:0:0:
256,192,66631,1,8,0:0:0:0:
256,192,66717,1,0,0:0:0:0:
256,192,66803,1,0,0:0:0:0:
256,192,66888,1,8,0:0:0:0:
256,192,66946,1,0,0:0:0:0:
256,192,67003,1,0,0:0:0:0:
256,192,67060,1,8,0:0:0:0:
256,192,67117,1,0,0:0:0:0:
256,192,67174,1,0,0:0:0:0:
256,192,67231,1,8,0:0:0:0:
256,192,67403,1,0,0:0:0:0:
256,192,67488,1,8,0:0:0:0:
256,192,67660,1,0,0:0:0:0:
256,192,67746,1,8,0:0:0:0:
256,192,67831,1,0,0:0:0:0:
256,192,67917,1,0,0:0:0:0:
256,192,68088,1,0,0:0:0:0:
256,192,68174,1,8,0:0:0:0:
256,192,68260,1,8,0:0:0:0:
256,192,68346,1,0,0:0:0:0:
256,192,68431,1,8,0:0:0:0:
256,192,68603,1,0,0:0:0:0:
256,192,68688,1,0,0:0:0:0:
256,192,68774,1,8,0:0:0:0:
256,192,68860,1,8,0:0:0:0:
256,192,68946,1,8,0:0:0:0:
256,192,69031,1,0,0:0:0:0:
256,192,69117,1,8,0:0:0:0:
256,192,69203,1,8,0:0:0:0:
256,192,69288,1,8,0:0:0:0:
256,192,69374,1,0,0:0:0:0:
256,192,69460,1,0,0:0:0:0:
256,192,69546,1,8,0:0:0:0:
256,192,69631,1,0,0:0:0:0:
256,192,69717,1,0,0:0:0:0:
256,192,69803,1,8,0:0:0:0:
256,192,69888,1,8,0:0:0:0:
256,192,69974,1,0,0:0:0:0:
256,192,70146,1,0,0:0:0:0:
256,192,70231,1,8,0:0:0:0:
256,192,70403,1,8,0:0:0:0:
256,192,70488,1,0,0:0:0:0:
256,192,70574,1,0,0:0:0:0:
256,192,70660,1,8,0:0:0:0:
256,192,70746,1,0,0:0:0:0:
256,192,70831,1,8,0:0:0:0:
256,192,71003,1,0,0:0:0:0:
256,192,71088,1,0,0:0:0:0:
256,192,71174,1,8,0:0:0:0:
256,192,71260,1,0,0:0:0:0:
256,192,71346,1,0,0:0:0:0:
256,192,71603,1,0,0:0:0:0:
256,192,71688,1,8,0:0:0:0:
256,192,71860,1,0,0:0:0:0:
256,192,71946,1,0,0:0:0:0:
256,192,72031,1,8,0:0:0:0:
256,192,72117,1,8,0:0:0:0:
256,192,72203,1,0,0:0:0:0:
256,192,72288,1,0,0:0:0:0:
256,192,72374,1,8,0:0:0:0:
256,192,72460,1,8,0:0:0:0:
256,192,72546,1,0,0:0:0:0:
256,192,72631,1,8,0:0:0:0:
256,192,72717,1,0,0:0:0:0:
256,192,72974,1,8,0:0:0:0:
256,192,73060,1,0,0:0:0:0:
256,192,73231,1,8,0:0:0:0:
256,192,73317,1,0,0:0:0:0:
256,192,73403,1,0,0:0:0:0:
256,192,73488,1,8,0:0:0:0:
256,192,73574,1,0,0:0:0:0:
256,192,73746,1,0,0:0:0:0:
256,192,73831,1,0,0:0:0:0:
256,192,73917,1,8,0:0:0:0:
256,192,74088,1,0,0:0:0:0:
256,192,74174,1,0,0:0:0:0:
256,192,74260,1,8,0:0:0:0:
256,192,74346,1,8,0:0:0:0:
256,192,74431,1,8,0:0:0:0:
256,192,74517,1,0,0:0:0:0:
256,192,74603,1,8,0:0:0:0:
256,192,74688,1,8,0:0:0:0:
256,192,74774,1,8,0:0:0:0:
256,192,74860,1,0,0:0:0:0:
256,192,74946,1,0,0:0:0:0:
256,192,75031,1,8,0:0:0:0:
256,192,75117,1,0,0:0:0:0:
256,192,75203,1,0,0:0:0:0:
256,192,75288,1,8,0:0:0:0:
256,192,75460,1,0,0:0:0:0:
256,192,75546,1,0,0:0:0:0:
256,192,75631,1,8,0:0:0:0:
256,192,75717,1,0,0:0:0:0:
256,192,75803,1,8,0:0:0:0:
256,192,75888,1,8,0:0:0:0:
256,192,75974,1,0,0:0:0:0:
256,192,76060,1,8,0:0:0:0:
256,192,76146,1,8,0:0:0:0:
256,192,76231,1,0,0:0:0:0:
256,192,76317,1,0,0:0:0:0:
256,192,76403,1,8,0:0:0:0:
256,192,76488,1,0,0:0:0:0:
256,192,76574,1,0,0:0:0:0:
256,192,76660,1,8,0:0:0:0:
256,192,76746,1,8,0:0:0:0:
256,192,76831,1,0,0:0:0:0:
256,192,76917,1,0,0:0:0:0:
256,192,77003,1,8,0:0:0:0:
256,192,77088,1,0,0:0:0:0:
256,192,77174,1,8,0:0:0:0:
256,192,77260,1,8,0:0:0:0:
256,192,77346,1,8,0:0:0:0:
256,192,77431,1,0,0:0:0:0:
256,192,77517,1,0,0:0:0:0:
256,192,77603,1,0,0:0:0:0:
256,192,77688,1,8,0:0:0:0:
256,192,77774,1,0,0:0:0:0:
256,192,77860,1,8,0:0:0:0:
256,192,77946,1,8,0:0:0:0:
256,192,78031,1,0,0:0:0:0:
256,192,78117,1,8,0:0:0:0:
256,192,78203,1,4,0:0:0:0:
256,192,78374,1,0,0:0:0:0:
256,192,78460,1,8,0:0:0:0:
256,192,78631,1,0,0:0:0:0:
256,192,78717,1,8,0:0:0:0:
256,192,78803,1,0,0:0:0:0:
256,192,78888,1,8,0:0:0:0:
256,192,79060,1,8,0:0:0:0:
256,192,79146,1,8,0:0:0:0:
256,192,79231,1,0,0:0:0:0:
256,192,79317,1,0,0:0:0:0:
256,192,79403,1,8,0:0:0:0:
256,192,79574,1,0,0:0:0:0:
256,192,79660,1,0,0:0:0:0:
256,192,79746,1,8,0:0:0:0:
256,192,79831,1,8,0:0:0:0:
256,192,79917,1,8,0:0:0:0:
256,192,80003,1,0,0:0:0:0:
256,192,80088,1,8,0:0:0:0:
256,192,80174,1,8,0:0:0:0:
256,192,80260,1,8,0:0:0:0:
256,192,80346,1,0,0:0:0:0:
256,192,80431,1,8,0:0:0:0:
256,192,80517,1,8,0:0:0:0:
256,192,80603,1,0,0:0:0:0:
256,192,80688,1,8,0:0:0:0:
256,192,80774,1,0,0:0:0:0:
256,192,80860,1,8,0:0:0:0:
256,192,80946,1,0,0:0:0:0:
256,192,81117,1,0,0:0:0:0:
256,192,81203,1,8,0:0:0:0:
256,192,81374,1,8,0:0:0:0:
256,192,81460,1,0,0:0:0:0:
256,192,81546,1,0,0:0:0:0:
256,192,81631,1,8,0:0:0:0:
256,192,81717,1,8,0:0:0:0:
256,192,81803,1,0,0:0:0:0:
256,192,81974,1,8,0:0:0:0:
256,192,82060,1,8,0:0:0:0:
256,192,82146,1,0,0:0:0:0:
256,192,82231,1,8,0:0:0:0:
256,192,82317,1,0,0:0:0:0:
256,192,82574,1,0,0:0:0:0:
256,192,82660,1,8,0:0:0:0:
256,192,82831,1,0,0:0:0:0:
256,192,82917,1,8,0:0:0:0:
256,192,83003,1,8,0:0:0:0:
256,192,83088,1,0,0:0:0:0:
256,192,83174,1,8,0:0:0:0:
256,192,83260,1,0,0:0:0:0:
256,192,83346,1,8,0:0:0:0:
256,192,83431,1,8,0:0:0:0:
256,192,83517,1,0,0:0:0:0:
256,192,83603,1,8,0:0:0:0:
256,192,83688,1,0,0:0:0:0:
256,192,83946,1,0,0:0:0:0:
256,192,84031,1,8,0:0:0:0:
256,192,84203,1,0,0:0:0:0:
256,192,84288,1,8,0:0:0:0:
256,192,84374,1,0,0:0:0:0:
256,192,84546,1,0,0:0:0:0:
256,192,84631,1,0,0:0:0:0:
256,192,84717,1,8,0:0:0:0:
256,192,84803,1,0,0:0:0:0:
256,192,84888,1,8,0:0:0:0:
256,192,85060,1,0,0:0:0:0:
256,192,85146,1,8,0:0:0:0:
256,192,85231,1,0,0:0:0:0:
256,192,85317,1,0,0:0:0:0:
256,192,85403,1,8,0:0:0:0:
256,192,85488,1,0,0:0:0:0:
256,192,85574,1,8,0:0:0:0:
256,192,85660,1,8,0:0:0:0:
256,192,85746,1,8,0:0:0:0:
256,192,85831,1,0,0:0:0:0:
256,192,85917,1,0,0:0:0:0:
256,192,86088,1,8,0:0:0:0:
256,192,86174,1,0,0:0:0:0:
256,192,86260,1,0,0:0:0:0:
256,192,86431,1,0,0:0:0:0:
256,192,86517,1,0,0:0:0:0:
256,192,86603,1,8,0:0:0:0:
256,192,86688,1,0,0:0:0:0:
256,192,86774,1,8,0:0:0:0:
256,192,86860,1,8,0:0:0:0:
256,192,86946,1,0,0:0:0:0:
256,192,87031,1,8,0:0:0:0:
256,192,87117,1,0,0:0:0:0:
256,192,87203,1,0,0:0:0:0:
256,192,87288,1,8,0:0:0:0:
256,192,87374,1,0,0:0:0:0:
256,192,87460,1,8,0:0:0:0:
256,192,87546,1,8,0:0:0:0:
256,192,87631,1,0,0:0:0:0:
256,192,87717,1,8,0:0:0:0:
256,192,87803,5,4,0:0:0:0:
256,192,88060,1,12,0:0:0:0:
256,192,88317,1,12,0:0:0:0:
256,192,88488,1,4,0:0:0:0:
256,192,88660,1,0,0:0:0:0:
256,192,88717,1,0,0:0:0:0:
256,192,88774,1,0,0:0:0:0:
256,192,88831,1,8,0:0:0:0:
256,192,89174,5,12,0:0:0:0:
256,192,89346,1,0,0:0:0:0:
256,192,89431,1,0,0:0:0:0:
256,192,89517,1,8,0:0:0:0:
256,192,89603,1,8,0:0:0:0:
256,192,89688,1,0,0:0:0:0:
256,192,89774,1,8,0:0:0:0:
256,192,89860,1,8,0:0:0:0:
256,192,89946,1,0,0:0:0:0:
256,192,90031,1,0,0:0:0:0:
256,192,90117,1,8,0:0:0:0:
256,192,90203,1,0,0:0:0:0:
256,192,90288,1,8,0:0:0:0:
256,192,90374,1,8,0:0:0:0:
256,192,90460,1,0,0:0:0:0:
256,192,90546,1,8,0:0:0:0:
256,192,90631,1,8,0:0:0:0:
256,192,90717,1,0,0:0:0:0:
256,192,90803,1,8,0:0:0:0:
256,192,90888,1,8,0:0:0:0:
256,192,90974,1,8,0:0:0:0:
256,192,91060,1,0,0:0:0:0:
256,192,91146,1,8,0:0:0:0:
256,192,91231,1,8,0:0:0:0:
256,192,91317,1,0,0:0:0:0:
256,192,91403,1,8,0:0:0:0:
256,192,91488,1,8,0:0:0:0:
256,192,91574,1,8,0:0:0:0:
256,192,91660,1,0,0:0:0:0:
256,192,91746,1,0,0:0:0:0:
256,192,91831,1,0,0:0:0:0:
256,192,91917,1,8,0:0:0:0:
256,192,92003,1,0,0:0:0:0:
256,192,92088,1,0,0:0:0:0:
256,192,92174,1,8,0:0:0:0:
256,192,92260,1,8,0:0:0:0:
256,192,92346,1,0,0:0:0:0:
256,192,92431,1,0,0:0:0:0:
256,192,92517,1,8,0:0:0:0:
256,192,92603,1,0,0:0:0:0:
256,192,92688,1,8,0:0:0:0:
256,192,92774,1,8,0:0:0:0:
256,192,92860,1,0,0:0:0:0:
256,192,92946,1,8,0:0:0:0:
256,192,93031,1,8,0:0:0:0:
256,192,93117,1,8,0:0:0:0:
256,192,93203,1,0,0:0:0:0:
256,192,93288,1,8,0:0:0:0:
256,192,93374,1,0,0:0:0:0:
256,192,93460,1,0,0:0:0:0:
256,192,93546,1,8,0:0:0:0:
256,192,93631,1,8,0:0:0:0:
256,192,93717,1,0,0:0:0:0:
256,192,93803,1,8,0:0:0:0:
256,192,93888,1,0,0:0:0:0:
256,192,93974,1,8,0:0:0:0:
256,192,94060,1,8,0:0:0:0:
256,192,94146,1,0,0:0:0:0:
256,192,94231,1,0,0:0:0:0:
256,192,94317,1,8,0:0:0:0:
256,192,94403,1,0,0:0:0:0:
256,192,94488,1,8,0:0:0:0:
256,192,94574,1,8,0:0:0:0:
256,192,94660,1,0,0:0:0:0:
256,192,94746,1,0,0:0:0:0:
256,192,94831,1,8,0:0:0:0:
256,192,94917,1,0,0:0:0:0:
256,192,95003,1,8,0:0:0:0:
256,192,95088,1,0,0:0:0:0:
256,192,95174,1,0,0:0:0:0:
256,192,95260,1,8,0:0:0:0:
256,192,95346,1,0,0:0:0:0:
256,192,95431,1,8,0:0:0:0:
256,192,95517,1,8,0:0:0:0:
256,192,95603,1,0,0:0:0:0:
256,192,95688,1,8,0:0:0:0:
256,192,95774,1,0,0:0:0:0:
256,192,95860,1,8,0:0:0:0:
256,192,95946,1,0,0:0:0:0:
256,192,96031,1,0,0:0:0:0:
256,192,96117,1,0,0:0:0:0:
256,192,96203,1,8,0:0:0:0:
256,192,96288,1,0,0:0:0:0:
256,192,96374,1,8,0:0:0:0:
256,192,96460,1,8,0:0:0:0:
256,192,96546,1,0,0:0:0:0:
256,192,96631,1,8,0:0:0:0:
256,192,96717,1,8,0:0:0:0:
256,192,96803,1,0,0:0:0:0:
256,192,96888,1,8,0:0:0:0:
256,192,97060,1,8,0:0:0:0:
256,192,97231,1,0,0:0:0:0:
256,192,97403,1,0,0:0:0:0:
256,192,97488,1,0,0:0:0:0:
256,192,97574,1,8,0:0:0:0:
256,192,97660,1,0,0:0:0:0:
256,192,97746,1,8,0:0:0:0:
256,192,97831,1,8,0:0:0:0:
256,192,97917,1,0,0:0:0:0:
256,192,98003,1,8,0:0:0:0:
256,192,98088,1,0,0:0:0:0:
256,192,98174,1,8,0:0:0:0:
256,192,98260,1,8,0:0:0:0:
256,192,98346,1,0,0:0:0:0:
256,192,98431,1,8,0:0:0:0:
256,192,98517,1,8,0:0:0:0:
256,192,98603,1,0,0:0:0:0:
256,192,98688,1,0,0:0:0:0:
256,192,98774,1,8,0:0:0:0:
256,192,98860,1,8,0:0:0:0:
256,192,98946,1,8,0:0:0:0:
256,192,99031,1,0,0:0:0:0:
256,192,99117,1,0,0:0:0:0:
256,192,99203,1,0,0:0:0:0:
256,192,99288,1,8,0:0:0:0:
256,192,99374,1,0,0:0:0:0:
256,192,99460,1,8,0:0:0:0:
256,192,99546,1,8,0:0:0:0:
256,192,99631,1,0,0:0:0:0:
256,192,99717,1,8,0:0:0:0:
256,192,99803,1,0,0:0:0:0:
256,192,99888,1,8,0:0:0:0:
256,192,99974,1,8,0:0:0:0:
256,192,100060,1,0,0:0:0:0:
256,192,100146,1,12,0:0:0:0:
256,192,100317,1,8,0:0:0:0:
256,192,100403,1,0,0:0:0:0:
256,192,100488,1,8,0:0:0:0:
256,192,100574,1,8,0:0:0:0:
256,192,100660,1,0,0:0:0:0:
256,192,100746,1,0,0:0:0:0:
256,192,100831,1,8,0:0:0:0:
256,192,100917,1,0,0:0:0:0:
256,192,101003,1,8,0:0:0:0:
256,192,101088,1,0,0:0:0:0:
256,192,101174,1,8,0:0:0:0:
256,192,101260,1,8,0:0:0:0:
256,192,101346,1,8,0:0:0:0:
256,192,101431,1,0,0:0:0:0:
256,192,101517,1,8,0:0:0:0:
256,192,101603,1,0,0:0:0:0:
256,192,101688,1,0,0:0:0:0:
256,192,101774,1,8,0:0:0:0:
256,192,101860,1,8,0:0:0:0:
256,192,101946,1,0,0:0:0:0:
256,192,102031,1,8,0:0:0:0:
256,192,102117,1,0,0:0:0:0:
256,192,102203,1,8,0:0:0:0:
256,192,102288,1,8,0:0:0:0:
256,192,102374,1,0,0:0:0:0:
256,192,102460,1,8,0:0:0:0:
256,192,102546,1,8,0:0:0:0:
256,192,102631,1,0,0:0:0:0:
256,192,102717,1,8,0:0:0:0:
256,192,102803,1,8,0:0:0:0:
256,192,102888,1,0,0:0:0:0:
256,192,102974,1,0,0:0:0:0:
256,192,103060,1,0,0:0:0:0:
256,192,103146,1,0,0:0:0:0:
256,192,103231,1,8,0:0:0:0:
256,192,103317,1,0,0:0:0:0:
256,192,103403,1,0,0:0:0:0:
256,192,103488,1,8,0:0:0:0:
256,192,103574,1,8,0:0:0:0:
256,192,103660,1,0,0:0:0:0:
256,192,103746,1,0,0:0:0:0:
256,192,103831,1,8,0:0:0:0:
256,192,103917,1,8,0:0:0:0:
256,192,104003,1,8,0:0:0:0:
256,192,104088,1,0,0:0:0:0:
256,192,104174,1,0,0:0:0:0:
256,192,104260,1,0,0:0:0:0:
256,192,104346,1,8,0:0:0:0:
256,192,104431,1,8,0:0:0:0:
256,192,104517,1,0,0:0:0:0:
256,192,104603,1,8,0:0:0:0:
256,192,104688,1,8,0:0:0:0:
256,192,104774,1,8,0:0:0:0:
256,192,104860,1,0,0:0:0:0:
256,192,104946,1,8,0:0:0:0:
256,192,105031,1,0,0:0:0:0:
256,192,105117,1,0,0:0:0:0:
256,192,105203,1,8,0:0:0:0:
256,192,105288,1,8,0:0:0:0:
256,192,105374,1,0,0:0:0:0:
256,192,105460,1,8,0:0:0:0:
256,192,105546,1,8,0:0:0:0:
256,192,105631,1,4,0:0:0:0:
256,192,105803,1,0,0:0:0:0:
256,192,105888,1,0,0:0:0:0:
256,192,105974,1,0,0:0:0:0:
256,192,106060,1,8,0:0:0:0:
256,192,106146,1,8,0:0:0:0:
256,192,106231,1,0,0:0:0:0:
256,192,106317,1,8,0:0:0:0:
256,192,106403,1,0,0:0:0:0:
256,192,106488,1,0,0:0:0:0:
256,192,106574,1,8,0:0:0:0:
256,192,106660,1,8,0:0:0:0:
256,192,106746,1,0,0:0:0:0:
256,192,106831,1,8,0:0:0:0:
256,192,107003,1,12,0:0:0:0:
256,192,107174,1,8,0:0:0:0:
256,192,107260,1,0,0:0:0:0:
256,192,107346,1,8,0:0:0:0:
256,192,107431,1,0,0:0:0:0:
256,192,107517,1,8,0:0:0:0:
256,192,107603,1,8,0:0:0:0:
256,192,107688,1,0,0:0:0:0:
256,192,107774,1,8,0:0:0:0:
256,192,107860,1,0,0:0:0:0:
256,192,107946,1,0,0:0:0:0:
256,192,108031,1,8,0:0:0:0:
256,192,108117,1,8,0:0:0:0:
256,192,108203,1,0,0:0:0:0:
256,192,108288,1,0,0:0:0:0:
256,192,108374,1,8,0:0:0:0:
256,192,108460,1,8,0:0:0:0:
256,192,108546,1,8,0:0:0:0:
256,192,108631,1,0,0:0:0:0:
256,192,108717,1,0,0:0:0:0:
256,192,108803,1,8,0:0:0:0:
256,192,108888,1,0,0:0:0:0:
256,192,108974,1,8,0:0:0:0:
256,192,109060,1,8,0:0:0:0:
256,192,109146,1,0,0:0:0:0:
256,192,109231,1,0,0:0:0:0:
256,192,109317,1,8,0:0:0:0:
256,192,109403,1,8,0:0:0:0:
256,192,109488,1,0,0:0:0:0:
256,192,109574,1,8,0:0:0:0:
256,192,109660,1,0,0:0:0:0:
256,192,109746,1,8,0:0:0:0:
256,192,109831,1,8,0:0:0:0:
256,192,109917,1,0,0:0:0:0:
256,192,110003,1,0,0:0:0:0:
256,192,110088,1,8,0:0:0:0:
256,192,110174,1,8,0:0:0:0:
256,192,110260,1,0,0:0:0:0:
256,192,110346,1,0,0:0:0:0:
256,192,110431,1,8,0:0:0:0:
256,192,110488,1,0,0:0:0:0:
256,192,110546,1,8,0:0:0:0:
256,192,110603,1,8,0:0:0:0:
256,192,110660,1,0,0:0:0:0:
256,192,110717,1,0,0:0:0:0:
256,192,110774,1,8,0:0:0:0:
256,192,110831,1,0,0:0:0:0:
256,192,110888,1,8,0:0:0:0:
256,192,110946,1,8,0:0:0:0:
256,192,111003,1,0,0:0:0:0:
256,192,111060,1,0,0:0:0:0:
256,192,111117,5,8,0:0:0:0:
256,192,111374,1,0,0:0:0:0:
256,192,111460,1,8,0:0:0:0:
256,192,111631,1,8,0:0:0:0:
256,192,111717,1,0,0:0:0:0:
256,192,111888,1,0,0:0:0:0:
256,192,111974,1,0,0:0:0:0:
256,192,112146,1,8,0:0:0:0:
256,192,112488,1,0,0:0:0:0:
256,192,112660,1,0,0:0:0:0:
256,192,112746,1,0,0:0:0:0:
256,192,112831,1,8,0:0:0:0:
256,192,113003,1,0,0:0:0:0:
256,192,113088,1,8,0:0:0:0:
256,192,113260,1,0,0:0:0:0:
256,192,113346,1,0,0:0:0:0:
256,192,113517,1,8,0:0:0:0:
256,192,113603,1,8,0:0:0:0:
256,192,113688,1,0,0:0:0:0:
256,192,113774,1,0,0:0:0:0:
256,192,113860,1,8,0:0:0:0:
256,192,114117,1,0,0:0:0:0:
256,192,114203,1,8,0:0:0:0:
256,192,114374,1,8,0:0:0:0:
256,192,114460,1,0,0:0:0:0:
256,192,114631,1,0,0:0:0:0:
256,192,114717,1,0,0:0:0:0:
256,192,114888,1,8,0:0:0:0:
256,192,115231,1,0,0:0:0:0:
256,192,115403,1,0,0:0:0:0:
256,192,115488,1,0,0:0:0:0:
256,192,115574,1,8,0:0:0:0:
256,192,115746,1,0,0:0:0:0:
256,192,115831,1,8,0:0:0:0:
256,192,115917,1,0,0:0:0:0:
256,192,116003,1,0,0:0:0:0:
256,192,116088,1,8,0:0:0:0:
256,192,116260,1,0,0:0:0:0:
256,192,116346,1,0,0:0:0:0:
256,192,116431,1,8,0:0:0:0:
256,192,116517,1,0,0:0:0:0:
256,192,116603,1,12,0:0:0:0:
256,192,116774,1,0,0:0:0:0:
256,192,116946,1,0,0:0:0:0:
256,192,117031,1,0,0:0:0:0:
256,192,117117,1,8,0:0:0:0:
256,192,117203,1,0,0:0:0:0:
256,192,117374,1,0,0:0:0:0:
256,192,117460,1,8,0:0:0:0:
256,192,117546,1,0,0:0:0:0:
256,192,117631,1,8,0:0:0:0:
256,192,117717,1,8,0:0:0:0:
256,192,117803,1,0,0:0:0:0:
256,192,117974,1,0,0:0:0:0:
256,192,118060,1,0,0:0:0:0:
256,192,118146,1,0,0:0:0:0:
256,192,118317,1,8,0:0:0:0:
256,192,118403,1,0,0:0:0:0:
256,192,118488,1,0,0:0:0:0:
256,192,118574,1,8,0:0:0:0:
256,192,118746,1,0,0:0:0:0:
256,192,118831,1,8,0:0:0:0:
256,192,118917,1,0,0:0:0:0:
256,192,119003,1,8,0:0:0:0:
256,192,119088,1,8,0:0:0:0:
256,192,119174,1,0,0:0:0:0:
256,192,119260,1,0,0:0:0:0:
256,192,119346,1,8,0:0:0:0:
256,192,119517,1,0,0:0:0:0:
256,192,119688,1,8,0:0:0:0:
256,192,119860,1,0,0:0:0:0:
256,192,120031,1,0,0:0:0:0:
256,192,120203,1,0,0:0:0:0:
256,192,120374,1,8,0:0:0:0:
256,192,120460,1,0,0:0:0:0:
256,192,120546,1,8,0:0:0:0:
256,192,120631,1,8,0:0:0:0:
256,192,120717,1,0,0:0:0:0:
256,192,120803,1,0,0:0:0:0:
256,192,120888,1,8,0:0:0:0:
256,192,120974,1,0,0:0:0:0:
256,192,121060,1,8,0:0:0:0:
256,192,121146,1,8,0:0:0:0:
256,192,121231,1,0,0:0:0:0:
256,192,121317,1,8,0:0:0:0:
256,192,121403,1,0,0:0:0:0:
256,192,121488,1,0,0:0:0:0:
256,192,121574,1,8,0:0:0:0:
256,192,121660,1,0,0:0:0:0:
256,192,121746,1,8,0:0:0:0:
256,192,121803,1,0,0:0:0:0:
256,192,121860,1,0,0:0:0:0:
256,192,121917,1,8,0:0:0:0:
256,192,121974,1,0,0:0:0:0:
256,192,122031,1,0,0:0:0:0:
256,192,122603,5,12,0:0:0:0:
256,192,122774,12,0,124831,0:0:0:0:
