osu file format v14

[General]
AudioFilename: _05_exc_a.mp3
AudioLeadIn: 1500
PreviewTime: 63272
Countdown: 0
SampleSet: None
StackLeniency: 0.7
Mode: 3
LetterboxInBreaks: 0
SpecialStyle: 0
WidescreenStoryboard: 1

[Editor]
DistanceSpacing: 0.8
BeatDivisor: 8
GridSize: 16
TimelineZoom: 2.2

[Metadata]
Title:Kimitoboku e no sousouka
TitleUnicode:キミとボクへの葬送歌
Artist:ROKINA
ArtistUnicode:ROKINA
Creator:BetaVN
Version:Afterlife
Source:
Tags:BMS
BeatmapID:1944417
BeatmapSetID:931183

[Difficulty]
HPDrainRate:8
CircleSize:4
OverallDifficulty:8
ApproachRate:9
SliderMultiplier:1.4
SliderTickRate:1

[Events]
//Background and Video events
0,0,"_stagefile.png",0,0
//Break Periods
//Storyboard Layer 0 (Background)
//Storyboard Layer 1 (Fail)
//Storyboard Layer 2 (Pass)
//Storyboard Layer 3 (Foreground)
//Storyboard Sound Samples
Sample,1364,0,"BGM_01.wav",100
Sample,2182,0,"se_rev_kick.wav",100
Sample,2182,0,"piano_005.wav",100
Sample,3273,0,"se_bell.wav",100
Sample,4364,0,"piano_005.wav",100
Sample,6545,0,"piano_005.wav",100
Sample,8727,0,"piano_004.wav",100
Sample,10091,0,"se_rev_cymb.wav",100
Sample,10909,0,"orgn_001.wav",100
Sample,10909,0,"orgn_006.wav",100
Sample,13091,0,"orgn_002.wav",100
Sample,13091,0,"orgn_007.wav",100
Sample,15273,0,"orgn_003.wav",100
Sample,15273,0,"orgn_008.wav",100
Sample,17455,0,"orgn_005.wav",100
Sample,17455,0,"orgn_010.wav",100
Sample,18545,0,"se_rev_cymb.wav",100
Sample,19364,0,"piano_071.wav",100
Sample,19364,0,"strstc_001.wav",100
Sample,19364,0,"drum_012.wav",100
Sample,19364,0,"hapsi_022.wav",100
Sample,19409,0,"hapsi_033.wav",100
Sample,19409,0,"strstc_002.wav",100
Sample,19409,0,"drum_011.wav",100
Sample,19455,0,"strstc_003.wav",100
Sample,19455,0,"drum_010.wav",100
Sample,19455,0,"hapsi_043.wav",100
Sample,19500,0,"piano_061.wav",100
Sample,19500,0,"strstc_004.wav",100
Sample,19500,0,"drum_009.wav",100
Sample,19500,0,"hapsi_049.wav",100
Sample,19545,0,"hapsi_058.wav",100
Sample,19545,0,"drum_008.wav",100
Sample,19545,0,"strstc_005.wav",100
Sample,19591,0,"strstc_006.wav",100
Sample,19591,0,"drum_007.wav",100
Sample,19591,0,"hapsi_066.wav",100
Sample,19636,0,"hapsi_057.wav",100
Sample,19636,0,"bass_a_020.wav",100
Sample,19636,0,"drum_004.wav",100
Sample,19636,0,"piano_076.wav",100
Sample,19636,0,"hapsi_067.wav",100
Sample,19636,0,"bass_b_022.wav",100
Sample,19773,0,"bass_a_009.wav",100
Sample,19909,0,"hapsi_057.wav",100
Sample,19909,0,"bass_b_017.wav",100
Sample,19909,0,"bass_a_015.wav",100
Sample,19909,0,"piano_071.wav",100
Sample,20045,0,"bass_a_009.wav",100
Sample,20182,0,"piano_074.wav",100
Sample,20182,0,"bass_a_018.wav",100
Sample,20182,0,"drum_004.wav",100
Sample,20182,0,"drum_001.wav",100
Sample,20182,0,"hapsi_063.wav",100
Sample,20182,0,"bass_b_020.wav",100
Sample,20318,0,"bass_a_009.wav",100
Sample,20455,0,"hapsi_061.wav",100
Sample,20455,0,"bass_b_019.wav",100
Sample,20455,0,"bass_a_017.wav",100
Sample,20455,0,"piano_073.wav",100
Sample,20591,0,"bass_a_009.wav",100
Sample,20727,0,"hapsi_063.wav",100
Sample,20727,0,"bass_a_018.wav",100
Sample,20727,0,"piano_074.wav",100
Sample,20727,0,"drum_004.wav",100
Sample,20727,0,"drum_001.wav",100
Sample,20727,0,"bass_b_020.wav",100
Sample,20864,0,"bass_a_009.wav",100
Sample,21000,0,"hapsi_053.wav",100
Sample,21000,0,"bass_b_015.wav",100
Sample,21000,0,"bass_a_013.wav",100
Sample,21000,0,"piano_069.wav",100
Sample,21136,0,"bass_a_009.wav",100
Sample,21273,0,"drum_004.wav",100
Sample,21273,0,"drum_001.wav",100
Sample,21273,0,"bass_a_016.wav",100
Sample,21273,0,"piano_072.wav",100
Sample,21273,0,"hapsi_059.wav",100
Sample,21273,0,"bass_b_018.wav",100
Sample,21409,0,"bass_a_009.wav",100
Sample,21545,0,"bass_a_015.wav",100
Sample,21545,0,"piano_071.wav",100
Sample,21545,0,"bass_b_017.wav",100
Sample,21545,0,"drum_001.wav",100
Sample,21545,0,"drum_004.wav",100
Sample,21545,0,"hapsi_057.wav",100
Sample,21682,0,"piano_055.wav",100
Sample,21682,0,"hapsi_031.wav",100
Sample,21682,0,"bass_a_009.wav",100
Sample,21818,0,"piano_072.wav",100
Sample,21818,0,"bass_b_018.wav",100
Sample,21818,0,"hapsi_046.wav",100
Sample,21818,0,"hapsi_059.wav",100
Sample,21818,0,"bass_a_016.wav",100
Sample,21955,0,"bass_a_009.wav",100
Sample,21955,0,"hapsi_023.wav",100
Sample,21955,0,"piano_057.wav",100
Sample,22091,0,"piano_068.wav",100
Sample,22091,0,"bass_b_014.wav",100
Sample,22091,0,"hapsi_050.wav",100
Sample,22091,0,"hapsi_034.wav",100
Sample,22091,0,"bass_a_012.wav",100
Sample,22227,0,"hapsi_023.wav",100
Sample,22227,0,"piano_052.wav",100
Sample,22227,0,"bass_a_009.wav",100
Sample,22364,0,"hapsi_042.wav",100
Sample,22364,0,"bass_b_016.wav",100
Sample,22364,0,"hapsi_055.wav",100
Sample,22364,0,"piano_070.wav",100
Sample,22364,0,"bass_a_014.wav",100
Sample,22500,0,"piano_054.wav",100
Sample,22500,0,"hapsi_046.wav",100
Sample,22500,0,"bass_a_009.wav",100
Sample,22636,0,"hapsi_039.wav",100
Sample,22636,0,"bass_b_015.wav",100
Sample,22636,0,"piano_069.wav",100
Sample,22636,0,"hapsi_053.wav",100
Sample,22636,0,"bass_a_013.wav",100
Sample,22773,0,"bass_a_009.wav",100
Sample,22773,0,"hapsi_044.wav",100
Sample,22773,0,"piano_053.wav",100
Sample,22909,0,"bass_a_014.wav",100
Sample,22909,0,"bass_b_016.wav",100
Sample,22909,0,"hapsi_055.wav",100
Sample,22909,0,"hapsi_042.wav",100
Sample,22909,0,"piano_070.wav",100
Sample,23045,0,"hapsi_029.wav",100
Sample,23045,0,"bass_a_009.wav",100
Sample,23045,0,"piano_054.wav",100
Sample,23182,0,"bass_a_010.wav",100
Sample,23182,0,"bass_b_012.wav",100
Sample,23182,0,"hapsi_046.wav",100
Sample,23182,0,"piano_065.wav",100
Sample,23182,0,"hapsi_034.wav",100
Sample,23318,0,"bass_a_014.wav",100
Sample,23318,0,"piano_050.wav",100
Sample,23318,0,"hapsi_017.wav",100
Sample,23455,0,"hapsi_003.wav",100
Sample,23455,0,"piano_139.wav",100
Sample,23455,0,"bass_a_018.wav",100
Sample,23455,0,"drum_002.wav",100
Sample,23455,0,"tom_001.wav",100
Sample,23455,0,"bass_b_015.wav",100
Sample,23500,0,"hapsi_008.wav",100
Sample,23523,0,"piano_147.wav",100
Sample,23545,0,"tom_004.wav",100
Sample,23545,0,"hapsi_013.wav",100
Sample,23591,0,"bass_a_021.wav",100
Sample,23591,0,"piano_152.wav",100
Sample,23591,0,"hapsi_022.wav",100
Sample,23636,0,"tom_007.wav",100
Sample,23636,0,"hapsi_028.wav",100
Sample,23659,0,"piano_155.wav",100
Sample,23682,0,"hapsi_036.wav",100
Sample,23727,0,"hapsi_043.wav",100
Sample,23727,0,"bass_a_020.wav",100
Sample,23727,0,"strstc_017.wav",100
Sample,23727,0,"tom_012.wav",100
Sample,23727,0,"bass_b_011.wav",100
Sample,23727,0,"piano_157.wav",100
Sample,23773,0,"strstc_003.wav",100
Sample,23773,0,"hapsi_049.wav",100
Sample,23795,0,"piano_161.wav",100
Sample,23795,0,"piano_180.wav",100
Sample,23818,0,"drum_019.wav",100
Sample,23818,0,"hapsi_054.wav",100
Sample,23818,0,"strstc_004.wav",100
Sample,23864,0,"hapsi_060.wav",100
Sample,23864,0,"strstc_018.wav",100
Sample,23864,0,"piano_178.wav",100
Sample,23864,0,"bass_a_019.wav",100
Sample,23864,0,"piano_164.wav",100
Sample,23909,0,"drum_017.wav",100
Sample,23909,0,"hapsi_066.wav",100
Sample,23909,0,"strstc_019.wav",100
Sample,23932,0,"piano_175.wav",100
Sample,23932,0,"piano_166.wav",100
Sample,23955,0,"hapsi_070.wav",100
Sample,23955,0,"strstc_006.wav",100
Sample,24000,0,"hapsi_051.wav",100
Sample,24000,0,"bass_b_022.wav",100
Sample,24000,0,"strstc_007.wav",100
Sample,24000,0,"piano_092.wav",100
Sample,24000,0,"piano_167.wav",100
Sample,24068,0,"piano_152.wav",100
Sample,24091,0,"hapsi_045.wav",100
Sample,24136,0,"piano_167.wav",100
Sample,24136,0,"bass_a_009.wav",100
Sample,24182,0,"hapsi_033.wav",100
Sample,24205,0,"piano_152.wav",100
Sample,24273,0,"bass_b_017.wav",100
Sample,24273,0,"piano_161.wav",100
Sample,24273,0,"bass_a_015.wav",100
Sample,24273,0,"piano_092.wav",100
Sample,24273,0,"hapsi_025.wav",100
Sample,24273,0,"strstc_008.wav",100
Sample,24341,0,"piano_143.wav",100
Sample,24364,0,"hapsi_033.wav",100
Sample,24409,0,"piano_161.wav",100
Sample,24409,0,"bass_a_009.wav",100
Sample,24455,0,"hapsi_045.wav",100
Sample,24477,0,"piano_143.wav",100
Sample,24545,0,"hapsi_051.wav",100
Sample,24545,0,"bass_b_020.wav",100
Sample,24545,0,"piano_165.wav",100
Sample,24545,0,"drum_002.wav",100
Sample,24545,0,"strstc_009.wav",100
Sample,24614,0,"piano_149.wav",100
Sample,24636,0,"drum_019.wav",100
Sample,24636,0,"hapsi_045.wav",100
Sample,24682,0,"bass_a_009.wav",100
Sample,24682,0,"piano_165.wav",100
Sample,24727,0,"hapsi_041.wav",100
Sample,24750,0,"piano_149.wav",100
Sample,24818,0,"piano_164.wav",100
Sample,24818,0,"bass_a_017.wav",100
Sample,24818,0,"strstc_010.wav",100
Sample,24818,0,"hapsi_062.wav",100
Sample,24818,0,"bass_b_019.wav",100
Sample,24818,0,"hapsi_051.wav",100
Sample,24886,0,"piano_147.wav",100
Sample,24909,0,"hapsi_038.wav",100
Sample,24955,0,"bass_a_009.wav",100
Sample,24955,0,"piano_164.wav",100
Sample,25000,0,"hapsi_028.wav",100
Sample,25023,0,"piano_147.wav",100
Sample,25091,0,"strstc_009.wav",100
Sample,25091,0,"bass_a_018.wav",100
Sample,25091,0,"hapsi_049.wav",100
Sample,25091,0,"piano_165.wav",100
Sample,25091,0,"bass_b_020.wav",100
Sample,25159,0,"piano_149.wav",100
Sample,25182,0,"hapsi_041.wav",100
Sample,25227,0,"piano_165.wav",100
Sample,25227,0,"bass_a_009.wav",100
Sample,25273,0,"hapsi_028.wav",100
Sample,25295,0,"piano_149.wav",100
Sample,25364,0,"hapsi_022.wav",100
Sample,25364,0,"bass_a_013.wav",100
Sample,25364,0,"drum_004.wav",100
Sample,25364,0,"strstc_011.wav",100
Sample,25364,0,"bass_b_015.wav",100
Sample,25364,0,"piano_157.wav",100
Sample,25432,0,"piano_139.wav",100
Sample,25455,0,"hapsi_028.wav",100
Sample,25500,0,"bass_a_009.wav",100
Sample,25500,0,"piano_157.wav",100
Sample,25545,0,"hapsi_041.wav",100
Sample,25568,0,"piano_139.wav",100
Sample,25636,0,"hapsi_036.wav",100
Sample,25636,0,"bass_b_018.wav",100
Sample,25636,0,"piano_093.wav",100
Sample,25636,0,"strstc_012.wav",100
Sample,25636,0,"piano_163.wav",100
Sample,25705,0,"piano_145.wav",100
Sample,25727,0,"drum_023.wav",100
Sample,25727,0,"hapsi_028.wav",100
Sample,25773,0,"bass_a_009.wav",100
Sample,25773,0,"piano_163.wav",100
Sample,25818,0,"hapsi_019.wav",100
Sample,25818,0,"drum_022.wav",100
Sample,25841,0,"piano_145.wav",100
Sample,25909,0,"hapsi_045.wav",100
Sample,25909,0,"bass_b_017.wav",100
Sample,25909,0,"strstc_008.wav",100
Sample,25909,0,"piano_161.wav",100
Sample,25909,0,"hapsi_058.wav",100
Sample,25977,0,"piano_143.wav",100
Sample,25977,0,"drum_002.wav",100
Sample,26000,0,"hapsi_033.wav",100
Sample,26045,0,"piano_161.wav",100
Sample,26045,0,"drum_002.wav",100
Sample,26045,0,"bass_a_009.wav",100
Sample,26091,0,"hapsi_025.wav",100
Sample,26114,0,"piano_143.wav",100
Sample,26114,0,"drum_002.wav",100
Sample,26182,0,"piano_087.wav",100
Sample,26182,0,"bass_b_018.wav",100
Sample,26182,0,"bass_a_016.wav",100
Sample,26182,0,"piano_163.wav",100
Sample,26182,0,"strstc_012.wav",100
Sample,26250,0,"piano_145.wav",100
Sample,26273,0,"drum_002.wav",100
Sample,26318,0,"piano_163.wav",100
Sample,26318,0,"bass_a_009.wav",100
Sample,26364,0,"hapsi_028.wav",100
Sample,26386,0,"piano_145.wav",100
Sample,26455,0,"piano_082.wav",100
Sample,26455,0,"piano_155.wav",100
Sample,26455,0,"piano_089.wav",100
Sample,26455,0,"drum_032.wav",100
Sample,26455,0,"bass_b_014.wav",100
Sample,26455,0,"bass_a_012.wav",100
Sample,26455,0,"hapsi_025.wav",100
Sample,26455,0,"strstc_013.wav",100
Sample,26523,0,"piano_137.wav",100
Sample,26545,0,"hapsi_028.wav",100
Sample,26591,0,"piano_155.wav",100
Sample,26591,0,"bass_a_009.wav",100
Sample,26636,0,"hapsi_051.wav",100
Sample,26659,0,"piano_137.wav",100
Sample,26727,0,"piano_159.wav",100
Sample,26727,0,"bass_b_016.wav",100
Sample,26727,0,"piano_091.wav",100
Sample,26727,0,"piano_085.wav",100
Sample,26727,0,"bass_a_014.wav",100
Sample,26727,0,"strstc_014.wav",100
Sample,26795,0,"piano_141.wav",100
Sample,26818,0,"hapsi_030.wav",100
Sample,26864,0,"piano_159.wav",100
Sample,26864,0,"bass_a_009.wav",100
Sample,26909,0,"hapsi_043.wav",100
Sample,26932,0,"piano_141.wav",100
Sample,27000,0,"piano_090.wav",100
Sample,27000,0,"bass_a_013.wav",100
Sample,27000,0,"strstc_011.wav",100
Sample,27000,0,"drum_006.wav",100
Sample,27000,0,"piano_157.wav",100
Sample,27000,0,"drum_032.wav",100
Sample,27000,0,"piano_084.wav",100
Sample,27000,0,"bass_b_015.wav",100
Sample,27068,0,"piano_139.wav",100
Sample,27091,0,"hapsi_028.wav",100
Sample,27091,0,"drum_006.wav",100
Sample,27136,0,"piano_157.wav",100
Sample,27136,0,"bass_a_009.wav",100
Sample,27182,0,"hapsi_019.wav",100
Sample,27182,0,"drum_006.wav",100
Sample,27205,0,"piano_139.wav",100
Sample,27273,0,"bass_b_016.wav",100
Sample,27273,0,"piano_091.wav",100
Sample,27273,0,"bass_a_014.wav",100
Sample,27273,0,"piano_085.wav",100
Sample,27273,0,"drum_006.wav",100
Sample,27273,0,"strstc_014.wav",100
Sample,27341,0,"piano_141.wav",100
Sample,27364,0,"hapsi_047.wav",100
Sample,27409,0,"bass_a_009.wav",100
Sample,27409,0,"drum_006.wav",100
Sample,27477,0,"piano_141.wav",100
Sample,27545,0,"piano_165.wav",100
Sample,27545,0,"bass_b_013.wav",100
Sample,27545,0,"se_rev_cymb.wav",100
Sample,27545,0,"bass_a_018.wav",100
Sample,27545,0,"strstc_020.wav",100
Sample,27545,0,"piano_088.wav",100
Sample,27545,0,"piano_095.wav",100
Sample,27545,0,"drum_032.wav",100
Sample,27614,0,"piano_149.wav",100
Sample,27614,0,"drum_006.wav",100
Sample,27636,0,"hapsi_041.wav",100
Sample,27682,0,"bass_a_011.wav",100
Sample,27682,0,"piano_165.wav",100
Sample,27750,0,"piano_149.wav",100
Sample,27818,0,"piano_089.wav",100
Sample,27818,0,"bass_a_020.wav",100
Sample,27818,0,"piano_096.wav",100
Sample,27818,0,"piano_152.wav",100
Sample,27818,0,"bass_b_011.wav",100
Sample,27818,0,"hapsi_051.wav",100
Sample,27818,0,"strstc_021.wav",100
Sample,27886,0,"piano_155.wav",100
Sample,27909,0,"hapsi_045.wav",100
Sample,27909,0,"hapsi_060.wav",100
Sample,27955,0,"piano_159.wav",100
Sample,27955,0,"bass_a_012.wav",100
Sample,28000,0,"hapsi_051.wav",100
Sample,28000,0,"hapsi_036.wav",100
Sample,28023,0,"piano_163.wav",100
Sample,28091,0,"hapsi_058.wav",100
Sample,28091,0,"bass_a_022.wav",100
Sample,28091,0,"piano_097.wav",100
Sample,28091,0,"bass_b_010.wav",100
Sample,28091,0,"strstc_022.wav",100
Sample,28091,0,"hapsi_070.wav",100
Sample,28091,0,"piano_092.wav",100
Sample,28091,0,"drum_032.wav",100
Sample,28091,0,"piano_166.wav",100
Sample,28159,0,"drum_002.wav",100
Sample,28159,0,"piano_168.wav",100
Sample,28182,0,"hapsi_066.wav",100
Sample,28182,0,"hapsi_049.wav",100
Sample,28227,0,"piano_171.wav",100
Sample,28227,0,"bass_a_013.wav",100
Sample,28273,0,"hapsi_058.wav",100
Sample,28273,0,"hapsi_043.wav",100
Sample,28295,0,"piano_175.wav",100
Sample,28295,0,"drum_002.wav",100
Sample,28364,0,"hapsi_031.wav",100
Sample,28364,0,"strlg_001.wav",100
Sample,28364,0,"hapsi_044.wav",100
Sample,28364,0,"BGM_02.wav",100
Sample,28364,0,"acid_001.wav",100
Sample,28432,0,"acid_002.wav",100
Sample,28500,0,"hihat_b_002.wav",100
Sample,28500,0,"hapsi_023.wav",100
Sample,28500,0,"bass_b_011.wav",100
Sample,28500,0,"bass_a_009.wav",100
Sample,28500,0,"acid_003.wav",100
Sample,28500,0,"hapsi_005.wav",100
Sample,28568,0,"acid_004.wav",100
Sample,28636,0,"hihat_b_003.wav",100
Sample,28636,0,"hapsi_014.wav",100
Sample,28636,0,"hapsi_031.wav",100
Sample,28636,0,"drum_032.wav",100
Sample,28636,0,"drum_016.wav",100
Sample,28636,0,"acid_005.wav",100
Sample,28705,0,"acid_006.wav",100
Sample,28773,0,"strlg_002.wav",100
Sample,28773,0,"bass_b_011.wav",100
Sample,28773,0,"acid_007.wav",100
Sample,28773,0,"hapsi_057.wav",100
Sample,28773,0,"hapsi_044.wav",100
Sample,28773,0,"bass_a_009.wav",100
Sample,28841,0,"acid_008.wav",100
Sample,28909,0,"drum_033.wav",100
Sample,28909,0,"acid_009.wav",100
Sample,28909,0,"hihat_b_006.wav",100
Sample,28909,0,"hapsi_031.wav",100
Sample,28909,0,"hapsi_023.wav",100
Sample,28977,0,"acid_010.wav",100
Sample,28977,0,"hihat_b_007.wav",100
Sample,29045,0,"hapsi_050.wav",100
Sample,29045,0,"hapsi_044.wav",100
Sample,29045,0,"bass_b_011.wav",100
Sample,29045,0,"strlg_003.wav",100
Sample,29045,0,"hihat_b_008.wav",100
Sample,29045,0,"bass_a_009.wav",100
Sample,29045,0,"acid_011.wav",100
Sample,29114,0,"acid_012.wav",100
Sample,29182,0,"hihat_b_009.wav",100
Sample,29182,0,"acid_013.wav",100
Sample,29182,0,"hapsi_014.wav",100
Sample,29182,0,"hapsi_031.wav",100
Sample,29250,0,"acid_014.wav",100
Sample,29318,0,"strlg_004.wav",100
Sample,29318,0,"bass_b_011.wav",100
Sample,29318,0,"hapsi_044.wav",100
Sample,29318,0,"hapsi_048.wav",100
Sample,29318,0,"acid_015.wav",100
Sample,29318,0,"hihat_b_010.wav",100
Sample,29318,0,"bass_a_009.wav",100
Sample,29386,0,"acid_016.wav",100
Sample,29455,0,"hapsi_039.wav",100
Sample,29455,0,"acid_017.wav",100
Sample,29455,0,"hapsi_031.wav",100
Sample,29523,0,"acid_018.wav",100
Sample,29591,0,"hihat_b_012.wav",100
Sample,29591,0,"bass_a_007.wav",100
Sample,29591,0,"hapsi_050.wav",100
Sample,29591,0,"acid_019.wav",100
Sample,29591,0,"hapsi_044.wav",100
Sample,29591,0,"strlg_005.wav",100
Sample,29591,0,"drum_032.wav",100
Sample,29591,0,"bass_b_009.wav",100
Sample,29727,0,"drum_016.wav",100
Sample,29727,0,"strlg_006.wav",100
Sample,29727,0,"hapsi_031.wav",100
Sample,29727,0,"hapsi_048.wav",100
Sample,29727,0,"hihat_b_013.wav",100
Sample,29727,0,"acid_021.wav",100
Sample,29795,0,"acid_022.wav",100
Sample,29864,0,"hapsi_023.wav",100
Sample,29864,0,"bass_b_009.wav",100
Sample,29864,0,"hapsi_039.wav",100
Sample,29864,0,"hihat_b_014.wav",100
Sample,29864,0,"strlg_007.wav",100
Sample,29864,0,"bass_a_007.wav",100
Sample,29864,0,"acid_023.wav",100
Sample,29932,0,"hihat_b_015.wav",100
Sample,29932,0,"acid_024.wav",100
Sample,30000,0,"hapsi_031.wav",100
Sample,30000,0,"hapsi_020.wav",100
Sample,30000,0,"hihat_b_016.wav",100
Sample,30000,0,"strlg_008.wav",100
Sample,30000,0,"drum_033.wav",100
Sample,30000,0,"acid_025.wav",100
Sample,30068,0,"hihat_b_017.wav",100
Sample,30068,0,"acid_026.wav",100
Sample,30136,0,"hapsi_010.wav",100
Sample,30136,0,"bass_a_007.wav",100
Sample,30136,0,"hihat_b_018.wav",100
Sample,30136,0,"bass_b_009.wav",100
Sample,30136,0,"hapsi_005.wav",100
Sample,30136,0,"acid_027.wav",100
Sample,30205,0,"acid_028.wav",100
Sample,30273,0,"hapsi_031.wav",100
Sample,30273,0,"drum_016.wav",100
Sample,30273,0,"acid_029.wav",100
Sample,30273,0,"strlg_009.wav",100
Sample,30273,0,"hihat_b_019.wav",100
Sample,30273,0,"hapsi_039.wav",100
Sample,30341,0,"acid_030.wav",100
Sample,30409,0,"bass_a_007.wav",100
Sample,30409,0,"drum_033.wav",100
Sample,30409,0,"hihat_b_020.wav",100
Sample,30409,0,"hapsi_020.wav",100
Sample,30409,0,"acid_031.wav",100
Sample,30409,0,"hapsi_010.wav",100
Sample,30409,0,"bass_b_009.wav",100
Sample,30545,0,"acid_033.wav",100
Sample,30545,0,"strlg_010.wav",100
Sample,30545,0,"hapsi_044.wav",100
Sample,30545,0,"drum_016.wav",100
Sample,30545,0,"hihat_b_001.wav",100
Sample,30545,0,"hapsi_034.wav",100
Sample,30614,0,"acid_034.wav",100
Sample,30682,0,"hapsi_026.wav",100
Sample,30682,0,"hapsi_048.wav",100
Sample,30682,0,"bass_b_007.wav",100
Sample,30682,0,"hihat_b_002.wav",100
Sample,30682,0,"acid_035.wav",100
Sample,30682,0,"bass_a_003.wav",100
Sample,30682,0,"strlg_006.wav",100
Sample,30750,0,"acid_036.wav",100
Sample,30818,0,"strlg_003.wav",100
Sample,30818,0,"drum_032.wav",100
Sample,30818,0,"drum_014.wav",100
Sample,30818,0,"hihat_b_003.wav",100
Sample,30818,0,"acid_037.wav",100
Sample,30818,0,"hapsi_044.wav",100
Sample,30818,0,"hapsi_050.wav",100
Sample,30886,0,"acid_038.wav",100
Sample,30955,0,"hapsi_026.wav",100
Sample,30955,0,"bass_a_003.wav",100
Sample,30955,0,"hihat_b_004.wav",100
Sample,30955,0,"hapsi_014.wav",100
Sample,30955,0,"bass_b_007.wav",100
Sample,30955,0,"acid_039.wav",100
Sample,31023,0,"acid_040.wav",100
Sample,31091,0,"hapsi_034.wav",100
Sample,31091,0,"strlg_006.wav",100
Sample,31091,0,"acid_041.wav",100
Sample,31091,0,"hihat_b_006.wav",100
Sample,31091,0,"drum_033.wav",100
Sample,31091,0,"hapsi_048.wav",100
Sample,31159,0,"acid_042.wav",100
Sample,31159,0,"hihat_b_007.wav",100
Sample,31227,0,"hihat_b_008.wav",100
Sample,31227,0,"bass_a_003.wav",100
Sample,31227,0,"hapsi_039.wav",100
Sample,31227,0,"bass_b_007.wav",100
Sample,31227,0,"hapsi_050.wav",100
Sample,31227,0,"strlg_005.wav",100
Sample,31227,0,"acid_043.wav",100
Sample,31295,0,"acid_044.wav",100
Sample,31364,0,"hapsi_053.wav",100
Sample,31364,0,"drum_014.wav",100
Sample,31364,0,"acid_045.wav",100
Sample,31364,0,"hihat_b_009.wav",100
Sample,31364,0,"hapsi_044.wav",100
Sample,31364,0,"strlg_011.wav",100
Sample,31432,0,"acid_046.wav",100
Sample,31500,0,"hapsi_057.wav",100
Sample,31500,0,"strlg_012.wav",100
Sample,31500,0,"hapsi_048.wav",100
Sample,31500,0,"hihat_b_010.wav",100
Sample,31500,0,"acid_047.wav",100
Sample,31500,0,"bass_a_003.wav",100
Sample,31500,0,"bass_b_007.wav",100
Sample,31568,0,"acid_048.wav",100
Sample,31636,0,"hapsi_031.wav",100
Sample,31636,0,"hapsi_023.wav",100
Sample,31636,0,"hihat_b_011.wav",100
Sample,31636,0,"acid_049.wav",100
Sample,31705,0,"acid_050.wav",100
Sample,31773,0,"hapsi_039.wav",100
Sample,31773,0,"hapsi_010.wav",100
Sample,31773,0,"acid_051.wav",100
Sample,31773,0,"drum_032.wav",100
Sample,31773,0,"bass_a_002.wav",100
Sample,31773,0,"hihat_b_012.wav",100
Sample,31773,0,"bass_b_006.wav",100
Sample,31841,0,"acid_052.wav",100
Sample,31909,0,"hapsi_023.wav",100
Sample,31909,0,"acid_053.wav",100
Sample,31909,0,"hapsi_031.wav",100
Sample,31909,0,"hihat_b_013.wav",100
Sample,31977,0,"acid_054.wav",100
Sample,32045,0,"drum_033.wav",100
Sample,32045,0,"hapsi_050.wav",100
Sample,32045,0,"bass_a_002.wav",100
Sample,32045,0,"hapsi_057.wav",100
Sample,32045,0,"bass_b_006.wav",100
Sample,32045,0,"hihat_b_014.wav",100
Sample,32045,0,"acid_055.wav",100
Sample,32114,0,"acid_056.wav",100
Sample,32114,0,"hihat_b_015.wav",100
Sample,32182,0,"hihat_b_016.wav",100
Sample,32182,0,"drum_033.wav",100
Sample,32182,0,"hapsi_031.wav",100
Sample,32182,0,"hapsi_039.wav",100
Sample,32182,0,"acid_057.wav",100
Sample,32250,0,"hihat_b_017.wav",100
Sample,32250,0,"acid_058.wav",100
Sample,32318,0,"hapsi_010.wav",100
Sample,32318,0,"hihat_b_018.wav",100
Sample,32318,0,"drum_032.wav",100
Sample,32318,0,"bass_b_006.wav",100
Sample,32318,0,"acid_059.wav",100
Sample,32318,0,"bass_a_002.wav",100
Sample,32318,0,"hapsi_023.wav",100
Sample,32386,0,"acid_060.wav",100
Sample,32455,0,"hihat_b_019.wav",100
Sample,32455,0,"acid_061.wav",100
Sample,32455,0,"hapsi_053.wav",100
Sample,32455,0,"hapsi_044.wav",100
Sample,32455,0,"strlg_005.wav",100
Sample,32523,0,"acid_062.wav",100
Sample,32591,0,"hapsi_048.wav",100
Sample,32591,0,"hapsi_057.wav",100
Sample,32591,0,"hihat_b_020.wav",100
Sample,32591,0,"bass_a_002.wav",100
Sample,32591,0,"strlg_011.wav",100
Sample,32591,0,"bass_b_006.wav",100
Sample,32591,0,"drum_033.wav",100
Sample,32591,0,"acid_063.wav",100
Sample,32659,0,"acid_064.wav",100
Sample,32727,0,"hihat_b_001.wav",100
Sample,32727,0,"acid_065.wav",100
Sample,32727,0,"hapsi_050.wav",100
Sample,32727,0,"hapsi_059.wav",100
Sample,32727,0,"strlg_013.wav",100
Sample,32795,0,"acid_066.wav",100
Sample,32864,0,"bass_a_003.wav",100
Sample,32864,0,"hihat_b_002.wav",100
Sample,32864,0,"acid_067.wav",100
Sample,32864,0,"hapsi_044.wav",100
Sample,32864,0,"hapsi_034.wav",100
Sample,32864,0,"bass_b_007.wav",100
Sample,32932,0,"acid_068.wav",100
Sample,33000,0,"hihat_b_003.wav",100
Sample,33000,0,"drum_032.wav",100
Sample,33000,0,"hapsi_026.wav",100
Sample,33000,0,"acid_069.wav",100
Sample,33000,0,"hapsi_050.wav",100
Sample,33068,0,"acid_070.wav",100
Sample,33136,0,"bass_a_003.wav",100
Sample,33136,0,"strlg_014.wav",100
Sample,33136,0,"bass_b_007.wav",100
Sample,33136,0,"hapsi_044.wav",100
Sample,33136,0,"hapsi_059.wav",100
Sample,33136,0,"acid_071.wav",100
Sample,33205,0,"hihat_b_005.wav",100
Sample,33205,0,"acid_072.wav",100
Sample,33273,0,"drum_033.wav",100
Sample,33273,0,"acid_073.wav",100
Sample,33273,0,"hapsi_034.wav",100
Sample,33273,0,"hihat_b_006.wav",100
Sample,33273,0,"hapsi_050.wav",100
Sample,33341,0,"acid_074.wav",100
Sample,33341,0,"hihat_b_007.wav",100
Sample,33409,0,"hapsi_063.wav",100
Sample,33409,0,"hihat_b_008.wav",100
Sample,33409,0,"bass_b_007.wav",100
Sample,33409,0,"strlg_015.wav",100
Sample,33409,0,"bass_a_003.wav",100
Sample,33409,0,"acid_075.wav",100
Sample,33409,0,"drum_032.wav",100
Sample,33409,0,"hapsi_053.wav",100
Sample,33545,0,"hihat_b_009.wav",100
Sample,33545,0,"hapsi_059.wav",100
Sample,33545,0,"acid_077.wav",100
Sample,33545,0,"hapsi_050.wav",100
Sample,33545,0,"drum_016.wav",100
Sample,33545,0,"strlg_016.wav",100
Sample,33614,0,"acid_078.wav",100
Sample,33682,0,"hihat_b_010.wav",100
Sample,33682,0,"hapsi_053.wav",100
Sample,33682,0,"strlg_011.wav",100
Sample,33682,0,"hapsi_044.wav",100
Sample,33682,0,"acid_079.wav",100
Sample,33682,0,"bass_b_007.wav",100
Sample,33682,0,"bass_a_003.wav",100
Sample,33750,0,"acid_080.wav",100
Sample,33818,0,"hapsi_050.wav",100
Sample,33818,0,"hapsi_057.wav",100
Sample,33818,0,"hihat_b_011.wav",100
Sample,33818,0,"strlg_017.wav",100
Sample,33818,0,"acid_081.wav",100
Sample,33886,0,"acid_082.wav",100
Sample,33955,0,"hapsi_053.wav",100
Sample,33955,0,"bass_a_007.wav",100
Sample,33955,0,"strlg_016.wav",100
Sample,33955,0,"drum_032.wav",100
Sample,33955,0,"hapsi_059.wav",100
Sample,33955,0,"bass_b_009.wav",100
Sample,33955,0,"acid_083.wav",100
Sample,34023,0,"acid_084.wav",100
Sample,34091,0,"hihat_b_013.wav",100
Sample,34091,0,"strlg_017.wav",100
Sample,34091,0,"hapsi_057.wav",100
Sample,34091,0,"acid_085.wav",100
Sample,34091,0,"hapsi_050.wav",100
Sample,34091,0,"drum_014.wav",100
Sample,34159,0,"acid_086.wav",100
Sample,34227,0,"hapsi_048.wav",100
Sample,34227,0,"bass_a_007.wav",100
Sample,34227,0,"hihat_b_014.wav",100
Sample,34227,0,"strlg_011.wav",100
Sample,34227,0,"bass_b_009.wav",100
Sample,34227,0,"hapsi_053.wav",100
Sample,34227,0,"acid_087.wav",100
Sample,34295,0,"acid_088.wav",100
Sample,34364,0,"hapsi_044.wav",100
Sample,34364,0,"strlg_005.wav",100
Sample,34364,0,"acid_089.wav",100
Sample,34364,0,"hapsi_050.wav",100
Sample,34364,0,"drum_033.wav",100
Sample,34364,0,"hihat_b_016.wav",100
Sample,34432,0,"acid_090.wav",100
Sample,34432,0,"hihat_b_017.wav",100
Sample,34500,0,"hapsi_031.wav",100
Sample,34500,0,"bass_a_007.wav",100
Sample,34500,0,"acid_091.wav",100
Sample,34500,0,"hapsi_020.wav",100
Sample,34500,0,"bass_b_009.wav",100
Sample,34500,0,"hihat_b_018.wav",100
Sample,34568,0,"acid_092.wav",100
Sample,34636,0,"hihat_b_019.wav",100
Sample,34636,0,"hapsi_050.wav",100
Sample,34636,0,"strlg_017.wav",100
Sample,34636,0,"hapsi_057.wav",100
Sample,34636,0,"drum_016.wav",100
Sample,34636,0,"acid_093.wav",100
Sample,34705,0,"acid_094.wav",100
Sample,34773,0,"hihat_b_020.wav",100
Sample,34773,0,"drum_033.wav",100
Sample,34773,0,"bass_a_007.wav",100
Sample,34773,0,"bass_b_009.wav",100
Sample,34773,0,"strlg_018.wav",100
Sample,34773,0,"acid_095.wav",100
Sample,34773,0,"hapsi_053.wav",100
Sample,34773,0,"hapsi_048.wav",100
Sample,34841,0,"acid_096.wav",100
Sample,34909,0,"hapsi_044.wav",100
Sample,34909,0,"hihat_b_001.wav",100
Sample,34909,0,"drum_033.wav",100
Sample,34909,0,"acid_097.wav",100
Sample,34909,0,"hapsi_037.wav",100
Sample,34977,0,"acid_098.wav",100
Sample,35045,0,"acid_099.wav",100
Sample,35045,0,"strlg_017.wav",100
Sample,35045,0,"hapsi_050.wav",100
Sample,35045,0,"bass_b_008.wav",100
Sample,35045,0,"bass_a_005.wav",100
Sample,35045,0,"hapsi_057.wav",100
Sample,35045,0,"hihat_b_002.wav",100
Sample,35114,0,"acid_100.wav",100
Sample,35182,0,"hihat_b_003.wav",100
Sample,35182,0,"strlg_019.wav",100
Sample,35182,0,"hapsi_037.wav",100
Sample,35182,0,"drum_032.wav",100
Sample,35182,0,"acid_101.wav",100
Sample,35182,0,"hapsi_044.wav",100
Sample,35182,0,"drum_014.wav",100
Sample,35250,0,"acid_102.wav",100
Sample,35318,0,"bass_b_008.wav",100
Sample,35318,0,"acid_103.wav",100
Sample,35318,0,"hapsi_026.wav",100
Sample,35318,0,"hapsi_014.wav",100
Sample,35318,0,"bass_a_005.wav",100
Sample,35386,0,"acid_104.wav",100
Sample,35386,0,"hihat_b_005.wav",100
Sample,35455,0,"hapsi_037.wav",100
Sample,35455,0,"hapsi_044.wav",100
Sample,35455,0,"strlg_020.wav",100
Sample,35455,0,"hihat_b_006.wav",100
Sample,35455,0,"acid_105.wav",100
Sample,35523,0,"acid_106.wav",100
Sample,35523,0,"hihat_b_007.wav",100
Sample,35591,0,"bass_a_005.wav",100
Sample,35591,0,"hapsi_048.wav",100
Sample,35591,0,"hihat_b_008.wav",100
Sample,35591,0,"hapsi_039.wav",100
Sample,35591,0,"acid_107.wav",100
Sample,35591,0,"bass_b_008.wav",100
Sample,35591,0,"strlg_006.wav",100
Sample,35659,0,"acid_108.wav",100
Sample,35727,0,"hapsi_050.wav",100
Sample,35727,0,"drum_014.wav",100
Sample,35727,0,"hapsi_037.wav",100
Sample,35727,0,"strlg_005.wav",100
Sample,35727,0,"hihat_b_009.wav",100
Sample,35727,0,"acid_109.wav",100
Sample,35795,0,"acid_110.wav",100
Sample,35864,0,"bass_a_005.wav",100
Sample,35864,0,"strlg_020.wav",100
Sample,35864,0,"bass_b_008.wav",100
Sample,35864,0,"hapsi_044.wav",100
Sample,35864,0,"hihat_b_010.wav",100
Sample,35864,0,"hapsi_026.wav",100
Sample,35864,0,"acid_111.wav",100
Sample,35932,0,"acid_112.wav",100
Sample,36000,0,"strlg_021.wav",100
Sample,36000,0,"hapsi_031.wav",100
Sample,36000,0,"hihat_b_011.wav",100
Sample,36000,0,"acid_113.wav",100
Sample,36000,0,"hapsi_048.wav",100
Sample,36068,0,"acid_114.wav",100
Sample,36136,0,"bass_a_008.wav",100
Sample,36136,0,"hihat_b_012.wav",100
Sample,36136,0,"drum_032.wav",100
Sample,36136,0,"hapsi_037.wav",100
Sample,36136,0,"strlg_005.wav",100
Sample,36136,0,"acid_115.wav",100
Sample,36136,0,"bass_b_010.wav",100
Sample,36136,0,"hapsi_050.wav",100
Sample,36205,0,"acid_116.wav",100
Sample,36273,0,"acid_117.wav",100
Sample,36273,0,"drum_016.wav",100
Sample,36273,0,"hapsi_042.wav",100
Sample,36273,0,"hihat_b_013.wav",100
Sample,36273,0,"strlg_018.wav",100
Sample,36273,0,"hapsi_053.wav",100
Sample,36341,0,"acid_118.wav",100
Sample,36409,0,"hapsi_031.wav",100
Sample,36409,0,"bass_a_008.wav",100
Sample,36409,0,"acid_119.wav",100
Sample,36409,0,"hihat_b_014.wav",100
Sample,36409,0,"hapsi_048.wav",100
Sample,36409,0,"bass_b_010.wav",100
Sample,36477,0,"hihat_b_015.wav",100
Sample,36477,0,"acid_120.wav",100
Sample,36545,0,"drum_016.wav",100
Sample,36545,0,"strlg_017.wav",100
Sample,36545,0,"hapsi_057.wav",100
Sample,36545,0,"hapsi_050.wav",100
Sample,36545,0,"acid_121.wav",100
Sample,36545,0,"hihat_b_016.wav",100
Sample,36614,0,"acid_122.wav",100
Sample,36614,0,"hihat_b_017.wav",100
Sample,36682,0,"bass_a_008.wav",100
Sample,36682,0,"drum_032.wav",100
Sample,36682,0,"hapsi_042.wav",100
Sample,36682,0,"bass_b_010.wav",100
Sample,36682,0,"hihat_b_018.wav",100
Sample,36682,0,"acid_123.wav",100
Sample,36682,0,"hapsi_048.wav",100
Sample,36682,0,"strlg_022.wav",100
Sample,36750,0,"acid_124.wav",100
Sample,36818,0,"hapsi_031.wav",100
Sample,36818,0,"hapsi_020.wav",100
Sample,36818,0,"hihat_b_019.wav",100
Sample,36818,0,"acid_125.wav",100
Sample,36886,0,"acid_126.wav",100
Sample,36955,0,"hapsi_011.wav",100
Sample,36955,0,"bass_a_008.wav",100
Sample,36955,0,"hihat_b_020.wav",100
Sample,36955,0,"drum_033.wav",100
Sample,36955,0,"hapsi_042.wav",100
Sample,36955,0,"bass_b_010.wav",100
Sample,36955,0,"acid_127.wav",100
Sample,37091,0,"hihat_b_001.wav",100
Sample,37091,0,"drum_016.wav",100
Sample,37091,0,"acid_001.wav",100
Sample,37091,0,"lead_005.wav",100
Sample,37159,0,"drum_018.wav",100
Sample,37159,0,"acid_002.wav",100
Sample,37227,0,"hihat_b_002.wav",100
Sample,37227,0,"acid_003.wav",100
Sample,37227,0,"bass_a_009.wav",100
Sample,37227,0,"bass_b_011.wav",100
Sample,37295,0,"acid_004.wav",100
Sample,37364,0,"acid_005.wav",100
Sample,37364,0,"hihat_b_003.wav",100
Sample,37364,0,"drum_032.wav",100
Sample,37364,0,"drum_016.wav",100
Sample,37364,0,"lead_006.wav",100
Sample,37432,0,"drum_018.wav",100
Sample,37432,0,"acid_006.wav",100
Sample,37500,0,"drum_020.wav",100
Sample,37500,0,"bass_b_011.wav",100
Sample,37500,0,"lead_007.wav",100
Sample,37500,0,"bass_a_009.wav",100
Sample,37500,0,"hihat_b_004.wav",100
Sample,37500,0,"acid_007.wav",100
Sample,37568,0,"hihat_b_005.wav",100
Sample,37568,0,"acid_008.wav",100
Sample,37636,0,"acid_009.wav",100
Sample,37636,0,"drum_033.wav",100
Sample,37636,0,"hihat_b_006.wav",100
Sample,37705,0,"hihat_b_007.wav",100
Sample,37705,0,"drum_018.wav",100
Sample,37705,0,"acid_010.wav",100
Sample,37773,0,"lead_008.wav",100
Sample,37773,0,"bass_b_011.wav",100
Sample,37773,0,"drum_032.wav",100
Sample,37773,0,"hihat_b_008.wav",100
Sample,37773,0,"acid_011.wav",100
Sample,37773,0,"drum_020.wav",100
Sample,37773,0,"bass_a_009.wav",100
Sample,37841,0,"acid_012.wav",100
Sample,37909,0,"acid_013.wav",100
Sample,37909,0,"drum_016.wav",100
Sample,37909,0,"hihat_b_009.wav",100
Sample,37977,0,"acid_014.wav",100
Sample,37977,0,"drum_018.wav",100
Sample,38045,0,"lead_009.wav",100
Sample,38045,0,"bass_a_009.wav",100
Sample,38045,0,"bass_b_011.wav",100
Sample,38045,0,"drum_032.wav",100
Sample,38045,0,"hihat_b_010.wav",100
Sample,38045,0,"drum_020.wav",100
Sample,38045,0,"acid_015.wav",100
Sample,38114,0,"acid_016.wav",100
Sample,38182,0,"hihat_b_011.wav",100
Sample,38182,0,"acid_017.wav",100
Sample,38250,0,"drum_018.wav",100
Sample,38250,0,"acid_018.wav",100
Sample,38318,0,"hihat_b_012.wav",100
Sample,38318,0,"bass_b_009.wav",100
Sample,38318,0,"acid_019.wav",100
Sample,38318,0,"drum_020.wav",100
Sample,38318,0,"bass_a_007.wav",100
Sample,38318,0,"lead_010.wav",100
Sample,38386,0,"acid_020.wav",100
Sample,38386,0,"lead_011.wav",100
Sample,38455,0,"drum_016.wav",100
Sample,38455,0,"hihat_b_013.wav",100
Sample,38455,0,"lead_012.wav",100
Sample,38455,0,"drum_014.wav",100
Sample,38455,0,"acid_021.wav",100
Sample,38523,0,"drum_018.wav",100
Sample,38523,0,"acid_022.wav",100
Sample,38591,0,"drum_033.wav",100
Sample,38591,0,"hihat_b_014.wav",100
Sample,38591,0,"lead_013.wav",100
Sample,38591,0,"bass_a_007.wav",100
Sample,38591,0,"bass_b_009.wav",100
Sample,38591,0,"acid_023.wav",100
Sample,38659,0,"hihat_b_015.wav",100
Sample,38659,0,"acid_024.wav",100
Sample,38727,0,"drum_016.wav",100
Sample,38727,0,"acid_025.wav",100
Sample,38727,0,"drum_033.wav",100
Sample,38727,0,"lead_014.wav",100
Sample,38727,0,"hihat_b_016.wav",100
Sample,38795,0,"drum_018.wav",100
Sample,38795,0,"hihat_b_017.wav",100
Sample,38795,0,"acid_026.wav",100
Sample,38864,0,"hihat_b_018.wav",100
Sample,38864,0,"bass_b_009.wav",100
Sample,38864,0,"bass_a_007.wav",100
Sample,38864,0,"acid_027.wav",100
Sample,38932,0,"acid_028.wav",100
Sample,39000,0,"drum_016.wav",100
Sample,39000,0,"hihat_b_019.wav",100
Sample,39000,0,"drum_014.wav",100
Sample,39000,0,"lead_072.wav",100
Sample,39000,0,"acid_029.wav",100
Sample,39068,0,"drum_018.wav",100
Sample,39068,0,"acid_030.wav",100
Sample,39136,0,"drum_020.wav",100
Sample,39136,0,"drum_033.wav",100
Sample,39136,0,"hihat_b_020.wav",100
Sample,39136,0,"bass_a_007.wav",100
Sample,39136,0,"bass_b_009.wav",100
Sample,39136,0,"acid_031.wav",100
Sample,39205,0,"acid_032.wav",100
Sample,39273,0,"drum_033.wav",100
Sample,39273,0,"acid_129.wav",100
Sample,39273,0,"hihat_b_001.wav",100
Sample,39273,0,"strlg_010.wav",100
Sample,39273,0,"lead_018.wav",100
Sample,39341,0,"drum_018.wav",100
Sample,39341,0,"acid_130.wav",100
Sample,39409,0,"bass_a_005.wav",100
Sample,39409,0,"hihat_b_002.wav",100
Sample,39409,0,"drum_033.wav",100
Sample,39409,0,"acid_131.wav",100
Sample,39409,0,"lead_074.wav",100
Sample,39409,0,"bass_b_008.wav",100
Sample,39477,0,"acid_132.wav",100
Sample,39477,0,"lead_075.wav",100
Sample,39545,0,"hapsi_044.wav",100
Sample,39545,0,"hihat_b_003.wav",100
Sample,39545,0,"drum_032.wav",100
Sample,39545,0,"drum_016.wav",100
Sample,39545,0,"lead_076.wav",100
Sample,39545,0,"acid_133.wav",100
Sample,39614,0,"drum_018.wav",100
Sample,39614,0,"acid_134.wav",100
Sample,39682,0,"bass_b_008.wav",100
Sample,39682,0,"lead_077.wav",100
Sample,39682,0,"bass_a_005.wav",100
Sample,39682,0,"acid_135.wav",100
Sample,39750,0,"hihat_b_005.wav",100
Sample,39750,0,"acid_136.wav",100
Sample,39818,0,"lead_023.wav",100
Sample,39818,0,"acid_137.wav",100
Sample,39818,0,"drum_033.wav",100
Sample,39818,0,"drum_016.wav",100
Sample,39818,0,"hihat_b_006.wav",100
Sample,39886,0,"hihat_b_007.wav",100
Sample,39886,0,"drum_018.wav",100
Sample,39886,0,"acid_138.wav",100
Sample,39955,0,"drum_032.wav",100
Sample,39955,0,"hihat_b_008.wav",100
Sample,39955,0,"bass_a_005.wav",100
Sample,39955,0,"lead_024.wav",100
Sample,39955,0,"bass_b_008.wav",100
Sample,39955,0,"acid_139.wav",100
Sample,40023,0,"acid_140.wav",100
Sample,40091,0,"drum_016.wav",100
Sample,40091,0,"hihat_b_009.wav",100
Sample,40091,0,"hapsi_044.wav",100
Sample,40091,0,"lead_080.wav",100
Sample,40091,0,"acid_141.wav",100
Sample,40159,0,"drum_018.wav",100
Sample,40159,0,"acid_142.wav",100
Sample,40227,0,"drum_032.wav",100
Sample,40227,0,"bass_b_008.wav",100
Sample,40227,0,"hihat_b_010.wav",100
Sample,40227,0,"bass_a_005.wav",100
Sample,40227,0,"lead_081.wav",100
Sample,40227,0,"acid_143.wav",100
Sample,40295,0,"acid_144.wav",100
Sample,40364,0,"acid_145.wav",100
Sample,40364,0,"drum_016.wav",100
Sample,40364,0,"hihat_b_011.wav",100
Sample,40432,0,"drum_018.wav",100
Sample,40432,0,"acid_146.wav",100
Sample,40500,0,"bass_b_007.wav",100
Sample,40500,0,"acid_147.wav",100
Sample,40500,0,"bass_a_003.wav",100
Sample,40500,0,"drum_032.wav",100
Sample,40500,0,"hihat_b_012.wav",100
Sample,40568,0,"acid_148.wav",100
Sample,40636,0,"hihat_b_013.wav",100
Sample,40636,0,"hapsi_034.wav",100
Sample,40636,0,"drum_016.wav",100
Sample,40636,0,"acid_149.wav",100
Sample,40705,0,"drum_018.wav",100
Sample,40705,0,"acid_150.wav",100
Sample,40773,0,"hihat_b_014.wav",100
Sample,40773,0,"acid_151.wav",100
Sample,40773,0,"bass_a_003.wav",100
Sample,40773,0,"drum_033.wav",100
Sample,40773,0,"bass_b_007.wav",100
Sample,40841,0,"acid_152.wav",100
Sample,40841,0,"hihat_b_015.wav",100
Sample,40909,0,"acid_153.wav",100
Sample,40909,0,"drum_033.wav",100
Sample,40909,0,"drum_016.wav",100
Sample,40909,0,"hihat_b_016.wav",100
Sample,40977,0,"hihat_b_017.wav",100
Sample,40977,0,"drum_018.wav",100
Sample,40977,0,"acid_154.wav",100
Sample,41045,0,"bass_b_007.wav",100
Sample,41045,0,"bass_a_003.wav",100
Sample,41045,0,"hihat_b_018.wav",100
Sample,41045,0,"lead_027.wav",100
Sample,41045,0,"drum_032.wav",100
Sample,41045,0,"acid_155.wav",100
Sample,41114,0,"acid_156.wav",100
Sample,41182,0,"drum_016.wav",100
Sample,41182,0,"acid_157.wav",100
Sample,41182,0,"hihat_b_019.wav",100
Sample,41182,0,"lead_028.wav",100
Sample,41250,0,"acid_158.wav",100
Sample,41250,0,"drum_018.wav",100
Sample,41318,0,"drum_020.wav",100
Sample,41318,0,"lead_029.wav",100
Sample,41318,0,"drum_033.wav",100
Sample,41318,0,"bass_a_003.wav",100
Sample,41318,0,"hihat_b_020.wav",100
Sample,41318,0,"bass_b_007.wav",100
Sample,41318,0,"acid_159.wav",100
Sample,41386,0,"acid_160.wav",100
Sample,41455,0,"hihat_b_001.wav",100
Sample,41455,0,"lead_085.wav",100
Sample,41455,0,"acid_065.wav",100
Sample,41455,0,"drum_016.wav",100
Sample,41523,0,"drum_018.wav",100
Sample,41523,0,"acid_066.wav",100
Sample,41591,0,"hihat_b_002.wav",100
Sample,41591,0,"bass_b_005.wav",100
Sample,41591,0,"lead_086.wav",100
Sample,41591,0,"acid_067.wav",100
Sample,41591,0,"bass_a_001.wav",100
Sample,41659,0,"acid_068.wav",100
Sample,41727,0,"acid_069.wav",100
Sample,41727,0,"drum_032.wav",100
Sample,41727,0,"lead_087.wav",100
Sample,41727,0,"drum_001.wav",100
Sample,41727,0,"hihat_b_003.wav",100
Sample,41727,0,"drum_016.wav",100
Sample,41795,0,"lead_088.wav",100
Sample,41795,0,"acid_070.wav",100
Sample,41795,0,"drum_018.wav",100
Sample,41864,0,"lead_089.wav",100
Sample,41864,0,"acid_071.wav",100
Sample,41864,0,"bass_b_005.wav",100
Sample,41864,0,"hihat_b_004.wav",100
Sample,41864,0,"bass_a_001.wav",100
Sample,41932,0,"acid_072.wav",100
Sample,41932,0,"lead_090.wav",100
Sample,41932,0,"hihat_b_005.wav",100
Sample,42000,0,"hihat_b_006.wav",100
Sample,42000,0,"acid_073.wav",100
Sample,42000,0,"drum_033.wav",100
Sample,42000,0,"lead_091.wav",100
Sample,42000,0,"drum_001.wav",100
Sample,42068,0,"drum_018.wav",100
Sample,42068,0,"hihat_b_007.wav",100
Sample,42068,0,"acid_074.wav",100
Sample,42136,0,"bass_b_005.wav",100
Sample,42136,0,"acid_075.wav",100
Sample,42136,0,"bass_a_001.wav",100
Sample,42136,0,"hihat_b_008.wav",100
Sample,42136,0,"lead_092.wav",100
Sample,42205,0,"acid_076.wav",100
Sample,42205,0,"lead_093.wav",100
Sample,42273,0,"drum_016.wav",100
Sample,42273,0,"hihat_b_009.wav",100
Sample,42273,0,"drum_001.wav",100
Sample,42273,0,"lead_094.wav",100
Sample,42273,0,"acid_077.wav",100
Sample,42341,0,"drum_018.wav",100
Sample,42341,0,"acid_078.wav",100
Sample,42409,0,"bass_b_005.wav",100
Sample,42409,0,"lead_095.wav",100
Sample,42409,0,"bass_a_001.wav",100
Sample,42409,0,"drum_032.wav",100
Sample,42409,0,"hihat_b_010.wav",100
Sample,42409,0,"acid_079.wav",100
Sample,42477,0,"acid_080.wav",100
Sample,42545,0,"drum_016.wav",100
Sample,42545,0,"acid_081.wav",100
Sample,42545,0,"hihat_b_011.wav",100
Sample,42545,0,"lead_037.wav",100
Sample,42614,0,"acid_082.wav",100
Sample,42614,0,"drum_018.wav",100
Sample,42682,0,"bass_b_006.wav",100
Sample,42682,0,"drum_032.wav",100
Sample,42682,0,"acid_083.wav",100
Sample,42682,0,"hihat_b_012.wav",100
Sample,42682,0,"lead_038.wav",100
Sample,42682,0,"bass_a_002.wav",100
Sample,42750,0,"acid_084.wav",100
Sample,42818,0,"hapsi_057.wav",100
Sample,42818,0,"acid_085.wav",100
Sample,42818,0,"hihat_b_013.wav",100
Sample,42818,0,"drum_016.wav",100
Sample,42818,0,"lead_098.wav",100
Sample,42886,0,"acid_086.wav",100
Sample,42886,0,"drum_018.wav",100
Sample,42955,0,"acid_087.wav",100
Sample,42955,0,"lead_099.wav",100
Sample,42955,0,"hihat_b_014.wav",100
Sample,42955,0,"bass_a_002.wav",100
Sample,42955,0,"drum_033.wav",100
Sample,42955,0,"bass_b_006.wav",100
Sample,43023,0,"acid_088.wav",100
Sample,43023,0,"hihat_b_015.wav",100
Sample,43091,0,"drum_033.wav",100
Sample,43091,0,"acid_089.wav",100
Sample,43091,0,"lead_100.wav",100
Sample,43091,0,"hihat_b_016.wav",100
Sample,43159,0,"lead_101.wav",100
Sample,43159,0,"acid_090.wav",100
Sample,43159,0,"drum_018.wav",100
Sample,43159,0,"hihat_b_017.wav",100
Sample,43227,0,"lead_102.wav",100
Sample,43227,0,"hihat_b_018.wav",100
Sample,43227,0,"acid_091.wav",100
Sample,43227,0,"bass_b_006.wav",100
Sample,43227,0,"bass_a_002.wav",100
Sample,43227,0,"drum_032.wav",100
Sample,43295,0,"acid_092.wav",100
Sample,43364,0,"hapsi_048.wav",100
Sample,43364,0,"acid_093.wav",100
Sample,43364,0,"drum_016.wav",100
Sample,43364,0,"hihat_b_019.wav",100
Sample,43364,0,"lead_103.wav",100
Sample,43432,0,"acid_094.wav",100
Sample,43432,0,"drum_018.wav",100
Sample,43500,0,"bass_b_006.wav",100
Sample,43500,0,"drum_020.wav",100
Sample,43500,0,"lead_104.wav",100
Sample,43500,0,"hihat_b_020.wav",100
Sample,43500,0,"bass_a_002.wav",100
Sample,43500,0,"drum_033.wav",100
Sample,43500,0,"acid_095.wav",100
Sample,43568,0,"acid_096.wav",100
Sample,43636,0,"drum_033.wav",100
Sample,43636,0,"lead_105.wav",100
Sample,43636,0,"hihat_b_001.wav",100
Sample,43636,0,"drum_016.wav",100
Sample,43636,0,"acid_033.wav",100
Sample,43705,0,"drum_018.wav",100
Sample,43705,0,"acid_034.wav",100
Sample,43773,0,"bass_a_003.wav",100
Sample,43773,0,"lead_106.wav",100
Sample,43773,0,"drum_033.wav",100
Sample,43773,0,"hihat_b_002.wav",100
Sample,43773,0,"bass_b_007.wav",100
Sample,43773,0,"acid_035.wav",100
Sample,43841,0,"acid_036.wav",100
Sample,43909,0,"drum_032.wav",100
Sample,43909,0,"strlg_006.wav",100
Sample,43909,0,"acid_037.wav",100
Sample,43909,0,"lead_107.wav",100
Sample,43909,0,"drum_016.wav",100
Sample,43909,0,"hihat_b_003.wav",100
Sample,43977,0,"acid_038.wav",100
Sample,43977,0,"drum_018.wav",100
Sample,44045,0,"bass_a_003.wav",100
Sample,44045,0,"drum_020.wav",100
Sample,44045,0,"hihat_b_004.wav",100
Sample,44045,0,"bass_b_007.wav",100
Sample,44045,0,"lead_108.wav",100
Sample,44045,0,"acid_039.wav",100
Sample,44114,0,"acid_040.wav",100
Sample,44114,0,"hihat_b_005.wav",100
Sample,44182,0,"drum_033.wav",100
Sample,44182,0,"acid_041.wav",100
Sample,44182,0,"lead_109.wav",100
Sample,44182,0,"hihat_b_006.wav",100
Sample,44250,0,"drum_018.wav",100
Sample,44250,0,"acid_042.wav",100
Sample,44250,0,"lead_110.wav",100
Sample,44250,0,"hihat_b_007.wav",100
Sample,44318,0,"bass_b_011.wav",100
Sample,44318,0,"bass_a_009.wav",100
Sample,44318,0,"acid_043.wav",100
Sample,44318,0,"drum_032.wav",100
Sample,44318,0,"lead_111.wav",100
Sample,44318,0,"hihat_b_008.wav",100
Sample,44386,0,"acid_044.wav",100
Sample,44386,0,"lead_112.wav",100
Sample,44455,0,"lead_113.wav",100
Sample,44455,0,"acid_045.wav",100
Sample,44455,0,"hihat_b_009.wav",100
Sample,44455,0,"drum_016.wav",100
Sample,44523,0,"acid_046.wav",100
Sample,44523,0,"drum_018.wav",100
Sample,44591,0,"hihat_b_010.wav",100
Sample,44591,0,"bass_b_011.wav",100
Sample,44591,0,"acid_047.wav",100
Sample,44591,0,"bass_a_009.wav",100
Sample,44591,0,"lead_114.wav",100
Sample,44591,0,"drum_032.wav",100
Sample,44659,0,"acid_048.wav",100
Sample,44727,0,"drum_016.wav",100
Sample,44727,0,"acid_113.wav",100
Sample,44795,0,"acid_114.wav",100
Sample,44795,0,"drum_018.wav",100
Sample,44864,0,"acid_115.wav",100
Sample,44864,0,"bass_a_011.wav",100
Sample,44864,0,"lead_115.wav",100
Sample,44864,0,"hihat_b_012.wav",100
Sample,44864,0,"bass_b_013.wav",100
Sample,44864,0,"drum_032.wav",100
Sample,44932,0,"acid_116.wav",100
Sample,45000,0,"hihat_b_013.wav",100
Sample,45000,0,"drum_014.wav",100
Sample,45000,0,"drum_016.wav",100
Sample,45000,0,"lead_116.wav",100
Sample,45000,0,"se_rev_cymb.wav",100
Sample,45000,0,"acid_117.wav",100
Sample,45068,0,"acid_118.wav",100
Sample,45068,0,"drum_018.wav",100
Sample,45136,0,"drum_033.wav",100
Sample,45136,0,"bass_a_011.wav",100
Sample,45136,0,"bass_b_013.wav",100
Sample,45136,0,"acid_119.wav",100
Sample,45136,0,"hihat_b_014.wav",100
Sample,45136,0,"lead_117.wav",100
Sample,45205,0,"acid_120.wav",100
Sample,45205,0,"hihat_b_015.wav",100
Sample,45273,0,"tom_002.wav",100
Sample,45273,0,"drum_033.wav",100
Sample,45273,0,"lead_118.wav",100
Sample,45273,0,"drum_016.wav",100
Sample,45273,0,"acid_121.wav",100
Sample,45341,0,"acid_122.wav",100
Sample,45341,0,"drum_018.wav",100
Sample,45409,0,"strlg_025.wav",100
Sample,45409,0,"bass_a_011.wav",100
Sample,45409,0,"lead_119.wav",100
Sample,45409,0,"drum_032.wav",100
Sample,45409,0,"drum_001.wav",100
Sample,45409,0,"hapsi_057.wav",100
Sample,45409,0,"drum_020.wav",100
Sample,45409,0,"acid_123.wav",100
Sample,45409,0,"bass_b_013.wav",100
Sample,45477,0,"acid_124.wav",100
Sample,45545,0,"tom_013.wav",100
Sample,45545,0,"lead_120.wav",100
Sample,45545,0,"drum_006.wav",100
Sample,45545,0,"strlg_024.wav",100
Sample,45545,0,"drum_016.wav",100
Sample,45545,0,"acid_125.wav",100
Sample,45614,0,"acid_126.wav",100
Sample,45614,0,"drum_006.wav",100
Sample,45614,0,"drum_018.wav",100
Sample,45682,0,"drum_020.wav",100
Sample,45682,0,"drum_033.wav",100
Sample,45682,0,"acid_127.wav",100
Sample,45682,0,"tom_019.wav",100
Sample,45682,0,"bass_b_013.wav",100
Sample,45682,0,"bass_a_011.wav",100
Sample,45750,0,"acid_128.wav",100
Sample,45818,0,"strlg_028.wav",100
Sample,45818,0,"piano_131.wav",100
Sample,45818,0,"acid_161.wav",100
Sample,45818,0,"hihat_b_001.wav",100
Sample,45818,0,"drum_016.wav",100
Sample,45818,0,"strstc_023.wav",100
Sample,45886,0,"drum_018.wav",100
Sample,45955,0,"hihat_b_002.wav",100
Sample,45955,0,"piano_045.wav",100
Sample,45955,0,"drum_016.wav",100
Sample,45955,0,"bass_a_003.wav",100
Sample,45955,0,"bass_b_007.wav",100
Sample,46023,0,"drum_018.wav",100
Sample,46091,0,"drum_020.wav",100
Sample,46091,0,"drum_032.wav",100
Sample,46091,0,"piano_056.wav",100
Sample,46091,0,"acid_165.wav",100
Sample,46091,0,"hihat_b_003.wav",100
Sample,46227,0,"strstc_023.wav",100
Sample,46227,0,"strlg_030.wav",100
Sample,46227,0,"acid_167.wav",100
Sample,46227,0,"hihat_b_004.wav",100
Sample,46227,0,"bass_a_003.wav",100
Sample,46227,0,"piano_023.wav",100
Sample,46227,0,"drum_018.wav",100
Sample,46227,0,"bass_b_007.wav",100
Sample,46295,0,"drum_016.wav",100
Sample,46295,0,"hihat_b_005.wav",100
Sample,46364,0,"drum_018.wav",100
Sample,46364,0,"drum_032.wav",100
Sample,46364,0,"hihat_b_006.wav",100
Sample,46432,0,"drum_016.wav",100
Sample,46432,0,"hihat_b_007.wav",100
Sample,46500,0,"piano_056.wav",100
Sample,46500,0,"bass_a_003.wav",100
Sample,46500,0,"hihat_b_008.wav",100
Sample,46500,0,"drum_020.wav",100
Sample,46500,0,"bass_b_007.wav",100
Sample,46636,0,"drum_032.wav",100
Sample,46636,0,"drum_018.wav",100
Sample,46636,0,"hihat_b_009.wav",100
Sample,46636,0,"acid_173.wav",100
Sample,46636,0,"piano_131.wav",100
Sample,46705,0,"drum_016.wav",100
Sample,46773,0,"drum_020.wav",100
Sample,46773,0,"hihat_b_010.wav",100
Sample,46773,0,"bass_a_003.wav",100
Sample,46773,0,"piano_045.wav",100
Sample,46773,0,"bass_b_007.wav",100
Sample,46909,0,"hihat_b_011.wav",100
Sample,46909,0,"drum_016.wav",100
Sample,46909,0,"strlg_032.wav",100
Sample,46909,0,"acid_177.wav",100
Sample,46909,0,"strstc_023.wav",100
Sample,46909,0,"drum_032.wav",100
Sample,46909,0,"piano_056.wav",100
Sample,46977,0,"drum_018.wav",100
Sample,47045,0,"drum_020.wav",100
Sample,47045,0,"bass_a_003.wav",100
Sample,47045,0,"piano_131.wav",100
Sample,47045,0,"hihat_b_012.wav",100
Sample,47045,0,"bass_b_007.wav",100
Sample,47182,0,"strlg_034.wav",100
Sample,47182,0,"piano_045.wav",100
Sample,47182,0,"drum_016.wav",100
Sample,47182,0,"drum_032.wav",100
Sample,47182,0,"hihat_b_013.wav",100
Sample,47182,0,"strlg_033.wav",100
Sample,47250,0,"drum_018.wav",100
Sample,47318,0,"strstc_023.wav",100
Sample,47318,0,"drum_016.wav",100
Sample,47318,0,"hihat_b_014.wav",100
Sample,47318,0,"piano_028.wav",100
Sample,47318,0,"bass_b_007.wav",100
Sample,47318,0,"bass_a_003.wav",100
Sample,47386,0,"drum_018.wav",100
Sample,47386,0,"hihat_b_015.wav",100
Sample,47455,0,"drum_032.wav",100
Sample,47455,0,"drum_020.wav",100
Sample,47455,0,"acid_185.wav",100
Sample,47455,0,"hihat_b_016.wav",100
Sample,47523,0,"hihat_b_017.wav",100
Sample,47591,0,"hihat_b_018.wav",100
Sample,47591,0,"drum_018.wav",100
Sample,47591,0,"bass_a_003.wav",100
Sample,47591,0,"piano_045.wav",100
Sample,47591,0,"bass_b_007.wav",100
Sample,47659,0,"drum_016.wav",100
Sample,47727,0,"hihat_b_019.wav",100
Sample,47727,0,"piano_056.wav",100
Sample,47727,0,"strlg_031.wav",100
Sample,47727,0,"drum_018.wav",100
Sample,47727,0,"acid_189.wav",100
Sample,47727,0,"drum_032.wav",100
Sample,47795,0,"drum_016.wav",100
Sample,47864,0,"hihat_b_020.wav",100
Sample,47864,0,"bass_b_007.wav",100
Sample,47864,0,"bass_a_003.wav",100
Sample,47864,0,"drum_020.wav",100
Sample,47864,0,"piano_045.wav",100
Sample,47932,0,"drum_002.wav",100
Sample,48000,0,"strstc_024.wav",100
Sample,48000,0,"hihat_b_001.wav",100
Sample,48000,0,"strlg_037.wav",100
Sample,48000,0,"acid_193.wav",100
Sample,48000,0,"drum_032.wav",100
Sample,48000,0,"piano_133.wav",100
Sample,48000,0,"drum_016.wav",100
Sample,48068,0,"drum_018.wav",100
Sample,48136,0,"drum_016.wav",100
Sample,48136,0,"piano_047.wav",100
Sample,48136,0,"bass_b_009.wav",100
Sample,48136,0,"acid_195.wav",100
Sample,48136,0,"bass_a_007.wav",100
Sample,48136,0,"hihat_b_002.wav",100
Sample,48205,0,"drum_018.wav",100
Sample,48273,0,"drum_020.wav",100
Sample,48273,0,"acid_197.wav",100
Sample,48273,0,"hihat_b_003.wav",100
Sample,48273,0,"drum_032.wav",100
Sample,48273,0,"piano_060.wav",100
Sample,48409,0,"strstc_024.wav",100
Sample,48409,0,"piano_025.wav",100
Sample,48409,0,"bass_a_007.wav",100
Sample,48409,0,"strlg_040.wav",100
Sample,48409,0,"drum_018.wav",100
Sample,48409,0,"hihat_b_004.wav",100
Sample,48409,0,"bass_b_009.wav",100
Sample,48477,0,"hihat_b_005.wav",100
Sample,48477,0,"drum_016.wav",100
Sample,48545,0,"acid_201.wav",100
Sample,48545,0,"drum_018.wav",100
Sample,48545,0,"drum_032.wav",100
Sample,48545,0,"hihat_b_006.wav",100
Sample,48614,0,"drum_016.wav",100
Sample,48614,0,"hihat_b_007.wav",100
Sample,48682,0,"drum_020.wav",100
Sample,48682,0,"bass_b_009.wav",100
Sample,48682,0,"piano_060.wav",100
Sample,48682,0,"hihat_b_008.wav",100
Sample,48682,0,"bass_a_007.wav",100
Sample,48818,0,"piano_133.wav",100
Sample,48818,0,"drum_018.wav",100
Sample,48818,0,"acid_205.wav",100
Sample,48818,0,"hihat_b_009.wav",100
Sample,48818,0,"drum_032.wav",100
Sample,48886,0,"drum_016.wav",100
Sample,48955,0,"drum_020.wav",100
Sample,48955,0,"bass_a_007.wav",100
Sample,48955,0,"bass_b_009.wav",100
Sample,48955,0,"hihat_b_010.wav",100
Sample,48955,0,"piano_047.wav",100
Sample,49091,0,"strlg_035.wav",100
Sample,49091,0,"piano_060.wav",100
Sample,49091,0,"drum_032.wav",100
Sample,49091,0,"drum_016.wav",100
Sample,49091,0,"acid_209.wav",100
Sample,49091,0,"hihat_b_011.wav",100
Sample,49091,0,"strstc_024.wav",100
Sample,49159,0,"drum_018.wav",100
Sample,49227,0,"hihat_b_012.wav",100
Sample,49227,0,"piano_133.wav",100
Sample,49227,0,"bass_a_007.wav",100
Sample,49227,0,"drum_016.wav",100
Sample,49227,0,"bass_b_009.wav",100
Sample,49295,0,"drum_018.wav",100
Sample,49364,0,"drum_020.wav",100
Sample,49364,0,"hihat_b_013.wav",100
Sample,49364,0,"acid_213.wav",100
Sample,49364,0,"drum_032.wav",100
Sample,49364,0,"piano_047.wav",100
Sample,49500,0,"acid_215.wav",100
Sample,49500,0,"drum_018.wav",100
Sample,49500,0,"strstc_024.wav",100
Sample,49500,0,"bass_a_007.wav",100
Sample,49500,0,"hihat_b_014.wav",100
Sample,49500,0,"bass_b_009.wav",100
Sample,49500,0,"piano_030.wav",100
Sample,49568,0,"hihat_b_015.wav",100
Sample,49568,0,"drum_016.wav",100
Sample,49636,0,"strlg_043.wav",100
Sample,49636,0,"drum_032.wav",100
Sample,49636,0,"drum_021.wav",100
Sample,49636,0,"strlg_034.wav",100
Sample,49636,0,"hihat_b_016.wav",100
Sample,49705,0,"hihat_b_017.wav",100
Sample,49705,0,"drum_018.wav",100
Sample,49773,0,"piano_047.wav",100
Sample,49773,0,"bass_a_007.wav",100
Sample,49773,0,"drum_016.wav",100
Sample,49773,0,"hihat_b_018.wav",100
Sample,49773,0,"bass_b_009.wav",100
Sample,49841,0,"drum_021.wav",100
Sample,49909,0,"drum_018.wav",100
Sample,49909,0,"piano_060.wav",100
Sample,49909,0,"hihat_b_019.wav",100
Sample,49909,0,"drum_004.wav",100
Sample,49909,0,"drum_032.wav",100
Sample,49909,0,"strlg_041.wav",100
Sample,49977,0,"drum_016.wav",100
Sample,50045,0,"bass_a_007.wav",100
Sample,50045,0,"piano_047.wav",100
Sample,50045,0,"bass_b_009.wav",100
Sample,50045,0,"hihat_b_020.wav",100
Sample,50045,0,"drum_020.wav",100
Sample,50114,0,"drum_002.wav",100
Sample,50182,0,"drum_001.wav",100
Sample,50182,0,"hihat_b_001.wav",100
Sample,50182,0,"drum_016.wav",100
Sample,50182,0,"strlg_045.wav",100
Sample,50182,0,"piano_134.wav",100
Sample,50182,0,"strstc_025.wav",100
Sample,50250,0,"drum_018.wav",100
Sample,50318,0,"hihat_b_002.wav",100
Sample,50318,0,"bass_a_008.wav",100
Sample,50318,0,"piano_048.wav",100
Sample,50318,0,"drum_016.wav",100
Sample,50318,0,"bass_b_010.wav",100
Sample,50386,0,"drum_018.wav",100
Sample,50455,0,"drum_032.wav",100
Sample,50455,0,"piano_062.wav",100
Sample,50455,0,"hihat_b_003.wav",100
Sample,50455,0,"acid_229.wav",100
Sample,50455,0,"drum_020.wav",100
Sample,50591,0,"hihat_b_004.wav",100
Sample,50591,0,"bass_a_008.wav",100
Sample,50591,0,"strstc_025.wav",100
Sample,50591,0,"drum_018.wav",100
Sample,50591,0,"bass_b_010.wav",100
Sample,50591,0,"piano_026.wav",100
Sample,50591,0,"strlg_046.wav",100
Sample,50659,0,"hihat_b_005.wav",100
Sample,50659,0,"drum_016.wav",100
Sample,50727,0,"drum_032.wav",100
Sample,50727,0,"drum_018.wav",100
Sample,50727,0,"acid_233.wav",100
Sample,50727,0,"hihat_b_006.wav",100
Sample,50795,0,"drum_016.wav",100
Sample,50795,0,"hihat_b_007.wav",100
Sample,50864,0,"piano_062.wav",100
Sample,50864,0,"drum_020.wav",100
Sample,50864,0,"bass_a_008.wav",100
Sample,50864,0,"hihat_b_008.wav",100
Sample,50864,0,"bass_b_010.wav",100
Sample,51000,0,"hihat_b_009.wav",100
Sample,51000,0,"piano_134.wav",100
Sample,51000,0,"drum_032.wav",100
Sample,51000,0,"acid_237.wav",100
Sample,51000,0,"drum_018.wav",100
Sample,51068,0,"drum_016.wav",100
Sample,51136,0,"hihat_b_010.wav",100
Sample,51136,0,"bass_b_010.wav",100
Sample,51136,0,"piano_048.wav",100
Sample,51136,0,"drum_020.wav",100
Sample,51136,0,"bass_a_008.wav",100
Sample,51273,0,"strlg_048.wav",100
Sample,51273,0,"piano_062.wav",100
Sample,51273,0,"hihat_b_011.wav",100
Sample,51273,0,"drum_001.wav",100
Sample,51273,0,"drum_032.wav",100
Sample,51273,0,"drum_016.wav",100
Sample,51273,0,"strstc_025.wav",100
Sample,51341,0,"drum_018.wav",100
Sample,51409,0,"hihat_b_012.wav",100
Sample,51409,0,"bass_a_008.wav",100
Sample,51409,0,"piano_134.wav",100
Sample,51409,0,"drum_020.wav",100
Sample,51409,0,"bass_b_010.wav",100
Sample,51545,0,"drum_004.wav",100
Sample,51545,0,"hihat_b_013.wav",100
Sample,51545,0,"drum_016.wav",100
Sample,51545,0,"acid_245.wav",100
Sample,51545,0,"drum_032.wav",100
Sample,51545,0,"piano_048.wav",100
Sample,51614,0,"drum_018.wav",100
Sample,51682,0,"drum_016.wav",100
Sample,51682,0,"piano_031.wav",100
Sample,51682,0,"bass_b_010.wav",100
Sample,51682,0,"strstc_025.wav",100
Sample,51682,0,"bass_a_008.wav",100
Sample,51682,0,"hihat_b_014.wav",100
Sample,51750,0,"drum_018.wav",100
Sample,51750,0,"acid_248.wav",100
Sample,51750,0,"hihat_b_015.wav",100
Sample,51818,0,"acid_249.wav",100
Sample,51818,0,"hihat_b_016.wav",100
Sample,51818,0,"drum_032.wav",100
Sample,51818,0,"drum_020.wav",100
Sample,51886,0,"hihat_b_017.wav",100
Sample,51955,0,"piano_048.wav",100
Sample,51955,0,"bass_b_010.wav",100
Sample,51955,0,"bass_a_008.wav",100
Sample,51955,0,"hihat_b_018.wav",100
Sample,51955,0,"drum_018.wav",100
Sample,52023,0,"drum_016.wav",100
Sample,52091,0,"hihat_b_019.wav",100
Sample,52091,0,"drum_004.wav",100
Sample,52091,0,"drum_032.wav",100
Sample,52091,0,"drum_018.wav",100
Sample,52091,0,"piano_062.wav",100
Sample,52091,0,"strlg_048.wav",100
Sample,52159,0,"drum_016.wav",100
Sample,52227,0,"hihat_b_020.wav",100
Sample,52227,0,"bass_b_010.wav",100
Sample,52227,0,"piano_048.wav",100
Sample,52227,0,"drum_020.wav",100
Sample,52227,0,"bass_a_008.wav",100
Sample,52295,0,"drum_002.wav",100
Sample,52364,0,"drum_016.wav",100
Sample,52364,0,"piano_135.wav",100
Sample,52364,0,"drum_032.wav",100
Sample,52364,0,"strlg_051.wav",100
Sample,52364,0,"strstc_040.wav",100
Sample,52364,0,"hihat_b_001.wav",100
Sample,52364,0,"acid_257.wav",100
Sample,52432,0,"drum_018.wav",100
Sample,52500,0,"drum_016.wav",100
Sample,52500,0,"bass_b_011.wav",100
Sample,52500,0,"piano_049.wav",100
Sample,52500,0,"hihat_b_002.wav",100
Sample,52500,0,"bass_a_009.wav",100
Sample,52568,0,"drum_018.wav",100
Sample,52636,0,"acid_261.wav",100
Sample,52636,0,"piano_063.wav",100
Sample,52636,0,"drum_032.wav",100
Sample,52636,0,"drum_020.wav",100
Sample,52636,0,"hihat_b_003.wav",100
Sample,52773,0,"strstc_040.wav",100
Sample,52773,0,"bass_a_009.wav",100
Sample,52773,0,"bass_b_011.wav",100
Sample,52773,0,"piano_027.wav",100
Sample,52773,0,"acid_263.wav",100
Sample,52773,0,"drum_018.wav",100
Sample,52773,0,"hihat_b_004.wav",100
Sample,52841,0,"hihat_b_005.wav",100
Sample,52841,0,"drum_016.wav",100
Sample,52909,0,"drum_032.wav",100
Sample,52909,0,"hihat_b_006.wav",100
Sample,52909,0,"acid_265.wav",100
Sample,52909,0,"drum_018.wav",100
Sample,52977,0,"hihat_b_007.wav",100
Sample,52977,0,"drum_016.wav",100
Sample,53045,0,"drum_020.wav",100
Sample,53045,0,"piano_063.wav",100
Sample,53045,0,"bass_a_009.wav",100
Sample,53045,0,"hihat_b_008.wav",100
Sample,53045,0,"bass_b_011.wav",100
Sample,53182,0,"drum_018.wav",100
Sample,53182,0,"piano_135.wav",100
Sample,53182,0,"acid_269.wav",100
Sample,53182,0,"hihat_b_009.wav",100
Sample,53182,0,"drum_032.wav",100
Sample,53250,0,"drum_016.wav",100
Sample,53318,0,"drum_020.wav",100
Sample,53318,0,"bass_a_009.wav",100
Sample,53318,0,"piano_049.wav",100
Sample,53318,0,"hihat_b_010.wav",100
Sample,53318,0,"bass_b_011.wav",100
Sample,53455,0,"strstc_026.wav",100
Sample,53455,0,"drum_032.wav",100
Sample,53455,0,"strlg_042.wav",100
Sample,53455,0,"hihat_b_011.wav",100
Sample,53455,0,"drum_016.wav",100
Sample,53455,0,"piano_060.wav",100
Sample,53523,0,"drum_018.wav",100
Sample,53591,0,"drum_016.wav",100
Sample,53591,0,"bass_b_009.wav",100
Sample,53591,0,"piano_133.wav",100
Sample,53591,0,"acid_275.wav",100
Sample,53591,0,"bass_a_007.wav",100
Sample,53591,0,"hihat_b_012.wav",100
Sample,53659,0,"drum_018.wav",100
Sample,53727,0,"drum_020.wav",100
Sample,53727,0,"piano_047.wav",100
Sample,53727,0,"strlg_043.wav",100
Sample,53727,0,"hihat_b_013.wav",100
Sample,53727,0,"drum_032.wav",100
Sample,53864,0,"strstc_026.wav",100
Sample,53864,0,"hihat_b_014.wav",100
Sample,53864,0,"bass_b_009.wav",100
Sample,53864,0,"piano_030.wav",100
Sample,53864,0,"bass_a_007.wav",100
Sample,53864,0,"drum_018.wav",100
Sample,53932,0,"hihat_b_015.wav",100
Sample,53932,0,"drum_016.wav",100
Sample,54000,0,"acid_281.wav",100
Sample,54000,0,"drum_001.wav",100
Sample,54000,0,"drum_032.wav",100
Sample,54000,0,"drum_023.wav",100
Sample,54000,0,"hihat_b_016.wav",100
Sample,54068,0,"drum_023.wav",100
Sample,54068,0,"hihat_b_017.wav",100
Sample,54136,0,"drum_022.wav",100
Sample,54136,0,"bass_b_009.wav",100
Sample,54136,0,"piano_047.wav",100
Sample,54136,0,"hihat_b_018.wav",100
Sample,54136,0,"bass_a_007.wav",100
Sample,54205,0,"drum_022.wav",100
Sample,54273,0,"drum_019.wav",100
Sample,54273,0,"drum_005.wav",100
Sample,54273,0,"drum_032.wav",100
Sample,54273,0,"hihat_b_019.wav",100
Sample,54273,0,"piano_060.wav",100
Sample,54273,0,"strlg_042.wav",100
Sample,54341,0,"drum_019.wav",100
Sample,54409,0,"piano_047.wav",100
Sample,54409,0,"bass_b_009.wav",100
Sample,54409,0,"drum_017.wav",100
Sample,54409,0,"hihat_b_020.wav",100
Sample,54409,0,"bass_a_007.wav",100
Sample,54477,0,"drum_006.wav",100
Sample,54477,0,"drum_017.wav",100
Sample,54545,0,"strlg_027.wav",100
Sample,54545,0,"hihat_b_001.wav",100
Sample,54545,0,"drum_016.wav",100
Sample,54545,0,"strstc_023.wav",100
Sample,54545,0,"piano_131.wav",100
Sample,54545,0,"strlg_028.wav",100
Sample,54614,0,"drum_018.wav",100
Sample,54682,0,"bass_b_007.wav",100
Sample,54682,0,"piano_045.wav",100
Sample,54682,0,"bass_a_003.wav",100
Sample,54682,0,"drum_016.wav",100
Sample,54682,0,"hihat_b_002.wav",100
Sample,54750,0,"drum_018.wav",100
Sample,54818,0,"piano_056.wav",100
Sample,54818,0,"hihat_b_003.wav",100
Sample,54818,0,"drum_032.wav",100
Sample,54818,0,"drum_020.wav",100
Sample,54955,0,"bass_a_003.wav",100
Sample,54955,0,"drum_018.wav",100
Sample,54955,0,"strlg_057.wav",100
Sample,54955,0,"hihat_b_004.wav",100
Sample,54955,0,"strstc_023.wav",100
Sample,54955,0,"strlg_044.wav",100
Sample,54955,0,"piano_023.wav",100
Sample,54955,0,"bass_b_007.wav",100
Sample,55023,0,"drum_016.wav",100
Sample,55023,0,"hihat_b_005.wav",100
Sample,55091,0,"drum_018.wav",100
Sample,55091,0,"drum_032.wav",100
Sample,55091,0,"hihat_b_006.wav",100
Sample,55159,0,"drum_016.wav",100
Sample,55159,0,"hihat_b_007.wav",100
Sample,55227,0,"piano_056.wav",100
Sample,55227,0,"hihat_b_008.wav",100
Sample,55227,0,"bass_a_003.wav",100
Sample,55227,0,"drum_020.wav",100
Sample,55227,0,"bass_b_007.wav",100
Sample,55364,0,"drum_032.wav",100
Sample,55364,0,"strlg_059.wav",100
Sample,55364,0,"acid_173.wav",100
Sample,55364,0,"hihat_b_009.wav",100
Sample,55364,0,"drum_018.wav",100
Sample,55364,0,"piano_131.wav",100
Sample,55432,0,"drum_016.wav",100
Sample,55500,0,"hihat_b_010.wav",100
Sample,55500,0,"piano_045.wav",100
Sample,55500,0,"bass_a_003.wav",100
Sample,55500,0,"drum_020.wav",100
Sample,55500,0,"bass_b_007.wav",100
Sample,55636,0,"hihat_b_011.wav",100
Sample,55636,0,"drum_016.wav",100
Sample,55636,0,"piano_056.wav",100
Sample,55636,0,"strstc_023.wav",100
Sample,55636,0,"drum_032.wav",100
Sample,55705,0,"drum_018.wav",100
Sample,55773,0,"drum_020.wav",100
Sample,55773,0,"bass_a_003.wav",100
Sample,55773,0,"hihat_b_012.wav",100
Sample,55773,0,"piano_131.wav",100
Sample,55773,0,"bass_b_007.wav",100
Sample,55909,0,"acid_181.wav",100
Sample,55909,0,"piano_045.wav",100
Sample,55909,0,"hihat_b_013.wav",100
Sample,55909,0,"drum_016.wav",100
Sample,55909,0,"drum_032.wav",100
Sample,55977,0,"drum_018.wav",100
Sample,56045,0,"drum_016.wav",100
Sample,56045,0,"bass_a_003.wav",100
Sample,56045,0,"strstc_023.wav",100
Sample,56045,0,"hihat_b_014.wav",100
Sample,56045,0,"piano_028.wav",100
Sample,56045,0,"bass_b_007.wav",100
Sample,56114,0,"drum_018.wav",100
Sample,56114,0,"hihat_b_015.wav",100
Sample,56182,0,"hihat_b_016.wav",100
Sample,56182,0,"drum_020.wav",100
Sample,56182,0,"drum_032.wav",100
Sample,56250,0,"hihat_b_017.wav",100
Sample,56318,0,"acid_187.wav",100
Sample,56318,0,"hihat_b_018.wav",100
Sample,56318,0,"bass_a_003.wav",100
Sample,56318,0,"drum_018.wav",100
Sample,56318,0,"piano_045.wav",100
Sample,56318,0,"bass_b_007.wav",100
Sample,56386,0,"drum_016.wav",100
Sample,56455,0,"drum_018.wav",100
Sample,56455,0,"hihat_b_019.wav",100
Sample,56455,0,"piano_056.wav",100
Sample,56455,0,"drum_032.wav",100
Sample,56523,0,"drum_016.wav",100
Sample,56591,0,"hihat_b_020.wav",100
Sample,56591,0,"bass_a_003.wav",100
Sample,56591,0,"piano_045.wav",100
Sample,56591,0,"drum_020.wav",100
Sample,56591,0,"bass_b_007.wav",100
Sample,56659,0,"drum_002.wav",100
Sample,56727,0,"drum_016.wav",100
Sample,56727,0,"strstc_027.wav",100
Sample,56727,0,"piano_132.wav",100
Sample,56727,0,"hihat_b_001.wav",100
Sample,56727,0,"strlg_061.wav",100
Sample,56727,0,"drum_032.wav",100
Sample,56727,0,"strlg_060.wav",100
Sample,56795,0,"drum_018.wav",100
Sample,56864,0,"piano_046.wav",100
Sample,56864,0,"bass_a_005.wav",100
Sample,56864,0,"hihat_b_002.wav",100
Sample,56864,0,"drum_016.wav",100
Sample,56864,0,"bass_b_008.wav",100
Sample,56932,0,"drum_018.wav",100
Sample,57000,0,"acid_101.wav",100
Sample,57000,0,"piano_058.wav",100
Sample,57000,0,"hihat_b_003.wav",100
Sample,57000,0,"drum_020.wav",100
Sample,57000,0,"drum_032.wav",100
Sample,57136,0,"bass_a_005.wav",100
Sample,57136,0,"drum_018.wav",100
Sample,57136,0,"piano_024.wav",100
Sample,57136,0,"bass_b_008.wav",100
Sample,57136,0,"strstc_027.wav",100
Sample,57136,0,"strlg_050.wav",100
Sample,57136,0,"hihat_b_004.wav",100
Sample,57136,0,"strlg_057.wav",100
Sample,57205,0,"drum_016.wav",100
Sample,57205,0,"hihat_b_005.wav",100
Sample,57273,0,"drum_018.wav",100
Sample,57273,0,"hihat_b_006.wav",100
Sample,57273,0,"drum_032.wav",100
Sample,57341,0,"hihat_b_007.wav",100
Sample,57341,0,"drum_016.wav",100
Sample,57409,0,"drum_020.wav",100
Sample,57409,0,"piano_058.wav",100
Sample,57409,0,"bass_a_005.wav",100
Sample,57409,0,"hihat_b_008.wav",100
Sample,57409,0,"bass_b_008.wav",100
Sample,57545,0,"strlg_062.wav",100
Sample,57545,0,"drum_032.wav",100
Sample,57545,0,"strlg_063.wav",100
Sample,57545,0,"hihat_b_009.wav",100
Sample,57545,0,"piano_132.wav",100
Sample,57545,0,"drum_018.wav",100
Sample,57614,0,"drum_016.wav",100
Sample,57682,0,"bass_b_008.wav",100
Sample,57682,0,"drum_020.wav",100
Sample,57682,0,"bass_a_005.wav",100
Sample,57682,0,"hihat_b_010.wav",100
Sample,57682,0,"piano_046.wav",100
Sample,57818,0,"drum_016.wav",100
Sample,57818,0,"piano_058.wav",100
Sample,57818,0,"hihat_b_011.wav",100
Sample,57818,0,"drum_032.wav",100
Sample,57818,0,"strstc_027.wav",100
Sample,57886,0,"drum_018.wav",100
Sample,57955,0,"hihat_b_012.wav",100
Sample,57955,0,"bass_b_008.wav",100
Sample,57955,0,"piano_132.wav",100
Sample,57955,0,"drum_016.wav",100
Sample,57955,0,"bass_a_005.wav",100
Sample,58023,0,"drum_018.wav",100
Sample,58091,0,"drum_020.wav",100
Sample,58091,0,"piano_046.wav",100
Sample,58091,0,"hihat_b_013.wav",100
Sample,58091,0,"drum_032.wav",100
Sample,58227,0,"hihat_b_014.wav",100
Sample,58227,0,"bass_a_005.wav",100
Sample,58227,0,"piano_029.wav",100
Sample,58227,0,"strstc_027.wav",100
Sample,58227,0,"bass_b_008.wav",100
Sample,58227,0,"drum_018.wav",100
Sample,58295,0,"drum_016.wav",100
Sample,58295,0,"drum_002.wav",100
Sample,58295,0,"hihat_b_015.wav",100
Sample,58364,0,"strlg_065.wav",100
Sample,58364,0,"drum_021.wav",100
Sample,58364,0,"strlg_064.wav",100
Sample,58364,0,"hihat_b_016.wav",100
Sample,58364,0,"drum_032.wav",100
Sample,58432,0,"hihat_b_017.wav",100
Sample,58432,0,"drum_018.wav",100
Sample,58500,0,"piano_046.wav",100
Sample,58500,0,"bass_a_005.wav",100
Sample,58500,0,"hihat_b_018.wav",100
Sample,58500,0,"drum_016.wav",100
Sample,58500,0,"bass_b_008.wav",100
Sample,58568,0,"drum_021.wav",100
Sample,58636,0,"acid_301.wav",100
Sample,58636,0,"hihat_b_019.wav",100
Sample,58636,0,"piano_058.wav",100
Sample,58636,0,"drum_018.wav",100
Sample,58636,0,"drum_032.wav",100
Sample,58705,0,"drum_016.wav",100
Sample,58773,0,"bass_a_005.wav",100
Sample,58773,0,"hihat_b_020.wav",100
Sample,58773,0,"bass_b_008.wav",100
Sample,58773,0,"piano_046.wav",100
Sample,58773,0,"drum_020.wav",100
Sample,58909,0,"acid_305.wav",100
Sample,58909,0,"hihat_b_001.wav",100
Sample,58909,0,"strlg_027.wav",100
Sample,58909,0,"drum_016.wav",100
Sample,58909,0,"piano_133.wav",100
Sample,58909,0,"strstc_024.wav",100
Sample,58977,0,"drum_018.wav",100
Sample,59045,0,"piano_047.wav",100
Sample,59045,0,"bass_b_009.wav",100
Sample,59045,0,"hihat_b_002.wav",100
Sample,59045,0,"drum_016.wav",100
Sample,59045,0,"bass_a_007.wav",100
Sample,59114,0,"drum_018.wav",100
Sample,59182,0,"acid_309.wav",100
Sample,59182,0,"hihat_b_003.wav",100
Sample,59182,0,"drum_020.wav",100
Sample,59182,0,"piano_060.wav",100
Sample,59182,0,"drum_032.wav",100
Sample,59318,0,"piano_025.wav",100
Sample,59318,0,"strstc_024.wav",100
Sample,59318,0,"bass_a_007.wav",100
Sample,59318,0,"hihat_b_004.wav",100
Sample,59318,0,"drum_018.wav",100
Sample,59318,0,"bass_b_009.wav",100
Sample,59318,0,"strlg_067.wav",100
Sample,59386,0,"hihat_b_005.wav",100
Sample,59386,0,"drum_002.wav",100
Sample,59386,0,"drum_016.wav",100
Sample,59455,0,"drum_032.wav",100
Sample,59455,0,"acid_313.wav",100
Sample,59455,0,"drum_018.wav",100
Sample,59455,0,"hihat_b_006.wav",100
Sample,59523,0,"drum_016.wav",100
Sample,59523,0,"hihat_b_007.wav",100
Sample,59591,0,"bass_a_007.wav",100
Sample,59591,0,"piano_060.wav",100
Sample,59591,0,"bass_b_009.wav",100
Sample,59591,0,"drum_020.wav",100
Sample,59591,0,"hihat_b_008.wav",100
Sample,59727,0,"piano_133.wav",100
Sample,59727,0,"drum_032.wav",100
Sample,59727,0,"drum_018.wav",100
Sample,59727,0,"acid_317.wav",100
Sample,59727,0,"hihat_b_009.wav",100
Sample,59795,0,"drum_016.wav",100
Sample,59864,0,"piano_047.wav",100
Sample,59864,0,"bass_b_009.wav",100
Sample,59864,0,"bass_a_007.wav",100
Sample,59864,0,"drum_020.wav",100
Sample,59864,0,"hihat_b_010.wav",100
Sample,59932,0,"drum_002.wav",100
Sample,60000,0,"hihat_b_011.wav",100
Sample,60000,0,"piano_062.wav",100
Sample,60000,0,"strlg_048.wav",100
Sample,60000,0,"strlg_033.wav",100
Sample,60000,0,"strstc_028.wav",100
Sample,60000,0,"drum_016.wav",100
Sample,60068,0,"drum_018.wav",100
Sample,60136,0,"piano_134.wav",100
Sample,60136,0,"bass_b_010.wav",100
Sample,60136,0,"drum_020.wav",100
Sample,60136,0,"hihat_b_012.wav",100
Sample,60136,0,"bass_a_008.wav",100
Sample,60273,0,"drum_016.wav",100
Sample,60273,0,"hihat_b_013.wav",100
Sample,60273,0,"strlg_036.wav",100
Sample,60273,0,"acid_245.wav",100
Sample,60273,0,"piano_048.wav",100
Sample,60273,0,"drum_032.wav",100
Sample,60341,0,"drum_018.wav",100
Sample,60409,0,"drum_016.wav",100
Sample,60409,0,"bass_a_008.wav",100
Sample,60409,0,"piano_031.wav",100
Sample,60409,0,"hihat_b_014.wav",100
Sample,60409,0,"bass_b_010.wav",100
Sample,60409,0,"strstc_028.wav",100
Sample,60477,0,"hihat_b_015.wav",100
Sample,60477,0,"drum_018.wav",100
Sample,60545,0,"drum_032.wav",100
Sample,60545,0,"strlg_068.wav",100
Sample,60545,0,"strlg_034.wav",100
Sample,60545,0,"hihat_b_016.wav",100
Sample,60545,0,"drum_020.wav",100
Sample,60614,0,"hihat_b_017.wav",100
Sample,60682,0,"piano_048.wav",100
Sample,60682,0,"bass_b_010.wav",100
Sample,60682,0,"hihat_b_018.wav",100
Sample,60682,0,"bass_a_008.wav",100
Sample,60682,0,"drum_018.wav",100
Sample,60750,0,"drum_016.wav",100
Sample,60818,0,"strlg_048.wav",100
Sample,60818,0,"piano_062.wav",100
Sample,60818,0,"hihat_b_019.wav",100
Sample,60818,0,"drum_018.wav",100
Sample,60818,0,"acid_253.wav",100
Sample,60818,0,"drum_032.wav",100
Sample,60886,0,"drum_016.wav",100
Sample,60955,0,"bass_a_008.wav",100
Sample,60955,0,"hihat_b_020.wav",100
Sample,60955,0,"drum_020.wav",100
Sample,60955,0,"bass_b_010.wav",100
Sample,60955,0,"piano_048.wav",100
Sample,61023,0,"drum_002.wav",100
Sample,61091,0,"strlg_050.wav",100
Sample,61091,0,"drum_016.wav",100
Sample,61091,0,"strstc_029.wav",100
Sample,61091,0,"strlg_069.wav",100
Sample,61091,0,"piano_135.wav",100
Sample,61091,0,"hihat_b_001.wav",100
Sample,61159,0,"drum_018.wav",100
Sample,61227,0,"drum_016.wav",100
Sample,61227,0,"bass_a_009.wav",100
Sample,61227,0,"piano_049.wav",100
Sample,61227,0,"hihat_b_002.wav",100
Sample,61227,0,"bass_b_011.wav",100
Sample,61295,0,"drum_018.wav",100
Sample,61364,0,"acid_261.wav",100
Sample,61364,0,"piano_063.wav",100
Sample,61364,0,"drum_020.wav",100
Sample,61364,0,"hihat_b_003.wav",100
Sample,61364,0,"drum_032.wav",100
Sample,61500,0,"hihat_b_004.wav",100
Sample,61500,0,"drum_018.wav",100
Sample,61500,0,"bass_b_011.wav",100
Sample,61500,0,"piano_027.wav",100
Sample,61500,0,"bass_a_009.wav",100
Sample,61500,0,"strlg_071.wav",100
Sample,61500,0,"strstc_029.wav",100
Sample,61568,0,"hihat_b_005.wav",100
Sample,61568,0,"drum_016.wav",100
Sample,61636,0,"hihat_b_006.wav",100
Sample,61636,0,"drum_018.wav",100
Sample,61636,0,"drum_032.wav",100
Sample,61705,0,"hihat_b_007.wav",100
Sample,61705,0,"drum_016.wav",100
Sample,61773,0,"bass_a_009.wav",100
Sample,61773,0,"hihat_b_008.wav",100
Sample,61773,0,"piano_063.wav",100
Sample,61773,0,"drum_020.wav",100
Sample,61773,0,"bass_b_011.wav",100
Sample,61841,0,"acid_268.wav",100
Sample,61909,0,"piano_135.wav",100
Sample,61909,0,"hihat_b_009.wav",100
Sample,61909,0,"drum_032.wav",100
Sample,61909,0,"drum_018.wav",100
Sample,61977,0,"drum_016.wav",100
Sample,62045,0,"piano_049.wav",100
Sample,62045,0,"drum_020.wav",100
Sample,62045,0,"bass_b_011.wav",100
Sample,62045,0,"bass_a_009.wav",100
Sample,62045,0,"hihat_b_010.wav",100
Sample,62182,0,"drum_005.wav",100
Sample,62182,0,"drum_027.wav",100
Sample,62182,0,"strstc_030.wav",100
Sample,62182,0,"piano_066.wav",100
Sample,62182,0,"strlg_037.wav",100
Sample,62182,0,"hihat_b_011.wav",100
Sample,62182,0,"drum_016.wav",100
Sample,62250,0,"drum_018.wav",100
Sample,62318,0,"piano_136.wav",100
Sample,62318,0,"hihat_b_012.wav",100
Sample,62318,0,"bass_b_013.wav",100
Sample,62318,0,"bass_a_011.wav",100
Sample,62318,0,"drum_016.wav",100
Sample,62318,0,"drum_005.wav",100
Sample,62386,0,"drum_018.wav",100
Sample,62386,0,"acid_324.wav",100
Sample,62455,0,"piano_051.wav",100
Sample,62455,0,"hihat_b_013.wav",100
Sample,62455,0,"drum_032.wav",100
Sample,62455,0,"drum_005.wav",100
Sample,62455,0,"drum_020.wav",100
Sample,62455,0,"se_rev_cymb.wav",100
Sample,62591,0,"piano_032.wav",100
Sample,62591,0,"drum_018.wav",100
Sample,62591,0,"drum_005.wav",100
Sample,62591,0,"strlg_074.wav",100
Sample,62591,0,"acid_327.wav",100
Sample,62591,0,"bass_b_013.wav",100
Sample,62591,0,"bass_a_011.wav",100
Sample,62591,0,"hihat_b_014.wav",100
Sample,62591,0,"strstc_030.wav",100
Sample,62659,0,"hihat_b_015.wav",100
Sample,62659,0,"acid_328.wav",100
Sample,62659,0,"drum_016.wav",100
Sample,62727,0,"drum_039.wav",100
Sample,62727,0,"drum_023.wav",100
Sample,62727,0,"hihat_b_016.wav",100
Sample,62795,0,"acid_330.wav",100
Sample,62795,0,"drum_023.wav",100
Sample,62795,0,"hihat_b_017.wav",100
Sample,62818,0,"piano_108.wav",100
Sample,62864,0,"drum_022.wav",100
Sample,62864,0,"bass_b_013.wav",100
Sample,62864,0,"piano_051.wav",100
Sample,62864,0,"hihat_b_018.wav",100
Sample,62864,0,"bass_a_011.wav",100
Sample,62909,0,"piano_104.wav",100
Sample,62932,0,"acid_332.wav",100
Sample,62932,0,"drum_022.wav",100
Sample,63000,0,"drum_019.wav",100
Sample,63000,0,"hihat_b_019.wav",100
Sample,63000,0,"piano_066.wav",100
Sample,63000,0,"drum_032.wav",100
Sample,63068,0,"drum_019.wav",100
Sample,63068,0,"acid_334.wav",100
Sample,63091,0,"piano_100.wav",100
Sample,63136,0,"drum_017.wav",100
Sample,63136,0,"bass_b_013.wav",100
Sample,63136,0,"hihat_b_020.wav",100
Sample,63136,0,"piano_051.wav",100
Sample,63136,0,"bass_a_011.wav",100
Sample,63182,0,"piano_098.wav",100
Sample,63205,0,"acid_336.wav",100
Sample,63205,0,"drum_017.wav",100
Sample,63273,0,"drum_016.wav",100
Sample,63273,0,"BGM_03.wav",100
Sample,63273,0,"se_rev_kick.wav",100
Sample,63341,0,"drum_018.wav",100
Sample,63409,0,"bass_a_009.wav",100
Sample,63409,0,"drum_016.wav",100
Sample,63477,0,"drum_018.wav",100
Sample,63545,0,"drum_020.wav",100
Sample,63545,0,"drum_032.wav",100
Sample,63682,0,"drum_018.wav",100
Sample,63682,0,"bass_a_009.wav",100
Sample,63750,0,"drum_016.wav",100
Sample,63818,0,"drum_032.wav",100
Sample,63818,0,"drum_018.wav",100
Sample,63886,0,"drum_016.wav",100
Sample,63955,0,"drum_020.wav",100
Sample,63955,0,"bass_a_009.wav",100
Sample,64091,0,"drum_018.wav",100
Sample,64091,0,"drum_032.wav",100
Sample,64159,0,"drum_016.wav",100
Sample,64227,0,"bass_a_009.wav",100
Sample,64227,0,"drum_020.wav",100
Sample,64364,0,"drum_032.wav",100
Sample,64364,0,"drum_016.wav",100
Sample,64432,0,"drum_018.wav",100
Sample,64500,0,"drum_020.wav",100
Sample,64500,0,"bass_a_009.wav",100
Sample,64636,0,"drum_016.wav",100
Sample,64636,0,"drum_032.wav",100
Sample,64705,0,"drum_018.wav",100
Sample,64773,0,"bass_a_009.wav",100
Sample,64773,0,"drum_016.wav",100
Sample,64841,0,"drum_018.wav",100
Sample,64909,0,"drum_020.wav",100
Sample,64909,0,"drum_032.wav",100
Sample,65045,0,"drum_018.wav",100
Sample,65045,0,"bass_a_009.wav",100
Sample,65114,0,"drum_016.wav",100
Sample,65182,0,"drum_032.wav",100
Sample,65182,0,"drum_018.wav",100
Sample,65250,0,"drum_016.wav",100
Sample,65318,0,"drum_020.wav",100
Sample,65318,0,"bass_a_008.wav",100
Sample,65455,0,"drum_016.wav",100
Sample,65455,0,"drum_032.wav",100
Sample,65523,0,"drum_018.wav",100
Sample,65591,0,"bass_a_009.wav",100
Sample,65591,0,"drum_016.wav",100
Sample,65659,0,"drum_018.wav",100
Sample,65727,0,"drum_020.wav",100
Sample,65727,0,"drum_032.wav",100
Sample,65864,0,"drum_018.wav",100
Sample,65864,0,"bass_a_009.wav",100
Sample,65932,0,"drum_016.wav",100
Sample,66000,0,"drum_032.wav",100
Sample,66000,0,"drum_018.wav",100
Sample,66068,0,"drum_016.wav",100
Sample,66136,0,"drum_020.wav",100
Sample,66136,0,"bass_a_009.wav",100
Sample,66273,0,"drum_018.wav",100
Sample,66273,0,"drum_032.wav",100
Sample,66341,0,"drum_016.wav",100
Sample,66409,0,"bass_a_009.wav",100
Sample,66409,0,"drum_020.wav",100
Sample,66545,0,"drum_030.wav",100
Sample,66545,0,"drum_016.wav",100
Sample,66614,0,"drum_018.wav",100
Sample,66682,0,"drum_016.wav",100
Sample,66682,0,"bass_a_009.wav",100
Sample,66750,0,"drum_018.wav",100
Sample,66818,0,"drum_020.wav",100
Sample,66955,0,"drum_018.wav",100
Sample,66955,0,"bass_a_009.wav",100
Sample,67023,0,"drum_016.wav",100
Sample,67091,0,"drum_030.wav",100
Sample,67091,0,"drum_021.wav",100
Sample,67159,0,"drum_018.wav",100
Sample,67227,0,"drum_016.wav",100
Sample,67227,0,"bass_a_009.wav",100
Sample,67295,0,"drum_021.wav",100
Sample,67364,0,"drum_018.wav",100
Sample,67432,0,"drum_016.wav",100
Sample,67500,0,"bass_a_010.wav",100
Sample,67500,0,"drum_020.wav",100
Sample,67636,0,"drum_016.wav",100
Sample,67705,0,"drum_018.wav",100
Sample,67773,0,"bass_a_009.wav",100
Sample,67773,0,"drum_016.wav",100
Sample,67841,0,"drum_018.wav",100
Sample,67909,0,"drum_032.wav",100
Sample,67909,0,"drum_020.wav",100
Sample,68045,0,"drum_018.wav",100
Sample,68045,0,"bass_a_009.wav",100
Sample,68114,0,"drum_016.wav",100
Sample,68182,0,"drum_032.wav",100
Sample,68182,0,"drum_018.wav",100
Sample,68250,0,"drum_016.wav",100
Sample,68318,0,"drum_020.wav",100
Sample,68318,0,"bass_a_009.wav",100
Sample,68455,0,"drum_018.wav",100
Sample,68455,0,"drum_032.wav",100
Sample,68523,0,"drum_016.wav",100
Sample,68591,0,"bass_a_009.wav",100
Sample,68591,0,"drum_020.wav",100
Sample,68727,0,"drum_032.wav",100
Sample,68727,0,"drum_016.wav",100
Sample,68795,0,"drum_018.wav",100
Sample,68864,0,"drum_020.wav",100
Sample,68864,0,"bass_a_009.wav",100
Sample,69000,0,"drum_016.wav",100
Sample,69000,0,"drum_032.wav",100
Sample,69068,0,"drum_018.wav",100
Sample,69136,0,"bass_a_009.wav",100
Sample,69136,0,"drum_016.wav",100
Sample,69205,0,"drum_018.wav",100
Sample,69273,0,"drum_020.wav",100
Sample,69273,0,"drum_032.wav",100
Sample,69409,0,"drum_018.wav",100
Sample,69409,0,"bass_a_009.wav",100
Sample,69477,0,"drum_016.wav",100
Sample,69545,0,"drum_030.wav",100
Sample,69545,0,"drum_018.wav",100
Sample,69614,0,"drum_016.wav",100
Sample,69682,0,"drum_020.wav",100
Sample,69682,0,"bass_a_008.wav",100
Sample,69818,0,"drum_016.wav",100
Sample,69886,0,"drum_018.wav",100
Sample,69955,0,"drum_016.wav",100
Sample,69955,0,"bass_a_009.wav",100
Sample,70023,0,"drum_018.wav",100
Sample,70091,0,"drum_030.wav",100
Sample,70091,0,"drum_020.wav",100
Sample,70227,0,"bass_a_009.wav",100
Sample,70227,0,"drum_018.wav",100
Sample,70295,0,"drum_016.wav",100
Sample,70364,0,"drum_018.wav",100
Sample,70432,0,"drum_016.wav",100
Sample,70500,0,"drum_020.wav",100
Sample,70500,0,"bass_a_009.wav",100
Sample,70636,0,"drum_018.wav",100
Sample,70636,0,"drum_030.wav",100
Sample,70705,0,"drum_016.wav",100
Sample,70773,0,"bass_a_009.wav",100
Sample,70773,0,"drum_020.wav",100
Sample,70909,0,"drum_016.wav",100
Sample,70977,0,"drum_018.wav",100
Sample,71045,0,"bass_a_009.wav",100
Sample,71045,0,"drum_016.wav",100
Sample,71114,0,"drum_018.wav",100
Sample,71182,0,"drum_020.wav",100
Sample,71318,0,"bass_a_012.wav",100
Sample,71318,0,"drum_018.wav",100
Sample,71386,0,"drum_016.wav",100
Sample,71455,0,"drum_037.wav",100
Sample,71455,0,"drum_023.wav",100
Sample,71523,0,"drum_023.wav",100
Sample,71591,0,"bass_a_011.wav",100
Sample,71591,0,"drum_022.wav",100
Sample,71659,0,"drum_022.wav",100
Sample,71727,0,"drum_037.wav",100
Sample,71727,0,"drum_019.wav",100
Sample,71795,0,"drum_019.wav",100
Sample,71864,0,"bass_a_010.wav",100
Sample,71864,0,"drum_017.wav",100
Sample,71932,0,"drum_017.wav",100
Sample,72000,0,"drum_016.wav",100
Sample,72068,0,"drum_018.wav",100
Sample,72136,0,"drum_016.wav",100
Sample,72136,0,"bass_a_009.wav",100
Sample,72205,0,"drum_018.wav",100
Sample,72273,0,"drum_020.wav",100
Sample,72273,0,"drum_032.wav",100
Sample,72409,0,"bass_a_009.wav",100
Sample,72409,0,"drum_018.wav",100
Sample,72477,0,"drum_016.wav",100
Sample,72545,0,"drum_032.wav",100
Sample,72545,0,"drum_018.wav",100
Sample,72614,0,"drum_016.wav",100
Sample,72682,0,"bass_a_009.wav",100
Sample,72682,0,"drum_020.wav",100
Sample,72818,0,"drum_018.wav",100
Sample,72818,0,"drum_032.wav",100
Sample,72886,0,"drum_016.wav",100
Sample,72955,0,"drum_020.wav",100
Sample,72955,0,"bass_a_009.wav",100
Sample,73091,0,"drum_016.wav",100
Sample,73091,0,"drum_032.wav",100
Sample,73091,0,"se_bell.wav",100
Sample,73159,0,"drum_018.wav",100
Sample,73227,0,"drum_020.wav",100
Sample,73227,0,"bass_a_009.wav",100
Sample,73364,0,"drum_032.wav",100
Sample,73364,0,"drum_016.wav",100
Sample,73432,0,"drum_018.wav",100
Sample,73500,0,"bass_a_009.wav",100
Sample,73500,0,"drum_016.wav",100
Sample,73568,0,"drum_018.wav",100
Sample,73636,0,"drum_032.wav",100
Sample,73636,0,"drum_020.wav",100
Sample,73773,0,"drum_018.wav",100
Sample,73773,0,"bass_a_009.wav",100
Sample,73841,0,"drum_016.wav",100
Sample,73909,0,"drum_018.wav",100
Sample,73909,0,"drum_032.wav",100
Sample,73977,0,"drum_016.wav",100
Sample,74045,0,"drum_020.wav",100
Sample,74045,0,"bass_a_008.wav",100
Sample,74182,0,"drum_016.wav",100
Sample,74182,0,"drum_032.wav",100
Sample,74227,0,"bass_b_026.wav",100
Sample,74250,0,"drum_018.wav",100
Sample,74273,0,"bass_b_027.wav",100
Sample,74318,0,"drum_016.wav",100
Sample,74318,0,"bass_b_028.wav",100
Sample,74318,0,"bass_a_009.wav",100
Sample,74364,0,"bass_b_029.wav",100
Sample,74386,0,"drum_018.wav",100
Sample,74409,0,"bass_b_030.wav",100
Sample,74455,0,"drum_032.wav",100
Sample,74455,0,"bass_b_031.wav",100
Sample,74455,0,"drum_020.wav",100
Sample,74500,0,"bass_b_032.wav",100
Sample,74545,0,"bass_b_033.wav",100
Sample,74591,0,"bass_a_009.wav",100
Sample,74591,0,"bass_b_034.wav",100
Sample,74591,0,"drum_018.wav",100
Sample,74636,0,"bass_b_035.wav",100
Sample,74659,0,"drum_016.wav",100
Sample,74682,0,"bass_b_036.wav",100
Sample,74727,0,"drum_032.wav",100
Sample,74727,0,"drum_018.wav",100
Sample,74795,0,"drum_016.wav",100
Sample,74864,0,"bass_a_009.wav",100
Sample,74864,0,"drum_020.wav",100
Sample,75000,0,"drum_018.wav",100
Sample,75000,0,"drum_032.wav",100
Sample,75068,0,"drum_016.wav",100
Sample,75136,0,"drum_020.wav",100
Sample,75136,0,"bass_a_009.wav",100
Sample,75273,0,"hapsi_031.wav",100
Sample,75273,0,"hapsi_044.wav",100
Sample,75409,0,"hapsi_014.wav",100
Sample,75409,0,"hapsi_023.wav",100
Sample,75545,0,"hapsi_044.wav",100
Sample,75545,0,"hapsi_050.wav",100
Sample,75682,0,"hapsi_014.wav",100
Sample,75682,0,"hapsi_023.wav",100
Sample,75818,0,"hapsi_039.wav",100
Sample,75818,0,"hapsi_048.wav",100
Sample,75955,0,"hapsi_014.wav",100
Sample,75955,0,"hapsi_023.wav",100
Sample,76091,0,"drum_025.wav",100
Sample,76091,0,"hapsi_046.wav",100
Sample,76091,0,"drum_018.wav",100
Sample,76091,0,"hapsi_034.wav",100
Sample,76091,0,"drum_004.wav",100
Sample,76159,0,"drum_016.wav",100
Sample,76227,0,"hapsi_023.wav",100
Sample,76227,0,"drum_020.wav",100
Sample,76227,0,"hapsi_014.wav",100
Sample,76227,0,"bass_a_010.wav",100
Sample,76364,0,"drum_016.wav",100
Sample,76432,0,"drum_018.wav",100
Sample,76500,0,"drum_016.wav",100
Sample,76500,0,"bass_a_009.wav",100
Sample,76568,0,"drum_018.wav",100
Sample,76636,0,"drum_020.wav",100
Sample,76636,0,"drum_032.wav",100
Sample,76773,0,"bass_a_009.wav",100
Sample,76773,0,"drum_018.wav",100
Sample,76841,0,"drum_016.wav",100
Sample,76909,0,"drum_032.wav",100
Sample,76909,0,"drum_018.wav",100
Sample,76977,0,"drum_016.wav",100
Sample,77045,0,"bass_a_009.wav",100
Sample,77045,0,"drum_020.wav",100
Sample,77182,0,"drum_018.wav",100
Sample,77182,0,"drum_032.wav",100
Sample,77250,0,"drum_016.wav",100
Sample,77318,0,"drum_020.wav",100
Sample,77318,0,"bass_a_009.wav",100
Sample,77455,0,"drum_032.wav",100
Sample,77455,0,"drum_016.wav",100
Sample,77523,0,"drum_018.wav",100
Sample,77591,0,"bass_a_009.wav",100
Sample,77591,0,"drum_020.wav",100
Sample,77727,0,"drum_016.wav",100
Sample,77727,0,"drum_032.wav",100
Sample,77795,0,"drum_018.wav",100
Sample,77864,0,"drum_016.wav",100
Sample,77864,0,"bass_a_009.wav",100
Sample,77932,0,"drum_018.wav",100
Sample,78273,0,"drum_030.wav",100
Sample,78273,0,"drum_018.wav",100
Sample,78341,0,"drum_016.wav",100
Sample,78409,0,"drum_020.wav",100
Sample,78409,0,"bass_a_008.wav",100
Sample,78545,0,"bass_b_022.wav",100
Sample,78545,0,"drum_016.wav",100
Sample,78614,0,"drum_018.wav",100
Sample,78682,0,"bass_a_009.wav",100
Sample,78682,0,"drum_016.wav",100
Sample,78750,0,"drum_018.wav",100
Sample,78750,0,"bass_b_022.wav",100
Sample,78818,0,"drum_020.wav",100
Sample,78818,0,"drum_031.wav",100
Sample,78955,0,"drum_018.wav",100
Sample,78955,0,"bass_b_021.wav",100
Sample,78955,0,"bass_a_009.wav",100
Sample,79023,0,"drum_016.wav",100
Sample,79091,0,"drum_018.wav",100
Sample,79159,0,"bass_b_021.wav",100
Sample,79159,0,"drum_016.wav",100
Sample,79227,0,"bass_a_009.wav",100
Sample,79227,0,"drum_031.wav",100
Sample,79227,0,"drum_020.wav",100
Sample,79364,0,"drum_016.wav",100
Sample,79364,0,"bass_b_020.wav",100
Sample,79432,0,"drum_018.wav",100
Sample,79500,0,"drum_016.wav",100
Sample,79500,0,"bass_a_009.wav",100
Sample,79568,0,"bass_b_020.wav",100
Sample,79568,0,"drum_018.wav",100
Sample,79636,0,"drum_031.wav",100
Sample,79636,0,"drum_020.wav",100
Sample,79773,0,"bass_a_009.wav",100
Sample,79773,0,"bass_b_019.wav",100
Sample,79773,0,"drum_018.wav",100
Sample,79841,0,"drum_016.wav",100
Sample,79909,0,"drum_018.wav",100
Sample,79909,0,"se_rev_cymb.wav",100
Sample,79977,0,"bass_b_019.wav",100
Sample,79977,0,"drum_016.wav",100
Sample,80045,0,"bass_a_012.wav",100
Sample,80045,0,"drum_020.wav",100
Sample,80045,0,"drum_031.wav",100
Sample,80182,0,"bass_b_018.wav",100
Sample,80182,0,"strstc_038.wav",100
Sample,80318,0,"bass_a_011.wav",100
Sample,80455,0,"bass_b_017.wav",100
Sample,80455,0,"strstc_039.wav",100
Sample,80591,0,"bass_a_010.wav",100
Sample,80727,0,"hapsi_014.wav",100
Sample,80727,0,"strlg_075.wav",100
Sample,80727,0,"bass_b_001.wav",100
Sample,80727,0,"hihat_a_001.wav",100
Sample,80795,0,"hihat_a_002.wav",100
Sample,80795,0,"piano_142.wav",100
Sample,80864,0,"hihat_a_003.wav",100
Sample,80864,0,"bass_a_009.wav",100
Sample,80864,0,"hapsi_005.wav",100
Sample,80932,0,"hihat_a_004.wav",100
Sample,80932,0,"piano_142.wav",100
Sample,81000,0,"hapsi_023.wav",100
Sample,81000,0,"hihat_a_005.wav",100
Sample,81000,0,"drum_032.wav",100
Sample,81136,0,"hapsi_005.wav",100
Sample,81136,0,"bass_b_011.wav",100
Sample,81136,0,"bass_a_009.wav",100
Sample,81136,0,"hihat_a_006.wav",100
Sample,81136,0,"strlg_076.wav",100
Sample,81205,0,"hihat_a_007.wav",100
Sample,81205,0,"piano_142.wav",100
Sample,81273,0,"hapsi_020.wav",100
Sample,81273,0,"drum_033.wav",100
Sample,81273,0,"hihat_a_008.wav",100
Sample,81341,0,"piano_142.wav",100
Sample,81341,0,"hihat_a_009.wav",100
Sample,81409,0,"strlg_075.wav",100
Sample,81409,0,"hapsi_005.wav",100
Sample,81409,0,"bass_b_011.wav",100
Sample,81409,0,"drum_032.wav",100
Sample,81409,0,"bass_a_009.wav",100
Sample,81409,0,"hihat_a_010.wav",100
Sample,81477,0,"piano_142.wav",100
Sample,81477,0,"hihat_a_011.wav",100
Sample,81545,0,"hapsi_017.wav",100
Sample,81545,0,"hihat_a_012.wav",100
Sample,81682,0,"hapsi_005.wav",100
Sample,81682,0,"bass_a_009.wav",100
Sample,81682,0,"drum_032.wav",100
Sample,81682,0,"hihat_a_013.wav",100
Sample,81750,0,"piano_142.wav",100
Sample,81750,0,"hihat_a_014.wav",100
Sample,81818,0,"bass_b_001.wav",100
Sample,81818,0,"hapsi_014.wav",100
Sample,81818,0,"strlg_075.wav",100
Sample,81818,0,"hihat_a_015.wav",100
Sample,81886,0,"piano_142.wav",100
Sample,81886,0,"hihat_a_016.wav",100
Sample,81955,0,"bass_a_009.wav",100
Sample,81955,0,"hihat_a_017.wav",100
Sample,81955,0,"hapsi_005.wav",100
Sample,81955,0,"drum_032.wav",100
Sample,82023,0,"piano_142.wav",100
Sample,82023,0,"hihat_a_018.wav",100
Sample,82091,0,"hapsi_023.wav",100
Sample,82091,0,"hihat_a_019.wav",100
Sample,82227,0,"hihat_a_020.wav",100
Sample,82227,0,"bass_a_009.wav",100
Sample,82227,0,"strlg_076.wav",100
Sample,82227,0,"drum_033.wav",100
Sample,82227,0,"bass_b_011.wav",100
Sample,82227,0,"hapsi_005.wav",100
Sample,82295,0,"piano_142.wav",100
Sample,82295,0,"hihat_a_021.wav",100
Sample,82364,0,"hihat_a_022.wav",100
Sample,82364,0,"drum_033.wav",100
Sample,82364,0,"hapsi_020.wav",100
Sample,82432,0,"hihat_a_023.wav",100
Sample,82500,0,"hapsi_005.wav",100
Sample,82500,0,"bass_b_011.wav",100
Sample,82500,0,"strlg_076.wav",100
Sample,82500,0,"hihat_a_024.wav",100
Sample,82500,0,"drum_032.wav",100
Sample,82500,0,"bass_a_009.wav",100
Sample,82568,0,"hihat_a_025.wav",100
Sample,82636,0,"strlg_077.wav",100
Sample,82636,0,"hihat_a_026.wav",100
Sample,82636,0,"hapsi_026.wav",100
Sample,82773,0,"hapsi_031.wav",100
Sample,82773,0,"drum_033.wav",100
Sample,82773,0,"bass_a_009.wav",100
Sample,82773,0,"hihat_a_027.wav",100
Sample,82773,0,"strlg_078.wav",100
Sample,82841,0,"hihat_a_028.wav",100
Sample,82909,0,"strlg_079.wav",100
Sample,82909,0,"hapsi_014.wav",100
Sample,82909,0,"hihat_a_001.wav",100
Sample,82909,0,"drum_033.wav",100
Sample,82909,0,"bass_b_001.wav",100
Sample,82977,0,"hihat_a_002.wav",100
Sample,82977,0,"piano_146.wav",100
Sample,83045,0,"bass_a_009.wav",100
Sample,83045,0,"drum_033.wav",100
Sample,83045,0,"hapsi_002.wav",100
Sample,83045,0,"hihat_a_003.wav",100
Sample,83114,0,"piano_146.wav",100
Sample,83114,0,"hihat_a_004.wav",100
Sample,83182,0,"hihat_a_005.wav",100
Sample,83182,0,"drum_032.wav",100
Sample,83182,0,"hapsi_023.wav",100
Sample,83318,0,"hapsi_002.wav",100
Sample,83318,0,"bass_b_011.wav",100
Sample,83318,0,"bass_a_009.wav",100
Sample,83318,0,"hihat_a_006.wav",100
Sample,83318,0,"strlg_080.wav",100
Sample,83386,0,"hihat_a_007.wav",100
Sample,83386,0,"piano_146.wav",100
Sample,83455,0,"hapsi_020.wav",100
Sample,83455,0,"drum_033.wav",100
Sample,83455,0,"hihat_a_008.wav",100
Sample,83523,0,"piano_146.wav",100
Sample,83523,0,"hihat_a_009.wav",100
Sample,83591,0,"hihat_a_010.wav",100
Sample,83591,0,"strlg_079.wav",100
Sample,83591,0,"bass_b_011.wav",100
Sample,83591,0,"drum_032.wav",100
Sample,83591,0,"bass_a_009.wav",100
Sample,83591,0,"hapsi_002.wav",100
Sample,83659,0,"hihat_a_011.wav",100
Sample,83659,0,"piano_146.wav",100
Sample,83727,0,"hapsi_017.wav",100
Sample,83727,0,"hihat_a_012.wav",100
Sample,83864,0,"bass_a_009.wav",100
Sample,83864,0,"drum_032.wav",100
Sample,83864,0,"hapsi_002.wav",100
Sample,83864,0,"hihat_a_013.wav",100
Sample,83932,0,"piano_146.wav",100
Sample,83932,0,"hihat_a_014.wav",100
Sample,84000,0,"hapsi_014.wav",100
Sample,84000,0,"strlg_079.wav",100
Sample,84000,0,"bass_b_001.wav",100
Sample,84000,0,"hihat_a_015.wav",100
Sample,84068,0,"piano_146.wav",100
Sample,84068,0,"hihat_a_016.wav",100
Sample,84136,0,"hihat_a_017.wav",100
Sample,84136,0,"bass_a_009.wav",100
Sample,84136,0,"hapsi_002.wav",100
Sample,84136,0,"drum_032.wav",100
Sample,84205,0,"piano_146.wav",100
Sample,84205,0,"hihat_a_018.wav",100
Sample,84273,0,"hapsi_023.wav",100
Sample,84273,0,"hihat_a_019.wav",100
Sample,84409,0,"hihat_a_020.wav",100
Sample,84409,0,"bass_a_009.wav",100
Sample,84409,0,"strlg_080.wav",100
Sample,84409,0,"drum_033.wav",100
Sample,84409,0,"bass_b_011.wav",100
Sample,84409,0,"hapsi_002.wav",100
Sample,84477,0,"piano_146.wav",100
Sample,84477,0,"hihat_a_021.wav",100
Sample,84545,0,"hapsi_020.wav",100
Sample,84545,0,"hihat_a_022.wav",100
Sample,84545,0,"drum_033.wav",100
Sample,84614,0,"hihat_a_023.wav",100
Sample,84682,0,"hapsi_002.wav",100
Sample,84682,0,"drum_032.wav",100
Sample,84682,0,"strlg_080.wav",100
Sample,84682,0,"hihat_a_024.wav",100
Sample,84682,0,"bass_b_011.wav",100
Sample,84682,0,"bass_a_009.wav",100
Sample,84750,0,"hihat_a_025.wav",100
Sample,84818,0,"strlg_081.wav",100
Sample,84818,0,"hapsi_026.wav",100
Sample,84818,0,"hihat_a_026.wav",100
Sample,84955,0,"hihat_a_027.wav",100
Sample,84955,0,"drum_033.wav",100
Sample,84955,0,"bass_a_009.wav",100
Sample,84955,0,"hapsi_037.wav",100
Sample,84955,0,"strlg_082.wav",100
Sample,85023,0,"hihat_a_028.wav",100
Sample,85091,0,"hapsi_014.wav",100
Sample,85091,0,"strlg_083.wav",100
Sample,85091,0,"bass_b_001.wav",100
Sample,85091,0,"hihat_a_001.wav",100
Sample,85159,0,"piano_144.wav",100
Sample,85159,0,"hihat_a_002.wav",100
Sample,85227,0,"hapsi_007.wav",100
Sample,85227,0,"hihat_a_003.wav",100
Sample,85227,0,"bass_a_009.wav",100
Sample,85295,0,"hihat_a_004.wav",100
Sample,85295,0,"piano_144.wav",100
Sample,85364,0,"hapsi_023.wav",100
Sample,85364,0,"drum_032.wav",100
Sample,85364,0,"hihat_a_005.wav",100
Sample,85500,0,"hapsi_007.wav",100
Sample,85500,0,"bass_a_009.wav",100
Sample,85500,0,"strlg_084.wav",100
Sample,85500,0,"hihat_a_006.wav",100
Sample,85500,0,"bass_b_011.wav",100
Sample,85568,0,"hihat_a_007.wav",100
Sample,85568,0,"piano_144.wav",100
Sample,85636,0,"hihat_a_008.wav",100
Sample,85636,0,"drum_033.wav",100
Sample,85636,0,"hapsi_020.wav",100
Sample,85705,0,"hihat_a_009.wav",100
Sample,85705,0,"piano_144.wav",100
Sample,85773,0,"hapsi_007.wav",100
Sample,85773,0,"hihat_a_010.wav",100
Sample,85773,0,"bass_b_011.wav",100
Sample,85773,0,"drum_032.wav",100
Sample,85773,0,"bass_a_009.wav",100
Sample,85773,0,"strlg_083.wav",100
Sample,85841,0,"piano_144.wav",100
Sample,85841,0,"hihat_a_011.wav",100
Sample,85909,0,"hihat_a_012.wav",100
Sample,85909,0,"hapsi_017.wav",100
Sample,86045,0,"bass_a_009.wav",100
Sample,86045,0,"hapsi_007.wav",100
Sample,86045,0,"hihat_a_013.wav",100
Sample,86045,0,"drum_032.wav",100
Sample,86114,0,"piano_144.wav",100
Sample,86114,0,"hihat_a_014.wav",100
Sample,86182,0,"hapsi_014.wav",100
Sample,86182,0,"strlg_083.wav",100
Sample,86182,0,"bass_b_001.wav",100
Sample,86182,0,"hihat_a_015.wav",100
Sample,86250,0,"piano_144.wav",100
Sample,86250,0,"hihat_a_016.wav",100
Sample,86318,0,"hihat_a_017.wav",100
Sample,86318,0,"bass_a_009.wav",100
Sample,86318,0,"hapsi_007.wav",100
Sample,86318,0,"drum_032.wav",100
Sample,86386,0,"hihat_a_018.wav",100
Sample,86386,0,"piano_144.wav",100
Sample,86455,0,"hapsi_023.wav",100
Sample,86455,0,"hihat_a_019.wav",100
Sample,86591,0,"hihat_a_020.wav",100
Sample,86591,0,"hapsi_007.wav",100
Sample,86591,0,"strlg_084.wav",100
Sample,86591,0,"drum_033.wav",100
Sample,86591,0,"bass_b_011.wav",100
Sample,86591,0,"bass_a_009.wav",100
Sample,86659,0,"hihat_a_021.wav",100
Sample,86659,0,"piano_144.wav",100
Sample,86727,0,"drum_033.wav",100
Sample,86727,0,"hapsi_020.wav",100
Sample,86727,0,"hihat_a_022.wav",100
Sample,86795,0,"hihat_a_023.wav",100
Sample,86864,0,"hapsi_007.wav",100
Sample,86864,0,"bass_b_011.wav",100
Sample,86864,0,"strlg_084.wav",100
Sample,86864,0,"hihat_a_024.wav",100
Sample,86864,0,"drum_032.wav",100
Sample,86864,0,"bass_a_009.wav",100
Sample,86932,0,"hihat_a_025.wav",100
Sample,87000,0,"strlg_085.wav",100
Sample,87000,0,"hihat_a_026.wav",100
Sample,87000,0,"hapsi_026.wav",100
Sample,87136,0,"hihat_a_027.wav",100
Sample,87136,0,"drum_033.wav",100
Sample,87136,0,"bass_a_009.wav",100
Sample,87136,0,"hapsi_031.wav",100
Sample,87136,0,"strlg_076.wav",100
Sample,87205,0,"hihat_a_028.wav",100
Sample,87273,0,"hihat_a_001.wav",100
Sample,87273,0,"bass_b_001.wav",100
Sample,87273,0,"hapsi_026.wav",100
Sample,87273,0,"drum_033.wav",100
Sample,87273,0,"strlg_086.wav",100
Sample,87341,0,"hihat_a_002.wav",100
Sample,87341,0,"piano_138.wav",100
Sample,87409,0,"hapsi_002.wav",100
Sample,87409,0,"drum_033.wav",100
Sample,87409,0,"hihat_a_003.wav",100
Sample,87409,0,"bass_a_009.wav",100
Sample,87477,0,"hihat_a_004.wav",100
Sample,87477,0,"piano_138.wav",100
Sample,87545,0,"hapsi_020.wav",100
Sample,87545,0,"drum_032.wav",100
Sample,87545,0,"hihat_a_005.wav",100
Sample,87682,0,"hapsi_002.wav",100
Sample,87682,0,"bass_b_011.wav",100
Sample,87682,0,"bass_a_009.wav",100
Sample,87682,0,"hihat_a_006.wav",100
Sample,87682,0,"strlg_113.wav",100
Sample,87750,0,"hihat_a_007.wav",100
Sample,87750,0,"piano_138.wav",100
Sample,87818,0,"hapsi_014.wav",100
Sample,87818,0,"hihat_a_008.wav",100
Sample,87818,0,"drum_033.wav",100
Sample,87886,0,"piano_138.wav",100
Sample,87886,0,"hihat_a_009.wav",100
Sample,87955,0,"hapsi_002.wav",100
Sample,87955,0,"drum_032.wav",100
Sample,87955,0,"bass_b_011.wav",100
Sample,87955,0,"hihat_a_010.wav",100
Sample,87955,0,"bass_a_009.wav",100
Sample,87955,0,"strlg_086.wav",100
Sample,88023,0,"piano_138.wav",100
Sample,88023,0,"hihat_a_011.wav",100
Sample,88091,0,"hapsi_010.wav",100
Sample,88091,0,"hihat_a_012.wav",100
Sample,88227,0,"drum_032.wav",100
Sample,88227,0,"hapsi_002.wav",100
Sample,88227,0,"bass_a_009.wav",100
Sample,88227,0,"hihat_a_013.wav",100
Sample,88295,0,"piano_138.wav",100
Sample,88295,0,"hihat_a_014.wav",100
Sample,88364,0,"hapsi_011.wav",100
Sample,88364,0,"strlg_087.wav",100
Sample,88364,0,"bass_b_001.wav",100
Sample,88364,0,"hihat_a_015.wav",100
Sample,88432,0,"hihat_a_016.wav",100
Sample,88432,0,"piano_138.wav",100
Sample,88500,0,"bass_a_009.wav",100
Sample,88500,0,"hihat_a_017.wav",100
Sample,88500,0,"drum_032.wav",100
Sample,88500,0,"hapsi_002.wav",100
Sample,88568,0,"piano_138.wav",100
Sample,88568,0,"hihat_a_018.wav",100
Sample,88636,0,"hapsi_026.wav",100
Sample,88636,0,"hihat_a_019.wav",100
Sample,88773,0,"strlg_114.wav",100
Sample,88773,0,"drum_033.wav",100
Sample,88773,0,"bass_b_011.wav",100
Sample,88773,0,"hihat_a_020.wav",100
Sample,88773,0,"bass_a_009.wav",100
Sample,88773,0,"hapsi_002.wav",100
Sample,88841,0,"piano_138.wav",100
Sample,88841,0,"hihat_a_021.wav",100
Sample,88909,0,"drum_016.wav",100
Sample,88909,0,"piano_150.wav",100
Sample,88909,0,"hapsi_020.wav",100
Sample,88909,0,"hihat_a_022.wav",100
Sample,88909,0,"drum_033.wav",100
Sample,88977,0,"drum_018.wav",100
Sample,88977,0,"hihat_a_023.wav",100
Sample,88977,0,"piano_160.wav",100
Sample,89045,0,"bass_a_012.wav",100
Sample,89045,0,"hihat_a_024.wav",100
Sample,89045,0,"strlg_087.wav",100
Sample,89045,0,"piano_156.wav",100
Sample,89045,0,"drum_032.wav",100
Sample,89045,0,"hapsi_002.wav",100
Sample,89045,0,"bass_b_011.wav",100
Sample,89045,0,"drum_020.wav",100
Sample,89114,0,"piano_160.wav",100
Sample,89114,0,"hihat_a_025.wav",100
Sample,89182,0,"piano_162.wav",100
Sample,89182,0,"hihat_a_026.wav",100
Sample,89182,0,"drum_016.wav",100
Sample,89182,0,"hapsi_026.wav",100
Sample,89250,0,"piano_160.wav",100
Sample,89250,0,"drum_018.wav",100
Sample,89318,0,"piano_158.wav",100
Sample,89318,0,"drum_020.wav",100
Sample,89318,0,"drum_033.wav",100
Sample,89318,0,"hapsi_031.wav",100
Sample,89318,0,"hihat_a_027.wav",100
Sample,89318,0,"bass_a_011.wav",100
Sample,89386,0,"piano_160.wav",100
Sample,89386,0,"hihat_a_028.wav",100
Sample,89455,0,"se_bell.wav",100
Sample,89455,0,"strlg_075.wav",100
Sample,89455,0,"bass_b_001.wav",100
Sample,89455,0,"hapsi_014.wav",100
Sample,89455,0,"hihat_a_001.wav",100
Sample,89455,0,"drum_016.wav",100
Sample,89523,0,"drum_018.wav",100
Sample,89523,0,"hihat_a_002.wav",100
Sample,89591,0,"hihat_a_003.wav",100
Sample,89591,0,"bass_a_009.wav",100
Sample,89591,0,"hapsi_005.wav",100
Sample,89591,0,"drum_020.wav",100
Sample,89659,0,"hihat_a_004.wav",100
Sample,89727,0,"drum_014.wav",100
Sample,89727,0,"hapsi_023.wav",100
Sample,89727,0,"drum_016.wav",100
Sample,89727,0,"drum_032.wav",100
Sample,89727,0,"hihat_a_005.wav",100
Sample,89795,0,"drum_018.wav",100
Sample,89864,0,"drum_020.wav",100
Sample,89864,0,"bass_b_011.wav",100
Sample,89864,0,"hapsi_005.wav",100
Sample,89864,0,"hihat_a_006.wav",100
Sample,89864,0,"bass_a_009.wav",100
Sample,89864,0,"strlg_076.wav",100
Sample,89932,0,"hihat_a_007.wav",100
Sample,90000,0,"hihat_a_008.wav",100
Sample,90000,0,"drum_033.wav",100
Sample,90000,0,"hapsi_020.wav",100
Sample,90000,0,"drum_016.wav",100
Sample,90068,0,"hihat_a_009.wav",100
Sample,90068,0,"drum_018.wav",100
Sample,90136,0,"hihat_a_010.wav",100
Sample,90136,0,"hapsi_005.wav",100
Sample,90136,0,"bass_b_011.wav",100
Sample,90136,0,"drum_020.wav",100
Sample,90136,0,"bass_a_009.wav",100
Sample,90136,0,"strlg_075.wav",100
Sample,90136,0,"drum_032.wav",100
Sample,90205,0,"hihat_a_011.wav",100
Sample,90273,0,"hihat_a_012.wav",100
Sample,90273,0,"drum_014.wav",100
Sample,90273,0,"hapsi_017.wav",100
Sample,90273,0,"drum_016.wav",100
Sample,90341,0,"drum_018.wav",100
Sample,90409,0,"drum_032.wav",100
Sample,90409,0,"hapsi_005.wav",100
Sample,90409,0,"drum_020.wav",100
Sample,90409,0,"hihat_a_013.wav",100
Sample,90409,0,"bass_a_009.wav",100
Sample,90477,0,"hihat_a_014.wav",100
Sample,90545,0,"hapsi_014.wav",100
Sample,90545,0,"bass_b_001.wav",100
Sample,90545,0,"strlg_075.wav",100
Sample,90545,0,"drum_016.wav",100
Sample,90545,0,"hihat_a_015.wav",100
Sample,90614,0,"drum_018.wav",100
Sample,90614,0,"hihat_a_016.wav",100
Sample,90682,0,"drum_032.wav",100
Sample,90682,0,"bass_a_009.wav",100
Sample,90682,0,"hapsi_005.wav",100
Sample,90682,0,"drum_020.wav",100
Sample,90682,0,"hihat_a_017.wav",100
Sample,90750,0,"hihat_a_018.wav",100
Sample,90818,0,"drum_014.wav",100
Sample,90818,0,"drum_016.wav",100
Sample,90818,0,"hihat_a_019.wav",100
Sample,90818,0,"hapsi_023.wav",100
Sample,90886,0,"drum_018.wav",100
Sample,90955,0,"bass_a_009.wav",100
Sample,90955,0,"bass_b_011.wav",100
Sample,90955,0,"hapsi_005.wav",100
Sample,90955,0,"hihat_a_020.wav",100
Sample,90955,0,"strlg_076.wav",100
Sample,90955,0,"drum_033.wav",100
Sample,90955,0,"drum_020.wav",100
Sample,91023,0,"hihat_a_021.wav",100
Sample,91091,0,"hapsi_020.wav",100
Sample,91091,0,"drum_016.wav",100
Sample,91091,0,"hihat_a_022.wav",100
Sample,91091,0,"drum_033.wav",100
Sample,91159,0,"hihat_a_023.wav",100
Sample,91159,0,"drum_018.wav",100
Sample,91227,0,"hihat_a_024.wav",100
Sample,91227,0,"bass_b_011.wav",100
Sample,91227,0,"hapsi_005.wav",100
Sample,91227,0,"drum_020.wav",100
Sample,91227,0,"strlg_076.wav",100
Sample,91227,0,"bass_a_009.wav",100
Sample,91227,0,"drum_032.wav",100
Sample,91295,0,"hihat_a_025.wav",100
Sample,91364,0,"drum_014.wav",100
Sample,91364,0,"strlg_077.wav",100
Sample,91364,0,"hihat_a_026.wav",100
Sample,91364,0,"drum_016.wav",100
Sample,91364,0,"hapsi_026.wav",100
Sample,91432,0,"drum_018.wav",100
Sample,91500,0,"hapsi_031.wav",100
Sample,91500,0,"bass_a_009.wav",100
Sample,91500,0,"strlg_078.wav",100
Sample,91500,0,"hihat_a_027.wav",100
Sample,91500,0,"drum_020.wav",100
Sample,91500,0,"drum_033.wav",100
Sample,91568,0,"hihat_a_028.wav",100
Sample,91636,0,"drum_016.wav",100
Sample,91636,0,"hapsi_014.wav",100
Sample,91636,0,"strlg_079.wav",100
Sample,91636,0,"drum_033.wav",100
Sample,91636,0,"bass_b_001.wav",100
Sample,91636,0,"hihat_a_001.wav",100
Sample,91705,0,"hihat_a_002.wav",100
Sample,91705,0,"drum_018.wav",100
Sample,91773,0,"drum_033.wav",100
Sample,91773,0,"hapsi_002.wav",100
Sample,91773,0,"hihat_a_003.wav",100
Sample,91773,0,"drum_020.wav",100
Sample,91773,0,"bass_a_009.wav",100
Sample,91841,0,"hihat_a_004.wav",100
Sample,91909,0,"drum_016.wav",100
Sample,91909,0,"hihat_a_005.wav",100
Sample,91909,0,"drum_032.wav",100
Sample,91909,0,"drum_014.wav",100
Sample,91909,0,"hapsi_023.wav",100
Sample,91977,0,"drum_018.wav",100
Sample,92045,0,"hihat_a_006.wav",100
Sample,92045,0,"bass_a_009.wav",100
Sample,92045,0,"strlg_080.wav",100
Sample,92045,0,"drum_020.wav",100
Sample,92045,0,"bass_b_011.wav",100
Sample,92045,0,"hapsi_002.wav",100
Sample,92114,0,"hihat_a_007.wav",100
Sample,92182,0,"drum_016.wav",100
Sample,92182,0,"drum_033.wav",100
Sample,92182,0,"hapsi_020.wav",100
Sample,92182,0,"hihat_a_008.wav",100
Sample,92250,0,"drum_018.wav",100
Sample,92250,0,"hihat_a_009.wav",100
Sample,92318,0,"strlg_079.wav",100
Sample,92318,0,"bass_b_011.wav",100
Sample,92318,0,"drum_032.wav",100
Sample,92318,0,"hapsi_002.wav",100
Sample,92318,0,"hihat_a_010.wav",100
Sample,92318,0,"bass_a_009.wav",100
Sample,92318,0,"drum_020.wav",100
Sample,92386,0,"hihat_a_011.wav",100
Sample,92455,0,"drum_016.wav",100
Sample,92455,0,"hihat_a_012.wav",100
Sample,92455,0,"drum_014.wav",100
Sample,92455,0,"hapsi_017.wav",100
Sample,92523,0,"drum_018.wav",100
Sample,92591,0,"drum_020.wav",100
Sample,92591,0,"bass_a_009.wav",100
Sample,92591,0,"hapsi_002.wav",100
Sample,92591,0,"hihat_a_013.wav",100
Sample,92591,0,"drum_032.wav",100
Sample,92659,0,"hihat_a_014.wav",100
Sample,92727,0,"strlg_079.wav",100
Sample,92727,0,"hapsi_014.wav",100
Sample,92727,0,"hihat_a_015.wav",100
Sample,92727,0,"drum_016.wav",100
Sample,92727,0,"bass_b_001.wav",100
Sample,92795,0,"hihat_a_016.wav",100
Sample,92795,0,"drum_018.wav",100
Sample,92864,0,"drum_032.wav",100
Sample,92864,0,"hapsi_002.wav",100
Sample,92864,0,"hihat_a_017.wav",100
Sample,92864,0,"drum_020.wav",100
Sample,92864,0,"bass_a_009.wav",100
Sample,92932,0,"hihat_a_018.wav",100
Sample,93000,0,"hihat_a_019.wav",100
Sample,93000,0,"drum_014.wav",100
Sample,93000,0,"drum_016.wav",100
Sample,93000,0,"hapsi_023.wav",100
Sample,93068,0,"drum_018.wav",100
Sample,93136,0,"hapsi_002.wav",100
Sample,93136,0,"drum_020.wav",100
Sample,93136,0,"hihat_a_020.wav",100
Sample,93136,0,"drum_033.wav",100
Sample,93136,0,"bass_b_011.wav",100
Sample,93136,0,"bass_a_009.wav",100
Sample,93136,0,"strlg_080.wav",100
Sample,93205,0,"hihat_a_021.wav",100
Sample,93273,0,"drum_016.wav",100
Sample,93273,0,"hapsi_020.wav",100
Sample,93273,0,"drum_033.wav",100
Sample,93273,0,"hihat_a_022.wav",100
Sample,93341,0,"drum_018.wav",100
Sample,93341,0,"hihat_a_023.wav",100
Sample,93409,0,"drum_032.wav",100
Sample,93409,0,"drum_020.wav",100
Sample,93409,0,"bass_b_011.wav",100
Sample,93409,0,"hihat_a_024.wav",100
Sample,93409,0,"bass_a_009.wav",100
Sample,93409,0,"hapsi_002.wav",100
Sample,93409,0,"strlg_080.wav",100
Sample,93477,0,"hihat_a_025.wav",100
Sample,93545,0,"hihat_a_026.wav",100
Sample,93545,0,"drum_014.wav",100
Sample,93545,0,"drum_016.wav",100
Sample,93545,0,"hapsi_026.wav",100
Sample,93545,0,"strlg_081.wav",100
Sample,93614,0,"drum_018.wav",100
Sample,93682,0,"drum_033.wav",100
Sample,93682,0,"bass_a_009.wav",100
Sample,93682,0,"strlg_082.wav",100
Sample,93682,0,"hihat_a_027.wav",100
Sample,93682,0,"drum_020.wav",100
Sample,93682,0,"hapsi_037.wav",100
Sample,93750,0,"hihat_a_028.wav",100
Sample,93818,0,"hapsi_014.wav",100
Sample,93818,0,"bass_b_001.wav",100
Sample,93818,0,"hihat_a_001.wav",100
Sample,93818,0,"strlg_083.wav",100
Sample,93818,0,"drum_016.wav",100
Sample,93886,0,"hihat_a_002.wav",100
Sample,93886,0,"drum_018.wav",100
Sample,93955,0,"bass_a_009.wav",100
Sample,93955,0,"hihat_a_003.wav",100
Sample,93955,0,"drum_020.wav",100
Sample,93955,0,"hapsi_007.wav",100
Sample,94023,0,"hihat_a_004.wav",100
Sample,94091,0,"hapsi_023.wav",100
Sample,94091,0,"hihat_a_005.wav",100
Sample,94091,0,"drum_014.wav",100
Sample,94091,0,"drum_032.wav",100
Sample,94091,0,"drum_016.wav",100
Sample,94159,0,"drum_018.wav",100
Sample,94227,0,"hapsi_007.wav",100
Sample,94227,0,"bass_b_011.wav",100
Sample,94227,0,"drum_020.wav",100
Sample,94227,0,"hihat_a_006.wav",100
Sample,94227,0,"bass_a_009.wav",100
Sample,94227,0,"strlg_084.wav",100
Sample,94295,0,"hihat_a_007.wav",100
Sample,94364,0,"hihat_a_008.wav",100
Sample,94364,0,"drum_016.wav",100
Sample,94364,0,"hapsi_020.wav",100
Sample,94364,0,"drum_033.wav",100
Sample,94432,0,"drum_018.wav",100
Sample,94432,0,"hihat_a_009.wav",100
Sample,94500,0,"hihat_a_010.wav",100
Sample,94500,0,"hapsi_007.wav",100
Sample,94500,0,"bass_a_009.wav",100
Sample,94500,0,"drum_020.wav",100
Sample,94500,0,"strlg_083.wav",100
Sample,94500,0,"drum_032.wav",100
Sample,94500,0,"bass_b_011.wav",100
Sample,94568,0,"hihat_a_011.wav",100
Sample,94636,0,"drum_016.wav",100
Sample,94636,0,"hihat_a_012.wav",100
Sample,94636,0,"drum_014.wav",100
Sample,94636,0,"hapsi_017.wav",100
Sample,94705,0,"drum_018.wav",100
Sample,94773,0,"bass_a_009.wav",100
Sample,94773,0,"hihat_a_013.wav",100
Sample,94773,0,"hapsi_007.wav",100
Sample,94773,0,"drum_032.wav",100
Sample,94773,0,"drum_020.wav",100
Sample,94841,0,"drum_002.wav",100
Sample,94841,0,"hihat_a_014.wav",100
Sample,94909,0,"hihat_a_015.wav",100
Sample,94909,0,"hapsi_014.wav",100
Sample,94909,0,"strlg_083.wav",100
Sample,94909,0,"drum_016.wav",100
Sample,94909,0,"bass_b_001.wav",100
Sample,94977,0,"drum_018.wav",100
Sample,94977,0,"hihat_a_016.wav",100
Sample,95045,0,"drum_032.wav",100
Sample,95045,0,"hapsi_007.wav",100
Sample,95045,0,"hihat_a_017.wav",100
Sample,95045,0,"drum_020.wav",100
Sample,95045,0,"bass_a_009.wav",100
Sample,95114,0,"hihat_a_018.wav",100
Sample,95182,0,"hihat_a_019.wav",100
Sample,95182,0,"drum_014.wav",100
Sample,95182,0,"drum_016.wav",100
Sample,95182,0,"hapsi_023.wav",100
Sample,95250,0,"drum_018.wav",100
Sample,95318,0,"drum_020.wav",100
Sample,95318,0,"hapsi_007.wav",100
Sample,95318,0,"bass_b_011.wav",100
Sample,95318,0,"drum_033.wav",100
Sample,95318,0,"bass_a_009.wav",100
Sample,95318,0,"hihat_a_020.wav",100
Sample,95318,0,"strlg_084.wav",100
Sample,95386,0,"hihat_a_021.wav",100
Sample,95455,0,"hihat_a_022.wav",100
Sample,95455,0,"drum_033.wav",100
Sample,95455,0,"hapsi_020.wav",100
Sample,95455,0,"drum_016.wav",100
Sample,95523,0,"hihat_a_023.wav",100
Sample,95523,0,"drum_018.wav",100
Sample,95591,0,"hihat_a_024.wav",100
Sample,95591,0,"bass_a_009.wav",100
Sample,95591,0,"drum_032.wav",100
Sample,95591,0,"drum_020.wav",100
Sample,95591,0,"bass_b_011.wav",100
Sample,95591,0,"hapsi_007.wav",100
Sample,95591,0,"strlg_084.wav",100
Sample,95659,0,"hihat_a_025.wav",100
Sample,95727,0,"drum_014.wav",100
Sample,95727,0,"hihat_a_026.wav",100
Sample,95727,0,"hapsi_031.wav",100
Sample,95727,0,"drum_016.wav",100
Sample,95727,0,"strlg_088.wav",100
Sample,95795,0,"drum_018.wav",100
Sample,95864,0,"drum_033.wav",100
Sample,95864,0,"hapsi_034.wav",100
Sample,95864,0,"strlg_089.wav",100
Sample,95864,0,"drum_020.wav",100
Sample,95864,0,"hihat_a_027.wav",100
Sample,95864,0,"bass_a_009.wav",100
Sample,95932,0,"hihat_a_028.wav",100
Sample,96000,0,"hihat_a_001.wav",100
Sample,96000,0,"strlg_090.wav",100
Sample,96000,0,"bass_b_001.wav",100
Sample,96000,0,"drum_016.wav",100
Sample,96000,0,"hapsi_037.wav",100
Sample,96068,0,"hihat_a_002.wav",100
Sample,96068,0,"drum_018.wav",100
Sample,96136,0,"drum_033.wav",100
Sample,96136,0,"bass_a_009.wav",100
Sample,96136,0,"hapsi_029.wav",100
Sample,96136,0,"drum_020.wav",100
Sample,96136,0,"hihat_a_003.wav",100
Sample,96205,0,"hihat_a_004.wav",100
Sample,96273,0,"drum_016.wav",100
Sample,96273,0,"hihat_a_005.wav",100
Sample,96273,0,"drum_032.wav",100
Sample,96273,0,"drum_014.wav",100
Sample,96273,0,"hapsi_014.wav",100
Sample,96341,0,"drum_018.wav",100
Sample,96409,0,"hihat_a_006.wav",100
Sample,96409,0,"bass_a_009.wav",100
Sample,96409,0,"strlg_091.wav",100
Sample,96409,0,"drum_020.wav",100
Sample,96409,0,"bass_b_011.wav",100
Sample,96409,0,"hapsi_009.wav",100
Sample,96477,0,"hihat_a_007.wav",100
Sample,96545,0,"hapsi_004.wav",100
Sample,96545,0,"drum_016.wav",100
Sample,96545,0,"hihat_a_008.wav",100
Sample,96614,0,"hihat_a_009.wav",100
Sample,96614,0,"drum_018.wav",100
Sample,96682,0,"drum_032.wav",100
Sample,96682,0,"hapsi_014.wav",100
Sample,96682,0,"bass_b_011.wav",100
Sample,96682,0,"hihat_a_010.wav",100
Sample,96682,0,"bass_a_009.wav",100
Sample,96682,0,"drum_020.wav",100
Sample,96682,0,"strlg_090.wav",100
Sample,96750,0,"hihat_a_011.wav",100
Sample,96818,0,"drum_016.wav",100
Sample,96818,0,"drum_014.wav",100
Sample,96818,0,"hapsi_029.wav",100
Sample,96818,0,"hihat_a_012.wav",100
Sample,96886,0,"drum_018.wav",100
Sample,96955,0,"hihat_a_013.wav",100
Sample,96955,0,"bass_a_009.wav",100
Sample,96955,0,"hapsi_037.wav",100
Sample,96955,0,"drum_032.wav",100
Sample,96955,0,"drum_020.wav",100
Sample,96989,0,"drum_003.wav",100
Sample,97023,0,"hihat_a_014.wav",100
Sample,97057,0,"drum_003.wav",100
Sample,97091,0,"bass_b_001.wav",100
Sample,97091,0,"drum_001.wav",100
Sample,97091,0,"hapsi_042.wav",100
Sample,97091,0,"strlg_092.wav",100
Sample,97227,0,"bass_a_009.wav",100
Sample,97227,0,"piano_150.wav",100
Sample,97227,0,"hapsi_031.wav",100
Sample,97364,0,"hapsi_020.wav",100
Sample,97364,0,"se_rev_cymb.wav",100
Sample,97500,0,"bass_a_009.wav",100
Sample,97500,0,"bass_b_011.wav",100
Sample,97500,0,"piano_156.wav",100
Sample,97500,0,"hapsi_011.wav",100
Sample,97500,0,"strlg_093.wav",100
Sample,97636,0,"hapsi_031.wav",100
Sample,97773,0,"strlg_092.wav",100
Sample,97773,0,"bass_a_012.wav",100
Sample,97773,0,"bass_b_011.wav",100
Sample,97773,0,"hapsi_011.wav",100
Sample,97909,0,"hapsi_022.wav",100
Sample,97955,0,"hapsi_033.wav",100
Sample,97977,0,"piano_160.wav",100
Sample,98000,0,"hapsi_043.wav",100
Sample,98045,0,"hapsi_049.wav",100
Sample,98045,0,"bass_a_011.wav",100
Sample,98091,0,"hapsi_058.wav",100
Sample,98136,0,"hapsi_066.wav",100
Sample,98182,0,"drum_001.wav",100
Sample,98182,0,"se_bell.wav",100
Sample,98182,0,"hapsi_044.wav",100
Sample,98182,0,"BGM_04.wav",100
Sample,98182,0,"hapsi_031.wav",100
Sample,98318,0,"hapsi_023.wav",100
Sample,98318,0,"hapsi_005.wav",100
Sample,98455,0,"hapsi_031.wav",100
Sample,98455,0,"hapsi_014.wav",100
Sample,98591,0,"hapsi_057.wav",100
Sample,98591,0,"hapsi_044.wav",100
Sample,98727,0,"hapsi_023.wav",100
Sample,98727,0,"hapsi_031.wav",100
Sample,98864,0,"hapsi_050.wav",100
Sample,98864,0,"hapsi_044.wav",100
Sample,99000,0,"hapsi_031.wav",100
Sample,99000,0,"hapsi_014.wav",100
Sample,99136,0,"hapsi_048.wav",100
Sample,99136,0,"hapsi_044.wav",100
Sample,99273,0,"hapsi_039.wav",100
Sample,99273,0,"hapsi_031.wav",100
Sample,99409,0,"hapsi_050.wav",100
Sample,99409,0,"hapsi_044.wav",100
Sample,99545,0,"hapsi_048.wav",100
Sample,99545,0,"hapsi_031.wav",100
Sample,99682,0,"hapsi_039.wav",100
Sample,99682,0,"hapsi_023.wav",100
Sample,99818,0,"hapsi_031.wav",100
Sample,99818,0,"hapsi_020.wav",100
Sample,99955,0,"hapsi_010.wav",100
Sample,99955,0,"hapsi_005.wav",100
Sample,100091,0,"hapsi_039.wav",100
Sample,100091,0,"hapsi_031.wav",100
Sample,100227,0,"hapsi_020.wav",100
Sample,100227,0,"hapsi_010.wav",100
Sample,100364,0,"hapsi_044.wav",100
Sample,100364,0,"hapsi_034.wav",100
Sample,100500,0,"hapsi_048.wav",100
Sample,100500,0,"hapsi_026.wav",100
Sample,100636,0,"hapsi_050.wav",100
Sample,100636,0,"hapsi_044.wav",100
Sample,100773,0,"hapsi_026.wav",100
Sample,100773,0,"hapsi_014.wav",100
Sample,100909,0,"hapsi_048.wav",100
Sample,100909,0,"hapsi_034.wav",100
Sample,101045,0,"hapsi_050.wav",100
Sample,101045,0,"hapsi_039.wav",100
Sample,101182,0,"hapsi_053.wav",100
Sample,101182,0,"hapsi_044.wav",100
Sample,101318,0,"hapsi_057.wav",100
Sample,101318,0,"hapsi_048.wav",100
Sample,101455,0,"hapsi_031.wav",100
Sample,101455,0,"hapsi_023.wav",100
Sample,101591,0,"hapsi_039.wav",100
Sample,101591,0,"hapsi_010.wav",100
Sample,101727,0,"hapsi_023.wav",100
Sample,101727,0,"hapsi_031.wav",100
Sample,101864,0,"hapsi_057.wav",100
Sample,101864,0,"hapsi_050.wav",100
Sample,102000,0,"hapsi_039.wav",100
Sample,102000,0,"hapsi_031.wav",100
Sample,102136,0,"hapsi_023.wav",100
Sample,102136,0,"hapsi_010.wav",100
Sample,102273,0,"hapsi_053.wav",100
Sample,102273,0,"hapsi_044.wav",100
Sample,102409,0,"hapsi_057.wav",100
Sample,102409,0,"hapsi_048.wav",100
Sample,102545,0,"hapsi_059.wav",100
Sample,102545,0,"hapsi_050.wav",100
Sample,102682,0,"hapsi_034.wav",100
Sample,102682,0,"hapsi_044.wav",100
Sample,102818,0,"hapsi_050.wav",100
Sample,102818,0,"hapsi_026.wav",100
Sample,102955,0,"hapsi_059.wav",100
Sample,102955,0,"hapsi_044.wav",100
Sample,103091,0,"hapsi_050.wav",100
Sample,103091,0,"hapsi_034.wav",100
Sample,103227,0,"hapsi_063.wav",100
Sample,103227,0,"hapsi_053.wav",100
Sample,103364,0,"hapsi_059.wav",100
Sample,103364,0,"hapsi_050.wav",100
Sample,103500,0,"hapsi_053.wav",100
Sample,103500,0,"hapsi_044.wav",100
Sample,103636,0,"hapsi_057.wav",100
Sample,103636,0,"hapsi_050.wav",100
Sample,103773,0,"hapsi_059.wav",100
Sample,103773,0,"hapsi_053.wav",100
Sample,103909,0,"hapsi_057.wav",100
Sample,103909,0,"hapsi_050.wav",100
Sample,104045,0,"hapsi_053.wav",100
Sample,104045,0,"hapsi_048.wav",100
Sample,104182,0,"hapsi_050.wav",100
Sample,104182,0,"hapsi_044.wav",100
Sample,104318,0,"hapsi_031.wav",100
Sample,104318,0,"hapsi_020.wav",100
Sample,104455,0,"hapsi_057.wav",100
Sample,104455,0,"hapsi_050.wav",100
Sample,104591,0,"hapsi_053.wav",100
Sample,104591,0,"hapsi_048.wav",100
Sample,104727,0,"hapsi_044.wav",100
Sample,104727,0,"hapsi_037.wav",100
Sample,104864,0,"hapsi_057.wav",100
Sample,104864,0,"hapsi_050.wav",100
Sample,105000,0,"hapsi_044.wav",100
Sample,105000,0,"hapsi_037.wav",100
Sample,105136,0,"hapsi_026.wav",100
Sample,105136,0,"hapsi_014.wav",100
Sample,105273,0,"hapsi_044.wav",100
Sample,105273,0,"hapsi_037.wav",100
Sample,105409,0,"hapsi_048.wav",100
Sample,105409,0,"hapsi_039.wav",100
Sample,105545,0,"hapsi_050.wav",100
Sample,105545,0,"hapsi_037.wav",100
Sample,105682,0,"hapsi_044.wav",100
Sample,105682,0,"hapsi_026.wav",100
Sample,105818,0,"piano_012.wav",100
Sample,105818,0,"hapsi_048.wav",100
Sample,105818,0,"piano_019.wav",100
Sample,105818,0,"hapsi_057.wav",100
Sample,105818,0,"drum_020.wav",100
Sample,105818,0,"strlg_094.wav",100
Sample,105955,0,"hapsi_031.wav",100
Sample,105955,0,"hapsi_042.wav",100
Sample,105955,0,"drum_016.wav",100
Sample,106023,0,"drum_018.wav",100
Sample,106091,0,"drum_016.wav",100
Sample,106091,0,"hapsi_037.wav",100
Sample,106091,0,"drum_031.wav",100
Sample,106091,0,"se_rev_cymb.wav",100
Sample,106091,0,"hapsi_048.wav",100
Sample,106159,0,"drum_018.wav",100
Sample,106227,0,"hapsi_052.wav",100
Sample,106227,0,"drum_020.wav",100
Sample,106227,0,"hapsi_061.wav",100
Sample,106227,0,"strlg_095.wav",100
Sample,106364,0,"drum_016.wav",100
Sample,106364,0,"hapsi_042.wav",100
Sample,106364,0,"hapsi_031.wav",100
Sample,106432,0,"drum_018.wav",100
Sample,106500,0,"drum_031.wav",100
Sample,106500,0,"hapsi_037.wav",100
Sample,106500,0,"drum_016.wav",100
Sample,106500,0,"hapsi_048.wav",100
Sample,106568,0,"drum_018.wav",100
Sample,106636,0,"strlg_014.wav",100
Sample,106636,0,"hapsi_065.wav",100
Sample,106636,0,"hapsi_057.wav",100
Sample,106773,0,"drum_016.wav",100
Sample,106773,0,"hapsi_042.wav",100
Sample,106841,0,"drum_018.wav",100
Sample,106909,0,"hapsi_031.wav",100
Sample,106909,0,"hihat_b_001.wav",100
Sample,106909,0,"acid_001.wav",100
Sample,106909,0,"drum_016.wav",100
Sample,106977,0,"drum_018.wav",100
Sample,106977,0,"acid_002.wav",100
Sample,107045,0,"drum_016.wav",100
Sample,107045,0,"bass_b_011.wav",100
Sample,107045,0,"bass_a_009.wav",100
Sample,107045,0,"hapsi_005.wav",100
Sample,107045,0,"acid_003.wav",100
Sample,107114,0,"drum_018.wav",100
Sample,107114,0,"acid_004.wav",100
Sample,107182,0,"acid_005.wav",100
Sample,107182,0,"hihat_b_003.wav",100
Sample,107182,0,"drum_032.wav",100
Sample,107250,0,"acid_006.wav",100
Sample,107318,0,"strlg_002.wav",100
Sample,107318,0,"acid_007.wav",100
Sample,107318,0,"bass_a_009.wav",100
Sample,107318,0,"bass_b_011.wav",100
Sample,107318,0,"hihat_b_004.wav",100
Sample,107386,0,"hihat_b_005.wav",100
Sample,107386,0,"drum_016.wav",100
Sample,107386,0,"acid_008.wav",100
Sample,107455,0,"hapsi_031.wav",100
Sample,107455,0,"acid_009.wav",100
Sample,107455,0,"drum_032.wav",100
Sample,107455,0,"drum_018.wav",100
Sample,107455,0,"hihat_b_006.wav",100
Sample,107523,0,"drum_016.wav",100
Sample,107523,0,"hihat_b_007.wav",100
Sample,107523,0,"acid_010.wav",100
Sample,107591,0,"bass_b_011.wav",100
Sample,107591,0,"acid_011.wav",100
Sample,107591,0,"bass_a_009.wav",100
Sample,107591,0,"hihat_b_008.wav",100
Sample,107591,0,"drum_020.wav",100
Sample,107659,0,"acid_012.wav",100
Sample,107727,0,"hapsi_031.wav",100
Sample,107727,0,"acid_013.wav",100
Sample,107727,0,"drum_032.wav",100
Sample,107727,0,"drum_018.wav",100
Sample,107727,0,"hihat_b_009.wav",100
Sample,107795,0,"acid_014.wav",100
Sample,107795,0,"drum_016.wav",100
Sample,107864,0,"hihat_b_010.wav",100
Sample,107864,0,"acid_015.wav",100
Sample,107864,0,"bass_a_009.wav",100
Sample,107864,0,"bass_b_011.wav",100
Sample,107932,0,"acid_016.wav",100
Sample,108000,0,"hapsi_039.wav",100
Sample,108000,0,"hihat_b_011.wav",100
Sample,108000,0,"drum_032.wav",100
Sample,108000,0,"drum_016.wav",100
Sample,108000,0,"acid_017.wav",100
Sample,108068,0,"acid_018.wav",100
Sample,108068,0,"drum_018.wav",100
Sample,108136,0,"drum_020.wav",100
Sample,108136,0,"bass_a_007.wav",100
Sample,108136,0,"bass_b_009.wav",100
Sample,108136,0,"acid_019.wav",100
Sample,108136,0,"hihat_b_012.wav",100
Sample,108273,0,"hapsi_031.wav",100
Sample,108273,0,"acid_021.wav",100
Sample,108273,0,"drum_032.wav",100
Sample,108273,0,"drum_016.wav",100
Sample,108273,0,"hihat_b_013.wav",100
Sample,108341,0,"acid_022.wav",100
Sample,108341,0,"drum_018.wav",100
Sample,108409,0,"drum_016.wav",100
Sample,108409,0,"bass_a_007.wav",100
Sample,108409,0,"acid_023.wav",100
Sample,108409,0,"hapsi_039.wav",100
Sample,108409,0,"hihat_b_014.wav",100
Sample,108409,0,"bass_b_009.wav",100
Sample,108477,0,"drum_018.wav",100
Sample,108477,0,"hihat_b_015.wav",100
Sample,108477,0,"acid_024.wav",100
Sample,108545,0,"acid_025.wav",100
Sample,108545,0,"hapsi_031.wav",100
Sample,108545,0,"drum_032.wav",100
Sample,108545,0,"hihat_b_016.wav",100
Sample,108614,0,"hihat_b_017.wav",100
Sample,108614,0,"acid_026.wav",100
Sample,108682,0,"bass_a_007.wav",100
Sample,108682,0,"acid_027.wav",100
Sample,108682,0,"hihat_b_018.wav",100
Sample,108682,0,"bass_b_009.wav",100
Sample,108682,0,"drum_018.wav",100
Sample,108750,0,"acid_028.wav",100
Sample,108750,0,"drum_016.wav",100
Sample,108818,0,"hapsi_039.wav",100
Sample,108818,0,"drum_032.wav",100
Sample,108818,0,"hihat_b_019.wav",100
Sample,108818,0,"drum_018.wav",100
Sample,108818,0,"acid_029.wav",100
Sample,108886,0,"drum_016.wav",100
Sample,108886,0,"acid_030.wav",100
Sample,108955,0,"hihat_b_020.wav",100
Sample,108955,0,"bass_a_007.wav",100
Sample,108955,0,"bass_b_009.wav",100
Sample,108955,0,"acid_031.wav",100
Sample,109091,0,"hapsi_034.wav",100
Sample,109091,0,"drum_016.wav",100
Sample,109091,0,"hihat_b_001.wav",100
Sample,109091,0,"drum_032.wav",100
Sample,109091,0,"acid_033.wav",100
Sample,109159,0,"acid_034.wav",100
Sample,109159,0,"drum_018.wav",100
Sample,109227,0,"drum_016.wav",100
Sample,109227,0,"bass_a_003.wav",100
Sample,109227,0,"hihat_b_002.wav",100
Sample,109227,0,"hapsi_026.wav",100
Sample,109227,0,"bass_b_007.wav",100
Sample,109227,0,"acid_035.wav",100
Sample,109295,0,"acid_036.wav",100
Sample,109295,0,"drum_018.wav",100
Sample,109364,0,"drum_020.wav",100
Sample,109364,0,"hihat_b_003.wav",100
Sample,109364,0,"drum_032.wav",100
Sample,109364,0,"hapsi_044.wav",100
Sample,109364,0,"acid_037.wav",100
Sample,109432,0,"acid_038.wav",100
Sample,109500,0,"bass_a_003.wav",100
Sample,109500,0,"acid_039.wav",100
Sample,109500,0,"bass_b_007.wav",100
Sample,109500,0,"hihat_b_004.wav",100
Sample,109568,0,"acid_040.wav",100
Sample,109568,0,"hihat_b_005.wav",100
Sample,109636,0,"drum_018.wav",100
Sample,109636,0,"hihat_b_006.wav",100
Sample,109636,0,"drum_032.wav",100
Sample,109636,0,"hapsi_034.wav",100
Sample,109636,0,"acid_041.wav",100
Sample,109705,0,"acid_042.wav",100
Sample,109705,0,"drum_016.wav",100
Sample,109705,0,"hihat_b_007.wav",100
Sample,109773,0,"hihat_b_008.wav",100
Sample,109773,0,"bass_a_003.wav",100
Sample,109773,0,"bass_b_007.wav",100
Sample,109773,0,"drum_020.wav",100
Sample,109773,0,"acid_043.wav",100
Sample,109841,0,"acid_044.wav",100
Sample,109909,0,"drum_032.wav",100
Sample,109909,0,"acid_045.wav",100
Sample,109909,0,"hihat_b_009.wav",100
Sample,109909,0,"drum_018.wav",100
Sample,109977,0,"acid_046.wav",100
Sample,109977,0,"drum_016.wav",100
Sample,110045,0,"bass_a_003.wav",100
Sample,110045,0,"bass_b_007.wav",100
Sample,110045,0,"acid_047.wav",100
Sample,110045,0,"drum_020.wav",100
Sample,110045,0,"hapsi_048.wav",100
Sample,110045,0,"hihat_b_010.wav",100
Sample,110114,0,"acid_048.wav",100
Sample,110182,0,"hapsi_031.wav",100
Sample,110182,0,"hapsi_023.wav",100
Sample,110182,0,"drum_032.wav",100
Sample,110182,0,"drum_016.wav",100
Sample,110182,0,"hihat_b_011.wav",100
Sample,110182,0,"acid_049.wav",100
Sample,110250,0,"drum_018.wav",100
Sample,110250,0,"acid_050.wav",100
Sample,110318,0,"hapsi_010.wav",100
Sample,110318,0,"acid_051.wav",100
Sample,110318,0,"drum_001.wav",100
Sample,110318,0,"drum_016.wav",100
Sample,110318,0,"bass_a_002.wav",100
Sample,110318,0,"hihat_b_012.wav",100
Sample,110318,0,"hapsi_039.wav",100
Sample,110318,0,"bass_b_006.wav",100
Sample,110386,0,"drum_018.wav",100
Sample,110386,0,"acid_052.wav",100
Sample,110455,0,"drum_032.wav",100
Sample,110455,0,"hapsi_031.wav",100
Sample,110455,0,"hapsi_023.wav",100
Sample,110455,0,"hihat_b_013.wav",100
Sample,110455,0,"drum_020.wav",100
Sample,110455,0,"acid_053.wav",100
Sample,110523,0,"acid_054.wav",100
Sample,110591,0,"hapsi_050.wav",100
Sample,110591,0,"hihat_b_014.wav",100
Sample,110591,0,"drum_018.wav",100
Sample,110591,0,"bass_a_002.wav",100
Sample,110591,0,"acid_055.wav",100
Sample,110591,0,"hapsi_057.wav",100
Sample,110591,0,"bass_b_006.wav",100
Sample,110591,0,"drum_004.wav",100
Sample,110659,0,"drum_016.wav",100
Sample,110659,0,"hihat_b_015.wav",100
Sample,110659,0,"acid_056.wav",100
Sample,110727,0,"hihat_b_016.wav",100
Sample,110727,0,"acid_057.wav",100
Sample,110727,0,"drum_021.wav",100
Sample,110727,0,"hapsi_031.wav",100
Sample,110727,0,"hapsi_039.wav",100
Sample,110727,0,"drum_001.wav",100
Sample,110727,0,"drum_032.wav",100
Sample,110795,0,"drum_018.wav",100
Sample,110795,0,"hihat_b_017.wav",100
Sample,110795,0,"acid_058.wav",100
Sample,110864,0,"hihat_b_018.wav",100
Sample,110864,0,"acid_059.wav",100
Sample,110864,0,"drum_016.wav",100
Sample,110864,0,"bass_b_006.wav",100
Sample,110864,0,"bass_a_002.wav",100
Sample,110932,0,"acid_060.wav",100
Sample,110932,0,"drum_021.wav",100
Sample,111000,0,"drum_032.wav",100
Sample,111000,0,"hapsi_044.wav",100
Sample,111000,0,"drum_018.wav",100
Sample,111000,0,"hihat_b_019.wav",100
Sample,111000,0,"acid_061.wav",100
Sample,111068,0,"drum_016.wav",100
Sample,111068,0,"acid_062.wav",100
Sample,111136,0,"hihat_b_020.wav",100
Sample,111136,0,"acid_063.wav",100
Sample,111136,0,"bass_b_006.wav",100
Sample,111136,0,"hapsi_048.wav",100
Sample,111136,0,"bass_a_002.wav",100
Sample,111205,0,"acid_064.wav",100
Sample,111273,0,"acid_065.wav",100
Sample,111273,0,"hapsi_059.wav",100
Sample,111273,0,"drum_016.wav",100
Sample,111273,0,"hihat_b_001.wav",100
Sample,111341,0,"drum_018.wav",100
Sample,111341,0,"acid_066.wav",100
Sample,111409,0,"drum_016.wav",100
Sample,111409,0,"hihat_b_002.wav",100
Sample,111409,0,"bass_b_007.wav",100
Sample,111409,0,"acid_067.wav",100
Sample,111409,0,"bass_a_003.wav",100
Sample,111477,0,"drum_018.wav",100
Sample,111477,0,"acid_068.wav",100
Sample,111545,0,"drum_032.wav",100
Sample,111545,0,"acid_069.wav",100
Sample,111545,0,"hihat_b_003.wav",100
Sample,111614,0,"acid_070.wav",100
Sample,111682,0,"bass_b_007.wav",100
Sample,111682,0,"hihat_b_004.wav",100
Sample,111682,0,"bass_a_003.wav",100
Sample,111682,0,"drum_018.wav",100
Sample,111682,0,"acid_071.wav",100
Sample,111750,0,"acid_072.wav",100
Sample,111750,0,"drum_016.wav",100
Sample,111750,0,"hihat_b_005.wav",100
Sample,111818,0,"drum_018.wav",100
Sample,111818,0,"hihat_b_006.wav",100
Sample,111818,0,"drum_032.wav",100
Sample,111818,0,"acid_073.wav",100
Sample,111886,0,"hihat_b_007.wav",100
Sample,111886,0,"drum_016.wav",100
Sample,111886,0,"acid_074.wav",100
Sample,111955,0,"bass_a_003.wav",100
Sample,111955,0,"hihat_b_008.wav",100
Sample,111955,0,"bass_b_007.wav",100
Sample,111955,0,"drum_020.wav",100
Sample,111955,0,"hapsi_053.wav",100
Sample,111955,0,"acid_075.wav",100
Sample,112091,0,"drum_018.wav",100
Sample,112091,0,"acid_077.wav",100
Sample,112091,0,"hihat_b_009.wav",100
Sample,112091,0,"hapsi_050.wav",100
Sample,112091,0,"drum_032.wav",100
Sample,112159,0,"acid_078.wav",100
Sample,112159,0,"drum_016.wav",100
Sample,112227,0,"bass_b_007.wav",100
Sample,112227,0,"hihat_b_010.wav",100
Sample,112227,0,"hapsi_044.wav",100
Sample,112227,0,"bass_a_003.wav",100
Sample,112227,0,"acid_079.wav",100
Sample,112295,0,"acid_080.wav",100
Sample,112364,0,"strlg_017.wav",100
Sample,112364,0,"hihat_b_011.wav",100
Sample,112364,0,"drum_016.wav",100
Sample,112364,0,"drum_032.wav",100
Sample,112364,0,"acid_081.wav",100
Sample,112432,0,"drum_018.wav",100
Sample,112432,0,"acid_082.wav",100
Sample,112500,0,"drum_020.wav",100
Sample,112500,0,"acid_083.wav",100
Sample,112500,0,"bass_a_007.wav",100
Sample,112500,0,"bass_b_009.wav",100
Sample,112500,0,"hihat_b_012.wav",100
Sample,112568,0,"acid_084.wav",100
Sample,112636,0,"drum_004.wav",100
Sample,112636,0,"drum_016.wav",100
Sample,112636,0,"drum_032.wav",100
Sample,112636,0,"hapsi_057.wav",100
Sample,112636,0,"hihat_b_013.wav",100
Sample,112705,0,"drum_018.wav",100
Sample,112773,0,"drum_001.wav",100
Sample,112773,0,"bass_a_007.wav",100
Sample,112773,0,"drum_016.wav",100
Sample,112773,0,"hapsi_048.wav",100
Sample,112773,0,"acid_087.wav",100
Sample,112773,0,"bass_b_009.wav",100
Sample,112841,0,"drum_018.wav",100
Sample,112841,0,"acid_088.wav",100
Sample,112909,0,"hihat_b_016.wav",100
Sample,112909,0,"hapsi_050.wav",100
Sample,112909,0,"drum_020.wav",100
Sample,112909,0,"drum_032.wav",100
Sample,112977,0,"hihat_b_017.wav",100
Sample,112977,0,"acid_090.wav",100
Sample,113045,0,"drum_018.wav",100
Sample,113045,0,"acid_091.wav",100
Sample,113045,0,"hihat_b_018.wav",100
Sample,113045,0,"bass_a_007.wav",100
Sample,113045,0,"bass_b_009.wav",100
Sample,113114,0,"acid_092.wav",100
Sample,113114,0,"drum_016.wav",100
Sample,113182,0,"drum_032.wav",100
Sample,113182,0,"acid_093.wav",100
Sample,113182,0,"drum_018.wav",100
Sample,113182,0,"hihat_b_019.wav",100
Sample,113250,0,"acid_094.wav",100
Sample,113250,0,"drum_016.wav",100
Sample,113318,0,"bass_a_007.wav",100
Sample,113318,0,"drum_020.wav",100
Sample,113318,0,"bass_b_009.wav",100
Sample,113318,0,"hihat_b_020.wav",100
Sample,113318,0,"acid_095.wav",100
Sample,113386,0,"acid_096.wav",100
Sample,113455,0,"acid_097.wav",100
Sample,113455,0,"drum_016.wav",100
Sample,113455,0,"hihat_b_001.wav",100
Sample,113523,0,"drum_018.wav",100
Sample,113523,0,"acid_098.wav",100
Sample,113591,0,"drum_016.wav",100
Sample,113591,0,"hihat_b_002.wav",100
Sample,113591,0,"bass_b_008.wav",100
Sample,113591,0,"acid_099.wav",100
Sample,113591,0,"bass_a_005.wav",100
Sample,113659,0,"drum_018.wav",100
Sample,113659,0,"acid_100.wav",100
Sample,113727,0,"hihat_b_003.wav",100
Sample,113727,0,"drum_032.wav",100
Sample,113727,0,"acid_101.wav",100
Sample,113795,0,"acid_102.wav",100
Sample,113864,0,"bass_b_008.wav",100
Sample,113864,0,"hihat_b_004.wav",100
Sample,113864,0,"bass_a_005.wav",100
Sample,113864,0,"strlg_097.wav",100
Sample,113864,0,"acid_103.wav",100
Sample,113932,0,"hihat_b_005.wav",100
Sample,113932,0,"acid_104.wav",100
Sample,113932,0,"drum_016.wav",100
Sample,114000,0,"drum_032.wav",100
Sample,114000,0,"acid_105.wav",100
Sample,114000,0,"hihat_b_006.wav",100
Sample,114000,0,"drum_018.wav",100
Sample,114068,0,"hihat_b_007.wav",100
Sample,114068,0,"drum_016.wav",100
Sample,114068,0,"acid_106.wav",100
Sample,114136,0,"bass_a_005.wav",100
Sample,114136,0,"acid_107.wav",100
Sample,114136,0,"drum_020.wav",100
Sample,114136,0,"bass_b_008.wav",100
Sample,114136,0,"hihat_b_008.wav",100
Sample,114273,0,"drum_004.wav",100
Sample,114273,0,"drum_032.wav",100
Sample,114273,0,"hihat_b_009.wav",100
Sample,114273,0,"drum_018.wav",100
Sample,114273,0,"acid_109.wav",100
Sample,114341,0,"drum_016.wav",100
Sample,114341,0,"acid_110.wav",100
Sample,114409,0,"drum_020.wav",100
Sample,114409,0,"hihat_b_010.wav",100
Sample,114409,0,"bass_b_008.wav",100
Sample,114409,0,"bass_a_005.wav",100
Sample,114409,0,"hapsi_026.wav",100
Sample,114409,0,"acid_111.wav",100
Sample,114477,0,"acid_112.wav",100
Sample,114545,0,"acid_113.wav",100
Sample,114545,0,"drum_032.wav",100
Sample,114545,0,"drum_016.wav",100
Sample,114545,0,"hapsi_031.wav",100
Sample,114545,0,"hihat_b_011.wav",100
Sample,114614,0,"acid_114.wav",100
Sample,114614,0,"drum_018.wav",100
Sample,114682,0,"bass_a_008.wav",100
Sample,114682,0,"drum_016.wav",100
Sample,114682,0,"hapsi_037.wav",100
Sample,114682,0,"acid_115.wav",100
Sample,114682,0,"hihat_b_012.wav",100
Sample,114682,0,"bass_b_010.wav",100
Sample,114682,0,"drum_001.wav",100
Sample,114750,0,"acid_116.wav",100
Sample,114750,0,"drum_018.wav",100
Sample,114818,0,"drum_020.wav",100
Sample,114818,0,"hihat_b_013.wav",100
Sample,114818,0,"drum_032.wav",100
Sample,114818,0,"hapsi_042.wav",100
Sample,114818,0,"acid_117.wav",100
Sample,114886,0,"acid_118.wav",100
Sample,114955,0,"hihat_b_014.wav",100
Sample,114955,0,"bass_b_010.wav",100
Sample,114955,0,"drum_018.wav",100
Sample,114955,0,"drum_004.wav",100
Sample,114955,0,"bass_a_008.wav",100
Sample,114955,0,"hapsi_031.wav",100
Sample,114955,0,"acid_119.wav",100
Sample,115023,0,"hihat_b_015.wav",100
Sample,115023,0,"acid_120.wav",100
Sample,115091,0,"lead_182.wav",100
Sample,115091,0,"hapsi_050.wav",100
Sample,115091,0,"acid_121.wav",100
Sample,115091,0,"drum_001.wav",100
Sample,115159,0,"acid_122.wav",100
Sample,115227,0,"hapsi_048.wav",100
Sample,115227,0,"hapsi_042.wav",100
Sample,115227,0,"acid_123.wav",100
Sample,115227,0,"lead_183.wav",100
Sample,115227,0,"bass_b_010.wav",100
Sample,115227,0,"bass_a_008.wav",100
Sample,115295,0,"acid_124.wav",100
Sample,115364,0,"hapsi_020.wav",100
Sample,115364,0,"hapsi_031.wav",100
Sample,115364,0,"drum_004.wav",100
Sample,115364,0,"acid_125.wav",100
Sample,115432,0,"acid_126.wav",100
Sample,115500,0,"hapsi_011.wav",100
Sample,115500,0,"bass_a_008.wav",100
Sample,115500,0,"acid_127.wav",100
Sample,115500,0,"bass_b_010.wav",100
Sample,115500,0,"hapsi_042.wav",100
Sample,115500,0,"lead_184.wav",100
Sample,115568,0,"acid_128.wav",100
Sample,115568,0,"lead_061.wav",100
Sample,115636,0,"drum_016.wav",100
Sample,115636,0,"strlg_001.wav",100
Sample,115636,0,"hapsi_031.wav",100
Sample,115636,0,"acid_001.wav",100
Sample,115636,0,"hapsi_044.wav",100
Sample,115636,0,"hihat_b_001.wav",100
Sample,115705,0,"drum_018.wav",100
Sample,115705,0,"acid_002.wav",100
Sample,115773,0,"drum_016.wav",100
Sample,115773,0,"hapsi_005.wav",100
Sample,115773,0,"bass_b_011.wav",100
Sample,115773,0,"acid_003.wav",100
Sample,115773,0,"bass_a_009.wav",100
Sample,115773,0,"hapsi_023.wav",100
Sample,115773,0,"hihat_b_002.wav",100
Sample,115841,0,"acid_004.wav",100
Sample,115841,0,"drum_018.wav",100
Sample,115909,0,"hapsi_031.wav",100
Sample,115909,0,"drum_032.wav",100
Sample,115909,0,"hihat_b_003.wav",100
Sample,115909,0,"acid_005.wav",100
Sample,115909,0,"hapsi_014.wav",100
Sample,115909,0,"drum_020.wav",100
Sample,115977,0,"acid_006.wav",100
Sample,116045,0,"hapsi_044.wav",100
Sample,116045,0,"hihat_b_004.wav",100
Sample,116045,0,"acid_007.wav",100
Sample,116045,0,"drum_018.wav",100
Sample,116045,0,"bass_b_011.wav",100
Sample,116045,0,"strlg_002.wav",100
Sample,116045,0,"bass_a_009.wav",100
Sample,116045,0,"hapsi_057.wav",100
Sample,116114,0,"drum_016.wav",100
Sample,116114,0,"hihat_b_005.wav",100
Sample,116114,0,"acid_008.wav",100
Sample,116182,0,"drum_032.wav",100
Sample,116182,0,"drum_018.wav",100
Sample,116182,0,"hihat_b_006.wav",100
Sample,116182,0,"acid_009.wav",100
Sample,116182,0,"hapsi_031.wav",100
Sample,116182,0,"hapsi_023.wav",100
Sample,116250,0,"drum_016.wav",100
Sample,116250,0,"acid_010.wav",100
Sample,116250,0,"hihat_b_007.wav",100
Sample,116318,0,"bass_a_009.wav",100
Sample,116318,0,"hihat_b_008.wav",100
Sample,116318,0,"acid_011.wav",100
Sample,116318,0,"hapsi_044.wav",100
Sample,116318,0,"bass_b_011.wav",100
Sample,116318,0,"strlg_003.wav",100
Sample,116318,0,"drum_020.wav",100
Sample,116318,0,"hapsi_050.wav",100
Sample,116386,0,"acid_012.wav",100
Sample,116455,0,"drum_018.wav",100
Sample,116455,0,"drum_032.wav",100
Sample,116455,0,"hapsi_014.wav",100
Sample,116455,0,"hapsi_031.wav",100
Sample,116455,0,"hihat_b_009.wav",100
Sample,116455,0,"acid_013.wav",100
Sample,116523,0,"acid_014.wav",100
Sample,116523,0,"drum_016.wav",100
Sample,116591,0,"hihat_b_010.wav",100
Sample,116591,0,"hapsi_044.wav",100
Sample,116591,0,"bass_b_011.wav",100
Sample,116591,0,"drum_020.wav",100
Sample,116591,0,"acid_015.wav",100
Sample,116591,0,"hapsi_048.wav",100
Sample,116591,0,"bass_a_009.wav",100
Sample,116591,0,"strlg_004.wav",100
Sample,116659,0,"acid_016.wav",100
Sample,116727,0,"hihat_b_011.wav",100
Sample,116727,0,"drum_032.wav",100
Sample,116727,0,"drum_016.wav",100
Sample,116727,0,"acid_017.wav",100
Sample,116727,0,"hapsi_031.wav",100
Sample,116727,0,"hapsi_039.wav",100
Sample,116795,0,"drum_018.wav",100
Sample,116795,0,"acid_018.wav",100
Sample,116864,0,"drum_020.wav",100
Sample,116864,0,"strlg_005.wav",100
Sample,116864,0,"bass_b_009.wav",100
Sample,116864,0,"hihat_b_012.wav",100
Sample,116864,0,"hapsi_044.wav",100
Sample,116864,0,"bass_a_007.wav",100
Sample,116864,0,"acid_019.wav",100
Sample,116864,0,"hapsi_050.wav",100
Sample,116932,0,"acid_020.wav",100
Sample,117000,0,"hapsi_048.wav",100
Sample,117000,0,"hihat_b_013.wav",100
Sample,117000,0,"drum_032.wav",100
Sample,117000,0,"acid_021.wav",100
Sample,117000,0,"strlg_006.wav",100
Sample,117000,0,"hapsi_031.wav",100
Sample,117000,0,"drum_016.wav",100
Sample,117068,0,"drum_018.wav",100
Sample,117068,0,"acid_022.wav",100
Sample,117136,0,"hapsi_023.wav",100
Sample,117136,0,"drum_016.wav",100
Sample,117136,0,"acid_023.wav",100
Sample,117136,0,"hapsi_039.wav",100
Sample,117136,0,"bass_b_009.wav",100
Sample,117136,0,"strlg_007.wav",100
Sample,117136,0,"bass_a_007.wav",100
Sample,117136,0,"hihat_b_014.wav",100
Sample,117205,0,"hihat_b_015.wav",100
Sample,117205,0,"acid_024.wav",100
Sample,117205,0,"drum_018.wav",100
Sample,117273,0,"drum_020.wav",100
Sample,117273,0,"hapsi_031.wav",100
Sample,117273,0,"hihat_b_016.wav",100
Sample,117273,0,"acid_025.wav",100
Sample,117273,0,"strlg_008.wav",100
Sample,117273,0,"hapsi_020.wav",100
Sample,117273,0,"drum_032.wav",100
Sample,117341,0,"hihat_b_017.wav",100
Sample,117341,0,"acid_026.wav",100
Sample,117409,0,"acid_027.wav",100
Sample,117409,0,"drum_018.wav",100
Sample,117409,0,"bass_b_009.wav",100
Sample,117409,0,"hapsi_010.wav",100
Sample,117409,0,"bass_a_007.wav",100
Sample,117409,0,"hapsi_005.wav",100
Sample,117409,0,"hihat_b_018.wav",100
Sample,117477,0,"acid_028.wav",100
Sample,117477,0,"drum_016.wav",100
Sample,117545,0,"acid_029.wav",100
Sample,117545,0,"drum_018.wav",100
Sample,117545,0,"hapsi_031.wav",100
Sample,117545,0,"drum_032.wav",100
Sample,117545,0,"strlg_009.wav",100
Sample,117545,0,"hihat_b_019.wav",100
Sample,117545,0,"hapsi_039.wav",100
Sample,117614,0,"acid_030.wav",100
Sample,117614,0,"drum_016.wav",100
Sample,117682,0,"hapsi_020.wav",100
Sample,117682,0,"hapsi_010.wav",100
Sample,117682,0,"bass_b_009.wav",100
Sample,117682,0,"drum_020.wav",100
Sample,117682,0,"bass_a_007.wav",100
Sample,117682,0,"acid_031.wav",100
Sample,117682,0,"hihat_b_020.wav",100
Sample,117750,0,"acid_032.wav",100
Sample,117818,0,"acid_129.wav",100
Sample,117818,0,"hihat_b_001.wav",100
Sample,117818,0,"strlg_010.wav",100
Sample,117818,0,"drum_032.wav",100
Sample,117818,0,"hapsi_037.wav",100
Sample,117818,0,"drum_016.wav",100
Sample,117818,0,"hapsi_044.wav",100
Sample,117886,0,"acid_130.wav",100
Sample,117886,0,"drum_018.wav",100
Sample,117955,0,"hapsi_048.wav",100
Sample,117955,0,"bass_b_008.wav",100
Sample,117955,0,"hihat_b_002.wav",100
Sample,117955,0,"acid_131.wav",100
Sample,117955,0,"drum_016.wav",100
Sample,117955,0,"bass_a_005.wav",100
Sample,117955,0,"hapsi_026.wav",100
Sample,117955,0,"strlg_006.wav",100
Sample,118023,0,"acid_132.wav",100
Sample,118023,0,"drum_018.wav",100
Sample,118091,0,"acid_133.wav",100
Sample,118091,0,"hihat_b_003.wav",100
Sample,118091,0,"drum_020.wav",100
Sample,118091,0,"hapsi_044.wav",100
Sample,118091,0,"strlg_003.wav",100
Sample,118091,0,"drum_032.wav",100
Sample,118091,0,"hapsi_050.wav",100
Sample,118159,0,"acid_134.wav",100
Sample,118227,0,"hapsi_026.wav",100
Sample,118227,0,"bass_a_005.wav",100
Sample,118227,0,"drum_018.wav",100
Sample,118227,0,"acid_135.wav",100
Sample,118227,0,"bass_b_008.wav",100
Sample,118227,0,"hihat_b_004.wav",100
Sample,118227,0,"hapsi_014.wav",100
Sample,118295,0,"drum_016.wav",100
Sample,118295,0,"acid_136.wav",100
Sample,118295,0,"hihat_b_005.wav",100
Sample,118364,0,"acid_137.wav",100
Sample,118364,0,"drum_018.wav",100
Sample,118364,0,"drum_032.wav",100
Sample,118364,0,"hapsi_048.wav",100
Sample,118364,0,"strlg_006.wav",100
Sample,118364,0,"hapsi_037.wav",100
Sample,118364,0,"hihat_b_006.wav",100
Sample,118432,0,"drum_016.wav",100
Sample,118432,0,"hihat_b_007.wav",100
Sample,118432,0,"acid_138.wav",100
Sample,118500,0,"drum_020.wav",100
Sample,118500,0,"hihat_b_008.wav",100
Sample,118500,0,"hapsi_039.wav",100
Sample,118500,0,"acid_139.wav",100
Sample,118500,0,"hapsi_050.wav",100
Sample,118500,0,"bass_b_008.wav",100
Sample,118500,0,"bass_a_005.wav",100
Sample,118500,0,"strlg_005.wav",100
Sample,118568,0,"acid_140.wav",100
Sample,118636,0,"acid_141.wav",100
Sample,118636,0,"hapsi_053.wav",100
Sample,118636,0,"drum_018.wav",100
Sample,118636,0,"hihat_b_009.wav",100
Sample,118636,0,"hapsi_044.wav",100
Sample,118636,0,"drum_032.wav",100
Sample,118636,0,"strlg_011.wav",100
Sample,118705,0,"drum_016.wav",100
Sample,118705,0,"acid_142.wav",100
Sample,118773,0,"hapsi_048.wav",100
Sample,118773,0,"bass_b_008.wav",100
Sample,118773,0,"drum_020.wav",100
Sample,118773,0,"acid_143.wav",100
Sample,118773,0,"hapsi_057.wav",100
Sample,118773,0,"bass_a_005.wav",100
Sample,118773,0,"hihat_b_010.wav",100
Sample,118773,0,"strlg_012.wav",100
Sample,118841,0,"acid_144.wav",100
Sample,118909,0,"hihat_b_011.wav",100
Sample,118909,0,"acid_145.wav",100
Sample,118909,0,"hapsi_034.wav",100
Sample,118909,0,"drum_016.wav",100
Sample,118909,0,"hapsi_023.wav",100
Sample,118909,0,"drum_032.wav",100
Sample,118977,0,"acid_146.wav",100
Sample,118977,0,"drum_018.wav",100
Sample,119045,0,"drum_016.wav",100
Sample,119045,0,"hapsi_044.wav",100
Sample,119045,0,"bass_a_003.wav",100
Sample,119045,0,"hihat_b_012.wav",100
Sample,119045,0,"hapsi_014.wav",100
Sample,119045,0,"acid_147.wav",100
Sample,119045,0,"bass_b_007.wav",100
Sample,119114,0,"acid_148.wav",100
Sample,119114,0,"drum_018.wav",100
Sample,119182,0,"hapsi_023.wav",100
Sample,119182,0,"acid_149.wav",100
Sample,119182,0,"hihat_b_013.wav",100
Sample,119182,0,"drum_032.wav",100
Sample,119182,0,"hapsi_034.wav",100
Sample,119182,0,"drum_020.wav",100
Sample,119250,0,"acid_150.wav",100
Sample,119318,0,"hihat_b_014.wav",100
Sample,119318,0,"acid_151.wav",100
Sample,119318,0,"drum_018.wav",100
Sample,119318,0,"hapsi_057.wav",100
Sample,119318,0,"bass_a_003.wav",100
Sample,119318,0,"hapsi_050.wav",100
Sample,119318,0,"bass_b_007.wav",100
Sample,119386,0,"hihat_b_015.wav",100
Sample,119386,0,"drum_016.wav",100
Sample,119386,0,"acid_152.wav",100
Sample,119455,0,"acid_153.wav",100
Sample,119455,0,"hapsi_034.wav",100
Sample,119455,0,"hapsi_044.wav",100
Sample,119455,0,"drum_021.wav",100
Sample,119455,0,"hihat_b_016.wav",100
Sample,119455,0,"drum_032.wav",100
Sample,119523,0,"acid_154.wav",100
Sample,119523,0,"drum_018.wav",100
Sample,119523,0,"hihat_b_017.wav",100
Sample,119591,0,"acid_155.wav",100
Sample,119591,0,"bass_a_003.wav",100
Sample,119591,0,"hihat_b_018.wav",100
Sample,119591,0,"hapsi_023.wav",100
Sample,119591,0,"bass_b_007.wav",100
Sample,119591,0,"hapsi_014.wav",100
Sample,119591,0,"drum_016.wav",100
Sample,119659,0,"acid_156.wav",100
Sample,119659,0,"drum_021.wav",100
Sample,119727,0,"drum_018.wav",100
Sample,119727,0,"acid_157.wav",100
Sample,119727,0,"hapsi_044.wav",100
Sample,119727,0,"drum_004.wav",100
Sample,119727,0,"hihat_b_019.wav",100
Sample,119727,0,"strlg_005.wav",100
Sample,119727,0,"drum_032.wav",100
Sample,119727,0,"hapsi_053.wav",100
Sample,119795,0,"drum_016.wav",100
Sample,119795,0,"acid_158.wav",100
Sample,119864,0,"hihat_b_020.wav",100
Sample,119864,0,"strlg_011.wav",100
Sample,119864,0,"hapsi_048.wav",100
Sample,119864,0,"drum_020.wav",100
Sample,119864,0,"bass_b_007.wav",100
Sample,119864,0,"hapsi_057.wav",100
Sample,119864,0,"acid_159.wav",100
Sample,119864,0,"bass_a_003.wav",100
Sample,119932,0,"acid_160.wav",100
Sample,120000,0,"drum_039.wav",100
Sample,120000,0,"hapsi_053.wav",100
Sample,120000,0,"hihat_b_001.wav",100
Sample,120000,0,"acid_065.wav",100
Sample,120000,0,"strlg_017.wav",100
Sample,120000,0,"hapsi_059.wav",100
Sample,120000,0,"drum_016.wav",100
Sample,120068,0,"acid_066.wav",100
Sample,120068,0,"drum_018.wav",100
Sample,120136,0,"hapsi_057.wav",100
Sample,120136,0,"hapsi_063.wav",100
Sample,120136,0,"acid_067.wav",100
Sample,120136,0,"drum_016.wav",100
Sample,120136,0,"bass_b_005.wav",100
Sample,120136,0,"strlg_016.wav",100
Sample,120136,0,"bass_a_001.wav",100
Sample,120136,0,"hihat_b_002.wav",100
Sample,120205,0,"acid_068.wav",100
Sample,120205,0,"drum_018.wav",100
Sample,120273,0,"hihat_b_003.wav",100
Sample,120273,0,"drum_032.wav",100
Sample,120273,0,"hapsi_050.wav",100
Sample,120273,0,"acid_069.wav",100
Sample,120273,0,"hapsi_059.wav",100
Sample,120273,0,"drum_020.wav",100
Sample,120273,0,"strlg_017.wav",100
Sample,120341,0,"acid_070.wav",100
Sample,120409,0,"hapsi_048.wav",100
Sample,120409,0,"drum_018.wav",100
Sample,120409,0,"acid_071.wav",100
Sample,120409,0,"hihat_b_004.wav",100
Sample,120409,0,"bass_b_005.wav",100
Sample,120409,0,"strlg_011.wav",100
Sample,120409,0,"bass_a_001.wav",100
Sample,120409,0,"hapsi_053.wav",100
Sample,120477,0,"hihat_b_005.wav",100
Sample,120477,0,"drum_016.wav",100
Sample,120477,0,"acid_072.wav",100
Sample,120545,0,"hihat_b_006.wav",100
Sample,120545,0,"hapsi_044.wav",100
Sample,120545,0,"strlg_023.wav",100
Sample,120545,0,"drum_032.wav",100
Sample,120545,0,"drum_018.wav",100
Sample,120545,0,"acid_073.wav",100
Sample,120545,0,"hapsi_050.wav",100
Sample,120614,0,"drum_016.wav",100
Sample,120614,0,"acid_074.wav",100
Sample,120614,0,"hihat_b_007.wav",100
Sample,120682,0,"hapsi_026.wav",100
Sample,120682,0,"bass_a_001.wav",100
Sample,120682,0,"acid_075.wav",100
Sample,120682,0,"bass_b_005.wav",100
Sample,120682,0,"hapsi_034.wav",100
Sample,120682,0,"drum_020.wav",100
Sample,120682,0,"hihat_b_008.wav",100
Sample,120750,0,"acid_076.wav",100
Sample,120818,0,"acid_077.wav",100
Sample,120818,0,"hihat_b_009.wav",100
Sample,120818,0,"drum_018.wav",100
Sample,120818,0,"hapsi_044.wav",100
Sample,120818,0,"strlg_006.wav",100
Sample,120818,0,"hapsi_050.wav",100
Sample,120818,0,"drum_032.wav",100
Sample,120886,0,"acid_078.wav",100
Sample,120886,0,"drum_016.wav",100
Sample,120955,0,"drum_020.wav",100
Sample,120955,0,"hapsi_048.wav",100
Sample,120955,0,"hihat_b_010.wav",100
Sample,120955,0,"acid_079.wav",100
Sample,120955,0,"hapsi_053.wav",100
Sample,120955,0,"strlg_005.wav",100
Sample,120955,0,"bass_b_005.wav",100
Sample,120955,0,"bass_a_001.wav",100
Sample,121023,0,"acid_080.wav",100
Sample,121091,0,"hapsi_050.wav",100
Sample,121091,0,"drum_024.wav",100
Sample,121091,0,"hapsi_057.wav",100
Sample,121091,0,"strlg_011.wav",100
Sample,121091,0,"drum_016.wav",100
Sample,121091,0,"hihat_b_011.wav",100
Sample,121091,0,"acid_081.wav",100
Sample,121159,0,"acid_082.wav",100
Sample,121159,0,"drum_018.wav",100
Sample,121227,0,"hapsi_053.wav",100
Sample,121227,0,"drum_020.wav",100
Sample,121227,0,"acid_083.wav",100
Sample,121227,0,"hihat_b_012.wav",100
Sample,121227,0,"bass_b_006.wav",100
Sample,121227,0,"strlg_017.wav",100
Sample,121227,0,"bass_a_002.wav",100
Sample,121227,0,"hapsi_059.wav",100
Sample,121295,0,"acid_084.wav",100
Sample,121364,0,"drum_032.wav",100
Sample,121364,0,"hapsi_063.wav",100
Sample,121364,0,"hapsi_057.wav",100
Sample,121364,0,"drum_016.wav",100
Sample,121364,0,"strlg_016.wav",100
Sample,121364,0,"hihat_b_013.wav",100
Sample,121364,0,"acid_085.wav",100
Sample,121432,0,"acid_086.wav",100
Sample,121432,0,"drum_018.wav",100
Sample,121500,0,"acid_087.wav",100
Sample,121500,0,"bass_b_006.wav",100
Sample,121500,0,"drum_016.wav",100
Sample,121500,0,"bass_a_002.wav",100
Sample,121500,0,"hapsi_067.wav",100
Sample,121500,0,"strlg_024.wav",100
Sample,121500,0,"hihat_b_014.wav",100
Sample,121500,0,"hapsi_059.wav",100
Sample,121568,0,"hihat_b_015.wav",100
Sample,121568,0,"drum_018.wav",100
Sample,121568,0,"acid_088.wav",100
Sample,121636,0,"drum_032.wav",100
Sample,121636,0,"acid_089.wav",100
Sample,121636,0,"hihat_b_016.wav",100
Sample,121636,0,"drum_020.wav",100
Sample,121636,0,"hapsi_031.wav",100
Sample,121636,0,"hapsi_039.wav",100
Sample,121705,0,"acid_090.wav",100
Sample,121705,0,"hihat_b_017.wav",100
Sample,121773,0,"hapsi_050.wav",100
Sample,121773,0,"hihat_b_018.wav",100
Sample,121773,0,"bass_a_002.wav",100
Sample,121773,0,"acid_091.wav",100
Sample,121773,0,"drum_018.wav",100
Sample,121773,0,"bass_b_006.wav",100
Sample,121773,0,"hapsi_059.wav",100
Sample,121773,0,"strlg_017.wav",100
Sample,121841,0,"acid_092.wav",100
Sample,121841,0,"drum_016.wav",100
Sample,121909,0,"hapsi_057.wav",100
Sample,121909,0,"hihat_b_019.wav",100
Sample,121909,0,"drum_018.wav",100
Sample,121909,0,"acid_093.wav",100
Sample,121909,0,"strlg_011.wav",100
Sample,121909,0,"drum_032.wav",100
Sample,121909,0,"hapsi_048.wav",100
Sample,121977,0,"acid_094.wav",100
Sample,121977,0,"drum_016.wav",100
Sample,122045,0,"acid_095.wav",100
Sample,122045,0,"hihat_b_020.wav",100
Sample,122045,0,"drum_020.wav",100
Sample,122045,0,"hapsi_039.wav",100
Sample,122045,0,"bass_b_006.wav",100
Sample,122045,0,"strlg_005.wav",100
Sample,122045,0,"hapsi_050.wav",100
Sample,122045,0,"bass_a_002.wav",100
Sample,122114,0,"acid_096.wav",100
Sample,122182,0,"acid_033.wav",100
Sample,122182,0,"hapsi_034.wav",100
Sample,122182,0,"piano_187.wav",100
Sample,122182,0,"hapsi_023.wav",100
Sample,122182,0,"strlg_018.wav",100
Sample,122182,0,"drum_040.wav",100
Sample,122227,0,"piano_185.wav",100
Sample,122250,0,"acid_034.wav",100
Sample,122250,0,"drum_018.wav",100
Sample,122273,0,"piano_181.wav",100
Sample,122318,0,"hihat_b_002.wav",100
Sample,122318,0,"bass_b_007.wav",100
Sample,122318,0,"hapsi_044.wav",100
Sample,122318,0,"bass_a_003.wav",100
Sample,122318,0,"hapsi_053.wav",100
Sample,122318,0,"piano_178.wav",100
Sample,122364,0,"piano_176.wav",100
Sample,122386,0,"drum_018.wav",100
Sample,122386,0,"acid_036.wav",100
Sample,122409,0,"piano_172.wav",100
Sample,122455,0,"hapsi_039.wav",100
Sample,122455,0,"drum_020.wav",100
Sample,122455,0,"drum_032.wav",100
Sample,122455,0,"hihat_b_003.wav",100
Sample,122455,0,"piano_169.wav",100
Sample,122455,0,"strlg_017.wav",100
Sample,122500,0,"piano_167.wav",100
Sample,122523,0,"acid_038.wav",100
Sample,122545,0,"piano_163.wav",100
Sample,122591,0,"piano_172.wav",100
Sample,122591,0,"hapsi_044.wav",100
Sample,122591,0,"bass_a_003.wav",100
Sample,122591,0,"drum_018.wav",100
Sample,122591,0,"bass_b_007.wav",100
Sample,122591,0,"hapsi_053.wav",100
Sample,122591,0,"strlg_014.wav",100
Sample,122636,0,"piano_176.wav",100
Sample,122659,0,"hihat_b_005.wav",100
Sample,122659,0,"acid_040.wav",100
Sample,122659,0,"drum_016.wav",100
Sample,122682,0,"piano_178.wav",100
Sample,122727,0,"hapsi_039.wav",100
Sample,122727,0,"hapsi_050.wav",100
Sample,122727,0,"drum_032.wav",100
Sample,122727,0,"hihat_b_006.wav",100
Sample,122727,0,"piano_181.wav",100
Sample,122773,0,"piano_185.wav",100
Sample,122795,0,"drum_016.wav",100
Sample,122795,0,"hihat_b_007.wav",100
Sample,122818,0,"piano_187.wav",100
Sample,122864,0,"bass_a_009.wav",100
Sample,122864,0,"hapsi_053.wav",100
Sample,122864,0,"bass_b_011.wav",100
Sample,122864,0,"hihat_b_008.wav",100
Sample,122864,0,"strlg_024.wav",100
Sample,122864,0,"piano_176.wav",100
Sample,122864,0,"hapsi_044.wav",100
Sample,122909,0,"piano_172.wav",100
Sample,122932,0,"acid_044.wav",100
Sample,122955,0,"piano_169.wav",100
Sample,123000,0,"drum_032.wav",100
Sample,123000,0,"hapsi_048.wav",100
Sample,123000,0,"hapsi_055.wav",100
Sample,123000,0,"hihat_b_009.wav",100
Sample,123000,0,"piano_167.wav",100
Sample,123045,0,"piano_163.wav",100
Sample,123068,0,"acid_046.wav",100
Sample,123068,0,"drum_002.wav",100
Sample,123068,0,"drum_016.wav",100
Sample,123091,0,"piano_176.wav",100
Sample,123136,0,"hapsi_057.wav",100
Sample,123136,0,"piano_178.wav",100
Sample,123136,0,"bass_a_009.wav",100
Sample,123136,0,"hihat_b_010.wav",100
Sample,123136,0,"strlg_102.wav",100
Sample,123136,0,"bass_b_011.wav",100
Sample,123136,0,"hapsi_050.wav",100
Sample,123182,0,"piano_181.wav",100
Sample,123227,0,"piano_185.wav",100
Sample,123273,0,"acid_113.wav",100
Sample,123273,0,"hihat_b_011.wav",100
Sample,123273,0,"hapsi_042.wav",100
Sample,123273,0,"drum_016.wav",100
Sample,123273,0,"hapsi_053.wav",100
Sample,123273,0,"drum_027.wav",100
Sample,123341,0,"acid_114.wav",100
Sample,123341,0,"drum_018.wav",100
Sample,123409,0,"bass_b_013.wav",100
Sample,123409,0,"strlg_011.wav",100
Sample,123409,0,"hihat_b_012.wav",100
Sample,123409,0,"acid_115.wav",100
Sample,123409,0,"hapsi_048.wav",100
Sample,123409,0,"hapsi_059.wav",100
Sample,123409,0,"bass_a_011.wav",100
Sample,123409,0,"drum_016.wav",100
Sample,123477,0,"acid_116.wav",100
Sample,123477,0,"drum_018.wav",100
Sample,123545,0,"drum_020.wav",100
Sample,123545,0,"acid_117.wav",100
Sample,123545,0,"strlg_100.wav",100
Sample,123545,0,"hihat_b_013.wav",100
Sample,123545,0,"hapsi_065.wav",100
Sample,123545,0,"drum_032.wav",100
Sample,123545,0,"hapsi_053.wav",100
Sample,123545,0,"se_rev_cymb.wav",100
Sample,123614,0,"acid_118.wav",100
Sample,123682,0,"acid_119.wav",100
Sample,123682,0,"hihat_b_014.wav",100
Sample,123682,0,"hapsi_067.wav",100
Sample,123682,0,"strlg_099.wav",100
Sample,123682,0,"bass_b_013.wav",100
Sample,123682,0,"drum_018.wav",100
Sample,123682,0,"bass_a_011.wav",100
Sample,123682,0,"hapsi_057.wav",100
Sample,123750,0,"acid_120.wav",100
Sample,123750,0,"drum_016.wav",100
Sample,123750,0,"hihat_b_015.wav",100
Sample,123818,0,"drum_023.wav",100
Sample,123818,0,"hapsi_069.wav",100
Sample,123818,0,"drum_039.wav",100
Sample,123818,0,"acid_121.wav",100
Sample,123818,0,"lead_243.wav",100
Sample,123818,0,"strlg_098.wav",100
Sample,123818,0,"hihat_b_016.wav",100
Sample,123818,0,"hapsi_059.wav",100
Sample,123886,0,"drum_023.wav",100
Sample,123886,0,"hihat_b_017.wav",100
Sample,123886,0,"acid_122.wav",100
Sample,123955,0,"acid_123.wav",100
Sample,123955,0,"bass_a_011.wav",100
Sample,123955,0,"strlg_099.wav",100
Sample,123955,0,"lead_244.wav",100
Sample,123955,0,"hapsi_067.wav",100
Sample,123955,0,"drum_022.wav",100
Sample,123955,0,"hapsi_057.wav",100
Sample,123955,0,"bass_b_013.wav",100
Sample,123955,0,"hihat_b_018.wav",100
Sample,124023,0,"drum_022.wav",100
Sample,124023,0,"acid_124.wav",100
Sample,124091,0,"hapsi_065.wav",100
Sample,124091,0,"hihat_b_019.wav",100
Sample,124091,0,"drum_032.wav",100
Sample,124091,0,"hapsi_053.wav",100
Sample,124091,0,"strlg_103.wav",100
Sample,124091,0,"lead_245.wav",100
Sample,124091,0,"acid_125.wav",100
Sample,124091,0,"drum_019.wav",100
Sample,124159,0,"acid_126.wav",100
Sample,124159,0,"drum_019.wav",100
Sample,124227,0,"hapsi_042.wav",100
Sample,124227,0,"bass_a_011.wav",100
Sample,124227,0,"bass_b_013.wav",100
Sample,124227,0,"hihat_b_020.wav",100
Sample,124227,0,"drum_017.wav",100
Sample,124227,0,"acid_127.wav",100
Sample,124227,0,"hapsi_048.wav",100
Sample,124295,0,"drum_017.wav",100
Sample,124295,0,"acid_128.wav",100
Sample,124364,0,"piano_151.wav",100
Sample,124364,0,"BGM_05.wav",100
Sample,124364,0,"strlg_104.wav",100
Sample,124364,0,"acid_001.wav",100
Sample,124364,0,"hihat_a_001.wav",100
Sample,124364,0,"hapsi_015.wav",100
Sample,124432,0,"hihat_a_002.wav",100
Sample,124432,0,"drum_018.wav",100
Sample,124432,0,"acid_002.wav",100
Sample,124455,0,"hapsi_021.wav",100
Sample,124500,0,"hihat_a_003.wav",100
Sample,124500,0,"drum_020.wav",100
Sample,124500,0,"acid_003.wav",100
Sample,124500,0,"bass_a_009.wav",100
Sample,124545,0,"hapsi_024.wav",100
Sample,124568,0,"hihat_a_004.wav",100
Sample,124568,0,"acid_004.wav",100
Sample,124636,0,"acid_005.wav",100
Sample,124636,0,"hihat_a_005.wav",100
Sample,124636,0,"drum_032.wav",100
Sample,124636,0,"drum_016.wav",100
Sample,124636,0,"hapsi_027.wav",100
Sample,124705,0,"drum_018.wav",100
Sample,124705,0,"acid_006.wav",100
Sample,124727,0,"hapsi_024.wav",100
Sample,124773,0,"acid_007.wav",100
Sample,124773,0,"hihat_a_006.wav",100
Sample,124773,0,"bass_a_009.wav",100
Sample,124773,0,"drum_020.wav",100
Sample,124818,0,"hapsi_021.wav",100
Sample,124841,0,"hihat_a_007.wav",100
Sample,124841,0,"acid_008.wav",100
Sample,124909,0,"hapsi_015.wav",100
Sample,124909,0,"acid_009.wav",100
Sample,124909,0,"drum_016.wav",100
Sample,124909,0,"drum_032.wav",100
Sample,124909,0,"hihat_a_008.wav",100
Sample,124977,0,"drum_018.wav",100
Sample,124977,0,"hihat_a_009.wav",100
Sample,124977,0,"acid_010.wav",100
Sample,125000,0,"hapsi_021.wav",100
Sample,125045,0,"bass_a_009.wav",100
Sample,125045,0,"acid_011.wav",100
Sample,125045,0,"drum_020.wav",100
Sample,125045,0,"hihat_a_010.wav",100
Sample,125091,0,"hapsi_024.wav",100
Sample,125114,0,"hihat_a_011.wav",100
Sample,125114,0,"acid_012.wav",100
Sample,125182,0,"hihat_a_012.wav",100
Sample,125182,0,"acid_013.wav",100
Sample,125182,0,"drum_032.wav",100
Sample,125182,0,"hapsi_027.wav",100
Sample,125182,0,"drum_016.wav",100
Sample,125250,0,"acid_014.wav",100
Sample,125250,0,"drum_018.wav",100
Sample,125273,0,"hapsi_024.wav",100
Sample,125318,0,"hihat_a_013.wav",100
Sample,125318,0,"acid_015.wav",100
Sample,125318,0,"strlg_105.wav",100
Sample,125318,0,"bass_a_007.wav",100
Sample,125318,0,"drum_020.wav",100
Sample,125364,0,"hapsi_021.wav",100
Sample,125386,0,"hihat_a_014.wav",100
Sample,125386,0,"acid_016.wav",100
Sample,125455,0,"drum_016.wav",100
Sample,125455,0,"drum_032.wav",100
Sample,125455,0,"acid_017.wav",100
Sample,125455,0,"hihat_a_015.wav",100
Sample,125455,0,"hapsi_015.wav",100
Sample,125523,0,"hihat_a_016.wav",100
Sample,125523,0,"drum_018.wav",100
Sample,125523,0,"acid_018.wav",100
Sample,125545,0,"hapsi_021.wav",100
Sample,125591,0,"acid_019.wav",100
Sample,125591,0,"hihat_a_017.wav",100
Sample,125591,0,"bass_a_007.wav",100
Sample,125591,0,"drum_020.wav",100
Sample,125636,0,"hapsi_024.wav",100
Sample,125659,0,"acid_020.wav",100
Sample,125659,0,"hihat_a_018.wav",100
Sample,125727,0,"drum_016.wav",100
Sample,125727,0,"acid_021.wav",100
Sample,125727,0,"hihat_a_019.wav",100
Sample,125727,0,"drum_032.wav",100
Sample,125727,0,"hapsi_027.wav",100
Sample,125795,0,"acid_022.wav",100
Sample,125795,0,"drum_018.wav",100
Sample,125818,0,"hapsi_024.wav",100
Sample,125864,0,"drum_020.wav",100
Sample,125864,0,"hihat_a_020.wav",100
Sample,125864,0,"bass_a_007.wav",100
Sample,125864,0,"acid_023.wav",100
Sample,125909,0,"hapsi_021.wav",100
Sample,125932,0,"acid_024.wav",100
Sample,125932,0,"hihat_a_021.wav",100
Sample,126000,0,"hihat_a_022.wav",100
Sample,126000,0,"hapsi_015.wav",100
Sample,126000,0,"drum_032.wav",100
Sample,126000,0,"drum_016.wav",100
Sample,126000,0,"acid_025.wav",100
Sample,126068,0,"acid_026.wav",100
Sample,126068,0,"hihat_a_023.wav",100
Sample,126068,0,"drum_018.wav",100
Sample,126091,0,"hapsi_021.wav",100
Sample,126136,0,"hihat_a_024.wav",100
Sample,126136,0,"drum_020.wav",100
Sample,126136,0,"bass_a_007.wav",100
Sample,126136,0,"acid_027.wav",100
Sample,126182,0,"hapsi_024.wav",100
Sample,126205,0,"acid_028.wav",100
Sample,126205,0,"hihat_a_025.wav",100
Sample,126273,0,"hihat_a_026.wav",100
Sample,126273,0,"hapsi_027.wav",100
Sample,126273,0,"drum_032.wav",100
Sample,126273,0,"drum_016.wav",100
Sample,126273,0,"acid_029.wav",100
Sample,126341,0,"drum_018.wav",100
Sample,126341,0,"acid_030.wav",100
Sample,126364,0,"hapsi_024.wav",100
Sample,126409,0,"drum_020.wav",100
Sample,126409,0,"acid_031.wav",100
Sample,126409,0,"bass_a_007.wav",100
Sample,126409,0,"hihat_a_027.wav",100
Sample,126455,0,"hapsi_021.wav",100
Sample,126477,0,"hihat_a_028.wav",100
Sample,126477,0,"acid_032.wav",100
Sample,126545,0,"drum_016.wav",100
Sample,126545,0,"acid_129.wav",100
Sample,126545,0,"drum_032.wav",100
Sample,126545,0,"hapsi_015.wav",100
Sample,126545,0,"strlg_106.wav",100
Sample,126545,0,"hihat_a_001.wav",100
Sample,126614,0,"hihat_a_002.wav",100
Sample,126614,0,"drum_018.wav",100
Sample,126614,0,"acid_130.wav",100
Sample,126636,0,"hapsi_021.wav",100
Sample,126682,0,"hihat_a_003.wav",100
Sample,126682,0,"drum_020.wav",100
Sample,126682,0,"acid_131.wav",100
Sample,126682,0,"bass_a_005.wav",100
Sample,126727,0,"hapsi_024.wav",100
Sample,126750,0,"hihat_a_004.wav",100
Sample,126750,0,"acid_132.wav",100
Sample,126818,0,"drum_032.wav",100
Sample,126818,0,"hihat_a_005.wav",100
Sample,126818,0,"acid_133.wav",100
Sample,126818,0,"drum_016.wav",100
Sample,126818,0,"hapsi_027.wav",100
Sample,126886,0,"drum_018.wav",100
Sample,126886,0,"acid_134.wav",100
Sample,126909,0,"hapsi_024.wav",100
Sample,126955,0,"hihat_a_006.wav",100
Sample,126955,0,"drum_020.wav",100
Sample,126955,0,"bass_a_005.wav",100
Sample,126955,0,"acid_135.wav",100
Sample,127000,0,"hapsi_021.wav",100
Sample,127023,0,"hihat_a_007.wav",100
Sample,127023,0,"acid_136.wav",100
Sample,127091,0,"hapsi_015.wav",100
Sample,127091,0,"acid_137.wav",100
Sample,127091,0,"drum_032.wav",100
Sample,127091,0,"hihat_a_008.wav",100
Sample,127091,0,"drum_016.wav",100
Sample,127159,0,"drum_018.wav",100
Sample,127159,0,"hihat_a_009.wav",100
Sample,127159,0,"acid_138.wav",100
Sample,127182,0,"hapsi_021.wav",100
Sample,127227,0,"bass_a_005.wav",100
Sample,127227,0,"acid_139.wav",100
Sample,127227,0,"drum_020.wav",100
Sample,127227,0,"hihat_a_010.wav",100
Sample,127273,0,"hapsi_024.wav",100
Sample,127295,0,"hihat_a_011.wav",100
Sample,127295,0,"acid_140.wav",100
Sample,127364,0,"hihat_a_012.wav",100
Sample,127364,0,"acid_141.wav",100
Sample,127364,0,"drum_032.wav",100
Sample,127364,0,"hapsi_027.wav",100
Sample,127364,0,"drum_016.wav",100
Sample,127432,0,"acid_142.wav",100
Sample,127432,0,"drum_018.wav",100
Sample,127455,0,"hapsi_024.wav",100
Sample,127500,0,"bass_a_003.wav",100
Sample,127500,0,"acid_143.wav",100
Sample,127500,0,"drum_020.wav",100
Sample,127500,0,"hihat_a_013.wav",100
Sample,127500,0,"strlg_107.wav",100
Sample,127545,0,"hapsi_021.wav",100
Sample,127568,0,"hihat_a_014.wav",100
Sample,127568,0,"acid_144.wav",100
Sample,127636,0,"drum_016.wav",100
Sample,127636,0,"acid_145.wav",100
Sample,127636,0,"hihat_a_015.wav",100
Sample,127636,0,"hapsi_018.wav",100
Sample,127636,0,"drum_030.wav",100
Sample,127705,0,"hihat_a_016.wav",100
Sample,127705,0,"drum_018.wav",100
Sample,127705,0,"acid_146.wav",100
Sample,127727,0,"hapsi_024.wav",100
Sample,127773,0,"bass_a_003.wav",100
Sample,127773,0,"hihat_a_017.wav",100
Sample,127773,0,"acid_147.wav",100
Sample,127773,0,"drum_020.wav",100
Sample,127818,0,"hapsi_027.wav",100
Sample,127841,0,"acid_148.wav",100
Sample,127841,0,"hihat_a_018.wav",100
Sample,127909,0,"hihat_a_019.wav",100
Sample,127909,0,"drum_016.wav",100
Sample,127909,0,"acid_149.wav",100
Sample,127909,0,"hapsi_032.wav",100
Sample,127977,0,"drum_018.wav",100
Sample,127977,0,"acid_150.wav",100
Sample,128000,0,"hapsi_035.wav",100
Sample,128045,0,"hihat_a_020.wav",100
Sample,128045,0,"acid_151.wav",100
Sample,128045,0,"drum_020.wav",100
Sample,128045,0,"bass_a_003.wav",100
Sample,128091,0,"hapsi_032.wav",100
Sample,128114,0,"hihat_a_021.wav",100
Sample,128114,0,"acid_152.wav",100
Sample,128182,0,"hihat_a_022.wav",100
Sample,128182,0,"acid_153.wav",100
Sample,128182,0,"drum_030.wav",100
Sample,128182,0,"hapsi_027.wav",100
Sample,128182,0,"drum_016.wav",100
Sample,128250,0,"drum_018.wav",100
Sample,128250,0,"hihat_a_023.wav",100
Sample,128250,0,"acid_154.wav",100
Sample,128273,0,"hapsi_032.wav",100
Sample,128318,0,"bass_a_003.wav",100
Sample,128318,0,"acid_155.wav",100
Sample,128318,0,"drum_020.wav",100
Sample,128318,0,"hihat_a_024.wav",100
Sample,128364,0,"hapsi_027.wav",100
Sample,128386,0,"hihat_a_025.wav",100
Sample,128386,0,"acid_156.wav",100
Sample,128455,0,"drum_016.wav",100
Sample,128455,0,"hapsi_024.wav",100
Sample,128455,0,"hihat_a_026.wav",100
Sample,128455,0,"acid_157.wav",100
Sample,128523,0,"drum_018.wav",100
Sample,128523,0,"acid_158.wav",100
Sample,128545,0,"hapsi_018.wav",100
Sample,128591,0,"hihat_a_027.wav",100
Sample,128591,0,"acid_159.wav",100
Sample,128591,0,"bass_a_003.wav",100
Sample,128591,0,"drum_020.wav",100
Sample,128636,0,"hapsi_012.wav",100
Sample,128659,0,"hihat_a_028.wav",100
Sample,128659,0,"acid_160.wav",100
Sample,128727,0,"drum_016.wav",100
Sample,128727,0,"acid_001.wav",100
Sample,128727,0,"hihat_a_001.wav",100
Sample,128727,0,"hapsi_015.wav",100
Sample,128727,0,"strlg_104.wav",100
Sample,128795,0,"acid_002.wav",100
Sample,128795,0,"drum_018.wav",100
Sample,128795,0,"hihat_a_002.wav",100
Sample,128818,0,"hapsi_021.wav",100
Sample,128864,0,"acid_003.wav",100
Sample,128864,0,"bass_a_009.wav",100
Sample,128864,0,"hihat_a_003.wav",100
Sample,128864,0,"drum_020.wav",100
Sample,128909,0,"hapsi_024.wav",100
Sample,128932,0,"acid_004.wav",100
Sample,128932,0,"hihat_a_004.wav",100
Sample,129000,0,"drum_016.wav",100
Sample,129000,0,"hihat_a_005.wav",100
Sample,129000,0,"acid_005.wav",100
Sample,129000,0,"hapsi_027.wav",100
Sample,129000,0,"drum_032.wav",100
Sample,129068,0,"acid_006.wav",100
Sample,129068,0,"drum_018.wav",100
Sample,129091,0,"hapsi_024.wav",100
Sample,129136,0,"bass_a_009.wav",100
Sample,129136,0,"drum_020.wav",100
Sample,129136,0,"hihat_a_006.wav",100
Sample,129136,0,"acid_007.wav",100
Sample,129182,0,"hapsi_021.wav",100
Sample,129205,0,"hihat_a_007.wav",100
Sample,129205,0,"acid_008.wav",100
Sample,129273,0,"hapsi_015.wav",100
Sample,129273,0,"drum_032.wav",100
Sample,129273,0,"hihat_a_008.wav",100
Sample,129273,0,"drum_016.wav",100
Sample,129273,0,"acid_009.wav",100
Sample,129341,0,"acid_010.wav",100
Sample,129341,0,"drum_018.wav",100
Sample,129341,0,"hihat_a_009.wav",100
Sample,129364,0,"hapsi_021.wav",100
Sample,129409,0,"bass_a_009.wav",100
Sample,129409,0,"drum_020.wav",100
Sample,129409,0,"hihat_a_010.wav",100
Sample,129409,0,"acid_011.wav",100
Sample,129455,0,"hapsi_024.wav",100
Sample,129477,0,"acid_012.wav",100
Sample,129477,0,"hihat_a_011.wav",100
Sample,129545,0,"drum_032.wav",100
Sample,129545,0,"hihat_a_012.wav",100
Sample,129545,0,"drum_016.wav",100
Sample,129545,0,"hapsi_027.wav",100
Sample,129545,0,"acid_013.wav",100
Sample,129614,0,"drum_018.wav",100
Sample,129614,0,"acid_014.wav",100
Sample,129636,0,"hapsi_024.wav",100
Sample,129682,0,"strlg_105.wav",100
Sample,129682,0,"hihat_a_013.wav",100
Sample,129682,0,"bass_a_007.wav",100
Sample,129682,0,"drum_020.wav",100
Sample,129682,0,"acid_015.wav",100
Sample,129727,0,"hapsi_021.wav",100
Sample,129750,0,"acid_016.wav",100
Sample,129750,0,"hihat_a_014.wav",100
Sample,129818,0,"acid_017.wav",100
Sample,129818,0,"hihat_a_015.wav",100
Sample,129818,0,"hapsi_015.wav",100
Sample,129818,0,"drum_016.wav",100
Sample,129818,0,"drum_032.wav",100
Sample,129886,0,"hihat_a_016.wav",100
Sample,129886,0,"drum_018.wav",100
Sample,129886,0,"acid_018.wav",100
Sample,129909,0,"hapsi_021.wav",100
Sample,129955,0,"acid_019.wav",100
Sample,129955,0,"drum_020.wav",100
Sample,129955,0,"bass_a_007.wav",100
Sample,129955,0,"hihat_a_017.wav",100
Sample,130000,0,"hapsi_024.wav",100
Sample,130023,0,"hihat_a_018.wav",100
Sample,130023,0,"acid_020.wav",100
Sample,130091,0,"drum_032.wav",100
Sample,130091,0,"hihat_a_019.wav",100
Sample,130091,0,"acid_021.wav",100
Sample,130091,0,"drum_016.wav",100
Sample,130091,0,"hapsi_027.wav",100
Sample,130159,0,"drum_018.wav",100
Sample,130159,0,"acid_022.wav",100
Sample,130182,0,"hapsi_024.wav",100
Sample,130227,0,"bass_a_007.wav",100
Sample,130227,0,"acid_023.wav",100
Sample,130227,0,"hihat_a_020.wav",100
Sample,130227,0,"drum_020.wav",100
Sample,130273,0,"hapsi_021.wav",100
Sample,130295,0,"acid_024.wav",100
Sample,130295,0,"hihat_a_021.wav",100
Sample,130364,0,"hihat_a_022.wav",100
Sample,130364,0,"acid_025.wav",100
Sample,130364,0,"drum_032.wav",100
Sample,130364,0,"hapsi_015.wav",100
Sample,130364,0,"drum_016.wav",100
Sample,130432,0,"drum_018.wav",100
Sample,130432,0,"hihat_a_023.wav",100
Sample,130432,0,"acid_026.wav",100
Sample,130455,0,"hapsi_021.wav",100
Sample,130500,0,"bass_a_007.wav",100
Sample,130500,0,"acid_027.wav",100
Sample,130500,0,"drum_020.wav",100
Sample,130500,0,"hihat_a_024.wav",100
Sample,130545,0,"hapsi_024.wav",100
Sample,130568,0,"hihat_a_025.wav",100
Sample,130568,0,"acid_028.wav",100
Sample,130636,0,"hapsi_027.wav",100
Sample,130636,0,"acid_029.wav",100
Sample,130636,0,"hihat_a_026.wav",100
Sample,130636,0,"drum_030.wav",100
Sample,130636,0,"drum_016.wav",100
Sample,130705,0,"acid_030.wav",100
Sample,130705,0,"drum_018.wav",100
Sample,130727,0,"hapsi_024.wav",100
Sample,130773,0,"bass_a_007.wav",100
Sample,130773,0,"drum_020.wav",100
Sample,130773,0,"hihat_a_027.wav",100
Sample,130773,0,"acid_031.wav",100
Sample,130818,0,"hapsi_021.wav",100
Sample,130841,0,"acid_032.wav",100
Sample,130841,0,"hihat_a_028.wav",100
Sample,130909,0,"acid_129.wav",100
Sample,130909,0,"hapsi_015.wav",100
Sample,130909,0,"strlg_106.wav",100
Sample,130909,0,"drum_016.wav",100
Sample,130909,0,"hihat_a_001.wav",100
Sample,130977,0,"acid_130.wav",100
Sample,130977,0,"drum_018.wav",100
Sample,130977,0,"hihat_a_002.wav",100
Sample,131000,0,"hapsi_021.wav",100
Sample,131045,0,"bass_a_005.wav",100
Sample,131045,0,"drum_020.wav",100
Sample,131045,0,"acid_131.wav",100
Sample,131045,0,"hihat_a_003.wav",100
Sample,131091,0,"hapsi_024.wav",100
Sample,131114,0,"acid_132.wav",100
Sample,131114,0,"hihat_a_004.wav",100
Sample,131182,0,"hihat_a_005.wav",100
Sample,131182,0,"hapsi_027.wav",100
Sample,131182,0,"drum_030.wav",100
Sample,131182,0,"drum_016.wav",100
Sample,131182,0,"acid_133.wav",100
Sample,131250,0,"drum_018.wav",100
Sample,131250,0,"acid_134.wav",100
Sample,131273,0,"hapsi_024.wav",100
Sample,131318,0,"hihat_a_006.wav",100
Sample,131318,0,"acid_135.wav",100
Sample,131318,0,"bass_a_005.wav",100
Sample,131318,0,"drum_020.wav",100
Sample,131364,0,"hapsi_021.wav",100
Sample,131386,0,"hihat_a_007.wav",100
Sample,131386,0,"acid_136.wav",100
Sample,131455,0,"hapsi_015.wav",100
Sample,131455,0,"drum_016.wav",100
Sample,131455,0,"hihat_a_008.wav",100
Sample,131455,0,"acid_137.wav",100
Sample,131523,0,"acid_138.wav",100
Sample,131523,0,"hihat_a_009.wav",100
Sample,131523,0,"drum_018.wav",100
Sample,131545,0,"hapsi_021.wav",100
Sample,131591,0,"hihat_a_010.wav",100
Sample,131591,0,"drum_020.wav",100
Sample,131591,0,"bass_a_005.wav",100
Sample,131591,0,"acid_139.wav",100
Sample,131636,0,"hapsi_024.wav",100
Sample,131659,0,"acid_140.wav",100
Sample,131659,0,"hihat_a_011.wav",100
Sample,131727,0,"drum_030.wav",100
Sample,131727,0,"hapsi_027.wav",100
Sample,131727,0,"drum_016.wav",100
Sample,131727,0,"hihat_a_012.wav",100
Sample,131727,0,"acid_141.wav",100
Sample,131795,0,"drum_018.wav",100
Sample,131795,0,"acid_142.wav",100
Sample,131818,0,"hapsi_024.wav",100
Sample,131864,0,"drum_020.wav",100
Sample,131864,0,"bass_a_003.wav",100
Sample,131864,0,"hihat_a_013.wav",100
Sample,131864,0,"strlg_108.wav",100
Sample,131864,0,"acid_143.wav",100
Sample,131909,0,"hapsi_021.wav",100
Sample,131932,0,"acid_144.wav",100
Sample,131932,0,"hihat_a_014.wav",100
Sample,132000,0,"hapsi_018.wav",100
Sample,132000,0,"hihat_a_015.wav",100
Sample,132000,0,"acid_145.wav",100
Sample,132000,0,"drum_016.wav",100
Sample,132068,0,"acid_146.wav",100
Sample,132068,0,"drum_018.wav",100
Sample,132068,0,"hihat_a_016.wav",100
Sample,132091,0,"hapsi_024.wav",100
Sample,132136,0,"hihat_a_017.wav",100
Sample,132136,0,"acid_147.wav",100
Sample,132136,0,"bass_a_003.wav",100
Sample,132136,0,"drum_020.wav",100
Sample,132182,0,"hapsi_027.wav",100
Sample,132205,0,"hihat_a_018.wav",100
Sample,132205,0,"acid_148.wav",100
Sample,132273,0,"hapsi_032.wav",100
Sample,132273,0,"drum_016.wav",100
Sample,132273,0,"hihat_a_019.wav",100
Sample,132273,0,"acid_149.wav",100
Sample,132341,0,"drum_018.wav",100
Sample,132341,0,"acid_150.wav",100
Sample,132364,0,"hapsi_035.wav",100
Sample,132409,0,"bass_a_003.wav",100
Sample,132409,0,"drum_020.wav",100
Sample,132409,0,"hihat_a_020.wav",100
Sample,132409,0,"strlg_109.wav",100
Sample,132409,0,"acid_151.wav",100
Sample,132455,0,"hapsi_040.wav",100
Sample,132477,0,"hihat_a_021.wav",100
Sample,132477,0,"acid_152.wav",100
Sample,132545,0,"drum_016.wav",100
Sample,132545,0,"acid_057.wav",100
Sample,132545,0,"hapsi_032.wav",100
Sample,132545,0,"hihat_a_022.wav",100
Sample,132614,0,"hihat_a_023.wav",100
Sample,132614,0,"drum_018.wav",100
Sample,132614,0,"acid_058.wav",100
Sample,132636,0,"hapsi_027.wav",100
Sample,132682,0,"bass_a_003.wav",100
Sample,132682,0,"acid_059.wav",100
Sample,132682,0,"hihat_a_024.wav",100
Sample,132682,0,"drum_020.wav",100
Sample,132727,0,"hapsi_021.wav",100
Sample,132750,0,"hihat_a_025.wav",100
Sample,132750,0,"acid_060.wav",100
Sample,132818,0,"hihat_a_026.wav",100
Sample,132818,0,"hapsi_012.wav",100
Sample,132818,0,"drum_016.wav",100
Sample,132818,0,"acid_061.wav",100
Sample,132886,0,"drum_018.wav",100
Sample,132886,0,"acid_062.wav",100
Sample,132909,0,"hapsi_006.wav",100
Sample,132955,0,"hihat_a_027.wav",100
Sample,132955,0,"acid_063.wav",100
Sample,132955,0,"bass_a_003.wav",100
Sample,132955,0,"drum_020.wav",100
Sample,133000,0,"hapsi_001.wav",100
Sample,133023,0,"hihat_a_028.wav",100
Sample,133023,0,"acid_064.wav",100
Sample,133091,0,"hihat_a_001.wav",100
Sample,133091,0,"strlg_104.wav",100
Sample,133091,0,"acid_001.wav",100
Sample,133091,0,"piano_151.wav",100
Sample,133091,0,"piano_033.wav",100
Sample,133091,0,"drum_016.wav",100
Sample,133159,0,"acid_002.wav",100
Sample,133159,0,"hihat_a_002.wav",100
Sample,133159,0,"drum_018.wav",100
Sample,133227,0,"acid_003.wav",100
Sample,133227,0,"bass_a_009.wav",100
Sample,133227,0,"bass_b_011.wav",100
Sample,133227,0,"drum_020.wav",100
Sample,133227,0,"hihat_a_003.wav",100
Sample,133295,0,"acid_004.wav",100
Sample,133295,0,"hihat_a_004.wav",100
Sample,133364,0,"drum_014.wav",100
Sample,133364,0,"drum_032.wav",100
Sample,133364,0,"drum_016.wav",100
Sample,133364,0,"acid_005.wav",100
Sample,133364,0,"hihat_a_005.wav",100
Sample,133432,0,"acid_006.wav",100
Sample,133432,0,"drum_018.wav",100
Sample,133500,0,"piano_154.wav",100
Sample,133500,0,"hihat_a_006.wav",100
Sample,133500,0,"bass_a_009.wav",100
Sample,133500,0,"acid_007.wav",100
Sample,133500,0,"piano_078.wav",100
Sample,133500,0,"drum_020.wav",100
Sample,133500,0,"bass_b_011.wav",100
Sample,133568,0,"hihat_a_007.wav",100
Sample,133568,0,"acid_008.wav",100
Sample,133636,0,"drum_016.wav",100
Sample,133636,0,"drum_032.wav",100
Sample,133636,0,"hihat_a_008.wav",100
Sample,133636,0,"acid_009.wav",100
Sample,133705,0,"acid_010.wav",100
Sample,133705,0,"hihat_a_009.wav",100
Sample,133705,0,"drum_018.wav",100
Sample,133773,0,"bass_b_011.wav",100
Sample,133773,0,"drum_020.wav",100
Sample,133773,0,"acid_011.wav",100
Sample,133773,0,"piano_078.wav",100
Sample,133773,0,"hihat_a_010.wav",100
Sample,133773,0,"bass_a_009.wav",100
Sample,133841,0,"acid_012.wav",100
Sample,133841,0,"hihat_a_011.wav",100
Sample,133909,0,"hihat_a_012.wav",100
Sample,133909,0,"drum_014.wav",100
Sample,133909,0,"drum_016.wav",100
Sample,133909,0,"drum_032.wav",100
Sample,133909,0,"acid_013.wav",100
Sample,133977,0,"drum_018.wav",100
Sample,133977,0,"acid_014.wav",100
Sample,134045,0,"bass_a_007.wav",100
Sample,134045,0,"hihat_a_013.wav",100
Sample,134045,0,"drum_020.wav",100
Sample,134045,0,"strlg_105.wav",100
Sample,134045,0,"acid_015.wav",100
Sample,134045,0,"bass_b_009.wav",100
Sample,134045,0,"piano_077.wav",100
Sample,134114,0,"acid_016.wav",100
Sample,134114,0,"hihat_a_014.wav",100
Sample,134182,0,"hihat_a_015.wav",100
Sample,134182,0,"drum_016.wav",100
Sample,134182,0,"drum_032.wav",100
Sample,134182,0,"acid_017.wav",100
Sample,134250,0,"hihat_a_016.wav",100
Sample,134250,0,"acid_018.wav",100
Sample,134250,0,"drum_018.wav",100
Sample,134318,0,"bass_b_009.wav",100
Sample,134318,0,"piano_077.wav",100
Sample,134318,0,"drum_020.wav",100
Sample,134318,0,"acid_019.wav",100
Sample,134318,0,"bass_a_007.wav",100
Sample,134318,0,"hihat_a_017.wav",100
Sample,134386,0,"acid_020.wav",100
Sample,134386,0,"hihat_a_018.wav",100
Sample,134455,0,"drum_016.wav",100
Sample,134455,0,"hihat_a_019.wav",100
Sample,134455,0,"drum_014.wav",100
Sample,134455,0,"acid_021.wav",100
Sample,134455,0,"drum_032.wav",100
Sample,134523,0,"acid_022.wav",100
Sample,134523,0,"drum_018.wav",100
Sample,134591,0,"hihat_a_020.wav",100
Sample,134591,0,"drum_020.wav",100
Sample,134591,0,"bass_b_009.wav",100
Sample,134591,0,"bass_a_007.wav",100
Sample,134591,0,"acid_023.wav",100
Sample,134659,0,"hihat_a_021.wav",100
Sample,134659,0,"acid_024.wav",100
Sample,134727,0,"hihat_a_022.wav",100
Sample,134727,0,"drum_016.wav",100
Sample,134727,0,"piano_086.wav",100
Sample,134727,0,"drum_032.wav",100
Sample,134727,0,"acid_025.wav",100
Sample,134727,0,"piano_077.wav",100
Sample,134727,0,"piano_151.wav",100
Sample,134795,0,"hihat_a_023.wav",100
Sample,134795,0,"drum_018.wav",100
Sample,134795,0,"acid_026.wav",100
Sample,134864,0,"hihat_a_024.wav",100
Sample,134864,0,"piano_078.wav",100
Sample,134864,0,"bass_a_007.wav",100
Sample,134864,0,"drum_020.wav",100
Sample,134864,0,"bass_b_009.wav",100
Sample,134864,0,"acid_027.wav",100
Sample,134932,0,"hihat_a_025.wav",100
Sample,134932,0,"acid_028.wav",100
Sample,135000,0,"piano_041.wav",100
Sample,135000,0,"piano_156.wav",100
Sample,135000,0,"drum_032.wav",100
Sample,135000,0,"hihat_a_026.wav",100
Sample,135000,0,"drum_016.wav",100
Sample,135000,0,"piano_034.wav",100
Sample,135000,0,"drum_014.wav",100
Sample,135000,0,"acid_029.wav",100
Sample,135068,0,"drum_018.wav",100
Sample,135068,0,"acid_030.wav",100
Sample,135136,0,"bass_a_007.wav",100
Sample,135136,0,"acid_031.wav",100
Sample,135136,0,"bass_b_009.wav",100
Sample,135136,0,"hihat_a_027.wav",100
Sample,135136,0,"drum_020.wav",100
Sample,135205,0,"acid_032.wav",100
Sample,135205,0,"hihat_a_028.wav",100
Sample,135273,0,"strlg_106.wav",100
Sample,135273,0,"piano_151.wav",100
Sample,135273,0,"drum_016.wav",100
Sample,135273,0,"drum_032.wav",100
Sample,135273,0,"hihat_a_001.wav",100
Sample,135273,0,"acid_129.wav",100
Sample,135341,0,"acid_130.wav",100
Sample,135341,0,"hihat_a_002.wav",100
Sample,135341,0,"drum_018.wav",100
Sample,135409,0,"drum_020.wav",100
Sample,135409,0,"piano_076.wav",100
Sample,135409,0,"hihat_a_003.wav",100
Sample,135409,0,"acid_131.wav",100
Sample,135409,0,"bass_b_008.wav",100
Sample,135409,0,"bass_a_005.wav",100
Sample,135477,0,"acid_132.wav",100
Sample,135477,0,"hihat_a_004.wav",100
Sample,135545,0,"drum_016.wav",100
Sample,135545,0,"drum_032.wav",100
Sample,135545,0,"piano_039.wav",100
Sample,135545,0,"drum_014.wav",100
Sample,135545,0,"hihat_a_005.wav",100
Sample,135545,0,"acid_133.wav",100
Sample,135545,0,"piano_151.wav",100
Sample,135614,0,"acid_134.wav",100
Sample,135614,0,"drum_018.wav",100
Sample,135682,0,"drum_020.wav",100
Sample,135682,0,"bass_a_005.wav",100
Sample,135682,0,"bass_b_008.wav",100
Sample,135682,0,"acid_135.wav",100
Sample,135682,0,"hihat_a_006.wav",100
Sample,135750,0,"acid_136.wav",100
Sample,135750,0,"hihat_a_007.wav",100
Sample,135818,0,"hapsi_015.wav",100
Sample,135818,0,"piano_084.wav",100
Sample,135818,0,"hihat_a_008.wav",100
Sample,135818,0,"drum_016.wav",100
Sample,135818,0,"drum_032.wav",100
Sample,135818,0,"acid_137.wav",100
Sample,135886,0,"drum_018.wav",100
Sample,135886,0,"hihat_a_009.wav",100
Sample,135886,0,"acid_138.wav",100
Sample,135955,0,"bass_b_008.wav",100
Sample,135955,0,"drum_020.wav",100
Sample,135955,0,"acid_139.wav",100
Sample,135955,0,"bass_a_005.wav",100
Sample,135955,0,"piano_151.wav",100
Sample,135955,0,"hihat_a_010.wav",100
Sample,136023,0,"acid_140.wav",100
Sample,136023,0,"hihat_a_011.wav",100
Sample,136091,0,"drum_016.wav",100
Sample,136091,0,"hihat_a_012.wav",100
Sample,136091,0,"drum_014.wav",100
Sample,136091,0,"drum_032.wav",100
Sample,136091,0,"acid_141.wav",100
Sample,136159,0,"drum_018.wav",100
Sample,136159,0,"acid_142.wav",100
Sample,136227,0,"hihat_a_013.wav",100
Sample,136227,0,"drum_020.wav",100
Sample,136227,0,"piano_079.wav",100
Sample,136227,0,"bass_a_003.wav",100
Sample,136227,0,"bass_b_007.wav",100
Sample,136227,0,"acid_143.wav",100
Sample,136295,0,"hihat_a_014.wav",100
Sample,136295,0,"acid_144.wav",100
Sample,136364,0,"drum_030.wav",100
Sample,136364,0,"drum_016.wav",100
Sample,136364,0,"acid_145.wav",100
Sample,136364,0,"hihat_a_015.wav",100
Sample,136432,0,"hihat_a_016.wav",100
Sample,136432,0,"acid_146.wav",100
Sample,136432,0,"drum_018.wav",100
Sample,136500,0,"bass_a_003.wav",100
Sample,136500,0,"piano_079.wav",100
Sample,136500,0,"hihat_a_017.wav",100
Sample,136500,0,"acid_147.wav",100
Sample,136500,0,"drum_020.wav",100
Sample,136500,0,"bass_b_007.wav",100
Sample,136568,0,"acid_148.wav",100
Sample,136568,0,"hihat_a_018.wav",100
Sample,136636,0,"drum_014.wav",100
Sample,136636,0,"piano_035.wav",100
Sample,136636,0,"acid_149.wav",100
Sample,136636,0,"piano_151.wav",100
Sample,136636,0,"drum_016.wav",100
Sample,136636,0,"hihat_a_019.wav",100
Sample,136705,0,"acid_150.wav",100
Sample,136705,0,"drum_018.wav",100
Sample,136773,0,"bass_b_007.wav",100
Sample,136773,0,"hihat_a_020.wav",100
Sample,136773,0,"drum_020.wav",100
Sample,136773,0,"bass_a_003.wav",100
Sample,136773,0,"acid_151.wav",100
Sample,136841,0,"hihat_a_021.wav",100
Sample,136841,0,"acid_152.wav",100
Sample,136909,0,"piano_034.wav",100
Sample,136909,0,"piano_040.wav",100
Sample,136909,0,"drum_016.wav",100
Sample,136909,0,"hihat_a_022.wav",100
Sample,136909,0,"piano_151.wav",100
Sample,136909,0,"acid_153.wav",100
Sample,136977,0,"acid_154.wav",100
Sample,136977,0,"drum_018.wav",100
Sample,136977,0,"hihat_a_023.wav",100
Sample,137045,0,"bass_a_003.wav",100
Sample,137045,0,"hihat_a_024.wav",100
Sample,137045,0,"bass_b_007.wav",100
Sample,137045,0,"drum_020.wav",100
Sample,137045,0,"acid_155.wav",100
Sample,137114,0,"hihat_a_025.wav",100
Sample,137114,0,"acid_156.wav",100
Sample,137182,0,"hihat_a_026.wav",100
Sample,137182,0,"acid_157.wav",100
Sample,137182,0,"piano_036.wav",100
Sample,137182,0,"drum_016.wav",100
Sample,137182,0,"drum_014.wav",100
Sample,137250,0,"acid_158.wav",100
Sample,137250,0,"drum_018.wav",100
Sample,137318,0,"drum_020.wav",100
Sample,137318,0,"bass_b_007.wav",100
Sample,137318,0,"bass_a_003.wav",100
Sample,137318,0,"hihat_a_027.wav",100
Sample,137318,0,"acid_159.wav",100
Sample,137386,0,"hihat_a_028.wav",100
Sample,137386,0,"acid_160.wav",100
Sample,137455,0,"piano_151.wav",100
Sample,137455,0,"drum_016.wav",100
Sample,137455,0,"hihat_a_001.wav",100
Sample,137455,0,"piano_033.wav",100
Sample,137455,0,"strlg_104.wav",100
Sample,137455,0,"acid_001.wav",100
Sample,137523,0,"acid_002.wav",100
Sample,137523,0,"hihat_a_002.wav",100
Sample,137523,0,"drum_018.wav",100
Sample,137591,0,"hihat_a_003.wav",100
Sample,137591,0,"bass_b_011.wav",100
Sample,137591,0,"acid_003.wav",100
Sample,137591,0,"piano_151.wav",100
Sample,137591,0,"bass_a_009.wav",100
Sample,137659,0,"hihat_a_004.wav",100
Sample,137659,0,"acid_004.wav",100
Sample,137727,0,"drum_014.wav",100
Sample,137727,0,"drum_032.wav",100
Sample,137727,0,"drum_016.wav",100
Sample,137727,0,"acid_005.wav",100
Sample,137727,0,"hihat_a_005.wav",100
Sample,137795,0,"drum_018.wav",100
Sample,137795,0,"acid_006.wav",100
Sample,137864,0,"bass_a_009.wav",100
Sample,137864,0,"drum_020.wav",100
Sample,137864,0,"acid_007.wav",100
Sample,137864,0,"piano_154.wav",100
Sample,137864,0,"hihat_a_006.wav",100
Sample,137864,0,"bass_b_011.wav",100
Sample,137864,0,"piano_078.wav",100
Sample,137932,0,"hihat_a_007.wav",100
Sample,137932,0,"acid_008.wav",100
Sample,138000,0,"acid_009.wav",100
Sample,138000,0,"drum_016.wav",100
Sample,138000,0,"drum_032.wav",100
Sample,138000,0,"hihat_a_008.wav",100
Sample,138068,0,"acid_010.wav",100
Sample,138068,0,"hihat_a_009.wav",100
Sample,138068,0,"drum_018.wav",100
Sample,138136,0,"hihat_a_010.wav",100
Sample,138136,0,"bass_a_009.wav",100
Sample,138136,0,"drum_020.wav",100
Sample,138136,0,"piano_151.wav",100
Sample,138136,0,"bass_b_011.wav",100
Sample,138136,0,"piano_078.wav",100
Sample,138136,0,"acid_011.wav",100
Sample,138205,0,"hihat_a_011.wav",100
Sample,138205,0,"acid_012.wav",100
Sample,138273,0,"hihat_a_012.wav",100
Sample,138273,0,"acid_013.wav",100
Sample,138273,0,"drum_014.wav",100
Sample,138273,0,"drum_016.wav",100
Sample,138273,0,"drum_032.wav",100
Sample,138341,0,"acid_014.wav",100
Sample,138341,0,"drum_018.wav",100
Sample,138409,0,"piano_154.wav",100
Sample,138409,0,"strlg_105.wav",100
Sample,138409,0,"hihat_a_013.wav",100
Sample,138409,0,"bass_b_009.wav",100
Sample,138409,0,"piano_077.wav",100
Sample,138409,0,"piano_079.wav",100
Sample,138409,0,"drum_020.wav",100
Sample,138409,0,"bass_a_007.wav",100
Sample,138409,0,"acid_015.wav",100
Sample,138477,0,"hihat_a_014.wav",100
Sample,138477,0,"acid_016.wav",100
Sample,138545,0,"hihat_a_015.wav",100
Sample,138545,0,"drum_016.wav",100
Sample,138545,0,"acid_017.wav",100
Sample,138614,0,"hihat_a_016.wav",100
Sample,138614,0,"acid_018.wav",100
Sample,138614,0,"drum_018.wav",100
Sample,138682,0,"acid_019.wav",100
Sample,138682,0,"bass_a_007.wav",100
Sample,138682,0,"bass_b_009.wav",100
Sample,138682,0,"drum_020.wav",100
Sample,138682,0,"piano_077.wav",100
Sample,138682,0,"hihat_a_017.wav",100
Sample,138682,0,"piano_079.wav",100
Sample,138750,0,"hihat_a_018.wav",100
Sample,138750,0,"acid_020.wav",100
Sample,138818,0,"drum_016.wav",100
Sample,138818,0,"drum_032.wav",100
Sample,138818,0,"acid_021.wav",100
Sample,138818,0,"hihat_a_019.wav",100
Sample,138886,0,"acid_022.wav",100
Sample,138886,0,"drum_018.wav",100
Sample,138955,0,"bass_a_007.wav",100
Sample,138955,0,"bass_b_009.wav",100
Sample,138955,0,"hihat_a_020.wav",100
Sample,138955,0,"drum_020.wav",100
Sample,138955,0,"acid_023.wav",100
Sample,139023,0,"acid_024.wav",100
Sample,139023,0,"hihat_a_021.wav",100
Sample,139091,0,"hihat_a_022.wav",100
Sample,139091,0,"drum_016.wav",100
Sample,139091,0,"acid_025.wav",100
Sample,139091,0,"drum_032.wav",100
Sample,139091,0,"piano_079.wav",100
Sample,139091,0,"piano_086.wav",100
Sample,139091,0,"piano_151.wav",100
Sample,139159,0,"hihat_a_023.wav",100
Sample,139159,0,"drum_018.wav",100
Sample,139159,0,"acid_026.wav",100
Sample,139227,0,"piano_081.wav",100
Sample,139227,0,"bass_a_007.wav",100
Sample,139227,0,"acid_027.wav",100
Sample,139227,0,"drum_020.wav",100
Sample,139227,0,"hihat_a_024.wav",100
Sample,139227,0,"piano_088.wav",100
Sample,139227,0,"bass_b_009.wav",100
Sample,139295,0,"acid_028.wav",100
Sample,139295,0,"hihat_a_025.wav",100
Sample,139364,0,"piano_041.wav",100
Sample,139364,0,"piano_156.wav",100
Sample,139364,0,"drum_014.wav",100
Sample,139364,0,"hihat_a_026.wav",100
Sample,139364,0,"drum_030.wav",100
Sample,139364,0,"acid_029.wav",100
Sample,139364,0,"piano_037.wav",100
Sample,139364,0,"drum_016.wav",100
Sample,139432,0,"acid_030.wav",100
Sample,139432,0,"drum_018.wav",100
Sample,139500,0,"bass_a_007.wav",100
Sample,139500,0,"acid_031.wav",100
Sample,139500,0,"drum_020.wav",100
Sample,139500,0,"bass_b_009.wav",100
Sample,139568,0,"acid_032.wav",100
Sample,139568,0,"hihat_a_028.wav",100
Sample,139636,0,"piano_176.wav",100
Sample,139636,0,"hapsi_016.wav",100
Sample,139636,0,"drum_015.wav",100
Sample,139636,0,"piano_147.wav",100
Sample,139636,0,"bass_b_024.wav",100
Sample,139636,0,"strlg_110.wav",100
Sample,139636,0,"bass_a_006.wav",100
Sample,139636,0,"piano_164.wav",100
Sample,139773,0,"hapsi_016.wav",100
Sample,139773,0,"bass_a_006.wav",100
Sample,139773,0,"bass_b_024.wav",100
Sample,139773,0,"piano_176.wav",100
Sample,139773,0,"drum_015.wav",100
Sample,139773,0,"piano_147.wav",100
Sample,139773,0,"piano_164.wav",100
Sample,139909,0,"hapsi_016.wav",100
Sample,139909,0,"bass_b_024.wav",100
Sample,139909,0,"bass_a_006.wav",100
Sample,139909,0,"piano_176.wav",100
Sample,139909,0,"piano_164.wav",100
Sample,139909,0,"drum_015.wav",100
Sample,139909,0,"piano_147.wav",100
Sample,140045,0,"drum_014.wav",100
Sample,140045,0,"piano_147.wav",100
Sample,140045,0,"bass_a_006.wav",100
Sample,140045,0,"piano_164.wav",100
Sample,140045,0,"hapsi_016.wav",100
Sample,140045,0,"piano_176.wav",100
Sample,140045,0,"bass_b_024.wav",100
Sample,140455,0,"strlg_111.wav",100
Sample,140455,0,"bass_a_004.wav",100
Sample,140455,0,"hapsi_016.wav",100
Sample,140455,0,"piano_176.wav",100
Sample,140455,0,"drum_015.wav",100
Sample,140455,0,"piano_145.wav",100
Sample,140455,0,"piano_163.wav",100
Sample,140455,0,"bass_b_023.wav",100
Sample,140591,0,"hapsi_016.wav",100
Sample,140591,0,"bass_b_023.wav",100
Sample,140591,0,"piano_145.wav",100
Sample,140591,0,"piano_176.wav",100
Sample,140591,0,"drum_015.wav",100
Sample,140591,0,"bass_a_004.wav",100
Sample,140591,0,"piano_163.wav",100
Sample,140727,0,"piano_145.wav",100
Sample,140727,0,"piano_176.wav",100
Sample,140727,0,"bass_a_004.wav",100
Sample,140727,0,"drum_015.wav",100
Sample,140727,0,"hapsi_016.wav",100
Sample,140727,0,"piano_163.wav",100
Sample,140727,0,"bass_b_023.wav",100
Sample,140864,0,"piano_163.wav",100
Sample,140864,0,"bass_a_004.wav",100
Sample,140864,0,"piano_176.wav",100
Sample,140864,0,"piano_145.wav",100
Sample,140864,0,"bass_b_023.wav",100
Sample,140864,0,"hapsi_016.wav",100
Sample,140864,0,"drum_014.wav",100
Sample,141000,0,"se_rev_cymb.wav",100
Sample,141818,0,"piano_003.wav",100
Sample,141818,0,"orgn_011.wav",100
Sample,141818,0,"piano_002.wav",100
Sample,141818,0,"se_rev_kick.wav",100
Sample,141818,0,"strlg_112.wav",100
Sample,141818,0,"orgn_012.wav",100
Sample,141818,0,"drum_001.wav",100

[TimingPoints]
0,272.727,4,2,0,5,1,0

[HitObjects]
64,192,2181,5,0,0:0:0:0:
192,192,2181,1,0,0:0:0:0:
448,192,2181,1,0,0:0:0:0:
448,192,4363,1,0,0:0:0:0:
320,192,4363,1,0,0:0:0:0:
64,192,4363,1,0,0:0:0:0:
64,192,6545,1,0,0:0:0:0:
192,192,6545,1,0,0:0:0:0:
320,192,6545,1,0,0:0:0:0:
448,192,8727,1,0,0:0:0:0:
320,192,8727,1,0,0:0:0:0:
192,192,8727,1,0,0:0:0:0:
448,192,10909,1,0,0:0:0:0:
64,192,10909,1,0,0:0:0:0:
192,192,11045,1,0,0:0:0:0:
64,192,11181,1,0,0:0:0:0:
320,192,11318,1,0,0:0:0:0:
448,192,11454,1,0,0:0:0:0:
192,192,11590,1,0,0:0:0:0:
320,192,11727,1,0,0:0:0:0:
448,192,11863,1,0,0:0:0:0:
64,192,11999,1,0,0:0:0:0:
320,192,11999,1,0,0:0:0:0:
192,192,12136,1,0,0:0:0:0:
64,192,12272,1,0,0:0:0:0:
320,192,12409,1,0,0:0:0:0:
192,192,12545,1,0,0:0:0:0:
64,192,12681,1,0,0:0:0:0:
448,192,12818,1,0,0:0:0:0:
320,192,12954,1,0,0:0:0:0:
192,192,13090,1,0,0:0:0:0:
64,192,13090,1,0,0:0:0:0:
448,192,13227,1,0,0:0:0:0:
320,192,13363,1,0,0:0:0:0:
64,192,13499,1,0,0:0:0:0:
192,192,13636,1,0,0:0:0:0:
448,192,13772,1,0,0:0:0:0:
320,192,13909,1,0,0:0:0:0:
192,192,14045,1,0,0:0:0:0:
320,192,14113,1,0,0:0:0:0:
448,192,14181,1,0,0:0:0:0:
64,192,14181,1,0,0:0:0:0:
192,192,14318,1,0,0:0:0:0:
320,192,14454,1,0,0:0:0:0:
448,192,14590,1,0,0:0:0:0:
192,192,14727,1,0,0:0:0:0:
64,192,14863,1,0,0:0:0:0:
320,192,14999,1,0,0:0:0:0:
192,192,15136,1,0,0:0:0:0:
448,192,15272,1,0,0:0:0:0:
320,192,15272,1,0,0:0:0:0:
64,192,15409,1,0,0:0:0:0:
192,192,15545,1,0,0:0:0:0:
448,192,15681,1,0,0:0:0:0:
64,192,15818,1,0,0:0:0:0:
320,192,15954,1,0,0:0:0:0:
192,192,16090,1,0,0:0:0:0:
64,192,16227,1,0,0:0:0:0:
448,192,16363,1,0,0:0:0:0:
320,192,16363,1,0,0:0:0:0:
192,192,16499,1,0,0:0:0:0:
320,192,16636,1,0,0:0:0:0:
448,192,16772,1,0,0:0:0:0:
64,192,16909,1,0,0:0:0:0:
320,192,17045,1,0,0:0:0:0:
192,192,17181,1,0,0:0:0:0:
64,192,17318,1,0,0:0:0:0:
448,192,17454,1,0,0:0:0:0:
320,192,17454,1,0,0:0:0:0:
192,192,17590,1,0,0:0:0:0:
64,192,17727,1,0,0:0:0:0:
320,192,17863,1,0,0:0:0:0:
192,192,17999,1,0,0:0:0:0:
64,192,18136,1,0,0:0:0:0:
448,192,18272,1,0,0:0:0:0:
192,192,18409,1,0,0:0:0:0:
320,192,18545,1,0,0:0:0:0:
448,192,18681,1,0,0:0:0:0:
64,192,18818,1,0,0:0:0:0:
320,192,18954,1,0,0:0:0:0:
448,192,19090,1,0,0:0:0:0:
192,192,19227,1,0,0:0:0:0:
64,192,19363,1,0,0:0:0:0:
192,192,19431,1,0,0:0:0:0:
320,192,19499,1,0,0:0:0:0:
448,192,19568,1,0,0:0:0:0:
64,192,19636,1,0,0:0:0:0:
192,192,19636,1,0,0:0:0:0:
320,192,19636,1,0,0:0:0:0:
192,192,19772,1,0,0:0:0:0:
448,192,19772,1,0,0:0:0:0:
448,192,19909,1,0,0:0:0:0:
320,192,19909,1,0,0:0:0:0:
64,192,19909,1,0,0:0:0:0:
64,192,20045,1,0,0:0:0:0:
192,192,20045,1,0,0:0:0:0:
64,192,20181,1,0,0:0:0:0:
192,192,20181,1,0,0:0:0:0:
448,192,20181,1,0,0:0:0:0:
448,192,20318,1,0,0:0:0:0:
320,192,20318,1,0,0:0:0:0:
448,192,20454,1,0,0:0:0:0:
192,192,20454,1,0,0:0:0:0:
64,192,20454,1,0,0:0:0:0:
320,192,20590,1,0,0:0:0:0:
192,192,20590,1,0,0:0:0:0:
64,192,20727,1,0,0:0:0:0:
192,192,20727,1,0,0:0:0:0:
448,192,20727,1,0,0:0:0:0:
320,192,20863,1,0,0:0:0:0:
448,192,20863,1,0,0:0:0:0:
64,192,20999,1,0,0:0:0:0:
192,192,20999,1,0,0:0:0:0:
448,192,20999,1,0,0:0:0:0:
320,192,21136,1,0,0:0:0:0:
64,192,21136,1,0,0:0:0:0:
192,192,21272,1,0,0:0:0:0:
64,192,21272,1,0,0:0:0:0:
448,192,21272,1,0,0:0:0:0:
320,192,21272,1,0,0:0:0:0:
448,192,21409,1,0,0:0:0:0:
64,192,21409,1,0,0:0:0:0:
448,192,21545,1,0,0:0:0:0:
64,192,21545,1,0,0:0:0:0:
192,192,21545,1,0,0:0:0:0:
192,192,21681,1,0,0:0:0:0:
448,192,21681,1,0,0:0:0:0:
64,192,21818,1,0,0:0:0:0:
448,192,21818,1,0,0:0:0:0:
320,192,21818,1,0,0:0:0:0:
64,192,21999,1,0,0:0:0:0:
192,192,21999,1,0,0:0:0:0:
64,192,22090,1,0,0:0:0:0:
192,192,22090,1,0,0:0:0:0:
448,192,22090,1,0,0:0:0:0:
448,192,22363,1,0,0:0:0:0:
320,192,22363,1,0,0:0:0:0:
192,192,22363,1,0,0:0:0:0:
448,192,22545,1,0,0:0:0:0:
320,192,22545,1,0,0:0:0:0:
448,192,22636,1,0,0:0:0:0:
320,192,22636,1,0,0:0:0:0:
64,192,22636,1,0,0:0:0:0:
64,192,22909,1,0,0:0:0:0:
192,192,22909,1,0,0:0:0:0:
320,192,22909,1,0,0:0:0:0:
448,192,23090,1,0,0:0:0:0:
64,192,23090,1,0,0:0:0:0:
448,192,23181,1,0,0:0:0:0:
192,192,23181,1,0,0:0:0:0:
64,192,23181,1,0,0:0:0:0:
64,192,23363,1,0,0:0:0:0:
320,192,23363,1,0,0:0:0:0:
64,192,23454,1,0,0:0:0:0:
448,192,23454,1,0,0:0:0:0:
192,192,23454,1,0,0:0:0:0:
448,192,23545,1,0,0:0:0:0:
320,192,23545,1,0,0:0:0:0:
448,192,23636,1,0,0:0:0:0:
320,192,23636,1,0,0:0:0:0:
64,192,23727,1,0,0:0:0:0:
448,192,23727,1,0,0:0:0:0:
320,192,23727,1,0,0:0:0:0:
64,192,23818,1,0,0:0:0:0:
192,192,23818,1,0,0:0:0:0:
64,192,23909,1,0,0:0:0:0:
192,192,23909,1,0,0:0:0:0:
64,192,23999,1,0,0:0:0:0:
192,192,23999,1,0,0:0:0:0:
448,192,23999,1,0,0:0:0:0:
448,192,24090,1,0,0:0:0:0:
320,192,24090,1,0,0:0:0:0:
192,192,24181,1,0,0:0:0:0:
64,192,24181,1,0,0:0:0:0:
448,192,24272,1,0,0:0:0:0:
320,192,24272,1,0,0:0:0:0:
64,192,24272,1,0,0:0:0:0:
64,192,24363,1,0,0:0:0:0:
320,192,24363,1,0,0:0:0:0:
192,192,24454,1,0,0:0:0:0:
448,192,24454,1,0,0:0:0:0:
320,192,24545,1,0,0:0:0:0:
448,192,24545,1,0,0:0:0:0:
64,192,24545,1,0,0:0:0:0:
192,192,24636,1,0,0:0:0:0:
320,192,24636,1,0,0:0:0:0:
448,192,24727,1,0,0:0:0:0:
64,192,24727,1,0,0:0:0:0:
64,192,24818,1,0,0:0:0:0:
192,192,24818,1,0,0:0:0:0:
448,192,24818,1,0,0:0:0:0:
448,192,24909,1,0,0:0:0:0:
320,192,24909,1,0,0:0:0:0:
192,192,24999,1,0,0:0:0:0:
64,192,24999,1,0,0:0:0:0:
64,192,25090,1,0,0:0:0:0:
320,192,25090,1,0,0:0:0:0:
448,192,25090,1,0,0:0:0:0:
192,192,25181,1,0,0:0:0:0:
448,192,25181,1,0,0:0:0:0:
192,192,25272,1,0,0:0:0:0:
448,192,25272,1,0,0:0:0:0:
320,192,25363,1,0,0:0:0:0:
64,192,25363,1,0,0:0:0:0:
448,192,25363,1,0,0:0:0:0:
64,192,25454,1,0,0:0:0:0:
320,192,25454,1,0,0:0:0:0:
320,192,25545,1,0,0:0:0:0:
64,192,25545,1,0,0:0:0:0:
64,192,25636,1,0,0:0:0:0:
192,192,25636,1,0,0:0:0:0:
448,192,25636,1,0,0:0:0:0:
320,192,25727,1,0,0:0:0:0:
448,192,25727,1,0,0:0:0:0:
320,192,25818,1,0,0:0:0:0:
448,192,25818,1,0,0:0:0:0:
64,192,25909,1,0,0:0:0:0:
192,192,25909,1,0,0:0:0:0:
320,192,25909,1,0,0:0:0:0:
64,192,25999,1,0,0:0:0:0:
192,192,25999,1,0,0:0:0:0:
64,192,26090,1,0,0:0:0:0:
192,192,26090,1,0,0:0:0:0:
192,192,26181,1,0,0:0:0:0:
320,192,26181,1,0,0:0:0:0:
448,192,26181,1,0,0:0:0:0:
64,192,26272,1,0,0:0:0:0:
448,192,26272,1,0,0:0:0:0:
320,192,26363,1,0,0:0:0:0:
192,192,26363,1,0,0:0:0:0:
448,192,26454,1,0,0:0:0:0:
192,192,26454,1,0,0:0:0:0:
64,192,26454,1,0,0:0:0:0:
320,192,26545,1,0,0:0:0:0:
64,192,26545,1,0,0:0:0:0:
192,192,26636,1,0,0:0:0:0:
448,192,26636,1,0,0:0:0:0:
64,192,26727,1,0,0:0:0:0:
448,192,26727,1,0,0:0:0:0:
320,192,26727,1,0,0:0:0:0:
320,192,26818,1,0,0:0:0:0:
448,192,26818,1,0,0:0:0:0:
64,192,26909,1,0,0:0:0:0:
192,192,26909,1,0,0:0:0:0:
192,192,26999,1,0,0:0:0:0:
64,192,26999,1,0,0:0:0:0:
320,192,26999,1,0,0:0:0:0:
192,192,27090,1,0,0:0:0:0:
448,192,27090,1,0,0:0:0:0:
64,192,27181,1,0,0:0:0:0:
320,192,27181,1,0,0:0:0:0:
448,192,27272,1,0,0:0:0:0:
192,192,27272,1,0,0:0:0:0:
64,192,27272,1,0,0:0:0:0:
192,192,27409,1,0,0:0:0:0:
64,192,27409,1,0,0:0:0:0:
320,192,27477,1,0,0:0:0:0:
448,192,27545,1,0,0:0:0:0:
64,192,27545,1,0,0:0:0:0:
192,192,27545,1,0,0:0:0:0:
448,192,27681,1,0,0:0:0:0:
192,192,27681,1,0,0:0:0:0:
320,192,27749,1,0,0:0:0:0:
64,192,27818,1,0,0:0:0:0:
192,192,27818,1,0,0:0:0:0:
448,192,27818,1,0,0:0:0:0:
320,192,27886,1,0,0:0:0:0:
192,192,27954,1,0,0:0:0:0:
64,192,27954,1,0,0:0:0:0:
448,192,28022,1,0,0:0:0:0:
320,192,28022,1,0,0:0:0:0:
192,192,28090,1,0,0:0:0:0:
64,192,28090,1,0,0:0:0:0:
320,192,28159,1,0,0:0:0:0:
448,192,28227,1,0,0:0:0:0:
64,192,28227,1,0,0:0:0:0:
192,192,28295,1,0,0:0:0:0:
448,192,28363,1,0,0:0:0:0:
64,192,28363,1,0,0:0:0:0:
320,192,28363,1,0,0:0:0:0:
192,192,28431,1,0,0:0:0:0:
448,192,28499,1,0,0:0:0:0:
64,192,28636,1,0,0:0:0:0:
192,192,28636,1,0,0:0:0:0:
448,192,28636,1,0,0:0:0:0:
320,192,28704,1,0,0:0:0:0:
192,192,28772,1,0,0:0:0:0:
64,192,28840,1,0,0:0:0:0:
448,192,28909,1,0,0:0:0:0:
320,192,28909,1,0,0:0:0:0:
192,192,28909,1,0,0:0:0:0:
64,192,28977,1,0,0:0:0:0:
320,192,29045,1,0,0:0:0:0:
448,192,29113,1,0,0:0:0:0:
192,192,29181,1,0,0:0:0:0:
64,192,29181,1,0,0:0:0:0:
320,192,29181,1,0,0:0:0:0:
448,192,29249,1,0,0:0:0:0:
64,192,29318,1,0,0:0:0:0:
192,192,29386,1,0,0:0:0:0:
64,192,29454,1,0,0:0:0:0:
320,192,29454,1,0,0:0:0:0:
448,192,29454,1,0,0:0:0:0:
192,192,29522,1,0,0:0:0:0:
448,192,29590,1,0,0:0:0:0:
320,192,29659,1,0,0:0:0:0:
192,192,29727,1,0,0:0:0:0:
448,192,29727,1,0,0:0:0:0:
64,192,29727,1,0,0:0:0:0:
320,192,29795,1,0,0:0:0:0:
192,192,29863,1,0,0:0:0:0:
64,192,29931,1,0,0:0:0:0:
448,192,29999,1,0,0:0:0:0:
320,192,29999,1,0,0:0:0:0:
192,192,29999,1,0,0:0:0:0:
64,192,30068,1,0,0:0:0:0:
192,192,30136,1,0,0:0:0:0:
320,192,30204,1,0,0:0:0:0:
192,192,30272,1,0,0:0:0:0:
64,192,30272,1,0,0:0:0:0:
448,192,30272,1,0,0:0:0:0:
320,192,30340,1,0,0:0:0:0:
448,192,30409,1,0,0:0:0:0:
64,192,30477,1,0,0:0:0:0:
192,192,30545,1,0,0:0:0:0:
320,192,30545,1,0,0:0:0:0:
448,192,30545,1,0,0:0:0:0:
64,192,30613,1,0,0:0:0:0:
320,192,30681,1,0,0:0:0:0:
192,192,30749,1,0,0:0:0:0:
64,192,30818,1,0,0:0:0:0:
320,192,30818,1,0,0:0:0:0:
448,192,30818,1,0,0:0:0:0:
192,192,30886,1,0,0:0:0:0:
64,192,30954,1,0,0:0:0:0:
320,192,31022,1,0,0:0:0:0:
192,192,31090,1,0,0:0:0:0:
448,192,31090,1,0,0:0:0:0:
64,192,31090,1,0,0:0:0:0:
320,192,31159,1,0,0:0:0:0:
192,192,31227,1,0,0:0:0:0:
64,192,31295,1,0,0:0:0:0:
448,192,31363,1,0,0:0:0:0:
320,192,31363,1,0,0:0:0:0:
192,192,31363,1,0,0:0:0:0:
64,192,31431,1,0,0:0:0:0:
320,192,31499,1,0,0:0:0:0:
448,192,31568,1,0,0:0:0:0:
320,192,31636,1,0,0:0:0:0:
192,192,31636,1,0,0:0:0:0:
64,192,31636,1,0,0:0:0:0:
448,192,31704,1,0,0:0:0:0:
192,192,31772,1,0,0:0:0:0:
320,192,31840,1,0,0:0:0:0:
448,192,31909,1,0,0:0:0:0:
192,192,31909,1,0,0:0:0:0:
64,192,31909,1,0,0:0:0:0:
320,192,31977,1,0,0:0:0:0:
448,192,32045,1,0,0:0:0:0:
64,192,32113,1,0,0:0:0:0:
320,192,32181,1,0,0:0:0:0:
192,192,32181,1,0,0:0:0:0:
448,192,32181,1,0,0:0:0:0:
64,192,32249,1,0,0:0:0:0:
320,192,32318,1,0,0:0:0:0:
192,192,32386,1,0,0:0:0:0:
448,192,32454,1,0,0:0:0:0:
320,192,32454,1,0,0:0:0:0:
64,192,32454,1,0,0:0:0:0:
192,192,32522,1,0,0:0:0:0:
64,192,32590,1,0,0:0:0:0:
320,192,32659,1,0,0:0:0:0:
448,192,32727,1,0,0:0:0:0:
192,192,32727,1,0,0:0:0:0:
64,192,32727,1,0,0:0:0:0:
320,192,32795,1,0,0:0:0:0:
448,192,32863,1,0,0:0:0:0:
192,192,32931,1,0,0:0:0:0:
64,192,32999,1,0,0:0:0:0:
320,192,32999,1,0,0:0:0:0:
448,192,32999,1,0,0:0:0:0:
192,192,33068,1,0,0:0:0:0:
64,192,33136,1,0,0:0:0:0:
320,192,33204,1,0,0:0:0:0:
448,192,33272,1,0,0:0:0:0:
192,192,33272,1,0,0:0:0:0:
64,192,33272,1,0,0:0:0:0:
320,192,33340,1,0,0:0:0:0:
192,192,33409,1,0,0:0:0:0:
64,192,33477,1,0,0:0:0:0:
448,192,33545,1,0,0:0:0:0:
320,192,33545,1,0,0:0:0:0:
192,192,33545,1,0,0:0:0:0:
64,192,33613,1,0,0:0:0:0:
192,192,33681,1,0,0:0:0:0:
448,192,33749,1,0,0:0:0:0:
320,192,33818,1,0,0:0:0:0:
192,192,33818,1,0,0:0:0:0:
64,192,33818,1,0,0:0:0:0:
448,192,33886,1,0,0:0:0:0:
192,192,33954,1,0,0:0:0:0:
320,192,34022,1,0,0:0:0:0:
448,192,34090,1,0,0:0:0:0:
192,192,34090,1,0,0:0:0:0:
64,192,34090,1,0,0:0:0:0:
320,192,34159,1,0,0:0:0:0:
64,192,34227,1,0,0:0:0:0:
192,192,34295,1,0,0:0:0:0:
320,192,34363,1,0,0:0:0:0:
448,192,34363,1,0,0:0:0:0:
64,192,34363,1,0,0:0:0:0:
192,192,34431,1,0,0:0:0:0:
320,192,34499,1,0,0:0:0:0:
448,192,34568,1,0,0:0:0:0:
320,192,34636,1,0,0:0:0:0:
192,192,34636,1,0,0:0:0:0:
64,192,34636,1,0,0:0:0:0:
448,192,34704,1,0,0:0:0:0:
320,192,34772,1,0,0:0:0:0:
192,192,34840,1,0,0:0:0:0:
448,192,34909,1,0,0:0:0:0:
320,192,34909,1,0,0:0:0:0:
64,192,34909,1,0,0:0:0:0:
192,192,34977,1,0,0:0:0:0:
320,192,35045,1,0,0:0:0:0:
448,192,35113,1,0,0:0:0:0:
64,192,35181,1,0,0:0:0:0:
192,192,35181,1,0,0:0:0:0:
320,192,35181,1,0,0:0:0:0:
448,192,35249,1,0,0:0:0:0:
64,192,35318,1,0,0:0:0:0:
192,192,35386,1,0,0:0:0:0:
320,192,35454,1,0,0:0:0:0:
448,192,35454,1,0,0:0:0:0:
64,192,35454,1,0,0:0:0:0:
192,192,35522,1,0,0:0:0:0:
320,192,35590,1,0,0:0:0:0:
448,192,35659,1,0,0:0:0:0:
64,192,35727,1,0,0:0:0:0:
192,192,35727,1,0,0:0:0:0:
320,192,35727,1,0,0:0:0:0:
448,192,35795,1,0,0:0:0:0:
192,192,35863,1,0,0:0:0:0:
64,192,35931,1,0,0:0:0:0:
192,192,35999,1,0,0:0:0:0:
320,192,35999,1,0,0:0:0:0:
448,192,35999,1,0,0:0:0:0:
64,192,36068,1,0,0:0:0:0:
192,192,36136,1,0,0:0:0:0:
320,192,36204,1,0,0:0:0:0:
448,192,36272,1,0,0:0:0:0:
192,192,36272,1,0,0:0:0:0:
64,192,36272,1,0,0:0:0:0:
320,192,36340,1,0,0:0:0:0:
448,192,36409,1,0,0:0:0:0:
64,192,36477,1,0,0:0:0:0:
192,192,36545,1,0,0:0:0:0:
448,192,36545,1,0,0:0:0:0:
320,192,36545,1,0,0:0:0:0:
64,192,36613,1,0,0:0:0:0:
320,192,36681,1,0,0:0:0:0:
192,192,36749,1,0,0:0:0:0:
64,192,36818,1,0,0:0:0:0:
320,192,36818,1,0,0:0:0:0:
448,192,36818,1,0,0:0:0:0:
192,192,36886,1,0,0:0:0:0:
64,192,36954,1,0,0:0:0:0:
320,192,37022,1,0,0:0:0:0:
448,192,37090,1,0,0:0:0:0:
64,192,37090,1,0,0:0:0:0:
192,192,37090,1,0,0:0:0:0:
320,192,37159,1,0,0:0:0:0:
448,192,37227,1,0,0:0:0:0:
64,192,37295,1,0,0:0:0:0:
320,192,37363,1,0,0:0:0:0:
448,192,37363,1,0,0:0:0:0:
192,192,37363,1,0,0:0:0:0:
64,192,37431,1,0,0:0:0:0:
192,192,37499,1,0,0:0:0:0:
448,192,37568,1,0,0:0:0:0:
320,192,37636,1,0,0:0:0:0:
192,192,37636,1,0,0:0:0:0:
64,192,37636,1,0,0:0:0:0:
448,192,37704,1,0,0:0:0:0:
320,192,37772,1,0,0:0:0:0:
64,192,37840,1,0,0:0:0:0:
192,192,37909,1,0,0:0:0:0:
320,192,37909,1,0,0:0:0:0:
448,192,37909,1,0,0:0:0:0:
64,192,37977,1,0,0:0:0:0:
192,192,38045,1,0,0:0:0:0:
320,192,38113,1,0,0:0:0:0:
448,192,38181,1,0,0:0:0:0:
192,192,38181,1,0,0:0:0:0:
64,192,38181,1,0,0:0:0:0:
320,192,38249,1,0,0:0:0:0:
448,192,38318,1,0,0:0:0:0:
192,192,38386,1,0,0:0:0:0:
64,192,38454,1,0,0:0:0:0:
320,192,38454,1,0,0:0:0:0:
448,192,38454,1,0,0:0:0:0:
192,192,38522,1,0,0:0:0:0:
64,192,38590,1,0,0:0:0:0:
448,192,38659,1,0,0:0:0:0:
320,192,38727,1,0,0:0:0:0:
192,192,38727,1,0,0:0:0:0:
64,192,38727,1,0,0:0:0:0:
448,192,38795,1,0,0:0:0:0:
192,192,38863,1,0,0:0:0:0:
320,192,38931,1,0,0:0:0:0:
448,192,38999,1,0,0:0:0:0:
192,192,38999,1,0,0:0:0:0:
64,192,38999,1,0,0:0:0:0:
320,192,39068,1,0,0:0:0:0:
192,192,39136,1,0,0:0:0:0:
64,192,39204,1,0,0:0:0:0:
448,192,39272,1,0,0:0:0:0:
320,192,39272,1,0,0:0:0:0:
192,192,39272,1,0,0:0:0:0:
64,192,39340,1,0,0:0:0:0:
320,192,39409,1,0,0:0:0:0:
192,192,39477,1,0,0:0:0:0:
64,192,39545,1,0,0:0:0:0:
320,192,39545,1,0,0:0:0:0:
448,192,39545,1,0,0:0:0:0:
192,192,39613,1,0,0:0:0:0:
64,192,39681,1,0,0:0:0:0:
448,192,39749,1,0,0:0:0:0:
320,192,39818,1,0,0:0:0:0:
192,192,39818,1,0,0:0:0:0:
64,192,39818,1,0,0:0:0:0:
448,192,39886,1,0,0:0:0:0:
192,192,39954,1,0,0:0:0:0:
320,192,40022,1,0,0:0:0:0:
448,192,40090,1,0,0:0:0:0:
192,192,40090,1,0,0:0:0:0:
64,192,40090,1,0,0:0:0:0:
320,192,40159,1,0,0:0:0:0:
192,192,40227,1,0,0:0:0:0:
64,192,40295,1,0,0:0:0:0:
448,192,40363,1,0,0:0:0:0:
320,192,40363,1,0,0:0:0:0:
192,192,40363,1,0,0:0:0:0:
64,192,40431,1,0,0:0:0:0:
192,192,40499,1,0,0:0:0:0:
320,192,40568,1,0,0:0:0:0:
448,192,40636,1,0,0:0:0:0:
64,192,40636,1,0,0:0:0:0:
192,192,40636,1,0,0:0:0:0:
320,192,40704,1,0,0:0:0:0:
448,192,40772,1,0,0:0:0:0:
192,192,40840,1,0,0:0:0:0:
320,192,40909,1,0,0:0:0:0:
64,192,40909,1,0,0:0:0:0:
448,192,40909,1,0,0:0:0:0:
192,192,40977,1,0,0:0:0:0:
320,192,41045,1,0,0:0:0:0:
448,192,41113,1,0,0:0:0:0:
64,192,41181,1,0,0:0:0:0:
192,192,41181,1,0,0:0:0:0:
320,192,41181,1,0,0:0:0:0:
448,192,41249,1,0,0:0:0:0:
320,192,41318,1,0,0:0:0:0:
192,192,41386,1,0,0:0:0:0:
64,192,41454,1,0,0:0:0:0:
320,192,41454,1,0,0:0:0:0:
448,192,41454,1,0,0:0:0:0:
192,192,41522,1,0,0:0:0:0:
64,192,41590,1,0,0:0:0:0:
320,192,41659,1,0,0:0:0:0:
192,192,41727,1,0,0:0:0:0:
64,192,41727,1,0,0:0:0:0:
448,192,41727,1,0,0:0:0:0:
320,192,41795,1,0,0:0:0:0:
192,192,41863,1,0,0:0:0:0:
64,192,41931,1,0,0:0:0:0:
448,192,41999,1,0,0:0:0:0:
320,192,41999,1,0,0:0:0:0:
192,192,41999,1,0,0:0:0:0:
64,192,42068,1,0,0:0:0:0:
320,192,42136,1,0,0:0:0:0:
448,192,42204,1,0,0:0:0:0:
320,192,42272,1,0,0:0:0:0:
192,192,42272,1,0,0:0:0:0:
64,192,42272,1,0,0:0:0:0:
448,192,42340,1,0,0:0:0:0:
320,192,42409,1,0,0:0:0:0:
64,192,42477,1,0,0:0:0:0:
192,192,42545,1,0,0:0:0:0:
448,192,42545,1,0,0:0:0:0:
320,192,42545,1,0,0:0:0:0:
64,192,42613,1,0,0:0:0:0:
192,192,42681,1,0,0:0:0:0:
320,192,42749,1,0,0:0:0:0:
448,192,42818,1,0,0:0:0:0:
192,192,42818,1,0,0:0:0:0:
64,192,42818,1,0,0:0:0:0:
320,192,42886,1,0,0:0:0:0:
448,192,42954,1,0,0:0:0:0:
192,192,43022,1,0,0:0:0:0:
320,192,43090,1,0,0:0:0:0:
448,192,43090,1,0,0:0:0:0:
64,192,43090,1,0,0:0:0:0:
192,192,43159,1,0,0:0:0:0:
320,192,43227,1,0,0:0:0:0:
64,192,43295,1,0,0:0:0:0:
192,192,43363,1,0,0:0:0:0:
320,192,43363,1,0,0:0:0:0:
448,192,43363,1,0,0:0:0:0:
64,192,43431,1,0,0:0:0:0:
192,192,43499,1,0,0:0:0:0:
320,192,43568,1,0,0:0:0:0:
448,192,43636,1,0,0:0:0:0:
192,192,43636,1,0,0:0:0:0:
64,192,43636,1,0,0:0:0:0:
320,192,43704,1,0,0:0:0:0:
192,192,43772,1,0,0:0:0:0:
64,192,43840,1,0,0:0:0:0:
448,192,43909,1,0,0:0:0:0:
320,192,43909,1,0,0:0:0:0:
192,192,43909,1,0,0:0:0:0:
64,192,43977,1,0,0:0:0:0:
320,192,44045,1,0,0:0:0:0:
192,192,44113,1,0,0:0:0:0:
320,192,44181,1,0,0:0:0:0:
64,192,44181,1,0,0:0:0:0:
448,192,44181,1,0,0:0:0:0:
192,192,44249,1,0,0:0:0:0:
320,192,44318,1,0,0:0:0:0:
448,192,44386,1,0,0:0:0:0:
320,192,44454,1,0,0:0:0:0:
192,192,44454,1,0,0:0:0:0:
64,192,44454,1,0,0:0:0:0:
448,192,44522,1,0,0:0:0:0:
64,192,44590,1,0,0:0:0:0:
192,192,44659,1,0,0:0:0:0:
320,192,44727,1,0,0:0:0:0:
64,192,44727,1,0,0:0:0:0:
448,192,44727,1,0,0:0:0:0:
192,192,44795,1,0,0:0:0:0:
64,192,44863,1,0,0:0:0:0:
320,192,44931,1,0,0:0:0:0:
192,192,44999,1,0,0:0:0:0:
448,192,44999,1,0,0:0:0:0:
64,192,44999,1,0,0:0:0:0:
320,192,45068,1,0,0:0:0:0:
64,192,45136,1,0,0:0:0:0:
192,192,45204,1,0,0:0:0:0:
448,192,45272,1,0,0:0:0:0:
64,192,45272,1,0,0:0:0:0:
320,192,45272,1,0,0:0:0:0:
192,192,45340,1,0,0:0:0:0:
448,192,45409,1,0,0:0:0:0:
320,192,45409,1,0,0:0:0:0:
64,192,45409,1,0,0:0:0:0:
192,192,45477,1,0,0:0:0:0:
64,192,45545,1,0,0:0:0:0:
320,192,45545,1,0,0:0:0:0:
448,192,45545,1,0,0:0:0:0:
192,192,45613,1,0,0:0:0:0:
320,192,45681,1,0,0:0:0:0:
448,192,45749,1,0,0:0:0:0:
64,192,45818,1,0,0:0:0:0:
192,192,45818,1,0,0:0:0:0:
320,192,45909,1,0,0:0:0:0:
448,192,45954,1,0,0:0:0:0:
192,192,45999,1,0,0:0:0:0:
64,192,46045,1,0,0:0:0:0:
448,192,46090,1,0,0:0:0:0:
320,192,46090,1,0,0:0:0:0:
192,192,46136,1,0,0:0:0:0:
64,192,46181,1,0,0:0:0:0:
320,192,46227,1,0,0:0:0:0:
448,192,46272,1,0,0:0:0:0:
192,192,46318,1,0,0:0:0:0:
64,192,46363,1,0,0:0:0:0:
320,192,46363,1,0,0:0:0:0:
448,192,46409,1,0,0:0:0:0:
192,192,46454,1,0,0:0:0:0:
320,192,46499,1,0,0:0:0:0:
64,192,46545,1,0,0:0:0:0:
192,192,46590,1,0,0:0:0:0:
320,192,46636,1,0,0:0:0:0:
448,192,46636,1,0,0:0:0:0:
64,192,46681,1,0,0:0:0:0:
448,192,46727,1,0,0:0:0:0:
192,192,46772,1,0,0:0:0:0:
64,192,46818,1,0,0:0:0:0:
320,192,46863,1,0,0:0:0:0:
192,192,46909,1,0,0:0:0:0:
448,192,46909,1,0,0:0:0:0:
64,192,46954,1,0,0:0:0:0:
320,192,46999,1,0,0:0:0:0:
192,192,47045,1,0,0:0:0:0:
64,192,47090,1,0,0:0:0:0:
448,192,47136,1,0,0:0:0:0:
320,192,47181,1,0,0:0:0:0:
192,192,47181,1,0,0:0:0:0:
64,192,47227,1,0,0:0:0:0:
320,192,47272,1,0,0:0:0:0:
448,192,47318,1,0,0:0:0:0:
192,192,47363,1,0,0:0:0:0:
64,192,47409,1,0,0:0:0:0:
448,192,47454,1,0,0:0:0:0:
320,192,47454,1,0,0:0:0:0:
192,192,47499,1,0,0:0:0:0:
64,192,47545,1,0,0:0:0:0:
320,192,47590,1,0,0:0:0:0:
448,192,47636,1,0,0:0:0:0:
192,192,47681,1,0,0:0:0:0:
64,192,47727,1,0,0:0:0:0:
320,192,47727,1,0,0:0:0:0:
448,192,47772,1,0,0:0:0:0:
192,192,47818,1,0,0:0:0:0:
64,192,47863,1,0,0:0:0:0:
320,192,47909,1,0,0:0:0:0:
192,192,47954,1,0,0:0:0:0:
448,192,47999,1,0,0:0:0:0:
64,192,47999,1,0,0:0:0:0:
320,192,48045,1,0,0:0:0:0:
192,192,48090,1,0,0:0:0:0:
64,192,48136,1,0,0:0:0:0:
320,192,48181,1,0,0:0:0:0:
448,192,48227,1,0,0:0:0:0:
192,192,48272,1,0,0:0:0:0:
64,192,48272,1,0,0:0:0:0:
448,192,48318,1,0,0:0:0:0:
320,192,48363,1,0,0:0:0:0:
192,192,48409,1,0,0:0:0:0:
64,192,48454,1,0,0:0:0:0:
320,192,48499,1,0,0:0:0:0:
448,192,48545,1,0,0:0:0:0:
64,192,48545,1,0,0:0:0:0:
192,192,48590,1,0,0:0:0:0:
320,192,48636,1,0,0:0:0:0:
448,192,48681,1,0,0:0:0:0:
192,192,48727,1,0,0:0:0:0:
64,192,48772,1,0,0:0:0:0:
448,192,48818,1,0,0:0:0:0:
320,192,48818,1,0,0:0:0:0:
192,192,48863,1,0,0:0:0:0:
64,192,48909,1,0,0:0:0:0:
448,192,48954,1,0,0:0:0:0:
320,192,48999,1,0,0:0:0:0:
192,192,49045,1,0,0:0:0:0:
64,192,49090,1,0,0:0:0:0:
448,192,49090,1,0,0:0:0:0:
320,192,49136,1,0,0:0:0:0:
192,192,49181,1,0,0:0:0:0:
448,192,49227,1,0,0:0:0:0:
64,192,49272,1,0,0:0:0:0:
192,192,49318,1,0,0:0:0:0:
320,192,49363,1,0,0:0:0:0:
448,192,49363,1,0,0:0:0:0:
64,192,49409,1,0,0:0:0:0:
192,192,49454,1,0,0:0:0:0:
320,192,49499,1,0,0:0:0:0:
64,192,49545,1,0,0:0:0:0:
448,192,49590,1,0,0:0:0:0:
320,192,49636,1,0,0:0:0:0:
192,192,49636,1,0,0:0:0:0:
64,192,49681,1,0,0:0:0:0:
448,192,49727,1,0,0:0:0:0:
320,192,49772,1,0,0:0:0:0:
64,192,49818,1,0,0:0:0:0:
448,192,49863,1,0,0:0:0:0:
192,192,49909,1,0,0:0:0:0:
64,192,49909,1,0,0:0:0:0:
320,192,49954,1,0,0:0:0:0:
448,192,49999,1,0,0:0:0:0:
192,192,50045,1,0,0:0:0:0:
320,192,50090,1,0,0:0:0:0:
64,192,50136,1,0,0:0:0:0:
448,192,50181,1,0,0:0:0:0:
192,192,50181,1,0,0:0:0:0:
320,192,50227,1,0,0:0:0:0:
64,192,50272,1,0,0:0:0:0:
448,192,50318,1,0,0:0:0:0:
64,192,50363,1,0,0:0:0:0:
320,192,50409,1,0,0:0:0:0:
192,192,50454,1,0,0:0:0:0:
448,192,50454,1,0,0:0:0:0:
64,192,50499,1,0,0:0:0:0:
320,192,50545,1,0,0:0:0:0:
448,192,50590,1,0,0:0:0:0:
192,192,50636,1,0,0:0:0:0:
320,192,50681,1,0,0:0:0:0:
448,192,50727,1,0,0:0:0:0:
64,192,50727,1,0,0:0:0:0:
192,192,50772,1,0,0:0:0:0:
320,192,50818,1,0,0:0:0:0:
448,192,50863,1,0,0:0:0:0:
192,192,50909,1,0,0:0:0:0:
64,192,50954,1,0,0:0:0:0:
448,192,50999,1,0,0:0:0:0:
320,192,50999,1,0,0:0:0:0:
192,192,51045,1,0,0:0:0:0:
64,192,51090,1,0,0:0:0:0:
448,192,51136,1,0,0:0:0:0:
192,192,51181,1,0,0:0:0:0:
64,192,51227,1,0,0:0:0:0:
448,192,51272,1,0,0:0:0:0:
320,192,51272,1,0,0:0:0:0:
192,192,51318,1,0,0:0:0:0:
64,192,51363,1,0,0:0:0:0:
448,192,51409,1,0,0:0:0:0:
192,192,51454,1,0,0:0:0:0:
320,192,51499,1,0,0:0:0:0:
64,192,51545,1,0,0:0:0:0:
448,192,51545,1,0,0:0:0:0:
192,192,51590,1,0,0:0:0:0:
320,192,51636,1,0,0:0:0:0:
448,192,51681,1,0,0:0:0:0:
64,192,51727,1,0,0:0:0:0:
320,192,51772,1,0,0:0:0:0:
448,192,51818,1,0,0:0:0:0:
192,192,51818,1,0,0:0:0:0:
64,192,51863,1,0,0:0:0:0:
320,192,51909,1,0,0:0:0:0:
192,192,51954,1,0,0:0:0:0:
448,192,51999,1,0,0:0:0:0:
320,192,52045,1,0,0:0:0:0:
192,192,52090,1,0,0:0:0:0:
64,192,52090,1,0,0:0:0:0:
448,192,52136,1,0,0:0:0:0:
64,192,52181,1,0,0:0:0:0:
320,192,52227,1,0,0:0:0:0:
448,192,52272,1,0,0:0:0:0:
192,192,52318,1,0,0:0:0:0:
320,192,52363,1,0,0:0:0:0:
64,192,52363,1,0,0:0:0:0:
448,192,52409,1,0,0:0:0:0:
192,192,52454,1,0,0:0:0:0:
320,192,52499,1,0,0:0:0:0:
448,192,52545,1,0,0:0:0:0:
64,192,52590,1,0,0:0:0:0:
192,192,52636,1,0,0:0:0:0:
320,192,52636,1,0,0:0:0:0:
448,192,52681,1,0,0:0:0:0:
192,192,52727,1,0,0:0:0:0:
64,192,52772,1,0,0:0:0:0:
320,192,52818,1,0,0:0:0:0:
448,192,52863,1,0,0:0:0:0:
64,192,52909,1,0,0:0:0:0:
192,192,52909,1,0,0:0:0:0:
320,192,52954,1,0,0:0:0:0:
448,192,52999,1,0,0:0:0:0:
192,192,53045,1,0,0:0:0:0:
64,192,53090,1,0,0:0:0:0:
320,192,53136,1,0,0:0:0:0:
448,192,53181,1,0,0:0:0:0:
192,192,53181,1,0,0:0:0:0:
64,192,53227,1,0,0:0:0:0:
320,192,53272,1,0,0:0:0:0:
448,192,53318,1,0,0:0:0:0:
192,192,53363,1,0,0:0:0:0:
320,192,53409,1,0,0:0:0:0:
64,192,53454,1,0,0:0:0:0:
448,192,53454,1,0,0:0:0:0:
192,192,53499,1,0,0:0:0:0:
320,192,53545,1,0,0:0:0:0:
448,192,53590,1,0,0:0:0:0:
192,192,53636,1,0,0:0:0:0:
64,192,53681,1,0,0:0:0:0:
320,192,53727,1,0,0:0:0:0:
448,192,53727,1,0,0:0:0:0:
64,192,53772,1,0,0:0:0:0:
192,192,53818,1,0,0:0:0:0:
320,192,53863,1,0,0:0:0:0:
448,192,53909,1,0,0:0:0:0:
192,192,53954,1,0,0:0:0:0:
64,192,53999,1,0,0:0:0:0:
448,192,53999,1,0,0:0:0:0:
320,192,54045,1,0,0:0:0:0:
192,192,54090,1,0,0:0:0:0:
64,192,54136,1,0,0:0:0:0:
320,192,54181,1,0,0:0:0:0:
448,192,54227,1,0,0:0:0:0:
64,192,54272,1,0,0:0:0:0:
192,192,54272,1,0,0:0:0:0:
320,192,54318,1,0,0:0:0:0:
448,192,54363,1,0,0:0:0:0:
64,192,54409,1,0,0:0:0:0:
192,192,54454,1,0,0:0:0:0:
320,192,54499,1,0,0:0:0:0:
448,192,54545,1,0,0:0:0:0:
64,192,54545,1,0,0:0:0:0:
192,192,54590,1,0,0:0:0:0:
320,192,54636,1,0,0:0:0:0:
64,192,54681,1,0,0:0:0:0:
448,192,54727,1,0,0:0:0:0:
320,192,54772,1,0,0:0:0:0:
192,192,54818,1,0,0:0:0:0:
64,192,54818,1,0,0:0:0:0:
448,192,54863,1,0,0:0:0:0:
320,192,54909,1,0,0:0:0:0:
192,192,54954,1,0,0:0:0:0:
448,192,54999,1,0,0:0:0:0:
64,192,55045,1,0,0:0:0:0:
192,192,55090,1,0,0:0:0:0:
320,192,55090,1,0,0:0:0:0:
448,192,55136,1,0,0:0:0:0:
64,192,55181,1,0,0:0:0:0:
192,192,55227,1,0,0:0:0:0:
448,192,55272,1,0,0:0:0:0:
64,192,55318,1,0,0:0:0:0:
320,192,55363,1,0,0:0:0:0:
448,192,55363,1,0,0:0:0:0:
192,192,55409,1,0,0:0:0:0:
64,192,55454,1,0,0:0:0:0:
320,192,55499,1,0,0:0:0:0:
192,192,55545,1,0,0:0:0:0:
448,192,55590,1,0,0:0:0:0:
64,192,55636,1,0,0:0:0:0:
320,192,55636,1,0,0:0:0:0:
192,192,55681,1,0,0:0:0:0:
448,192,55727,1,0,0:0:0:0:
64,192,55772,1,0,0:0:0:0:
448,192,55818,1,0,0:0:0:0:
192,192,55863,1,0,0:0:0:0:
320,192,55909,1,0,0:0:0:0:
64,192,55909,1,0,0:0:0:0:
448,192,55954,1,0,0:0:0:0:
192,192,55999,1,0,0:0:0:0:
64,192,56045,1,0,0:0:0:0:
320,192,56090,1,0,0:0:0:0:
192,192,56136,1,0,0:0:0:0:
64,192,56181,1,0,0:0:0:0:
448,192,56181,1,0,0:0:0:0:
320,192,56227,1,0,0:0:0:0:
192,192,56272,1,0,0:0:0:0:
64,192,56318,1,0,0:0:0:0:
320,192,56363,1,0,0:0:0:0:
448,192,56409,1,0,0:0:0:0:
64,192,56454,1,0,0:0:0:0:
192,192,56454,1,0,0:0:0:0:
320,192,56499,1,0,0:0:0:0:
448,192,56545,1,0,0:0:0:0:
192,192,56590,1,0,0:0:0:0:
64,192,56636,1,0,0:0:0:0:
448,192,56681,1,0,0:0:0:0:
64,192,56727,1,0,0:0:0:0:
320,192,56727,1,0,0:0:0:0:
192,192,56772,1,0,0:0:0:0:
448,192,56818,1,0,0:0:0:0:
64,192,56863,1,0,0:0:0:0:
192,192,56909,1,0,0:0:0:0:
320,192,56954,1,0,0:0:0:0:
192,192,56999,1,0,0:0:0:0:
448,192,56999,1,0,0:0:0:0:
64,192,57045,1,0,0:0:0:0:
320,192,57090,1,0,0:0:0:0:
448,192,57136,1,0,0:0:0:0:
192,192,57181,1,0,0:0:0:0:
320,192,57227,1,0,0:0:0:0:
64,192,57272,1,0,0:0:0:0:
448,192,57272,1,0,0:0:0:0:
192,192,57318,1,0,0:0:0:0:
320,192,57363,1,0,0:0:0:0:
448,192,57409,1,0,0:0:0:0:
192,192,57454,1,0,0:0:0:0:
64,192,57499,1,0,0:0:0:0:
320,192,57545,1,0,0:0:0:0:
448,192,57545,1,0,0:0:0:0:
192,192,57590,1,0,0:0:0:0:
64,192,57636,1,0,0:0:0:0:
448,192,57681,1,0,0:0:0:0:
320,192,57727,1,0,0:0:0:0:
192,192,57772,1,0,0:0:0:0:
64,192,57818,1,0,0:0:0:0:
448,192,57818,1,0,0:0:0:0:
320,192,57863,1,0,0:0:0:0:
192,192,57909,1,0,0:0:0:0:
448,192,57954,1,0,0:0:0:0:
64,192,57999,1,0,0:0:0:0:
320,192,58045,1,0,0:0:0:0:
448,192,58090,1,0,0:0:0:0:
192,192,58090,1,0,0:0:0:0:
64,192,58136,1,0,0:0:0:0:
320,192,58181,1,0,0:0:0:0:
448,192,58227,1,0,0:0:0:0:
64,192,58272,1,0,0:0:0:0:
448,192,58318,1,0,0:0:0:0:
320,192,58363,1,0,0:0:0:0:
192,192,58363,1,0,0:0:0:0:
64,192,58409,1,0,0:0:0:0:
448,192,58454,1,0,0:0:0:0:
320,192,58499,1,0,0:0:0:0:
192,192,58545,1,0,0:0:0:0:
64,192,58590,1,0,0:0:0:0:
320,192,58636,1,0,0:0:0:0:
448,192,58636,1,0,0:0:0:0:
192,192,58681,1,0,0:0:0:0:
64,192,58727,1,0,0:0:0:0:
320,192,58772,1,0,0:0:0:0:
448,192,58818,1,0,0:0:0:0:
64,192,58863,1,0,0:0:0:0:
320,192,58909,1,0,0:0:0:0:
448,192,58909,1,0,0:0:0:0:
192,192,58909,1,0,0:0:0:0:
64,192,58999,1,0,0:0:0:0:
192,192,59045,1,0,0:0:0:0:
320,192,59090,1,0,0:0:0:0:
64,192,59136,1,0,0:0:0:0:
448,192,59181,1,0,0:0:0:0:
192,192,59227,1,0,0:0:0:0:
64,192,59272,1,0,0:0:0:0:
320,192,59318,1,0,0:0:0:0:
192,192,59363,1,0,0:0:0:0:
64,192,59409,1,0,0:0:0:0:
448,192,59409,1,0,0:0:0:0:
320,192,59454,1,0,0:0:0:0:
64,192,59499,1,0,0:0:0:0:
448,192,59545,1,0,0:0:0:0:
192,192,59590,1,0,0:0:0:0:
320,192,59636,1,0,0:0:0:0:
448,192,59681,1,0,0:0:0:0:
64,192,59727,1,0,0:0:0:0:
192,192,59772,1,0,0:0:0:0:
448,192,59818,1,0,0:0:0:0:
64,192,59863,1,0,0:0:0:0:
320,192,59909,1,0,0:0:0:0:
192,192,59999,1,0,0:0:0:0:
64,192,59999,1,0,0:0:0:0:
448,192,59999,1,0,0:0:0:0:
320,192,60090,1,0,0:0:0:0:
448,192,60136,1,0,0:0:0:0:
192,192,60181,1,0,0:0:0:0:
64,192,60227,1,0,0:0:0:0:
320,192,60272,1,0,0:0:0:0:
448,192,60318,1,0,0:0:0:0:
192,192,60363,1,0,0:0:0:0:
320,192,60409,1,0,0:0:0:0:
64,192,60454,1,0,0:0:0:0:
448,192,60499,1,0,0:0:0:0:
192,192,60545,1,0,0:0:0:0:
64,192,60590,1,0,0:0:0:0:
448,192,60636,1,0,0:0:0:0:
192,192,60681,1,0,0:0:0:0:
320,192,60727,1,0,0:0:0:0:
448,192,60772,1,0,0:0:0:0:
64,192,60818,1,0,0:0:0:0:
320,192,60863,1,0,0:0:0:0:
192,192,60909,1,0,0:0:0:0:
448,192,60954,1,0,0:0:0:0:
64,192,60999,1,0,0:0:0:0:
320,192,61090,1,0,0:0:0:0:
448,192,61090,1,0,0:0:0:0:
192,192,61090,1,0,0:0:0:0:
64,192,61181,1,0,0:0:0:0:
448,192,61227,1,0,0:0:0:0:
192,192,61272,1,0,0:0:0:0:
320,192,61318,1,0,0:0:0:0:
448,192,61363,1,0,0:0:0:0:
64,192,61409,1,0,0:0:0:0:
192,192,61454,1,0,0:0:0:0:
448,192,61499,1,0,0:0:0:0:
64,192,61545,1,0,0:0:0:0:
320,192,61590,1,0,0:0:0:0:
192,192,61636,1,0,0:0:0:0:
64,192,61681,1,0,0:0:0:0:
320,192,61727,1,0,0:0:0:0:
448,192,61772,1,0,0:0:0:0:
192,192,61818,1,0,0:0:0:0:
448,192,61863,1,0,0:0:0:0:
64,192,61909,1,0,0:0:0:0:
320,192,61954,1,0,0:0:0:0:
192,192,61999,1,0,0:0:0:0:
64,192,62045,1,0,0:0:0:0:
448,192,62090,1,0,0:0:0:0:
64,192,62181,1,0,0:0:0:0:
192,192,62181,1,0,0:0:0:0:
320,192,62181,1,0,0:0:0:0:
448,192,62318,1,0,0:0:0:0:
64,192,62318,1,0,0:0:0:0:
192,192,62318,1,0,0:0:0:0:
64,192,62454,1,0,0:0:0:0:
192,192,62454,1,0,0:0:0:0:
320,192,62454,1,0,0:0:0:0:
448,192,62590,1,0,0:0:0:0:
64,192,62590,1,0,0:0:0:0:
320,192,62590,1,0,0:0:0:0:
448,192,62727,1,0,0:0:0:0:
64,192,62727,1,0,0:0:0:0:
192,192,62727,1,0,0:0:0:0:
64,192,62863,1,0,0:0:0:0:
448,192,62863,1,0,0:0:0:0:
320,192,62863,1,0,0:0:0:0:
448,192,62999,1,0,0:0:0:0:
192,192,62999,1,0,0:0:0:0:
320,192,62999,1,0,0:0:0:0:
64,192,63136,1,0,0:0:0:0:
320,192,63136,1,0,0:0:0:0:
192,192,63136,1,0,0:0:0:0:
64,192,63272,1,0,0:0:0:0:
192,192,63272,1,0,0:0:0:0:
448,192,63272,1,0,0:0:0:0:
320,192,63272,1,0,0:0:0:0:
192,192,63409,1,0,0:0:0:0:
320,192,63545,1,0,0:0:0:0:
448,192,63545,1,0,0:0:0:0:
64,192,63681,1,0,0:0:0:0:
320,192,63715,1,0,0:0:0:0:
192,192,63749,1,0,0:0:0:0:
448,192,63784,1,0,0:0:0:0:
64,192,63818,1,0,0:0:0:0:
320,192,63818,1,0,0:0:0:0:
64,192,63954,1,0,0:0:0:0:
320,192,63954,1,0,0:0:0:0:
448,192,63988,1,0,0:0:0:0:
192,192,64022,1,0,0:0:0:0:
320,192,64056,1,0,0:0:0:0:
64,192,64090,1,0,0:0:0:0:
448,192,64124,1,0,0:0:0:0:
192,192,64159,1,0,0:0:0:0:
64,192,64193,1,0,0:0:0:0:
448,192,64227,1,0,0:0:0:0:
320,192,64227,1,0,0:0:0:0:
64,192,64363,1,0,0:0:0:0:
320,192,64397,1,0,0:0:0:0:
192,192,64431,1,0,0:0:0:0:
64,192,64465,1,0,0:0:0:0:
448,192,64499,1,0,0:0:0:0:
192,192,64534,1,0,0:0:0:0:
320,192,64568,1,0,0:0:0:0:
64,192,64602,1,0,0:0:0:0:
448,192,64636,1,0,0:0:0:0:
192,192,64636,1,0,0:0:0:0:
192,192,64772,1,0,0:0:0:0:
448,192,64806,1,0,0:0:0:0:
320,192,64909,1,0,0:0:0:0:
64,192,64909,1,0,0:0:0:0:
448,192,65045,1,0,0:0:0:0:
192,192,65045,1,0,0:0:0:0:
64,192,65079,1,0,0:0:0:0:
320,192,65113,1,0,0:0:0:0:
64,192,65181,1,0,0:0:0:0:
448,192,65181,1,0,0:0:0:0:
192,192,65215,1,0,0:0:0:0:
320,192,65318,1,0,0:0:0:0:
448,192,65318,1,0,0:0:0:0:
64,192,65454,1,0,0:0:0:0:
192,192,65454,1,0,0:0:0:0:
448,192,65488,1,0,0:0:0:0:
320,192,65522,1,0,0:0:0:0:
64,192,65556,1,0,0:0:0:0:
448,192,65590,1,0,0:0:0:0:
192,192,65590,1,0,0:0:0:0:
320,192,65659,1,0,0:0:0:0:
64,192,65727,1,0,0:0:0:0:
448,192,65727,1,0,0:0:0:0:
192,192,65795,1,0,0:0:0:0:
320,192,65829,1,0,0:0:0:0:
64,192,65863,1,0,0:0:0:0:
448,192,65897,1,0,0:0:0:0:
192,192,65931,1,0,0:0:0:0:
64,192,65965,1,0,0:0:0:0:
448,192,65999,1,0,0:0:0:0:
192,192,66034,1,0,0:0:0:0:
448,192,66136,1,0,0:0:0:0:
320,192,66136,1,0,0:0:0:0:
64,192,66272,1,0,0:0:0:0:
448,192,66306,1,0,0:0:0:0:
64,192,66409,1,0,0:0:0:0:
320,192,66409,1,0,0:0:0:0:
192,192,66477,1,0,0:0:0:0:
448,192,66511,1,0,0:0:0:0:
64,192,66545,1,0,0:0:0:0:
320,192,66579,1,0,0:0:0:0:
192,192,66613,1,0,0:0:0:0:
448,192,66647,1,0,0:0:0:0:
64,192,66681,1,0,0:0:0:0:
320,192,66681,1,0,0:0:0:0:
64,192,66818,1,0,0:0:0:0:
448,192,66818,1,0,0:0:0:0:
320,192,66852,1,0,0:0:0:0:
192,192,66886,1,0,0:0:0:0:
64,192,66920,1,0,0:0:0:0:
448,192,66954,1,0,0:0:0:0:
320,192,66954,1,0,0:0:0:0:
64,192,67022,1,0,0:0:0:0:
448,192,67056,1,0,0:0:0:0:
192,192,67090,1,0,0:0:0:0:
64,192,67124,1,0,0:0:0:0:
320,192,67227,1,0,0:0:0:0:
64,192,67261,1,0,0:0:0:0:
448,192,67295,1,0,0:0:0:0:
192,192,67329,1,0,0:0:0:0:
320,192,67363,1,0,0:0:0:0:
64,192,67363,1,0,0:0:0:0:
448,192,67397,1,0,0:0:0:0:
320,192,67499,1,0,0:0:0:0:
192,192,67568,1,0,0:0:0:0:
448,192,67636,1,0,0:0:0:0:
64,192,67636,1,0,0:0:0:0:
192,192,67704,1,0,0:0:0:0:
320,192,67738,1,0,0:0:0:0:
64,192,67772,1,0,0:0:0:0:
448,192,67806,1,0,0:0:0:0:
192,192,67840,1,0,0:0:0:0:
64,192,67874,1,0,0:0:0:0:
448,192,67909,1,0,0:0:0:0:
192,192,67943,1,0,0:0:0:0:
320,192,67977,1,0,0:0:0:0:
64,192,68011,1,0,0:0:0:0:
448,192,68045,1,0,0:0:0:0:
192,192,68079,1,0,0:0:0:0:
320,192,68113,1,0,0:0:0:0:
64,192,68147,1,0,0:0:0:0:
192,192,68181,1,0,0:0:0:0:
320,192,68318,1,0,0:0:0:0:
448,192,68318,1,0,0:0:0:0:
64,192,68352,1,0,0:0:0:0:
448,192,68454,1,0,0:0:0:0:
64,192,68488,1,0,0:0:0:0:
320,192,68522,1,0,0:0:0:0:
448,192,68556,1,0,0:0:0:0:
192,192,68590,1,0,0:0:0:0:
64,192,68590,1,0,0:0:0:0:
448,192,68727,1,0,0:0:0:0:
192,192,68727,1,0,0:0:0:0:
320,192,68795,1,0,0:0:0:0:
64,192,68829,1,0,0:0:0:0:
448,192,68863,1,0,0:0:0:0:
320,192,68931,1,0,0:0:0:0:
192,192,68999,1,0,0:0:0:0:
64,192,68999,1,0,0:0:0:0:
320,192,69068,1,0,0:0:0:0:
448,192,69136,1,0,0:0:0:0:
320,192,69204,1,0,0:0:0:0:
192,192,69272,1,0,0:0:0:0:
64,192,69272,1,0,0:0:0:0:
320,192,69340,1,0,0:0:0:0:
448,192,69409,1,0,0:0:0:0:
320,192,69477,1,0,0:0:0:0:
192,192,69545,1,0,0:0:0:0:
64,192,69545,1,0,0:0:0:0:
320,192,69613,1,0,0:0:0:0:
448,192,69681,1,0,0:0:0:0:
192,192,69749,1,0,0:0:0:0:
64,192,69818,1,0,0:0:0:0:
320,192,69818,1,0,0:0:0:0:
192,192,69886,1,0,0:0:0:0:
448,192,69920,1,0,0:0:0:0:
64,192,69954,1,0,0:0:0:0:
320,192,69988,1,0,0:0:0:0:
192,192,70022,1,0,0:0:0:0:
64,192,70056,1,0,0:0:0:0:
448,192,70090,1,0,0:0:0:0:
320,192,70090,1,0,0:0:0:0:
448,192,70227,1,0,0:0:0:0:
64,192,70227,1,0,0:0:0:0:
320,192,70295,1,0,0:0:0:0:
64,192,70329,1,0,0:0:0:0:
192,192,70363,1,0,0:0:0:0:
448,192,70397,1,0,0:0:0:0:
64,192,70431,1,0,0:0:0:0:
320,192,70465,1,0,0:0:0:0:
448,192,70499,1,0,0:0:0:0:
192,192,70499,1,0,0:0:0:0:
64,192,70636,1,0,0:0:0:0:
448,192,70670,1,0,0:0:0:0:
192,192,70704,1,0,0:0:0:0:
64,192,70738,1,0,0:0:0:0:
320,192,70772,1,0,0:0:0:0:
448,192,70772,1,0,0:0:0:0:
64,192,70840,1,0,0:0:0:0:
448,192,70874,1,0,0:0:0:0:
320,192,70909,1,0,0:0:0:0:
192,192,70909,1,0,0:0:0:0:
64,192,71045,1,0,0:0:0:0:
448,192,71045,1,0,0:0:0:0:
192,192,71113,1,0,0:0:0:0:
448,192,71147,1,0,0:0:0:0:
320,192,71181,1,0,0:0:0:0:
64,192,71181,1,0,0:0:0:0:
64,192,71318,1,0,0:0:0:0:
192,192,71318,1,0,0:0:0:0:
448,192,71352,1,0,0:0:0:0:
192,192,71454,1,0,0:0:0:0:
448,192,71454,1,0,0:0:0:0:
64,192,71488,1,0,0:0:0:0:
320,192,71522,1,0,0:0:0:0:
192,192,71556,1,0,0:0:0:0:
64,192,71590,1,0,0:0:0:0:
448,192,71659,1,0,0:0:0:0:
320,192,71659,1,0,0:0:0:0:
64,192,71727,1,0,0:0:0:0:
192,192,71727,1,0,0:0:0:0:
448,192,71795,1,0,0:0:0:0:
320,192,71829,1,0,0:0:0:0:
192,192,71863,1,0,0:0:0:0:
64,192,71897,1,0,0:0:0:0:
448,192,71931,1,0,0:0:0:0:
320,192,71965,1,0,0:0:0:0:
192,192,71999,1,0,0:0:0:0:
64,192,71999,1,0,0:0:0:0:
448,192,72068,1,0,0:0:0:0:
320,192,72102,1,0,0:0:0:0:
192,192,72136,1,0,0:0:0:0:
64,192,72170,1,0,0:0:0:0:
448,192,72204,1,0,0:0:0:0:
64,192,72272,1,0,0:0:0:0:
320,192,72272,1,0,0:0:0:0:
64,192,72545,1,0,0:0:0:0:
192,192,72579,1,0,0:0:0:0:
320,192,72613,1,0,0:0:0:0:
448,192,72681,1,0,0:0:0:0:
64,192,72681,1,0,0:0:0:0:
192,192,72749,1,0,0:0:0:0:
320,192,72784,1,0,0:0:0:0:
448,192,72818,1,0,0:0:0:0:
64,192,72954,1,0,0:0:0:0:
448,192,72954,1,0,0:0:0:0:
192,192,72988,1,0,0:0:0:0:
320,192,73022,1,0,0:0:0:0:
448,192,73227,1,0,0:0:0:0:
192,192,73227,1,0,0:0:0:0:
64,192,73261,1,0,0:0:0:0:
448,192,73363,1,0,0:0:0:0:
64,192,73397,1,0,0:0:0:0:
320,192,73465,1,0,0:0:0:0:
192,192,73499,1,0,0:0:0:0:
64,192,73636,1,0,0:0:0:0:
448,192,73636,1,0,0:0:0:0:
320,192,73670,1,0,0:0:0:0:
64,192,73772,1,0,0:0:0:0:
192,192,73772,1,0,0:0:0:0:
448,192,73840,1,0,0:0:0:0:
64,192,73874,1,0,0:0:0:0:
320,192,73909,1,0,0:0:0:0:
192,192,73909,1,0,0:0:0:0:
448,192,74045,1,0,0:0:0:0:
320,192,74045,1,0,0:0:0:0:
64,192,74181,1,0,0:0:0:0:
320,192,74215,1,0,0:0:0:0:
192,192,74249,1,0,0:0:0:0:
448,192,74284,1,0,0:0:0:0:
320,192,74318,1,0,0:0:0:0:
64,192,74352,1,0,0:0:0:0:
448,192,74386,1,0,0:0:0:0:
192,192,74420,1,0,0:0:0:0:
320,192,74454,1,0,0:0:0:0:
64,192,74590,1,0,0:0:0:0:
448,192,74624,1,0,0:0:0:0:
64,192,74727,1,0,0:0:0:0:
192,192,74727,1,0,0:0:0:0:
448,192,74863,1,0,0:0:0:0:
448,192,74999,1,0,0:0:0:0:
448,192,75136,1,0,0:0:0:0:
320,192,75272,1,0,0:0:0:0:
64,192,75409,1,0,0:0:0:0:
448,192,75477,1,0,0:0:0:0:
192,192,75545,1,0,0:0:0:0:
64,192,75681,1,0,0:0:0:0:
448,192,75749,1,0,0:0:0:0:
320,192,75818,1,0,0:0:0:0:
64,192,75954,1,0,0:0:0:0:
192,192,75954,1,0,0:0:0:0:
320,192,75988,1,0,0:0:0:0:
448,192,76022,1,0,0:0:0:0:
64,192,76056,1,0,0:0:0:0:
192,192,76090,1,0,0:0:0:0:
320,192,76124,1,0,0:0:0:0:
448,192,76159,1,0,0:0:0:0:
64,192,76193,1,0,0:0:0:0:
192,192,76227,1,0,0:0:0:0:
448,192,76261,1,0,0:0:0:0:
320,192,76295,1,0,0:0:0:0:
192,192,76329,1,0,0:0:0:0:
64,192,76363,1,0,0:0:0:0:
448,192,76363,1,0,0:0:0:0:
320,192,76431,1,0,0:0:0:0:
192,192,76431,1,0,0:0:0:0:
64,192,76499,1,0,0:0:0:0:
448,192,76499,1,0,0:0:0:0:
320,192,76568,1,0,0:0:0:0:
192,192,76568,1,0,0:0:0:0:
448,192,76636,1,0,0:0:0:0:
64,192,76636,1,0,0:0:0:0:
448,192,76909,1,0,0:0:0:0:
64,192,76954,1,0,0:0:0:0:
320,192,76999,1,0,0:0:0:0:
64,192,77045,1,0,0:0:0:0:
448,192,77090,1,0,0:0:0:0:
192,192,77136,1,0,0:0:0:0:
448,192,77181,1,0,0:0:0:0:
64,192,77227,1,0,0:0:0:0:
320,192,77272,1,0,0:0:0:0:
448,192,77318,1,0,0:0:0:0:
192,192,77363,1,0,0:0:0:0:
320,192,77409,1,0,0:0:0:0:
448,192,77454,1,0,0:0:0:0:
320,192,77522,1,0,0:0:0:0:
192,192,77590,1,0,0:0:0:0:
64,192,77590,1,0,0:0:0:0:
448,192,77659,1,0,0:0:0:0:
192,192,77693,1,0,0:0:0:0:
64,192,77727,1,0,0:0:0:0:
320,192,77727,1,0,0:0:0:0:
448,192,77795,1,0,0:0:0:0:
192,192,77829,1,0,0:0:0:0:
320,192,77863,1,0,0:0:0:0:
64,192,77897,1,0,0:0:0:0:
448,192,77931,1,0,0:0:0:0:
64,192,78034,128,0,78204:0:0:0:0:
320,192,78272,1,0,0:0:0:0:
448,192,78272,1,0,0:0:0:0:
192,192,78306,1,0,0:0:0:0:
64,192,78340,1,0,0:0:0:0:
448,192,78374,1,0,0:0:0:0:
320,192,78409,1,0,0:0:0:0:
64,192,78443,1,0,0:0:0:0:
192,192,78477,1,0,0:0:0:0:
320,192,78511,1,0,0:0:0:0:
448,192,78545,1,0,0:0:0:0:
64,192,78545,1,0,0:0:0:0:
64,192,78681,1,0,0:0:0:0:
320,192,78715,1,0,0:0:0:0:
192,192,78749,1,0,0:0:0:0:
448,192,78749,1,0,0:0:0:0:
64,192,78784,1,0,0:0:0:0:
320,192,78818,1,0,0:0:0:0:
192,192,78886,1,0,0:0:0:0:
448,192,78954,1,0,0:0:0:0:
320,192,78954,1,0,0:0:0:0:
64,192,79090,1,0,0:0:0:0:
192,192,79124,1,0,0:0:0:0:
448,192,79159,1,0,0:0:0:0:
320,192,79159,1,0,0:0:0:0:
64,192,79193,1,0,0:0:0:0:
192,192,79227,1,0,0:0:0:0:
448,192,79295,1,0,0:0:0:0:
320,192,79363,1,0,0:0:0:0:
64,192,79363,1,0,0:0:0:0:
192,192,79499,1,0,0:0:0:0:
320,192,79534,1,0,0:0:0:0:
64,192,79568,1,0,0:0:0:0:
448,192,79568,1,0,0:0:0:0:
192,192,79602,1,0,0:0:0:0:
320,192,79636,1,0,0:0:0:0:
448,192,79704,1,0,0:0:0:0:
320,192,79772,1,0,0:0:0:0:
192,192,79772,1,0,0:0:0:0:
448,192,79909,1,0,0:0:0:0:
64,192,79943,1,0,0:0:0:0:
192,192,79977,1,0,0:0:0:0:
320,192,79977,1,0,0:0:0:0:
448,192,80011,1,0,0:0:0:0:
64,192,80045,1,0,0:0:0:0:
320,192,80113,1,0,0:0:0:0:
448,192,80181,5,0,0:0:0:0:
192,192,80181,1,0,0:0:0:0:
64,192,80181,1,0,0:0:0:0:
448,192,80318,1,0,0:0:0:0:
320,192,80318,1,0,0:0:0:0:
64,192,80386,1,0,0:0:0:0:
192,192,80386,1,0,0:0:0:0:
448,192,80454,1,0,0:0:0:0:
320,192,80454,1,0,0:0:0:0:
64,192,80522,1,0,0:0:0:0:
192,192,80522,1,0,0:0:0:0:
320,192,80590,1,0,0:0:0:0:
448,192,80590,1,0,0:0:0:0:
64,192,80727,5,0,0:0:0:0:
192,192,80727,1,0,0:0:0:0:
320,192,80795,1,0,0:0:0:0:
448,192,80863,1,0,0:0:0:0:
192,192,80863,1,0,0:0:0:0:
64,192,80931,1,0,0:0:0:0:
448,192,80999,1,0,0:0:0:0:
320,192,80999,1,0,0:0:0:0:
192,192,81068,1,0,0:0:0:0:
64,192,81136,1,0,0:0:0:0:
448,192,81136,1,0,0:0:0:0:
320,192,81204,1,0,0:0:0:0:
192,192,81272,1,0,0:0:0:0:
64,192,81272,1,0,0:0:0:0:
320,192,81340,1,0,0:0:0:0:
448,192,81409,1,0,0:0:0:0:
64,192,81409,1,0,0:0:0:0:
192,192,81477,1,0,0:0:0:0:
64,192,81545,1,0,0:0:0:0:
448,192,81545,1,0,0:0:0:0:
320,192,81613,1,0,0:0:0:0:
448,192,81681,1,0,0:0:0:0:
192,192,81681,1,0,0:0:0:0:
320,192,81749,1,0,0:0:0:0:
448,192,81818,1,0,0:0:0:0:
64,192,81818,1,0,0:0:0:0:
192,192,81886,1,0,0:0:0:0:
320,192,81954,1,0,0:0:0:0:
448,192,81954,1,0,0:0:0:0:
64,192,82022,1,0,0:0:0:0:
192,192,82090,1,0,0:0:0:0:
448,192,82090,1,0,0:0:0:0:
320,192,82159,1,0,0:0:0:0:
192,192,82227,1,0,0:0:0:0:
64,192,82227,1,0,0:0:0:0:
320,192,82295,1,0,0:0:0:0:
448,192,82363,1,0,0:0:0:0:
64,192,82363,1,0,0:0:0:0:
192,192,82431,1,0,0:0:0:0:
64,192,82499,1,0,0:0:0:0:
448,192,82499,1,0,0:0:0:0:
320,192,82568,1,0,0:0:0:0:
448,192,82636,1,0,0:0:0:0:
64,192,82636,1,0,0:0:0:0:
320,192,82704,1,0,0:0:0:0:
192,192,82772,1,0,0:0:0:0:
64,192,82772,1,0,0:0:0:0:
448,192,82840,1,0,0:0:0:0:
320,192,82909,1,0,0:0:0:0:
192,192,82909,1,0,0:0:0:0:
64,192,82977,1,0,0:0:0:0:
448,192,83045,1,0,0:0:0:0:
320,192,83045,1,0,0:0:0:0:
192,192,83113,1,0,0:0:0:0:
320,192,83181,1,0,0:0:0:0:
448,192,83181,1,0,0:0:0:0:
192,192,83249,1,0,0:0:0:0:
64,192,83318,1,0,0:0:0:0:
448,192,83386,1,0,0:0:0:0:
192,192,83454,1,0,0:0:0:0:
64,192,83454,1,0,0:0:0:0:
320,192,83522,1,0,0:0:0:0:
192,192,83590,1,0,0:0:0:0:
64,192,83590,1,0,0:0:0:0:
320,192,83659,1,0,0:0:0:0:
448,192,83727,1,0,0:0:0:0:
64,192,83727,1,0,0:0:0:0:
192,192,83795,1,0,0:0:0:0:
448,192,83863,1,0,0:0:0:0:
64,192,83863,1,0,0:0:0:0:
320,192,83931,1,0,0:0:0:0:
64,192,83999,1,0,0:0:0:0:
192,192,83999,1,0,0:0:0:0:
320,192,84068,1,0,0:0:0:0:
448,192,84136,1,0,0:0:0:0:
64,192,84136,1,0,0:0:0:0:
192,192,84204,1,0,0:0:0:0:
320,192,84272,1,0,0:0:0:0:
64,192,84272,1,0,0:0:0:0:
448,192,84340,1,0,0:0:0:0:
192,192,84409,1,0,0:0:0:0:
64,192,84409,1,0,0:0:0:0:
448,192,84477,1,0,0:0:0:0:
192,192,84545,1,0,0:0:0:0:
64,192,84545,1,0,0:0:0:0:
320,192,84613,1,0,0:0:0:0:
192,192,84681,1,0,0:0:0:0:
448,192,84681,1,0,0:0:0:0:
64,192,84749,1,0,0:0:0:0:
320,192,84818,1,0,0:0:0:0:
448,192,84818,1,0,0:0:0:0:
192,192,84886,1,0,0:0:0:0:
64,192,84954,1,0,0:0:0:0:
320,192,84954,1,0,0:0:0:0:
192,192,85022,1,0,0:0:0:0:
64,192,85090,1,0,0:0:0:0:
448,192,85090,1,0,0:0:0:0:
320,192,85159,1,0,0:0:0:0:
448,192,85227,1,0,0:0:0:0:
192,192,85227,1,0,0:0:0:0:
64,192,85295,1,0,0:0:0:0:
192,192,85363,1,0,0:0:0:0:
320,192,85363,1,0,0:0:0:0:
448,192,85431,1,0,0:0:0:0:
64,192,85499,1,0,0:0:0:0:
320,192,85499,1,0,0:0:0:0:
192,192,85568,1,0,0:0:0:0:
320,192,85636,1,0,0:0:0:0:
448,192,85636,1,0,0:0:0:0:
64,192,85704,1,0,0:0:0:0:
320,192,85772,1,0,0:0:0:0:
448,192,85772,1,0,0:0:0:0:
192,192,85840,1,0,0:0:0:0:
64,192,85909,1,0,0:0:0:0:
448,192,85909,1,0,0:0:0:0:
320,192,85977,1,0,0:0:0:0:
64,192,86045,1,0,0:0:0:0:
448,192,86045,1,0,0:0:0:0:
192,192,86113,1,0,0:0:0:0:
64,192,86181,1,0,0:0:0:0:
320,192,86181,1,0,0:0:0:0:
448,192,86249,1,0,0:0:0:0:
320,192,86318,1,0,0:0:0:0:
64,192,86318,1,0,0:0:0:0:
192,192,86386,1,0,0:0:0:0:
64,192,86454,1,0,0:0:0:0:
448,192,86454,1,0,0:0:0:0:
320,192,86522,1,0,0:0:0:0:
192,192,86590,1,0,0:0:0:0:
64,192,86590,1,0,0:0:0:0:
448,192,86659,1,0,0:0:0:0:
320,192,86727,1,0,0:0:0:0:
64,192,86727,1,0,0:0:0:0:
192,192,86795,1,0,0:0:0:0:
448,192,86863,1,0,0:0:0:0:
64,192,86863,1,0,0:0:0:0:
192,192,86931,1,0,0:0:0:0:
64,192,86999,1,0,0:0:0:0:
448,192,86999,1,0,0:0:0:0:
320,192,87068,1,0,0:0:0:0:
64,192,87136,1,0,0:0:0:0:
448,192,87136,1,0,0:0:0:0:
192,192,87204,1,0,0:0:0:0:
64,192,87272,1,0,0:0:0:0:
448,192,87272,1,0,0:0:0:0:
320,192,87340,1,0,0:0:0:0:
192,192,87409,1,0,0:0:0:0:
64,192,87409,1,0,0:0:0:0:
448,192,87477,1,0,0:0:0:0:
320,192,87545,1,0,0:0:0:0:
64,192,87545,1,0,0:0:0:0:
448,192,87613,1,0,0:0:0:0:
192,192,87681,1,0,0:0:0:0:
320,192,87681,1,0,0:0:0:0:
64,192,87749,1,0,0:0:0:0:
192,192,87818,1,0,0:0:0:0:
448,192,87818,1,0,0:0:0:0:
320,192,87886,1,0,0:0:0:0:
192,192,87954,1,0,0:0:0:0:
64,192,87954,1,0,0:0:0:0:
448,192,88022,1,0,0:0:0:0:
64,192,88090,1,0,0:0:0:0:
192,192,88090,1,0,0:0:0:0:
448,192,88159,1,0,0:0:0:0:
320,192,88227,1,0,0:0:0:0:
192,192,88227,1,0,0:0:0:0:
64,192,88295,1,0,0:0:0:0:
192,192,88363,1,0,0:0:0:0:
448,192,88363,1,0,0:0:0:0:
64,192,88431,1,0,0:0:0:0:
320,192,88499,1,0,0:0:0:0:
448,192,88499,1,0,0:0:0:0:
192,192,88568,1,0,0:0:0:0:
64,192,88636,1,0,0:0:0:0:
448,192,88636,1,0,0:0:0:0:
320,192,88704,1,0,0:0:0:0:
192,192,88772,1,0,0:0:0:0:
64,192,88772,1,0,0:0:0:0:
448,192,88840,1,0,0:0:0:0:
320,192,88909,1,0,0:0:0:0:
64,192,88909,1,0,0:0:0:0:
192,192,88977,1,0,0:0:0:0:
320,192,89045,1,0,0:0:0:0:
448,192,89045,1,0,0:0:0:0:
64,192,89113,1,0,0:0:0:0:
192,192,89181,1,0,0:0:0:0:
320,192,89181,1,0,0:0:0:0:
448,192,89249,1,0,0:0:0:0:
64,192,89318,1,0,0:0:0:0:
320,192,89318,1,0,0:0:0:0:
448,192,89386,1,0,0:0:0:0:
64,192,89454,1,0,0:0:0:0:
192,192,89454,1,0,0:0:0:0:
448,192,89499,1,0,0:0:0:0:
320,192,89545,1,0,0:0:0:0:
64,192,89590,1,0,0:0:0:0:
192,192,89636,1,0,0:0:0:0:
320,192,89681,1,0,0:0:0:0:
448,192,89727,1,0,0:0:0:0:
64,192,89727,1,0,0:0:0:0:
192,192,89772,1,0,0:0:0:0:
320,192,89818,1,0,0:0:0:0:
448,192,89863,1,0,0:0:0:0:
320,192,89909,1,0,0:0:0:0:
192,192,89954,1,0,0:0:0:0:
64,192,89999,1,0,0:0:0:0:
448,192,89999,1,0,0:0:0:0:
320,192,90045,1,0,0:0:0:0:
192,192,90090,1,0,0:0:0:0:
448,192,90136,1,0,0:0:0:0:
64,192,90181,1,0,0:0:0:0:
192,192,90227,1,0,0:0:0:0:
320,192,90272,1,0,0:0:0:0:
448,192,90272,1,0,0:0:0:0:
64,192,90318,1,0,0:0:0:0:
192,192,90363,1,0,0:0:0:0:
320,192,90409,1,0,0:0:0:0:
64,192,90454,1,0,0:0:0:0:
448,192,90499,1,0,0:0:0:0:
320,192,90545,1,0,0:0:0:0:
64,192,90545,1,0,0:0:0:0:
192,192,90590,1,0,0:0:0:0:
448,192,90636,1,0,0:0:0:0:
320,192,90681,1,0,0:0:0:0:
192,192,90727,1,0,0:0:0:0:
64,192,90772,1,0,0:0:0:0:
448,192,90818,1,0,0:0:0:0:
320,192,90818,1,0,0:0:0:0:
192,192,90863,1,0,0:0:0:0:
64,192,90908,1,0,0:0:0:0:
320,192,90954,1,0,0:0:0:0:
448,192,90999,1,0,0:0:0:0:
192,192,91045,1,0,0:0:0:0:
320,192,91090,1,0,0:0:0:0:
64,192,91090,1,0,0:0:0:0:
448,192,91136,1,0,0:0:0:0:
192,192,91181,1,0,0:0:0:0:
448,192,91227,1,0,0:0:0:0:
320,192,91272,1,0,0:0:0:0:
192,192,91318,1,0,0:0:0:0:
64,192,91363,1,0,0:0:0:0:
448,192,91363,1,0,0:0:0:0:
192,192,91431,1,0,0:0:0:0:
448,192,91499,1,0,0:0:0:0:
320,192,91499,1,0,0:0:0:0:
192,192,91568,1,0,0:0:0:0:
448,192,91636,1,0,0:0:0:0:
64,192,91636,1,0,0:0:0:0:
192,192,91681,1,0,0:0:0:0:
448,192,91727,1,0,0:0:0:0:
64,192,91772,1,0,0:0:0:0:
192,192,91818,1,0,0:0:0:0:
320,192,91863,1,0,0:0:0:0:
448,192,91908,1,0,0:0:0:0:
64,192,91908,1,0,0:0:0:0:
192,192,91954,1,0,0:0:0:0:
320,192,91999,1,0,0:0:0:0:
64,192,92045,1,0,0:0:0:0:
448,192,92090,1,0,0:0:0:0:
320,192,92136,1,0,0:0:0:0:
192,192,92181,1,0,0:0:0:0:
64,192,92181,1,0,0:0:0:0:
448,192,92227,1,0,0:0:0:0:
320,192,92272,1,0,0:0:0:0:
64,192,92318,1,0,0:0:0:0:
448,192,92363,1,0,0:0:0:0:
192,192,92408,1,0,0:0:0:0:
320,192,92454,1,0,0:0:0:0:
64,192,92454,1,0,0:0:0:0:
448,192,92499,1,0,0:0:0:0:
192,192,92545,1,0,0:0:0:0:
320,192,92590,1,0,0:0:0:0:
448,192,92636,1,0,0:0:0:0:
192,192,92681,1,0,0:0:0:0:
320,192,92727,1,0,0:0:0:0:
64,192,92727,1,0,0:0:0:0:
448,192,92772,1,0,0:0:0:0:
192,192,92818,1,0,0:0:0:0:
64,192,92863,1,0,0:0:0:0:
448,192,92908,1,0,0:0:0:0:
320,192,92954,1,0,0:0:0:0:
192,192,92999,1,0,0:0:0:0:
64,192,92999,1,0,0:0:0:0:
448,192,93045,1,0,0:0:0:0:
192,192,93090,1,0,0:0:0:0:
64,192,93136,1,0,0:0:0:0:
320,192,93181,1,0,0:0:0:0:
192,192,93227,1,0,0:0:0:0:
64,192,93272,1,0,0:0:0:0:
448,192,93272,1,0,0:0:0:0:
320,192,93318,1,0,0:0:0:0:
192,192,93363,1,0,0:0:0:0:
64,192,93408,1,0,0:0:0:0:
320,192,93454,1,0,0:0:0:0:
448,192,93499,1,0,0:0:0:0:
64,192,93545,1,0,0:0:0:0:
192,192,93545,1,0,0:0:0:0:
320,192,93613,1,0,0:0:0:0:
64,192,93681,1,0,0:0:0:0:
192,192,93681,1,0,0:0:0:0:
320,192,93749,1,0,0:0:0:0:
64,192,93818,1,0,0:0:0:0:
192,192,93818,1,0,0:0:0:0:
448,192,93863,1,0,0:0:0:0:
320,192,93908,1,0,0:0:0:0:
192,192,93954,1,0,0:0:0:0:
64,192,93999,1,0,0:0:0:0:
448,192,94045,1,0,0:0:0:0:
320,192,94090,1,0,0:0:0:0:
192,192,94090,1,0,0:0:0:0:
64,192,94136,1,0,0:0:0:0:
320,192,94181,1,0,0:0:0:0:
448,192,94227,1,0,0:0:0:0:
192,192,94272,1,0,0:0:0:0:
320,192,94318,1,0,0:0:0:0:
448,192,94363,1,0,0:0:0:0:
64,192,94363,1,0,0:0:0:0:
192,192,94408,1,0,0:0:0:0:
320,192,94454,1,0,0:0:0:0:
448,192,94499,1,0,0:0:0:0:
192,192,94545,1,0,0:0:0:0:
64,192,94590,1,0,0:0:0:0:
320,192,94636,1,0,0:0:0:0:
448,192,94636,1,0,0:0:0:0:
192,192,94681,1,0,0:0:0:0:
64,192,94727,1,0,0:0:0:0:
448,192,94772,1,0,0:0:0:0:
320,192,94818,1,0,0:0:0:0:
192,192,94863,1,0,0:0:0:0:
64,192,94908,1,0,0:0:0:0:
448,192,94908,1,0,0:0:0:0:
320,192,94977,1,0,0:0:0:0:
192,192,95045,1,0,0:0:0:0:
448,192,95045,1,0,0:0:0:0:
320,192,95113,1,0,0:0:0:0:
64,192,95181,1,0,0:0:0:0:
448,192,95181,1,0,0:0:0:0:
192,192,95227,1,0,0:0:0:0:
320,192,95272,1,0,0:0:0:0:
448,192,95318,1,0,0:0:0:0:
192,192,95363,1,0,0:0:0:0:
64,192,95408,1,0,0:0:0:0:
448,192,95454,1,0,0:0:0:0:
320,192,95454,1,0,0:0:0:0:
192,192,95499,1,0,0:0:0:0:
64,192,95545,1,0,0:0:0:0:
320,192,95590,1,0,0:0:0:0:
448,192,95636,1,0,0:0:0:0:
64,192,95681,1,0,0:0:0:0:
192,192,95727,1,0,0:0:0:0:
320,192,95727,1,0,0:0:0:0:
64,192,95795,1,0,0:0:0:0:
448,192,95863,1,0,0:0:0:0:
320,192,95863,1,0,0:0:0:0:
64,192,95931,1,0,0:0:0:0:
192,192,95999,1,0,0:0:0:0:
320,192,95999,1,0,0:0:0:0:
448,192,96045,1,0,0:0:0:0:
64,192,96090,1,0,0:0:0:0:
192,192,96136,1,0,0:0:0:0:
320,192,96181,1,0,0:0:0:0:
448,192,96227,1,0,0:0:0:0:
64,192,96272,1,0,0:0:0:0:
192,192,96272,1,0,0:0:0:0:
320,192,96318,1,0,0:0:0:0:
448,192,96363,1,0,0:0:0:0:
192,192,96408,1,0,0:0:0:0:
64,192,96454,1,0,0:0:0:0:
448,192,96499,1,0,0:0:0:0:
320,192,96545,1,0,0:0:0:0:
192,192,96545,1,0,0:0:0:0:
448,192,96613,1,0,0:0:0:0:
64,192,96681,1,0,0:0:0:0:
192,192,96681,1,0,0:0:0:0:
448,192,96749,1,0,0:0:0:0:
192,192,96818,1,0,0:0:0:0:
320,192,96818,1,0,0:0:0:0:
64,192,96863,1,0,0:0:0:0:
192,192,96908,1,0,0:0:0:0:
320,192,96954,1,0,0:0:0:0:
448,192,96999,1,0,0:0:0:0:
64,192,97045,1,0,0:0:0:0:
192,192,97090,1,0,0:0:0:0:
320,192,97090,1,0,0:0:0:0:
448,192,97136,1,0,0:0:0:0:
64,192,97181,1,0,0:0:0:0:
192,192,97227,1,0,0:0:0:0:
448,192,97272,1,0,0:0:0:0:
320,192,97318,1,0,0:0:0:0:
192,192,97363,1,0,0:0:0:0:
64,192,97363,1,0,0:0:0:0:
448,192,97408,1,0,0:0:0:0:
320,192,97454,1,0,0:0:0:0:
192,192,97499,1,0,0:0:0:0:
64,192,97545,1,0,0:0:0:0:
448,192,97590,1,0,0:0:0:0:
320,192,97636,1,0,0:0:0:0:
192,192,97636,1,0,0:0:0:0:
64,192,97681,1,0,0:0:0:0:
320,192,97727,1,0,0:0:0:0:
448,192,97772,1,0,0:0:0:0:
192,192,97818,1,0,0:0:0:0:
320,192,97863,1,0,0:0:0:0:
448,192,97908,1,0,0:0:0:0:
64,192,97908,1,0,0:0:0:0:
192,192,97954,1,0,0:0:0:0:
320,192,97999,1,0,0:0:0:0:
448,192,98045,1,0,0:0:0:0:
320,192,98090,1,0,0:0:0:0:
192,192,98136,1,0,0:0:0:0:
64,192,98181,1,0,0:0:0:0:
448,192,98181,1,0,0:0:0:0:
320,192,98181,1,0,0:0:0:0:
192,192,98318,1,0,0:0:0:0:
64,192,98454,1,0,0:0:0:0:
320,192,98590,1,0,0:0:0:0:
448,192,98727,1,0,0:0:0:0:
64,192,98863,1,0,0:0:0:0:
320,192,98999,1,0,0:0:0:0:
192,192,99136,1,0,0:0:0:0:
64,192,99272,1,0,0:0:0:0:
320,192,99272,1,0,0:0:0:0:
448,192,99408,1,0,0:0:0:0:
192,192,99545,1,0,0:0:0:0:
320,192,99681,1,0,0:0:0:0:
64,192,99818,1,0,0:0:0:0:
448,192,99954,1,0,0:0:0:0:
64,192,100090,1,0,0:0:0:0:
320,192,100227,1,0,0:0:0:0:
192,192,100363,1,0,0:0:0:0:
448,192,100363,1,0,0:0:0:0:
64,192,100499,1,0,0:0:0:0:
320,192,100636,1,0,0:0:0:0:
448,192,100772,1,0,0:0:0:0:
64,192,100908,1,0,0:0:0:0:
192,192,101045,1,0,0:0:0:0:
320,192,101181,1,0,0:0:0:0:
64,192,101318,1,0,0:0:0:0:
320,192,101454,1,0,0:0:0:0:
448,192,101454,1,0,0:0:0:0:
192,192,101590,1,0,0:0:0:0:
64,192,101727,1,0,0:0:0:0:
448,192,101863,1,0,0:0:0:0:
64,192,101999,1,0,0:0:0:0:
448,192,102136,1,0,0:0:0:0:
320,192,102272,1,0,0:0:0:0:
64,192,102408,1,0,0:0:0:0:
192,192,102545,1,0,0:0:0:0:
448,192,102545,1,0,0:0:0:0:
320,192,102681,1,0,0:0:0:0:
448,192,102818,1,0,0:0:0:0:
64,192,102954,1,0,0:0:0:0:
320,192,103090,1,0,0:0:0:0:
192,192,103227,1,0,0:0:0:0:
64,192,103363,1,0,0:0:0:0:
448,192,103499,1,0,0:0:0:0:
320,192,103636,1,0,0:0:0:0:
64,192,103636,1,0,0:0:0:0:
192,192,103772,1,0,0:0:0:0:
448,192,103908,1,0,0:0:0:0:
64,192,104045,1,0,0:0:0:0:
192,192,104181,1,0,0:0:0:0:
320,192,104318,1,0,0:0:0:0:
448,192,104454,1,0,0:0:0:0:
192,192,104590,1,0,0:0:0:0:
64,192,104727,1,0,0:0:0:0:
320,192,104727,1,0,0:0:0:0:
448,192,104863,1,0,0:0:0:0:
64,192,104999,1,0,0:0:0:0:
320,192,105136,1,0,0:0:0:0:
192,192,105272,1,0,0:0:0:0:
64,192,105408,1,0,0:0:0:0:
448,192,105545,1,0,0:0:0:0:
320,192,105613,1,0,0:0:0:0:
192,192,105681,1,0,0:0:0:0:
64,192,105749,1,0,0:0:0:0:
448,192,105818,1,0,0:0:0:0:
320,192,105818,1,0,0:0:0:0:
192,192,105818,1,0,0:0:0:0:
64,192,105954,1,0,0:0:0:0:
192,192,105988,1,0,0:0:0:0:
448,192,106022,1,0,0:0:0:0:
64,192,106056,1,0,0:0:0:0:
320,192,106090,1,0,0:0:0:0:
192,192,106158,1,0,0:0:0:0:
320,192,106227,1,0,0:0:0:0:
448,192,106227,1,0,0:0:0:0:
192,192,106363,1,0,0:0:0:0:
64,192,106397,1,0,0:0:0:0:
448,192,106431,1,0,0:0:0:0:
320,192,106465,1,0,0:0:0:0:
192,192,106499,1,0,0:0:0:0:
448,192,106568,1,0,0:0:0:0:
320,192,106636,1,0,0:0:0:0:
64,192,106636,1,0,0:0:0:0:
192,192,106772,1,0,0:0:0:0:
448,192,106772,1,0,0:0:0:0:
192,192,106840,1,0,0:0:0:0:
64,192,106908,1,0,0:0:0:0:
320,192,106908,1,0,0:0:0:0:
448,192,106908,1,0,0:0:0:0:
192,192,106977,1,0,0:0:0:0:
320,192,107045,1,0,0:0:0:0:
448,192,107045,1,0,0:0:0:0:
64,192,107113,1,0,0:0:0:0:
192,192,107181,1,0,0:0:0:0:
320,192,107181,1,0,0:0:0:0:
448,192,107181,1,0,0:0:0:0:
64,192,107249,1,0,0:0:0:0:
448,192,107318,1,0,0:0:0:0:
320,192,107318,1,0,0:0:0:0:
192,192,107386,1,0,0:0:0:0:
320,192,107454,1,0,0:0:0:0:
448,192,107454,1,0,0:0:0:0:
64,192,107454,1,0,0:0:0:0:
192,192,107522,1,0,0:0:0:0:
320,192,107590,1,0,0:0:0:0:
448,192,107590,1,0,0:0:0:0:
64,192,107590,1,0,0:0:0:0:
448,192,107727,1,0,0:0:0:0:
320,192,107727,1,0,0:0:0:0:
192,192,107727,1,0,0:0:0:0:
64,192,107795,1,0,0:0:0:0:
448,192,107863,1,0,0:0:0:0:
192,192,107863,1,0,0:0:0:0:
320,192,107931,1,0,0:0:0:0:
448,192,107999,1,0,0:0:0:0:
192,192,107999,1,0,0:0:0:0:
64,192,107999,1,0,0:0:0:0:
320,192,108068,1,0,0:0:0:0:
192,192,108136,1,0,0:0:0:0:
64,192,108136,1,0,0:0:0:0:
448,192,108204,1,0,0:0:0:0:
320,192,108272,1,0,0:0:0:0:
192,192,108272,1,0,0:0:0:0:
64,192,108272,1,0,0:0:0:0:
448,192,108408,1,0,0:0:0:0:
320,192,108408,1,0,0:0:0:0:
64,192,108408,1,0,0:0:0:0:
192,192,108477,1,0,0:0:0:0:
64,192,108545,1,0,0:0:0:0:
448,192,108545,1,0,0:0:0:0:
320,192,108613,1,0,0:0:0:0:
192,192,108681,1,0,0:0:0:0:
448,192,108681,1,0,0:0:0:0:
64,192,108749,1,0,0:0:0:0:
192,192,108818,1,0,0:0:0:0:
448,192,108818,1,0,0:0:0:0:
320,192,108818,1,0,0:0:0:0:
64,192,108886,1,0,0:0:0:0:
448,192,108954,1,0,0:0:0:0:
320,192,108954,1,0,0:0:0:0:
192,192,109022,1,0,0:0:0:0:
64,192,109090,1,0,0:0:0:0:
320,192,109090,1,0,0:0:0:0:
448,192,109090,1,0,0:0:0:0:
192,192,109158,1,0,0:0:0:0:
320,192,109227,1,0,0:0:0:0:
448,192,109227,1,0,0:0:0:0:
64,192,109227,1,0,0:0:0:0:
64,192,109363,1,0,0:0:0:0:
320,192,109363,1,0,0:0:0:0:
192,192,109363,1,0,0:0:0:0:
448,192,109431,1,0,0:0:0:0:
320,192,109499,1,0,0:0:0:0:
192,192,109499,1,0,0:0:0:0:
64,192,109568,1,0,0:0:0:0:
192,192,109636,1,0,0:0:0:0:
320,192,109636,1,0,0:0:0:0:
448,192,109636,1,0,0:0:0:0:
64,192,109704,1,0,0:0:0:0:
320,192,109772,1,0,0:0:0:0:
448,192,109772,1,0,0:0:0:0:
192,192,109840,1,0,0:0:0:0:
64,192,109908,1,0,0:0:0:0:
448,192,109908,1,0,0:0:0:0:
320,192,109908,1,0,0:0:0:0:
192,192,109977,1,0,0:0:0:0:
320,192,110045,1,0,0:0:0:0:
448,192,110045,1,0,0:0:0:0:
192,192,110113,1,0,0:0:0:0:
64,192,110181,1,0,0:0:0:0:
448,192,110181,1,0,0:0:0:0:
320,192,110249,1,0,0:0:0:0:
192,192,110318,1,0,0:0:0:0:
448,192,110318,1,0,0:0:0:0:
64,192,110318,1,0,0:0:0:0:
320,192,110386,1,0,0:0:0:0:
64,192,110454,1,0,0:0:0:0:
448,192,110454,1,0,0:0:0:0:
192,192,110522,1,0,0:0:0:0:
64,192,110590,1,0,0:0:0:0:
320,192,110590,1,0,0:0:0:0:
448,192,110590,1,0,0:0:0:0:
192,192,110727,1,0,0:0:0:0:
320,192,110727,1,0,0:0:0:0:
448,192,110727,1,0,0:0:0:0:
64,192,110795,1,0,0:0:0:0:
448,192,110863,1,0,0:0:0:0:
192,192,110863,1,0,0:0:0:0:
320,192,110931,1,0,0:0:0:0:
448,192,110999,1,0,0:0:0:0:
192,192,110999,1,0,0:0:0:0:
64,192,110999,1,0,0:0:0:0:
320,192,111068,1,0,0:0:0:0:
192,192,111136,1,0,0:0:0:0:
64,192,111136,1,0,0:0:0:0:
448,192,111204,1,0,0:0:0:0:
320,192,111272,1,0,0:0:0:0:
192,192,111272,1,0,0:0:0:0:
64,192,111272,1,0,0:0:0:0:
448,192,111340,1,0,0:0:0:0:
64,192,111408,1,0,0:0:0:0:
320,192,111408,1,0,0:0:0:0:
192,192,111477,1,0,0:0:0:0:
320,192,111545,1,0,0:0:0:0:
64,192,111545,1,0,0:0:0:0:
448,192,111545,1,0,0:0:0:0:
192,192,111613,1,0,0:0:0:0:
64,192,111681,1,0,0:0:0:0:
320,192,111681,1,0,0:0:0:0:
448,192,111749,1,0,0:0:0:0:
320,192,111818,1,0,0:0:0:0:
192,192,111818,1,0,0:0:0:0:
64,192,111818,1,0,0:0:0:0:
448,192,111886,1,0,0:0:0:0:
64,192,111954,1,0,0:0:0:0:
320,192,111954,1,0,0:0:0:0:
192,192,111954,1,0,0:0:0:0:
448,192,112090,1,0,0:0:0:0:
320,192,112090,1,0,0:0:0:0:
64,192,112090,1,0,0:0:0:0:
192,192,112158,1,0,0:0:0:0:
64,192,112227,1,0,0:0:0:0:
448,192,112227,1,0,0:0:0:0:
320,192,112295,1,0,0:0:0:0:
192,192,112363,1,0,0:0:0:0:
64,192,112363,1,0,0:0:0:0:
448,192,112363,1,0,0:0:0:0:
320,192,112431,1,0,0:0:0:0:
192,192,112499,1,0,0:0:0:0:
64,192,112499,1,0,0:0:0:0:
448,192,112568,1,0,0:0:0:0:
192,192,112636,1,0,0:0:0:0:
64,192,112636,1,0,0:0:0:0:
320,192,112636,1,0,0:0:0:0:
64,192,112772,1,0,0:0:0:0:
448,192,112772,1,0,0:0:0:0:
192,192,112772,1,0,0:0:0:0:
320,192,112840,1,0,0:0:0:0:
448,192,112908,1,0,0:0:0:0:
64,192,112908,1,0,0:0:0:0:
192,192,112977,1,0,0:0:0:0:
448,192,113045,1,0,0:0:0:0:
320,192,113045,1,0,0:0:0:0:
64,192,113045,1,0,0:0:0:0:
192,192,113113,1,0,0:0:0:0:
320,192,113181,1,0,0:0:0:0:
448,192,113181,1,0,0:0:0:0:
64,192,113181,1,0,0:0:0:0:
192,192,113249,1,0,0:0:0:0:
64,192,113318,1,0,0:0:0:0:
448,192,113318,1,0,0:0:0:0:
320,192,113386,1,0,0:0:0:0:
192,192,113454,1,0,0:0:0:0:
448,192,113454,1,0,0:0:0:0:
64,192,113454,1,0,0:0:0:0:
320,192,113522,1,0,0:0:0:0:
192,192,113590,1,0,0:0:0:0:
64,192,113590,1,0,0:0:0:0:
448,192,113658,1,0,0:0:0:0:
320,192,113727,1,0,0:0:0:0:
192,192,113727,1,0,0:0:0:0:
64,192,113727,1,0,0:0:0:0:
448,192,113795,1,0,0:0:0:0:
64,192,113863,1,0,0:0:0:0:
192,192,113863,1,0,0:0:0:0:
320,192,113931,1,0,0:0:0:0:
448,192,113999,1,0,0:0:0:0:
192,192,113999,1,0,0:0:0:0:
64,192,113999,1,0,0:0:0:0:
320,192,114068,1,0,0:0:0:0:
448,192,114136,1,0,0:0:0:0:
64,192,114136,1,0,0:0:0:0:
192,192,114204,1,0,0:0:0:0:
64,192,114272,1,0,0:0:0:0:
320,192,114272,1,0,0:0:0:0:
448,192,114272,1,0,0:0:0:0:
192,192,114340,1,0,0:0:0:0:
448,192,114408,1,0,0:0:0:0:
320,192,114408,1,0,0:0:0:0:
64,192,114408,1,0,0:0:0:0:
192,192,114477,1,0,0:0:0:0:
64,192,114545,1,0,0:0:0:0:
448,192,114545,1,0,0:0:0:0:
320,192,114613,1,0,0:0:0:0:
448,192,114681,1,0,0:0:0:0:
192,192,114681,1,0,0:0:0:0:
64,192,114681,1,0,0:0:0:0:
320,192,114749,1,0,0:0:0:0:
192,192,114818,1,0,0:0:0:0:
64,192,114818,1,0,0:0:0:0:
448,192,114886,1,0,0:0:0:0:
320,192,114954,1,0,0:0:0:0:
192,192,114954,1,0,0:0:0:0:
64,192,114954,1,0,0:0:0:0:
64,192,115090,1,0,0:0:0:0:
192,192,115090,1,0,0:0:0:0:
448,192,115090,1,0,0:0:0:0:
320,192,115090,1,0,0:0:0:0:
192,192,115227,1,0,0:0:0:0:
448,192,115272,1,0,0:0:0:0:
320,192,115318,1,0,0:0:0:0:
192,192,115363,1,0,0:0:0:0:
64,192,115408,1,0,0:0:0:0:
448,192,115454,1,0,0:0:0:0:
320,192,115499,1,0,0:0:0:0:
192,192,115545,1,0,0:0:0:0:
448,192,115636,1,0,0:0:0:0:
320,192,115636,1,0,0:0:0:0:
64,192,115636,1,0,0:0:0:0:
192,192,115727,1,0,0:0:0:0:
320,192,115772,1,0,0:0:0:0:
448,192,115818,1,0,0:0:0:0:
64,192,115863,1,0,0:0:0:0:
192,192,115908,1,0,0:0:0:0:
320,192,115908,1,0,0:0:0:0:
448,192,115954,1,0,0:0:0:0:
64,192,115999,1,0,0:0:0:0:
320,192,116045,1,0,0:0:0:0:
192,192,116090,1,0,0:0:0:0:
64,192,116136,1,0,0:0:0:0:
448,192,116181,1,0,0:0:0:0:
320,192,116181,1,0,0:0:0:0:
192,192,116249,1,0,0:0:0:0:
64,192,116318,1,0,0:0:0:0:
448,192,116318,1,0,0:0:0:0:
320,192,116386,1,0,0:0:0:0:
192,192,116454,1,0,0:0:0:0:
64,192,116454,1,0,0:0:0:0:
448,192,116499,1,0,0:0:0:0:
320,192,116545,1,0,0:0:0:0:
192,192,116590,1,0,0:0:0:0:
64,192,116636,1,0,0:0:0:0:
320,192,116681,1,0,0:0:0:0:
448,192,116727,1,0,0:0:0:0:
192,192,116727,1,0,0:0:0:0:
64,192,116772,1,0,0:0:0:0:
320,192,116818,1,0,0:0:0:0:
448,192,116863,1,0,0:0:0:0:
192,192,116908,1,0,0:0:0:0:
320,192,116954,1,0,0:0:0:0:
448,192,116999,1,0,0:0:0:0:
64,192,116999,1,0,0:0:0:0:
192,192,117045,1,0,0:0:0:0:
320,192,117090,1,0,0:0:0:0:
192,192,117136,1,0,0:0:0:0:
448,192,117181,1,0,0:0:0:0:
320,192,117227,1,0,0:0:0:0:
192,192,117272,1,0,0:0:0:0:
64,192,117272,1,0,0:0:0:0:
448,192,117318,1,0,0:0:0:0:
320,192,117363,1,0,0:0:0:0:
64,192,117408,1,0,0:0:0:0:
448,192,117454,1,0,0:0:0:0:
192,192,117499,1,0,0:0:0:0:
320,192,117545,1,0,0:0:0:0:
64,192,117545,1,0,0:0:0:0:
448,192,117590,1,0,0:0:0:0:
192,192,117636,1,0,0:0:0:0:
64,192,117681,1,0,0:0:0:0:
448,192,117727,1,0,0:0:0:0:
320,192,117772,1,0,0:0:0:0:
192,192,117818,1,0,0:0:0:0:
64,192,117818,1,0,0:0:0:0:
320,192,117886,1,0,0:0:0:0:
448,192,117954,1,0,0:0:0:0:
64,192,117954,1,0,0:0:0:0:
192,192,118022,1,0,0:0:0:0:
320,192,118090,1,0,0:0:0:0:
448,192,118090,1,0,0:0:0:0:
192,192,118136,1,0,0:0:0:0:
64,192,118181,1,0,0:0:0:0:
448,192,118227,1,0,0:0:0:0:
192,192,118272,1,0,0:0:0:0:
320,192,118318,1,0,0:0:0:0:
448,192,118363,1,0,0:0:0:0:
64,192,118363,1,0,0:0:0:0:
192,192,118408,1,0,0:0:0:0:
320,192,118454,1,0,0:0:0:0:
448,192,118499,1,0,0:0:0:0:
320,192,118545,1,0,0:0:0:0:
64,192,118590,1,0,0:0:0:0:
192,192,118636,1,0,0:0:0:0:
448,192,118636,1,0,0:0:0:0:
320,192,118681,1,0,0:0:0:0:
192,192,118727,1,0,0:0:0:0:
64,192,118772,1,0,0:0:0:0:
448,192,118818,1,0,0:0:0:0:
320,192,118863,1,0,0:0:0:0:
192,192,118908,1,0,0:0:0:0:
64,192,118908,1,0,0:0:0:0:
448,192,118954,1,0,0:0:0:0:
320,192,118999,1,0,0:0:0:0:
192,192,119045,1,0,0:0:0:0:
64,192,119090,1,0,0:0:0:0:
448,192,119136,1,0,0:0:0:0:
192,192,119181,1,0,0:0:0:0:
320,192,119181,1,0,0:0:0:0:
64,192,119227,1,0,0:0:0:0:
448,192,119272,1,0,0:0:0:0:
192,192,119318,1,0,0:0:0:0:
320,192,119363,1,0,0:0:0:0:
448,192,119408,1,0,0:0:0:0:
192,192,119454,1,0,0:0:0:0:
64,192,119454,1,0,0:0:0:0:
320,192,119522,1,0,0:0:0:0:
64,192,119590,1,0,0:0:0:0:
192,192,119590,1,0,0:0:0:0:
448,192,119658,1,0,0:0:0:0:
192,192,119727,1,0,0:0:0:0:
64,192,119727,1,0,0:0:0:0:
320,192,119772,1,0,0:0:0:0:
448,192,119818,1,0,0:0:0:0:
64,192,119863,1,0,0:0:0:0:
192,192,119908,1,0,0:0:0:0:
320,192,119954,1,0,0:0:0:0:
448,192,119999,1,0,0:0:0:0:
64,192,119999,1,0,0:0:0:0:
192,192,120045,1,0,0:0:0:0:
320,192,120090,1,0,0:0:0:0:
448,192,120136,1,0,0:0:0:0:
64,192,120181,1,0,0:0:0:0:
192,192,120227,1,0,0:0:0:0:
320,192,120272,1,0,0:0:0:0:
448,192,120272,1,0,0:0:0:0:
192,192,120318,1,0,0:0:0:0:
64,192,120363,1,0,0:0:0:0:
448,192,120408,1,0,0:0:0:0:
192,192,120454,1,0,0:0:0:0:
64,192,120499,1,0,0:0:0:0:
320,192,120545,1,0,0:0:0:0:
448,192,120545,1,0,0:0:0:0:
192,192,120613,1,0,0:0:0:0:
448,192,120681,1,0,0:0:0:0:
320,192,120681,1,0,0:0:0:0:
64,192,120749,1,0,0:0:0:0:
448,192,120818,1,0,0:0:0:0:
320,192,120818,1,0,0:0:0:0:
64,192,120863,1,0,0:0:0:0:
192,192,120908,1,0,0:0:0:0:
448,192,120954,1,0,0:0:0:0:
64,192,120999,1,0,0:0:0:0:
320,192,121045,1,0,0:0:0:0:
192,192,121090,1,0,0:0:0:0:
64,192,121090,1,0,0:0:0:0:
448,192,121136,1,0,0:0:0:0:
320,192,121181,1,0,0:0:0:0:
192,192,121227,1,0,0:0:0:0:
64,192,121272,1,0,0:0:0:0:
448,192,121318,1,0,0:0:0:0:
320,192,121363,1,0,0:0:0:0:
64,192,121363,1,0,0:0:0:0:
192,192,121408,1,0,0:0:0:0:
320,192,121454,1,0,0:0:0:0:
448,192,121499,1,0,0:0:0:0:
64,192,121545,1,0,0:0:0:0:
192,192,121590,1,0,0:0:0:0:
320,192,121636,1,0,0:0:0:0:
448,192,121636,1,0,0:0:0:0:
64,192,121681,1,0,0:0:0:0:
320,192,121727,1,0,0:0:0:0:
192,192,121772,1,0,0:0:0:0:
64,192,121818,1,0,0:0:0:0:
448,192,121863,1,0,0:0:0:0:
320,192,121908,1,0,0:0:0:0:
64,192,121908,1,0,0:0:0:0:
192,192,121954,1,0,0:0:0:0:
320,192,121999,1,0,0:0:0:0:
448,192,122045,1,0,0:0:0:0:
192,192,122090,1,0,0:0:0:0:
64,192,122136,1,0,0:0:0:0:
448,192,122181,1,0,0:0:0:0:
192,192,122181,1,0,0:0:0:0:
320,192,122249,1,0,0:0:0:0:
64,192,122318,1,0,0:0:0:0:
448,192,122318,1,0,0:0:0:0:
320,192,122386,1,0,0:0:0:0:
192,192,122454,1,0,0:0:0:0:
448,192,122454,1,0,0:0:0:0:
320,192,122522,1,0,0:0:0:0:
64,192,122590,1,0,0:0:0:0:
448,192,122590,1,0,0:0:0:0:
192,192,122658,1,0,0:0:0:0:
448,192,122727,1,0,0:0:0:0:
64,192,122727,1,0,0:0:0:0:
320,192,122795,1,0,0:0:0:0:
64,192,122863,1,0,0:0:0:0:
192,192,122863,1,0,0:0:0:0:
320,192,122931,1,0,0:0:0:0:
448,192,122931,1,0,0:0:0:0:
192,192,122999,1,0,0:0:0:0:
64,192,122999,1,0,0:0:0:0:
320,192,123068,1,0,0:0:0:0:
448,192,123068,1,0,0:0:0:0:
192,192,123136,1,0,0:0:0:0:
64,192,123136,1,0,0:0:0:0:
320,192,123204,1,0,0:0:0:0:
448,192,123204,1,0,0:0:0:0:
192,192,123272,1,0,0:0:0:0:
64,192,123272,1,0,0:0:0:0:
192,192,123408,1,0,0:0:0:0:
320,192,123408,1,0,0:0:0:0:
448,192,123408,1,0,0:0:0:0:
64,192,123545,1,0,0:0:0:0:
192,192,123545,1,0,0:0:0:0:
448,192,123545,1,0,0:0:0:0:
448,192,123681,1,0,0:0:0:0:
192,192,123681,1,0,0:0:0:0:
64,192,123681,1,0,0:0:0:0:
64,192,123818,1,0,0:0:0:0:
448,192,123818,1,0,0:0:0:0:
320,192,123886,1,0,0:0:0:0:
192,192,123886,1,0,0:0:0:0:
64,192,123954,1,0,0:0:0:0:
448,192,123954,1,0,0:0:0:0:
320,192,124022,1,0,0:0:0:0:
192,192,124022,1,0,0:0:0:0:
64,192,124090,1,0,0:0:0:0:
448,192,124090,1,0,0:0:0:0:
192,192,124158,1,0,0:0:0:0:
320,192,124158,1,0,0:0:0:0:
64,192,124227,1,0,0:0:0:0:
448,192,124227,1,0,0:0:0:0:
448,192,124363,1,0,0:0:0:0:
192,192,124363,1,0,0:0:0:0:
64,192,124363,1,0,0:0:0:0:
320,192,124363,1,0,0:0:0:0:
448,192,124499,1,0,0:0:0:0:
320,192,124499,1,0,0:0:0:0:
192,192,124568,1,0,0:0:0:0:
64,192,124636,1,0,0:0:0:0:
448,192,124636,1,0,0:0:0:0:
320,192,124704,1,0,0:0:0:0:
192,192,124772,1,0,0:0:0:0:
448,192,124772,1,0,0:0:0:0:
320,192,124840,1,0,0:0:0:0:
448,192,124908,1,0,0:0:0:0:
64,192,124908,1,0,0:0:0:0:
192,192,124977,1,0,0:0:0:0:
320,192,125045,1,0,0:0:0:0:
64,192,125045,1,0,0:0:0:0:
192,192,125113,1,0,0:0:0:0:
64,192,125181,1,0,0:0:0:0:
448,192,125181,1,0,0:0:0:0:
320,192,125249,1,0,0:0:0:0:
192,192,125318,1,0,0:0:0:0:
64,192,125318,1,0,0:0:0:0:
320,192,125386,1,0,0:0:0:0:
448,192,125454,1,0,0:0:0:0:
64,192,125454,1,0,0:0:0:0:
192,192,125522,1,0,0:0:0:0:
320,192,125590,1,0,0:0:0:0:
448,192,125590,1,0,0:0:0:0:
64,192,125658,1,0,0:0:0:0:
192,192,125727,1,0,0:0:0:0:
320,192,125727,1,0,0:0:0:0:
448,192,125795,1,0,0:0:0:0:
64,192,125863,1,0,0:0:0:0:
192,192,125863,1,0,0:0:0:0:
320,192,125931,1,0,0:0:0:0:
448,192,125999,1,0,0:0:0:0:
64,192,125999,1,0,0:0:0:0:
192,192,126068,1,0,0:0:0:0:
320,192,126136,1,0,0:0:0:0:
448,192,126136,1,0,0:0:0:0:
64,192,126204,1,0,0:0:0:0:
320,192,126272,1,0,0:0:0:0:
448,192,126272,1,0,0:0:0:0:
192,192,126340,1,0,0:0:0:0:
320,192,126408,1,0,0:0:0:0:
64,192,126408,1,0,0:0:0:0:
448,192,126477,1,0,0:0:0:0:
192,192,126545,1,0,0:0:0:0:
64,192,126545,1,0,0:0:0:0:
448,192,126613,1,0,0:0:0:0:
192,192,126681,1,0,0:0:0:0:
64,192,126681,1,0,0:0:0:0:
320,192,126749,1,0,0:0:0:0:
192,192,126818,1,0,0:0:0:0:
448,192,126818,1,0,0:0:0:0:
64,192,126886,1,0,0:0:0:0:
448,192,126954,1,0,0:0:0:0:
320,192,126954,1,0,0:0:0:0:
192,192,127022,1,0,0:0:0:0:
320,192,127090,1,0,0:0:0:0:
64,192,127090,1,0,0:0:0:0:
192,192,127158,1,0,0:0:0:0:
64,192,127227,1,0,0:0:0:0:
448,192,127227,1,0,0:0:0:0:
320,192,127295,1,0,0:0:0:0:
192,192,127363,1,0,0:0:0:0:
64,192,127363,1,0,0:0:0:0:
320,192,127431,1,0,0:0:0:0:
448,192,127499,1,0,0:0:0:0:
64,192,127499,1,0,0:0:0:0:
192,192,127568,1,0,0:0:0:0:
320,192,127636,1,0,0:0:0:0:
448,192,127636,1,0,0:0:0:0:
192,192,127704,1,0,0:0:0:0:
64,192,127772,1,0,0:0:0:0:
320,192,127772,1,0,0:0:0:0:
448,192,127840,1,0,0:0:0:0:
64,192,127908,1,0,0:0:0:0:
192,192,127908,1,0,0:0:0:0:
448,192,127977,1,0,0:0:0:0:
320,192,128045,1,0,0:0:0:0:
192,192,128045,1,0,0:0:0:0:
64,192,128113,1,0,0:0:0:0:
320,192,128181,1,0,0:0:0:0:
448,192,128181,1,0,0:0:0:0:
192,192,128249,1,0,0:0:0:0:
64,192,128318,1,0,0:0:0:0:
320,192,128318,1,0,0:0:0:0:
448,192,128386,1,0,0:0:0:0:
192,192,128454,1,0,0:0:0:0:
320,192,128454,1,0,0:0:0:0:
64,192,128522,1,0,0:0:0:0:
320,192,128590,1,0,0:0:0:0:
448,192,128590,1,0,0:0:0:0:
192,192,128658,1,0,0:0:0:0:
64,192,128727,1,0,0:0:0:0:
448,192,128727,1,0,0:0:0:0:
320,192,128795,1,0,0:0:0:0:
192,192,128863,1,0,0:0:0:0:
64,192,128863,1,0,0:0:0:0:
448,192,128931,1,0,0:0:0:0:
320,192,128999,1,0,0:0:0:0:
64,192,128999,1,0,0:0:0:0:
192,192,129068,1,0,0:0:0:0:
64,192,129136,1,0,0:0:0:0:
448,192,129136,1,0,0:0:0:0:
320,192,129204,1,0,0:0:0:0:
64,192,129272,1,0,0:0:0:0:
448,192,129272,1,0,0:0:0:0:
192,192,129340,1,0,0:0:0:0:
64,192,129408,1,0,0:0:0:0:
320,192,129408,1,0,0:0:0:0:
448,192,129477,1,0,0:0:0:0:
64,192,129545,1,0,0:0:0:0:
192,192,129545,1,0,0:0:0:0:
448,192,129613,1,0,0:0:0:0:
320,192,129681,1,0,0:0:0:0:
192,192,129681,1,0,0:0:0:0:
64,192,129749,1,0,0:0:0:0:
448,192,129818,1,0,0:0:0:0:
192,192,129818,1,0,0:0:0:0:
64,192,129886,1,0,0:0:0:0:
320,192,129954,1,0,0:0:0:0:
192,192,129954,1,0,0:0:0:0:
448,192,130022,1,0,0:0:0:0:
192,192,130090,1,0,0:0:0:0:
64,192,130090,1,0,0:0:0:0:
320,192,130158,1,0,0:0:0:0:
192,192,130227,1,0,0:0:0:0:
64,192,130227,1,0,0:0:0:0:
320,192,130295,1,0,0:0:0:0:
448,192,130363,1,0,0:0:0:0:
64,192,130363,1,0,0:0:0:0:
192,192,130431,1,0,0:0:0:0:
448,192,130499,1,0,0:0:0:0:
320,192,130499,1,0,0:0:0:0:
64,192,130568,1,0,0:0:0:0:
192,192,130636,1,0,0:0:0:0:
448,192,130636,1,0,0:0:0:0:
320,192,130704,1,0,0:0:0:0:
192,192,130772,1,0,0:0:0:0:
64,192,130772,1,0,0:0:0:0:
320,192,130840,1,0,0:0:0:0:
448,192,130908,1,0,0:0:0:0:
64,192,130908,1,0,0:0:0:0:
192,192,130977,1,0,0:0:0:0:
64,192,131045,1,0,0:0:0:0:
448,192,131045,1,0,0:0:0:0:
320,192,131113,1,0,0:0:0:0:
64,192,131181,1,0,0:0:0:0:
448,192,131181,1,0,0:0:0:0:
192,192,131249,1,0,0:0:0:0:
320,192,131318,1,0,0:0:0:0:
64,192,131318,1,0,0:0:0:0:
448,192,131386,1,0,0:0:0:0:
192,192,131454,1,0,0:0:0:0:
64,192,131454,1,0,0:0:0:0:
320,192,131522,1,0,0:0:0:0:
192,192,131590,1,0,0:0:0:0:
64,192,131590,1,0,0:0:0:0:
320,192,131658,1,0,0:0:0:0:
448,192,131727,1,0,0:0:0:0:
64,192,131727,1,0,0:0:0:0:
192,192,131795,1,0,0:0:0:0:
320,192,131863,1,0,0:0:0:0:
448,192,131863,1,0,0:0:0:0:
192,192,131931,1,0,0:0:0:0:
320,192,131999,1,0,0:0:0:0:
448,192,131999,1,0,0:0:0:0:
192,192,132068,1,0,0:0:0:0:
64,192,132136,1,0,0:0:0:0:
448,192,132136,1,0,0:0:0:0:
320,192,132204,1,0,0:0:0:0:
192,192,132272,1,0,0:0:0:0:
64,192,132272,1,0,0:0:0:0:
448,192,132340,1,0,0:0:0:0:
320,192,132408,1,0,0:0:0:0:
64,192,132408,1,0,0:0:0:0:
192,192,132477,1,0,0:0:0:0:
64,192,132545,1,0,0:0:0:0:
448,192,132545,1,0,0:0:0:0:
320,192,132613,1,0,0:0:0:0:
192,192,132681,1,0,0:0:0:0:
64,192,132681,1,0,0:0:0:0:
448,192,132749,1,0,0:0:0:0:
320,192,132818,1,0,0:0:0:0:
64,192,132818,1,0,0:0:0:0:
448,192,132886,1,0,0:0:0:0:
192,192,132954,1,0,0:0:0:0:
64,192,132954,1,0,0:0:0:0:
448,192,133022,1,0,0:0:0:0:
64,192,133090,1,0,0:0:0:0:
320,192,133090,1,0,0:0:0:0:
192,192,133136,1,0,0:0:0:0:
448,192,133181,1,0,0:0:0:0:
320,192,133227,1,0,0:0:0:0:
192,192,133272,1,0,0:0:0:0:
64,192,133318,1,0,0:0:0:0:
448,192,133363,1,0,0:0:0:0:
320,192,133363,1,0,0:0:0:0:
192,192,133408,1,0,0:0:0:0:
64,192,133454,1,0,0:0:0:0:
448,192,133499,1,0,0:0:0:0:
320,192,133545,1,0,0:0:0:0:
192,192,133590,1,0,0:0:0:0:
448,192,133636,1,0,0:0:0:0:
64,192,133636,1,0,0:0:0:0:
192,192,133681,1,0,0:0:0:0:
320,192,133727,1,0,0:0:0:0:
448,192,133772,1,0,0:0:0:0:
64,192,133818,1,0,0:0:0:0:
192,192,133863,1,0,0:0:0:0:
320,192,133908,1,0,0:0:0:0:
448,192,133908,1,0,0:0:0:0:
64,192,133954,1,0,0:0:0:0:
192,192,133999,1,0,0:0:0:0:
448,192,134045,1,0,0:0:0:0:
64,192,134090,1,0,0:0:0:0:
320,192,134136,1,0,0:0:0:0:
192,192,134181,1,0,0:0:0:0:
448,192,134181,1,0,0:0:0:0:
64,192,134227,1,0,0:0:0:0:
320,192,134272,1,0,0:0:0:0:
448,192,134318,1,0,0:0:0:0:
192,192,134363,1,0,0:0:0:0:
320,192,134408,1,0,0:0:0:0:
64,192,134454,1,0,0:0:0:0:
448,192,134454,1,0,0:0:0:0:
192,192,134499,1,0,0:0:0:0:
320,192,134545,1,0,0:0:0:0:
64,192,134590,1,0,0:0:0:0:
448,192,134636,1,0,0:0:0:0:
320,192,134681,1,0,0:0:0:0:
192,192,134727,1,0,0:0:0:0:
64,192,134727,1,0,0:0:0:0:
448,192,134772,1,0,0:0:0:0:
320,192,134818,1,0,0:0:0:0:
64,192,134863,1,0,0:0:0:0:
448,192,134908,1,0,0:0:0:0:
192,192,134954,1,0,0:0:0:0:
320,192,134999,1,0,0:0:0:0:
64,192,134999,1,0,0:0:0:0:
448,192,135136,1,0,0:0:0:0:
64,192,135136,1,0,0:0:0:0:
192,192,135272,1,0,0:0:0:0:
448,192,135272,1,0,0:0:0:0:
64,192,135318,1,0,0:0:0:0:
320,192,135363,1,0,0:0:0:0:
192,192,135408,1,0,0:0:0:0:
64,192,135454,1,0,0:0:0:0:
448,192,135499,1,0,0:0:0:0:
320,192,135545,1,0,0:0:0:0:
64,192,135545,1,0,0:0:0:0:
192,192,135590,1,0,0:0:0:0:
320,192,135636,1,0,0:0:0:0:
448,192,135681,1,0,0:0:0:0:
192,192,135727,1,0,0:0:0:0:
320,192,135772,1,0,0:0:0:0:
64,192,135818,1,0,0:0:0:0:
448,192,135818,1,0,0:0:0:0:
192,192,135863,1,0,0:0:0:0:
320,192,135908,1,0,0:0:0:0:
448,192,135954,1,0,0:0:0:0:
192,192,135999,1,0,0:0:0:0:
64,192,136045,1,0,0:0:0:0:
320,192,136090,1,0,0:0:0:0:
448,192,136090,1,0,0:0:0:0:
192,192,136136,1,0,0:0:0:0:
64,192,136181,1,0,0:0:0:0:
448,192,136227,1,0,0:0:0:0:
320,192,136272,1,0,0:0:0:0:
192,192,136318,1,0,0:0:0:0:
64,192,136363,1,0,0:0:0:0:
320,192,136363,1,0,0:0:0:0:
448,192,136408,1,0,0:0:0:0:
192,192,136454,1,0,0:0:0:0:
320,192,136499,1,0,0:0:0:0:
448,192,136545,1,0,0:0:0:0:
64,192,136590,1,0,0:0:0:0:
192,192,136636,1,0,0:0:0:0:
320,192,136636,1,0,0:0:0:0:
448,192,136681,1,0,0:0:0:0:
320,192,136727,1,0,0:0:0:0:
192,192,136772,1,0,0:0:0:0:
64,192,136818,1,0,0:0:0:0:
448,192,136863,1,0,0:0:0:0:
320,192,136908,1,0,0:0:0:0:
192,192,136908,1,0,0:0:0:0:
64,192,136954,1,0,0:0:0:0:
320,192,136999,1,0,0:0:0:0:
448,192,137045,1,0,0:0:0:0:
192,192,137090,1,0,0:0:0:0:
320,192,137136,1,0,0:0:0:0:
64,192,137181,1,0,0:0:0:0:
448,192,137181,1,0,0:0:0:0:
192,192,137318,1,0,0:0:0:0:
448,192,137318,1,0,0:0:0:0:
64,192,137454,1,0,0:0:0:0:
448,192,137454,1,0,0:0:0:0:
192,192,137454,1,0,0:0:0:0:
192,192,137590,1,0,0:0:0:0:
320,192,137590,1,0,0:0:0:0:
448,192,137590,1,0,0:0:0:0:
64,192,137727,1,0,0:0:0:0:
192,192,137727,1,0,0:0:0:0:
320,192,137727,1,0,0:0:0:0:
448,192,137863,1,0,0:0:0:0:
64,192,137863,1,0,0:0:0:0:
192,192,137863,1,0,0:0:0:0:
448,192,137999,1,0,0:0:0:0:
320,192,137999,1,0,0:0:0:0:
192,192,137999,1,0,0:0:0:0:
64,192,138136,1,0,0:0:0:0:
192,192,138136,1,0,0:0:0:0:
448,192,138136,1,0,0:0:0:0:
448,192,138272,1,0,0:0:0:0:
320,192,138272,1,0,0:0:0:0:
64,192,138272,1,0,0:0:0:0:
192,192,138408,1,0,0:0:0:0:
320,192,138408,1,0,0:0:0:0:
448,192,138408,1,0,0:0:0:0:
64,192,138545,1,0,0:0:0:0:
192,192,138545,1,0,0:0:0:0:
320,192,138545,1,0,0:0:0:0:
448,192,138681,1,0,0:0:0:0:
320,192,138681,1,0,0:0:0:0:
192,192,138681,1,0,0:0:0:0:
64,192,138818,1,0,0:0:0:0:
320,192,138818,1,0,0:0:0:0:
192,192,138818,1,0,0:0:0:0:
448,192,138954,1,0,0:0:0:0:
64,192,138954,1,0,0:0:0:0:
320,192,138954,1,0,0:0:0:0:
64,192,139090,1,0,0:0:0:0:
192,192,139090,1,0,0:0:0:0:
320,192,139158,1,0,0:0:0:0:
448,192,139158,1,0,0:0:0:0:
192,192,139227,1,0,0:0:0:0:
64,192,139227,1,0,0:0:0:0:
320,192,139295,1,0,0:0:0:0:
448,192,139295,1,0,0:0:0:0:
192,192,139363,1,0,0:0:0:0:
64,192,139363,1,0,0:0:0:0:
448,192,139431,1,0,0:0:0:0:
320,192,139431,1,0,0:0:0:0:
192,192,139499,1,0,0:0:0:0:
64,192,139499,1,0,0:0:0:0:
320,192,139568,1,0,0:0:0:0:
448,192,139568,1,0,0:0:0:0:
64,192,139636,1,0,0:0:0:0:
192,192,139636,1,0,0:0:0:0:
320,192,139636,1,0,0:0:0:0:
448,192,139636,1,0,0:0:0:0:
64,192,139772,1,0,0:0:0:0:
320,192,139772,1,0,0:0:0:0:
192,192,139772,1,0,0:0:0:0:
448,192,139772,1,0,0:0:0:0:
448,192,139908,1,0,0:0:0:0:
320,192,139908,1,0,0:0:0:0:
192,192,139908,1,0,0:0:0:0:
64,192,139908,1,0,0:0:0:0:
64,192,140045,1,0,0:0:0:0:
192,192,140045,1,0,0:0:0:0:
448,192,140045,1,0,0:0:0:0:
320,192,140045,1,0,0:0:0:0:
64,192,140454,1,0,0:0:0:0:
192,192,140454,1,0,0:0:0:0:
320,192,140454,1,0,0:0:0:0:
448,192,140454,1,0,0:0:0:0:
448,192,140590,1,0,0:0:0:0:
320,192,140590,1,0,0:0:0:0:
192,192,140590,1,0,0:0:0:0:
64,192,140590,1,0,0:0:0:0:
192,192,140727,1,0,0:0:0:0:
320,192,140727,1,0,0:0:0:0:
448,192,140727,1,0,0:0:0:0:
64,192,140727,1,0,0:0:0:0:
64,192,140863,1,0,0:0:0:0:
192,192,140863,1,0,0:0:0:0:
320,192,140863,1,0,0:0:0:0:
448,192,140863,1,0,0:0:0:0:
64,192,141272,1,0,0:0:0:0:
192,192,141272,1,0,0:0:0:0:
192,192,141363,1,0,0:0:0:0:
320,192,141363,1,0,0:0:0:0:
448,192,141454,1,0,0:0:0:0:
320,192,141454,1,0,0:0:0:0:
64,192,141545,1,0,0:0:0:0:
192,192,141545,1,0,0:0:0:0:
448,192,141636,1,0,0:0:0:0:
320,192,141636,1,0,0:0:0:0:
192,192,141727,1,0,0:0:0:0:
64,192,141727,1,0,0:0:0:0:
448,192,141818,1,0,0:0:0:0:
320,192,141818,1,0,0:0:0:0:
64,192,141818,1,0,0:0:0:0:
192,192,141818,1,0,0:0:0:0:
