osu file format v14

[General]
AudioFilename: M037-icicle.mp3
AudioLeadIn: 0
PreviewTime: 40425
Countdown: 0
SampleSet: Normal
StackLeniency: 0.7
Mode: 3
LetterboxInBreaks: 0
SpecialStyle: 0
WidescreenStoryboard: 0

[Editor]
DistanceSpacing: 2
BeatDivisor: 4
GridSize: 16
TimelineZoom: 2.1

[Metadata]
Title:Icicle Stinger
TitleUnicode:Icicle Stinger
Artist:ROKINA
ArtistUnicode:ROKINA
Creator:Tornspirit
Version:STINGER
Source:W9S2015
Tags:
BeatmapID:1145972
BeatmapSetID:540437

[Difficulty]
HPDrainRate:8
CircleSize:5
OverallDifficulty:8
ApproachRate:5
SliderMultiplier:1.4
SliderTickRate:1

[Events]
//Background and Video events
0,0,"firefox_2017-04-16_15-34-13.png",0,0
//Break Periods
2,54098,58593
//Storyboard Layer 0 (Background)
//Storyboard Layer 1 (Fail)
//Storyboard Layer 2 (Pass)
//Storyboard Layer 3 (Foreground)
//Storyboard Sound Samples

[TimingPoints]
4,210.526315789474,4,1,0,10,1,0
12635,-10,4,1,0,10,0,0
12688,-1000,4,1,0,10,0,0
12846,-25,4,1,0,10,0,0
12898,-1000,4,1,0,10,0,0
13056,-25,4,1,0,10,0,0
13109,-333.333333333333,4,1,0,10,0,0
13477,-100,4,1,0,10,0,0
40425,-100,4,1,0,10,0,1
53898,-100,4,1,0,10,0,0
114530,-100,4,1,0,10,0,1
128004,-100,4,1,0,10,0,0

[HitObjects]
256,192,4,5,0,0:0:0:0:
51,192,109,1,0,0:0:0:0:
51,192,214,1,0,0:0:0:0:
460,192,319,1,0,0:0:0:0:
51,192,425,1,0,0:0:0:0:
51,192,530,1,0,0:0:0:0:
358,192,635,1,0,0:0:0:0:
51,192,740,1,0,0:0:0:0:
256,192,846,1,0,0:0:0:0:
51,192,951,1,0,0:0:0:0:
51,192,1056,1,0,0:0:0:0:
153,192,1161,1,0,0:0:0:0:
51,192,1267,1,0,0:0:0:0:
51,192,1372,1,0,0:0:0:0:
358,192,1477,1,0,0:0:0:0:
51,192,1582,1,0,0:0:0:0:
256,192,1688,1,0,0:0:0:0:
460,192,1793,1,0,0:0:0:0:
460,192,1898,1,0,0:0:0:0:
51,192,2004,1,0,0:0:0:0:
460,192,2109,1,0,0:0:0:0:
460,192,2214,1,0,0:0:0:0:
153,192,2319,1,0,0:0:0:0:
460,192,2425,1,0,0:0:0:0:
256,192,2530,1,0,0:0:0:0:
460,192,2635,1,0,0:0:0:0:
460,192,2740,1,0,0:0:0:0:
358,192,2846,1,0,0:0:0:0:
460,192,2951,1,0,0:0:0:0:
460,192,3056,1,0,0:0:0:0:
153,192,3161,1,0,0:0:0:0:
460,192,3267,1,0,0:0:0:0:
256,192,3372,1,0,0:0:0:0:
358,192,3372,1,0,0:0:0:0:
51,192,3477,1,0,0:0:0:0:
51,192,3582,1,0,0:0:0:0:
460,192,3688,1,0,0:0:0:0:
51,192,3793,1,0,0:0:0:0:
256,192,3793,1,0,0:0:0:0:
51,192,3898,1,0,0:0:0:0:
358,192,4004,1,0,0:0:0:0:
51,192,4109,1,0,0:0:0:0:
256,192,4214,1,0,0:0:0:0:
153,192,4214,1,0,0:0:0:0:
51,192,4319,1,0,0:0:0:0:
51,192,4425,1,0,0:0:0:0:
153,192,4530,1,0,0:0:0:0:
51,192,4635,1,0,0:0:0:0:
460,192,4635,1,0,0:0:0:0:
51,192,4740,1,0,0:0:0:0:
358,192,4846,1,0,0:0:0:0:
51,192,4951,1,0,0:0:0:0:
256,192,5056,1,0,0:0:0:0:
153,192,5056,1,0,0:0:0:0:
460,192,5161,1,0,0:0:0:0:
460,192,5267,1,0,0:0:0:0:
51,192,5372,1,0,0:0:0:0:
460,192,5477,1,0,0:0:0:0:
256,192,5477,1,0,0:0:0:0:
460,192,5582,1,0,0:0:0:0:
153,192,5688,1,0,0:0:0:0:
460,192,5793,1,0,0:0:0:0:
51,192,5898,5,0,0:0:0:0:
153,192,5951,1,0,0:0:0:0:
256,192,6004,1,0,0:0:0:0:
358,192,6056,1,0,0:0:0:0:
153,192,6161,1,0,0:0:0:0:
256,192,6214,1,0,0:0:0:0:
358,192,6267,1,0,0:0:0:0:
51,192,6319,1,0,0:0:0:0:
460,192,6319,1,0,0:0:0:0:
153,192,6372,1,0,0:0:0:0:
256,192,6425,1,0,0:0:0:0:
358,192,6477,1,0,0:0:0:0:
153,192,6530,1,0,0:0:0:0:
256,192,6582,1,0,0:0:0:0:
358,192,6635,1,0,0:0:0:0:
460,192,6688,1,0,0:0:0:0:
51,192,6740,1,0,0:0:0:0:
256,192,6740,1,0,0:0:0:0:
358,192,6740,1,0,0:0:0:0:
51,192,6846,1,0,0:0:0:0:
153,192,6951,1,0,0:0:0:0:
460,192,7056,1,0,0:0:0:0:
256,192,7056,1,0,0:0:0:0:
51,192,7161,1,0,0:0:0:0:
51,192,7267,1,0,0:0:0:0:
358,192,7372,1,0,0:0:0:0:
153,192,7372,1,0,0:0:0:0:
460,192,7477,1,0,0:0:0:0:
256,192,7582,1,0,0:0:0:0:
51,192,7582,1,0,0:0:0:0:
358,192,7688,1,0,0:0:0:0:
460,192,7793,1,0,0:0:0:0:
51,192,7898,1,0,0:0:0:0:
358,192,7898,1,0,0:0:0:0:
358,192,8004,1,0,0:0:0:0:
256,192,8109,1,0,0:0:0:0:
153,192,8214,1,0,0:0:0:0:
460,192,8214,1,0,0:0:0:0:
51,192,8319,1,0,0:0:0:0:
460,192,8425,1,0,0:0:0:0:
256,192,8425,1,0,0:0:0:0:
153,192,8530,1,0,0:0:0:0:
256,192,8635,1,0,0:0:0:0:
460,192,8740,1,0,0:0:0:0:
358,192,8740,1,0,0:0:0:0:
256,192,8846,1,0,0:0:0:0:
51,192,8951,1,0,0:0:0:0:
358,192,9056,1,0,0:0:0:0:
256,192,9056,1,0,0:0:0:0:
153,192,9161,1,0,0:0:0:0:
460,192,9267,1,0,0:0:0:0:
51,192,9267,1,0,0:0:0:0:
358,192,9372,1,0,0:0:0:0:
256,192,9477,1,0,0:0:0:0:
51,192,9582,1,0,0:0:0:0:
358,192,9582,1,0,0:0:0:0:
358,192,9688,1,0,0:0:0:0:
460,192,9793,1,0,0:0:0:0:
51,192,9898,1,0,0:0:0:0:
358,192,9898,1,0,0:0:0:0:
256,192,9898,1,0,0:0:0:0:
358,192,10004,1,0,0:0:0:0:
51,192,10004,1,0,0:0:0:0:
51,192,10109,1,0,0:0:0:0:
460,192,10109,1,0,0:0:0:0:
256,192,10109,1,0,0:0:0:0:
460,192,10214,1,0,0:0:0:0:
153,192,10214,1,0,0:0:0:0:
51,192,10319,1,0,0:0:0:0:
460,192,10425,1,0,0:0:0:0:
153,192,10425,1,0,0:0:0:0:
256,192,10530,1,0,0:0:0:0:
153,192,10635,1,0,0:0:0:0:
358,192,10740,1,0,0:0:0:0:
51,192,10740,1,0,0:0:0:0:
153,192,10846,1,0,0:0:0:0:
256,192,10951,1,0,0:0:0:0:
460,192,10951,1,0,0:0:0:0:
51,192,10951,1,0,0:0:0:0:
460,192,11056,1,0,0:0:0:0:
358,192,11161,1,0,0:0:0:0:
153,192,11267,1,0,0:0:0:0:
256,192,11267,1,0,0:0:0:0:
51,192,11372,1,0,0:0:0:0:
153,192,11477,1,0,0:0:0:0:
358,192,11582,1,0,0:0:0:0:
256,192,11582,1,0,0:0:0:0:
460,192,11688,1,0,0:0:0:0:
51,192,11793,1,0,0:0:0:0:
358,192,11793,1,0,0:0:0:0:
153,192,11793,1,0,0:0:0:0:
51,192,11898,1,0,0:0:0:0:
153,192,12004,1,0,0:0:0:0:
51,192,12109,1,0,0:0:0:0:
256,192,12109,1,0,0:0:0:0:
153,192,12214,1,0,0:0:0:0:
358,192,12214,1,0,0:0:0:0:
460,192,12214,1,0,0:0:0:0:
460,192,12319,5,0,0:0:0:0:
153,192,12425,1,0,0:0:0:0:
358,192,12425,1,0,0:0:0:0:
51,192,12425,1,0,0:0:0:0:
256,192,12530,1,0,0:0:0:0:
51,192,12635,5,0,0:0:0:0:
460,192,12635,1,0,0:0:0:0:
358,192,12635,1,0,0:0:0:0:
153,192,12635,1,0,0:0:0:0:
256,192,13477,5,0,0:0:0:0:
51,192,13477,1,0,0:0:0:0:
153,192,13582,1,0,0:0:0:0:
460,192,13582,1,0,0:0:0:0:
358,192,13582,1,0,0:0:0:0:
51,192,13688,1,0,0:0:0:0:
256,192,13688,1,0,0:0:0:0:
153,192,13793,1,0,0:0:0:0:
460,192,13793,1,0,0:0:0:0:
358,192,13793,1,0,0:0:0:0:
51,192,13898,1,0,0:0:0:0:
256,192,13898,1,0,0:0:0:0:
153,192,14004,1,0,0:0:0:0:
460,192,14004,1,0,0:0:0:0:
358,192,14004,1,0,0:0:0:0:
51,192,14109,1,0,0:0:0:0:
256,192,14109,1,0,0:0:0:0:
153,192,14214,1,0,0:0:0:0:
460,192,14214,1,0,0:0:0:0:
358,192,14214,1,0,0:0:0:0:
51,192,14319,1,0,0:0:0:0:
256,192,14319,1,0,0:0:0:0:
153,192,14425,1,0,0:0:0:0:
460,192,14425,1,0,0:0:0:0:
358,192,14425,1,0,0:0:0:0:
51,192,14530,1,0,0:0:0:0:
256,192,14530,1,0,0:0:0:0:
153,192,14635,1,0,0:0:0:0:
460,192,14635,1,0,0:0:0:0:
358,192,14635,1,0,0:0:0:0:
51,192,14740,1,0,0:0:0:0:
256,192,14740,1,0,0:0:0:0:
256,192,14846,1,0,0:0:0:0:
51,192,14846,1,0,0:0:0:0:
51,192,14951,1,0,0:0:0:0:
256,192,14951,1,0,0:0:0:0:
153,192,15056,1,0,0:0:0:0:
460,192,15056,1,0,0:0:0:0:
358,192,15056,1,0,0:0:0:0:
256,192,15109,1,0,0:0:0:0:
358,192,15161,1,0,0:0:0:0:
51,192,15161,1,0,0:0:0:0:
153,192,15267,1,0,0:0:0:0:
460,192,15267,1,0,0:0:0:0:
358,192,15267,1,0,0:0:0:0:
51,192,15372,1,0,0:0:0:0:
256,192,15372,1,0,0:0:0:0:
256,192,15477,1,0,0:0:0:0:
51,192,15477,1,0,0:0:0:0:
51,192,15582,1,0,0:0:0:0:
256,192,15582,1,0,0:0:0:0:
153,192,15688,1,0,0:0:0:0:
460,192,15688,1,0,0:0:0:0:
358,192,15688,1,0,0:0:0:0:
51,192,15793,1,0,0:0:0:0:
256,192,15793,1,0,0:0:0:0:
153,192,15898,1,0,0:0:0:0:
460,192,15898,1,0,0:0:0:0:
358,192,15898,1,0,0:0:0:0:
256,192,15951,1,0,0:0:0:0:
51,192,16004,1,0,0:0:0:0:
153,192,16004,1,0,0:0:0:0:
51,192,16109,1,0,0:0:0:0:
256,192,16109,1,0,0:0:0:0:
358,192,16109,1,0,0:0:0:0:
153,192,16161,1,0,0:0:0:0:
256,192,16214,1,0,0:0:0:0:
460,192,16214,1,0,0:0:0:0:
153,192,16319,1,0,0:0:0:0:
358,192,16319,1,0,0:0:0:0:
51,192,16319,1,0,0:0:0:0:
460,192,16372,1,0,0:0:0:0:
153,192,16425,1,0,0:0:0:0:
256,192,16425,1,0,0:0:0:0:
358,192,16425,1,0,0:0:0:0:
51,192,16425,1,0,0:0:0:0:
460,192,16846,1,0,0:0:0:0:
256,192,16846,1,0,0:0:0:0:
358,192,16951,1,0,0:0:0:0:
51,192,16951,1,0,0:0:0:0:
153,192,16951,1,0,0:0:0:0:
256,192,17056,1,0,0:0:0:0:
460,192,17056,1,0,0:0:0:0:
358,192,17161,1,0,0:0:0:0:
51,192,17161,1,0,0:0:0:0:
153,192,17161,1,0,0:0:0:0:
256,192,17267,1,0,0:0:0:0:
460,192,17267,1,0,0:0:0:0:
358,192,17372,1,0,0:0:0:0:
51,192,17372,1,0,0:0:0:0:
153,192,17372,1,0,0:0:0:0:
256,192,17477,1,0,0:0:0:0:
460,192,17477,1,0,0:0:0:0:
460,192,17688,1,0,0:0:0:0:
256,192,17688,1,0,0:0:0:0:
256,192,17793,1,0,0:0:0:0:
51,192,17793,1,0,0:0:0:0:
153,192,17846,1,0,0:0:0:0:
358,192,17846,1,0,0:0:0:0:
256,192,17898,1,0,0:0:0:0:
460,192,17898,1,0,0:0:0:0:
51,192,18004,1,0,0:0:0:0:
358,192,18004,1,0,0:0:0:0:
153,192,18004,1,0,0:0:0:0:
256,192,18109,1,0,0:0:0:0:
460,192,18109,1,0,0:0:0:0:
358,192,18214,1,0,0:0:0:0:
51,192,18214,1,0,0:0:0:0:
153,192,18214,1,0,0:0:0:0:
460,192,18319,1,0,0:0:0:0:
256,192,18319,1,0,0:0:0:0:
358,192,18372,1,0,0:0:0:0:
153,192,18372,1,0,0:0:0:0:
256,192,18425,1,0,0:0:0:0:
51,192,18425,1,0,0:0:0:0:
153,192,18477,1,0,0:0:0:0:
358,192,18477,1,0,0:0:0:0:
256,192,18530,1,0,0:0:0:0:
460,192,18530,1,0,0:0:0:0:
358,192,18635,1,0,0:0:0:0:
51,192,18635,1,0,0:0:0:0:
153,192,18635,1,0,0:0:0:0:
256,192,18740,1,0,0:0:0:0:
460,192,18740,1,0,0:0:0:0:
256,192,18846,1,0,0:0:0:0:
460,192,18846,1,0,0:0:0:0:
460,192,18951,1,0,0:0:0:0:
256,192,18951,1,0,0:0:0:0:
51,192,19004,1,0,0:0:0:0:
153,192,19056,1,0,0:0:0:0:
358,192,19056,1,0,0:0:0:0:
460,192,19056,1,0,0:0:0:0:
51,192,19161,1,0,0:0:0:0:
256,192,19161,1,0,0:0:0:0:
460,192,19214,1,0,0:0:0:0:
358,192,19267,1,0,0:0:0:0:
153,192,19267,1,0,0:0:0:0:
51,192,19267,1,0,0:0:0:0:
256,192,19372,1,0,0:0:0:0:
460,192,19372,1,0,0:0:0:0:
256,192,19582,1,0,0:0:0:0:
460,192,19582,1,0,0:0:0:0:
358,192,19688,1,0,0:0:0:0:
51,192,19688,1,0,0:0:0:0:
153,192,19688,1,0,0:0:0:0:
153,192,19793,1,0,0:0:0:0:
256,192,19793,1,0,0:0:0:0:
358,192,19793,1,0,0:0:0:0:
460,192,19793,1,0,0:0:0:0:
256,192,20214,1,0,0:0:0:0:
460,192,20214,1,0,0:0:0:0:
358,192,20214,1,0,0:0:0:0:
51,192,20319,1,0,0:0:0:0:
153,192,20319,1,0,0:0:0:0:
358,192,20319,1,0,0:0:0:0:
256,192,20319,1,0,0:0:0:0:
460,192,20425,1,0,0:0:0:0:
358,192,20425,1,0,0:0:0:0:
153,192,20425,1,0,0:0:0:0:
51,192,20530,1,0,0:0:0:0:
153,192,20530,1,0,0:0:0:0:
256,192,20530,1,0,0:0:0:0:
256,192,20635,1,0,0:0:0:0:
358,192,20635,1,0,0:0:0:0:
460,192,20635,1,0,0:0:0:0:
51,192,20740,1,0,0:0:0:0:
153,192,20740,1,0,0:0:0:0:
460,192,20740,1,0,0:0:0:0:
358,192,20740,1,0,0:0:0:0:
256,192,20846,1,0,0:0:0:0:
460,192,20846,1,0,0:0:0:0:
153,192,20846,1,0,0:0:0:0:
51,192,20951,1,0,0:0:0:0:
358,192,20951,1,0,0:0:0:0:
153,192,20951,1,0,0:0:0:0:
256,192,20951,1,0,0:0:0:0:
358,192,21056,1,0,0:0:0:0:
460,192,21056,1,0,0:0:0:0:
256,192,21056,1,0,0:0:0:0:
51,192,21161,1,0,0:0:0:0:
153,192,21161,1,0,0:0:0:0:
256,192,21161,1,0,0:0:0:0:
460,192,21161,1,0,0:0:0:0:
256,192,21267,1,0,0:0:0:0:
358,192,21267,1,0,0:0:0:0:
51,192,21267,1,0,0:0:0:0:
51,192,21372,1,0,0:0:0:0:
153,192,21372,1,0,0:0:0:0:
460,192,21372,1,0,0:0:0:0:
358,192,21372,1,0,0:0:0:0:
256,192,21477,1,0,0:0:0:0:
460,192,21477,1,0,0:0:0:0:
358,192,21477,1,0,0:0:0:0:
460,192,21582,1,0,0:0:0:0:
256,192,21688,1,0,0:0:0:0:
153,192,21688,1,0,0:0:0:0:
51,192,21688,1,0,0:0:0:0:
51,192,21793,1,0,0:0:0:0:
358,192,21793,1,0,0:0:0:0:
153,192,21793,1,0,0:0:0:0:
256,192,21793,1,0,0:0:0:0:
460,192,21846,1,0,0:0:0:0:
153,192,21898,1,0,0:0:0:0:
256,192,21898,1,0,0:0:0:0:
358,192,21898,1,0,0:0:0:0:
51,192,22004,1,0,0:0:0:0:
153,192,22004,1,0,0:0:0:0:
460,192,22004,1,0,0:0:0:0:
358,192,22004,1,0,0:0:0:0:
256,192,22109,1,0,0:0:0:0:
358,192,22109,1,0,0:0:0:0:
460,192,22109,1,0,0:0:0:0:
51,192,22214,1,0,0:0:0:0:
153,192,22319,1,0,0:0:0:0:
256,192,22319,1,0,0:0:0:0:
460,192,22319,1,0,0:0:0:0:
51,192,22425,1,0,0:0:0:0:
256,192,22425,1,0,0:0:0:0:
358,192,22425,1,0,0:0:0:0:
153,192,22425,1,0,0:0:0:0:
153,192,22530,1,0,0:0:0:0:
358,192,22530,1,0,0:0:0:0:
460,192,22530,1,0,0:0:0:0:
51,192,22635,1,0,0:0:0:0:
256,192,22635,1,0,0:0:0:0:
460,192,22635,1,0,0:0:0:0:
358,192,22635,1,0,0:0:0:0:
153,192,22688,1,0,0:0:0:0:
256,192,22740,1,0,0:0:0:0:
358,192,22740,1,0,0:0:0:0:
460,192,22740,1,0,0:0:0:0:
51,192,22846,1,0,0:0:0:0:
256,192,22846,1,0,0:0:0:0:
153,192,22846,1,0,0:0:0:0:
358,192,22951,1,0,0:0:0:0:
460,192,22951,1,0,0:0:0:0:
153,192,22951,1,0,0:0:0:0:
256,192,23004,1,0,0:0:0:0:
153,192,23056,1,0,0:0:0:0:
358,192,23056,1,0,0:0:0:0:
51,192,23056,1,0,0:0:0:0:
460,192,23109,1,0,0:0:0:0:
153,192,23161,1,0,0:0:0:0:
256,192,23161,1,0,0:0:0:0:
51,192,23161,1,0,0:0:0:0:
358,192,23161,1,0,0:0:0:0:
51,192,23582,1,0,0:0:0:0:
256,192,23582,1,0,0:0:0:0:
358,192,23582,1,0,0:0:0:0:
153,192,23688,1,0,0:0:0:0:
256,192,23688,1,0,0:0:0:0:
358,192,23688,1,0,0:0:0:0:
460,192,23688,1,0,0:0:0:0:
51,192,23793,1,0,0:0:0:0:
460,192,23793,1,0,0:0:0:0:
358,192,23793,1,0,0:0:0:0:
51,192,23898,1,0,0:0:0:0:
153,192,23898,1,0,0:0:0:0:
256,192,23898,1,0,0:0:0:0:
358,192,23898,1,0,0:0:0:0:
153,192,24004,1,0,0:0:0:0:
256,192,24004,1,0,0:0:0:0:
460,192,24004,1,0,0:0:0:0:
51,192,24109,1,0,0:0:0:0:
153,192,24109,1,0,0:0:0:0:
358,192,24109,1,0,0:0:0:0:
256,192,24109,1,0,0:0:0:0:
460,192,24214,1,0,0:0:0:0:
153,192,24214,1,0,0:0:0:0:
256,192,24214,1,0,0:0:0:0:
358,192,24319,1,0,0:0:0:0:
51,192,24425,1,0,0:0:0:0:
153,192,24425,1,0,0:0:0:0:
256,192,24425,1,0,0:0:0:0:
153,192,24530,1,0,0:0:0:0:
256,192,24530,1,0,0:0:0:0:
358,192,24530,1,0,0:0:0:0:
51,192,24635,1,0,0:0:0:0:
460,192,24635,1,0,0:0:0:0:
358,192,24635,1,0,0:0:0:0:
153,192,24740,1,0,0:0:0:0:
256,192,24740,1,0,0:0:0:0:
358,192,24740,1,0,0:0:0:0:
460,192,24740,1,0,0:0:0:0:
51,192,24846,1,0,0:0:0:0:
153,192,24846,1,0,0:0:0:0:
256,192,24846,1,0,0:0:0:0:
51,192,24951,1,0,0:0:0:0:
153,192,24951,1,0,0:0:0:0:
358,192,24951,1,0,0:0:0:0:
460,192,24951,1,0,0:0:0:0:
256,192,25056,1,0,0:0:0:0:
460,192,25056,1,0,0:0:0:0:
358,192,25109,1,0,0:0:0:0:
153,192,25109,1,0,0:0:0:0:
256,192,25161,1,0,0:0:0:0:
51,192,25161,1,0,0:0:0:0:
153,192,25214,1,0,0:0:0:0:
358,192,25214,1,0,0:0:0:0:
51,192,25267,1,0,0:0:0:0:
256,192,25267,1,0,0:0:0:0:
460,192,25267,1,0,0:0:0:0:
153,192,25319,1,0,0:0:0:0:
256,192,25372,1,0,0:0:0:0:
460,192,25372,1,0,0:0:0:0:
51,192,25372,1,0,0:0:0:0:
358,192,25425,1,0,0:0:0:0:
460,192,25477,1,0,0:0:0:0:
256,192,25477,1,0,0:0:0:0:
153,192,25477,1,0,0:0:0:0:
358,192,25530,1,0,0:0:0:0:
256,192,25582,1,0,0:0:0:0:
51,192,25582,1,0,0:0:0:0:
460,192,25582,1,0,0:0:0:0:
153,192,25635,1,0,0:0:0:0:
51,192,25688,1,0,0:0:0:0:
358,192,25688,1,0,0:0:0:0:
460,192,25688,1,0,0:0:0:0:
153,192,25740,1,0,0:0:0:0:
256,192,25793,1,0,0:0:0:0:
51,192,25793,1,0,0:0:0:0:
460,192,25793,1,0,0:0:0:0:
358,192,25846,1,0,0:0:0:0:
460,192,25898,1,0,0:0:0:0:
153,192,25898,1,0,0:0:0:0:
51,192,25898,1,0,0:0:0:0:
358,192,25951,1,0,0:0:0:0:
256,192,26004,1,0,0:0:0:0:
51,192,26004,1,0,0:0:0:0:
460,192,26004,1,0,0:0:0:0:
153,192,26056,1,0,0:0:0:0:
256,192,26109,1,0,0:0:0:0:
358,192,26109,1,0,0:0:0:0:
460,192,26109,1,0,0:0:0:0:
153,192,26951,1,0,0:0:0:0:
51,192,26951,1,0,0:0:0:0:
358,192,26951,1,0,0:0:0:0:
153,192,27056,1,0,0:0:0:0:
256,192,27056,1,0,0:0:0:0:
358,192,27056,1,0,0:0:0:0:
460,192,27056,1,0,0:0:0:0:
51,192,27161,1,0,0:0:0:0:
256,192,27161,1,0,0:0:0:0:
358,192,27161,1,0,0:0:0:0:
51,192,27267,1,0,0:0:0:0:
153,192,27267,1,0,0:0:0:0:
256,192,27267,1,0,0:0:0:0:
358,192,27267,1,0,0:0:0:0:
153,192,27372,1,0,0:0:0:0:
358,192,27372,1,0,0:0:0:0:
460,192,27372,1,0,0:0:0:0:
51,192,27477,1,0,0:0:0:0:
358,192,27477,1,0,0:0:0:0:
256,192,27477,1,0,0:0:0:0:
460,192,27477,1,0,0:0:0:0:
153,192,27582,1,0,0:0:0:0:
256,192,27582,1,0,0:0:0:0:
358,192,27582,1,0,0:0:0:0:
51,192,27688,1,0,0:0:0:0:
256,192,27688,1,0,0:0:0:0:
358,192,27688,1,0,0:0:0:0:
460,192,27688,1,0,0:0:0:0:
460,192,27793,1,0,0:0:0:0:
358,192,27793,1,0,0:0:0:0:
153,192,27793,1,0,0:0:0:0:
51,192,27898,1,0,0:0:0:0:
460,192,27898,1,0,0:0:0:0:
153,192,27898,1,0,0:0:0:0:
256,192,27898,1,0,0:0:0:0:
51,192,28004,1,0,0:0:0:0:
153,192,28004,1,0,0:0:0:0:
358,192,28004,1,0,0:0:0:0:
51,192,28109,1,0,0:0:0:0:
153,192,28109,1,0,0:0:0:0:
256,192,28109,1,0,0:0:0:0:
358,192,28109,1,0,0:0:0:0:
153,192,28214,1,0,0:0:0:0:
358,192,28214,1,0,0:0:0:0:
460,192,28214,1,0,0:0:0:0:
256,192,28319,1,0,0:0:0:0:
153,192,28425,1,0,0:0:0:0:
460,192,28425,1,0,0:0:0:0:
51,192,28425,1,0,0:0:0:0:
153,192,28530,1,0,0:0:0:0:
358,192,28530,1,0,0:0:0:0:
460,192,28530,1,0,0:0:0:0:
256,192,28530,1,0,0:0:0:0:
51,192,28582,1,0,0:0:0:0:
153,192,28635,1,0,0:0:0:0:
256,192,28635,1,0,0:0:0:0:
358,192,28635,1,0,0:0:0:0:
51,192,28740,1,0,0:0:0:0:
256,192,28740,1,0,0:0:0:0:
460,192,28740,1,0,0:0:0:0:
358,192,28740,1,0,0:0:0:0:
51,192,28846,1,0,0:0:0:0:
153,192,28846,1,0,0:0:0:0:
256,192,28846,1,0,0:0:0:0:
153,192,28951,1,0,0:0:0:0:
256,192,29056,1,0,0:0:0:0:
358,192,29056,1,0,0:0:0:0:
460,192,29056,1,0,0:0:0:0:
51,192,29161,1,0,0:0:0:0:
153,192,29161,1,0,0:0:0:0:
256,192,29161,1,0,0:0:0:0:
460,192,29161,1,0,0:0:0:0:
153,192,29267,1,0,0:0:0:0:
256,192,29267,1,0,0:0:0:0:
358,192,29267,1,0,0:0:0:0:
51,192,29372,1,0,0:0:0:0:
153,192,29372,1,0,0:0:0:0:
460,192,29372,1,0,0:0:0:0:
256,192,29372,1,0,0:0:0:0:
358,192,29425,1,0,0:0:0:0:
153,192,29477,1,0,0:0:0:0:
256,192,29477,1,0,0:0:0:0:
51,192,29477,1,0,0:0:0:0:
153,192,29582,1,0,0:0:0:0:
256,192,29582,1,0,0:0:0:0:
358,192,29582,1,0,0:0:0:0:
460,192,29582,1,0,0:0:0:0:
51,192,29635,1,0,0:0:0:0:
256,192,29688,1,0,0:0:0:0:
358,192,29688,1,0,0:0:0:0:
153,192,29688,1,0,0:0:0:0:
153,192,29793,1,0,0:0:0:0:
256,192,29793,1,0,0:0:0:0:
51,192,29793,1,0,0:0:0:0:
460,192,29793,1,0,0:0:0:0:
358,192,29846,1,0,0:0:0:0:
153,192,29898,1,0,0:0:0:0:
256,192,29898,1,0,0:0:0:0:
460,192,29898,1,0,0:0:0:0:
51,192,30004,1,0,0:0:0:0:
153,192,30109,1,0,0:0:0:0:
256,192,30109,1,0,0:0:0:0:
358,192,30109,1,0,0:0:0:0:
460,192,30109,1,0,0:0:0:0:
51,192,30214,1,0,0:0:0:0:
358,192,30319,1,0,0:0:0:0:
256,192,30319,1,0,0:0:0:0:
153,192,30319,1,0,0:0:0:0:
358,192,30425,1,0,0:0:0:0:
460,192,30425,1,0,0:0:0:0:
51,192,30425,1,0,0:0:0:0:
256,192,30425,1,0,0:0:0:0:
460,192,30530,1,0,0:0:0:0:
358,192,30530,1,0,0:0:0:0:
153,192,30530,1,0,0:0:0:0:
51,192,30635,1,0,0:0:0:0:
153,192,30635,1,0,0:0:0:0:
256,192,30635,1,0,0:0:0:0:
358,192,30635,1,0,0:0:0:0:
153,192,30740,1,0,0:0:0:0:
460,192,30740,1,0,0:0:0:0:
256,192,30740,1,0,0:0:0:0:
51,192,30846,1,0,0:0:0:0:
256,192,30846,1,0,0:0:0:0:
358,192,30846,1,0,0:0:0:0:
460,192,30846,1,0,0:0:0:0:
51,192,30951,1,0,0:0:0:0:
153,192,30951,1,0,0:0:0:0:
256,192,30951,1,0,0:0:0:0:
358,192,31056,1,0,0:0:0:0:
256,192,31161,1,0,0:0:0:0:
460,192,31161,1,0,0:0:0:0:
51,192,31161,1,0,0:0:0:0:
460,192,31267,1,0,0:0:0:0:
153,192,31267,1,0,0:0:0:0:
153,192,31372,1,0,0:0:0:0:
256,192,31372,1,0,0:0:0:0:
358,192,31372,1,0,0:0:0:0:
51,192,31477,1,0,0:0:0:0:
256,192,31477,1,0,0:0:0:0:
358,192,31477,1,0,0:0:0:0:
460,192,31477,1,0,0:0:0:0:
153,192,31582,1,0,0:0:0:0:
358,192,31582,1,0,0:0:0:0:
460,192,31582,1,0,0:0:0:0:
51,192,31688,1,0,0:0:0:0:
153,192,31688,1,0,0:0:0:0:
256,192,31688,1,0,0:0:0:0:
358,192,31688,1,0,0:0:0:0:
256,192,31793,1,0,0:0:0:0:
51,192,31793,1,0,0:0:0:0:
153,192,31793,1,0,0:0:0:0:
358,192,31846,1,0,0:0:0:0:
460,192,31898,1,0,0:0:0:0:
256,192,31898,1,0,0:0:0:0:
153,192,31898,1,0,0:0:0:0:
358,192,31951,1,0,0:0:0:0:
256,192,32004,1,0,0:0:0:0:
51,192,32004,1,0,0:0:0:0:
460,192,32004,1,0,0:0:0:0:
51,192,32109,1,0,0:0:0:0:
153,192,32109,1,0,0:0:0:0:
256,192,32109,1,0,0:0:0:0:
358,192,32109,1,0,0:0:0:0:
256,192,32214,1,0,0:0:0:0:
358,192,32214,1,0,0:0:0:0:
460,192,32214,1,0,0:0:0:0:
358,192,32319,1,0,0:0:0:0:
153,192,32319,1,0,0:0:0:0:
51,192,32319,1,0,0:0:0:0:
460,192,32425,1,0,0:0:0:0:
256,192,32425,1,0,0:0:0:0:
51,192,32425,1,0,0:0:0:0:
358,192,32477,1,0,0:0:0:0:
256,192,32530,1,0,0:0:0:0:
153,192,32530,1,0,0:0:0:0:
460,192,32530,1,0,0:0:0:0:
51,192,32582,1,0,0:0:0:0:
460,192,32635,1,0,0:0:0:0:
153,192,32635,1,0,0:0:0:0:
358,192,32635,1,0,0:0:0:0:
358,192,32740,1,0,0:0:0:0:
51,192,32740,1,0,0:0:0:0:
256,192,32740,1,0,0:0:0:0:
460,192,32740,1,0,0:0:0:0:
153,192,32846,1,0,0:0:0:0:
358,192,32846,1,0,0:0:0:0:
256,192,32951,1,0,0:0:0:0:
153,192,33056,1,0,0:0:0:0:
460,192,33056,1,0,0:0:0:0:
51,192,33161,1,0,0:0:0:0:
358,192,33267,1,0,0:0:0:0:
460,192,33267,1,0,0:0:0:0:
153,192,33267,1,0,0:0:0:0:
256,192,33372,1,0,0:0:0:0:
358,192,33477,1,0,0:0:0:0:
51,192,33477,1,0,0:0:0:0:
460,192,33582,1,0,0:0:0:0:
51,192,33688,1,0,0:0:0:0:
153,192,33688,1,0,0:0:0:0:
358,192,33688,1,0,0:0:0:0:
153,192,33793,1,0,0:0:0:0:
256,192,33793,1,0,0:0:0:0:
358,192,33793,1,0,0:0:0:0:
460,192,33793,1,0,0:0:0:0:
51,192,33898,1,0,0:0:0:0:
256,192,33898,1,0,0:0:0:0:
358,192,33898,1,0,0:0:0:0:
51,192,34004,1,0,0:0:0:0:
153,192,34004,1,0,0:0:0:0:
256,192,34004,1,0,0:0:0:0:
358,192,34004,1,0,0:0:0:0:
153,192,34109,1,0,0:0:0:0:
256,192,34109,1,0,0:0:0:0:
460,192,34109,1,0,0:0:0:0:
51,192,34214,1,0,0:0:0:0:
256,192,34214,1,0,0:0:0:0:
358,192,34214,1,0,0:0:0:0:
460,192,34214,1,0,0:0:0:0:
51,192,34319,1,0,0:0:0:0:
153,192,34319,1,0,0:0:0:0:
256,192,34319,1,0,0:0:0:0:
153,192,34425,1,0,0:0:0:0:
460,192,34425,1,0,0:0:0:0:
358,192,34425,1,0,0:0:0:0:
51,192,34425,1,0,0:0:0:0:
153,192,34530,1,0,0:0:0:0:
256,192,34530,1,0,0:0:0:0:
460,192,34530,1,0,0:0:0:0:
51,192,34635,1,0,0:0:0:0:
256,192,34635,1,0,0:0:0:0:
358,192,34635,1,0,0:0:0:0:
460,192,34635,1,0,0:0:0:0:
153,192,34740,1,0,0:0:0:0:
358,192,34740,1,0,0:0:0:0:
460,192,34740,1,0,0:0:0:0:
51,192,34846,1,0,0:0:0:0:
153,192,34846,1,0,0:0:0:0:
256,192,34846,1,0,0:0:0:0:
460,192,34846,1,0,0:0:0:0:
256,192,34951,1,0,0:0:0:0:
358,192,34951,1,0,0:0:0:0:
460,192,34951,1,0,0:0:0:0:
51,192,35056,1,0,0:0:0:0:
358,192,35161,128,0,35267:0:0:0:0:
460,192,35161,128,0,35267:0:0:0:0:
51,192,35267,1,0,0:0:0:0:
153,192,35267,1,0,0:0:0:0:
256,192,35267,1,0,0:0:0:0:
153,192,35372,1,0,0:0:0:0:
358,192,35372,1,0,0:0:0:0:
460,192,35372,1,0,0:0:0:0:
51,192,35477,1,0,0:0:0:0:
256,192,35477,1,0,0:0:0:0:
358,192,35477,1,0,0:0:0:0:
153,192,35477,1,0,0:0:0:0:
153,192,35582,1,0,0:0:0:0:
256,192,35582,1,0,0:0:0:0:
358,192,35582,1,0,0:0:0:0:
51,192,35688,1,0,0:0:0:0:
358,192,35688,1,0,0:0:0:0:
460,192,35688,1,0,0:0:0:0:
256,192,35688,1,0,0:0:0:0:
153,192,35793,1,0,0:0:0:0:
460,192,35793,1,0,0:0:0:0:
256,192,35793,1,0,0:0:0:0:
51,192,35898,1,0,0:0:0:0:
358,192,35898,1,0,0:0:0:0:
460,192,35898,1,0,0:0:0:0:
153,192,35898,1,0,0:0:0:0:
153,192,36004,1,0,0:0:0:0:
256,192,36004,1,0,0:0:0:0:
460,192,36004,1,0,0:0:0:0:
51,192,36109,1,0,0:0:0:0:
256,192,36109,1,0,0:0:0:0:
358,192,36109,1,0,0:0:0:0:
460,192,36109,1,0,0:0:0:0:
153,192,36161,1,0,0:0:0:0:
256,192,36214,1,0,0:0:0:0:
358,192,36214,1,0,0:0:0:0:
460,192,36214,1,0,0:0:0:0:
51,192,36319,1,0,0:0:0:0:
153,192,36319,1,0,0:0:0:0:
256,192,36319,1,0,0:0:0:0:
460,192,36319,1,0,0:0:0:0:
358,192,36372,1,0,0:0:0:0:
153,192,36425,1,0,0:0:0:0:
51,192,36425,1,0,0:0:0:0:
460,192,36425,1,0,0:0:0:0:
51,192,36530,1,0,0:0:0:0:
256,192,36530,1,0,0:0:0:0:
358,192,36530,1,0,0:0:0:0:
460,192,36530,1,0,0:0:0:0:
153,192,36582,1,0,0:0:0:0:
51,192,36635,1,0,0:0:0:0:
256,192,36635,1,0,0:0:0:0:
460,192,36635,1,0,0:0:0:0:
153,192,36740,1,0,0:0:0:0:
51,192,36846,128,0,36951:0:0:0:0:
358,192,36846,128,0,36951:0:0:0:0:
256,192,36846,1,0,0:0:0:0:
460,192,36951,1,0,0:0:0:0:
51,192,37056,1,0,0:0:0:0:
256,192,37056,1,0,0:0:0:0:
358,192,37056,1,0,0:0:0:0:
153,192,37161,1,0,0:0:0:0:
256,192,37161,1,0,0:0:0:0:
460,192,37161,1,0,0:0:0:0:
358,192,37161,1,0,0:0:0:0:
153,192,37267,1,0,0:0:0:0:
358,192,37267,1,0,0:0:0:0:
460,192,37267,1,0,0:0:0:0:
51,192,37372,1,0,0:0:0:0:
153,192,37372,1,0,0:0:0:0:
256,192,37372,1,0,0:0:0:0:
358,192,37372,1,0,0:0:0:0:
256,192,37477,1,0,0:0:0:0:
153,192,37477,1,0,0:0:0:0:
51,192,37477,1,0,0:0:0:0:
51,192,37582,1,0,0:0:0:0:
358,192,37582,1,0,0:0:0:0:
460,192,37582,1,0,0:0:0:0:
256,192,37582,1,0,0:0:0:0:
51,192,37688,1,0,0:0:0:0:
256,192,37688,1,0,0:0:0:0:
153,192,37740,1,0,0:0:0:0:
358,192,37740,1,0,0:0:0:0:
51,192,37793,1,0,0:0:0:0:
256,192,37793,1,0,0:0:0:0:
153,192,37846,1,0,0:0:0:0:
358,192,37846,1,0,0:0:0:0:
51,192,37898,1,0,0:0:0:0:
256,192,37898,1,0,0:0:0:0:
460,192,37898,1,0,0:0:0:0:
153,192,38004,1,0,0:0:0:0:
358,192,38004,1,0,0:0:0:0:
460,192,38004,1,0,0:0:0:0:
358,192,38109,1,0,0:0:0:0:
51,192,38109,1,0,0:0:0:0:
153,192,38109,1,0,0:0:0:0:
153,192,38214,1,0,0:0:0:0:
256,192,38214,1,0,0:0:0:0:
358,192,38214,1,0,0:0:0:0:
460,192,38214,1,0,0:0:0:0:
51,192,38319,1,0,0:0:0:0:
153,192,38319,1,0,0:0:0:0:
358,192,38319,1,0,0:0:0:0:
51,192,38425,1,0,0:0:0:0:
256,192,38425,1,0,0:0:0:0:
358,192,38425,1,0,0:0:0:0:
460,192,38425,1,0,0:0:0:0:
460,192,38530,1,0,0:0:0:0:
153,192,38530,1,0,0:0:0:0:
358,192,38582,1,0,0:0:0:0:
256,192,38582,1,0,0:0:0:0:
460,192,38635,1,0,0:0:0:0:
153,192,38635,1,0,0:0:0:0:
358,192,38688,1,0,0:0:0:0:
256,192,38688,1,0,0:0:0:0:
51,192,38740,1,0,0:0:0:0:
153,192,38740,1,0,0:0:0:0:
460,192,38740,1,0,0:0:0:0:
51,192,38846,1,0,0:0:0:0:
153,192,38846,1,0,0:0:0:0:
256,192,38846,1,0,0:0:0:0:
358,192,38846,1,0,0:0:0:0:
256,192,38951,128,0,39004:0:0:0:0:
460,192,38951,128,0,39004:0:0:0:0:
153,192,38951,1,0,0:0:0:0:
460,192,39056,128,0,39109:0:0:0:0:
256,192,39056,128,0,39109:0:0:0:0:
153,192,39056,1,0,0:0:0:0:
51,192,39161,1,0,0:0:0:0:
153,192,39161,1,0,0:0:0:0:
358,192,39161,1,0,0:0:0:0:
460,192,39214,1,0,0:0:0:0:
51,192,39267,1,0,0:0:0:0:
358,192,39267,1,0,0:0:0:0:
256,192,39267,1,0,0:0:0:0:
153,192,39319,1,0,0:0:0:0:
51,192,39372,1,0,0:0:0:0:
460,192,39372,1,0,0:0:0:0:
153,192,39425,1,0,0:0:0:0:
358,192,39425,1,0,0:0:0:0:
460,192,39477,1,0,0:0:0:0:
51,192,39477,1,0,0:0:0:0:
153,192,39530,1,0,0:0:0:0:
358,192,39530,1,0,0:0:0:0:
256,192,39582,128,0,39688:0:0:0:0:
153,192,39688,128,0,39793:0:0:0:0:
51,192,39793,128,0,39898:0:0:0:0:
256,192,39898,128,0,40004:0:0:0:0:
460,192,40004,128,0,40109:0:0:0:0:
358,192,40109,128,0,40214:0:0:0:0:
51,192,40214,128,0,40319:0:0:0:0:
153,192,40319,128,0,40425:0:0:0:0:
256,192,40425,128,0,41688:0:0:0:0:
460,192,40425,1,0,0:0:0:0:
51,192,40425,1,0,0:0:0:0:
358,192,40425,128,0,40530:0:0:0:0:
358,192,40635,1,0,0:0:0:0:
153,192,40635,1,0,0:0:0:0:
51,192,40635,1,0,0:0:0:0:
460,192,40740,128,0,40846:0:0:0:0:
153,192,40740,1,0,0:0:0:0:
51,192,40846,1,0,0:0:0:0:
358,192,40846,1,0,0:0:0:0:
153,192,40951,1,0,0:0:0:0:
358,192,41056,128,0,41161:0:0:0:0:
51,192,41056,1,0,0:0:0:0:
153,192,41056,1,0,0:0:0:0:
460,192,41056,1,0,0:0:0:0:
153,192,41267,128,0,41372:0:0:0:0:
51,192,41267,1,0,0:0:0:0:
358,192,41267,1,0,0:0:0:0:
51,192,41372,1,0,0:0:0:0:
153,192,41477,1,0,0:0:0:0:
358,192,41477,1,0,0:0:0:0:
460,192,41477,1,0,0:0:0:0:
51,192,41582,128,0,41688:0:0:0:0:
460,192,41582,1,0,0:0:0:0:
153,192,41688,1,0,0:0:0:0:
358,192,41688,1,0,0:0:0:0:
460,192,41688,128,0,42109:0:0:0:0:
153,192,41793,1,0,0:0:0:0:
358,192,41793,1,0,0:0:0:0:
256,192,41898,128,0,42004:0:0:0:0:
51,192,41898,1,0,0:0:0:0:
358,192,41898,1,0,0:0:0:0:
153,192,41898,1,0,0:0:0:0:
153,192,42004,1,0,0:0:0:0:
51,192,42004,1,0,0:0:0:0:
153,192,42109,128,0,42951:0:0:0:0:
358,192,42109,128,0,42214:0:0:0:0:
256,192,42109,1,0,0:0:0:0:
51,192,42109,1,0,0:0:0:0:
358,192,42319,1,0,0:0:0:0:
256,192,42319,1,0,0:0:0:0:
51,192,42319,1,0,0:0:0:0:
460,192,42425,128,0,42530:0:0:0:0:
51,192,42425,1,0,0:0:0:0:
358,192,42530,1,0,0:0:0:0:
256,192,42530,1,0,0:0:0:0:
51,192,42635,1,0,0:0:0:0:
358,192,42740,128,0,42846:0:0:0:0:
256,192,42740,1,0,0:0:0:0:
460,192,42740,1,0,0:0:0:0:
51,192,42740,1,0,0:0:0:0:
51,192,42951,128,0,43793:0:0:0:0:
256,192,42951,128,0,43056:0:0:0:0:
358,192,42951,1,0,0:0:0:0:
460,192,42951,1,0,0:0:0:0:
153,192,43056,1,0,0:0:0:0:
256,192,43161,1,0,0:0:0:0:
358,192,43161,1,0,0:0:0:0:
460,192,43161,1,0,0:0:0:0:
153,192,43267,128,0,43372:0:0:0:0:
460,192,43267,1,0,0:0:0:0:
256,192,43372,1,0,0:0:0:0:
358,192,43372,1,0,0:0:0:0:
256,192,43477,1,0,0:0:0:0:
153,192,43477,1,0,0:0:0:0:
358,192,43582,128,0,43688:0:0:0:0:
153,192,43582,1,0,0:0:0:0:
256,192,43582,1,0,0:0:0:0:
460,192,43582,1,0,0:0:0:0:
256,192,43688,1,0,0:0:0:0:
460,192,43688,1,0,0:0:0:0:
460,192,43793,128,0,44635:0:0:0:0:
256,192,43793,128,0,43898:0:0:0:0:
153,192,43793,1,0,0:0:0:0:
358,192,43793,1,0,0:0:0:0:
153,192,44004,1,0,0:0:0:0:
256,192,44004,1,0,0:0:0:0:
358,192,44004,1,0,0:0:0:0:
51,192,44109,128,0,44214:0:0:0:0:
358,192,44109,1,0,0:0:0:0:
153,192,44214,1,0,0:0:0:0:
256,192,44214,1,0,0:0:0:0:
358,192,44319,1,0,0:0:0:0:
153,192,44425,128,0,44530:0:0:0:0:
51,192,44425,1,0,0:0:0:0:
256,192,44425,1,0,0:0:0:0:
358,192,44425,1,0,0:0:0:0:
358,192,44635,128,0,45477:0:0:0:0:
256,192,44635,128,0,44740:0:0:0:0:
153,192,44635,1,0,0:0:0:0:
51,192,44635,1,0,0:0:0:0:
460,192,44740,1,0,0:0:0:0:
51,192,44846,1,0,0:0:0:0:
153,192,44846,1,0,0:0:0:0:
256,192,44846,1,0,0:0:0:0:
460,192,44951,128,0,45056:0:0:0:0:
51,192,44951,1,0,0:0:0:0:
256,192,45056,1,0,0:0:0:0:
153,192,45056,1,0,0:0:0:0:
153,192,45161,1,0,0:0:0:0:
256,192,45161,1,0,0:0:0:0:
153,192,45267,128,0,45372:0:0:0:0:
256,192,45267,1,0,0:0:0:0:
51,192,45267,1,0,0:0:0:0:
460,192,45267,1,0,0:0:0:0:
256,192,45372,1,0,0:0:0:0:
460,192,45372,1,0,0:0:0:0:
256,192,45477,128,0,46319:0:0:0:0:
51,192,45477,128,0,45582:0:0:0:0:
460,192,45477,1,0,0:0:0:0:
153,192,45477,1,0,0:0:0:0:
153,192,45688,1,0,0:0:0:0:
358,192,45688,1,0,0:0:0:0:
51,192,45688,1,0,0:0:0:0:
460,192,45793,128,0,45898:0:0:0:0:
51,192,45793,1,0,0:0:0:0:
153,192,45898,1,0,0:0:0:0:
358,192,45898,1,0,0:0:0:0:
51,192,46004,1,0,0:0:0:0:
358,192,46109,128,0,46214:0:0:0:0:
51,192,46109,1,0,0:0:0:0:
153,192,46109,1,0,0:0:0:0:
460,192,46109,1,0,0:0:0:0:
153,192,46319,128,0,47161:0:0:0:0:
460,192,46319,128,0,46425:0:0:0:0:
358,192,46319,1,0,0:0:0:0:
51,192,46319,1,0,0:0:0:0:
256,192,46372,1,0,0:0:0:0:
51,192,46425,1,0,0:0:0:0:
51,192,46530,1,0,0:0:0:0:
460,192,46530,1,0,0:0:0:0:
256,192,46530,1,0,0:0:0:0:
358,192,46582,1,0,0:0:0:0:
256,192,46635,128,0,46740:0:0:0:0:
460,192,46635,1,0,0:0:0:0:
358,192,46740,1,0,0:0:0:0:
460,192,46740,128,0,47161:0:0:0:0:
51,192,46740,1,0,0:0:0:0:
358,192,46846,1,0,0:0:0:0:
51,192,46951,128,0,47056:0:0:0:0:
256,192,46951,1,0,0:0:0:0:
358,192,46951,1,0,0:0:0:0:
256,192,47056,1,0,0:0:0:0:
256,192,47161,128,0,48425:0:0:0:0:
358,192,47161,128,0,47267:0:0:0:0:
51,192,47161,1,0,0:0:0:0:
460,192,47372,1,0,0:0:0:0:
358,192,47372,1,0,0:0:0:0:
51,192,47372,1,0,0:0:0:0:
51,192,47477,128,0,47582:0:0:0:0:
460,192,47477,1,0,0:0:0:0:
153,192,47582,1,0,0:0:0:0:
358,192,47582,1,0,0:0:0:0:
460,192,47688,1,0,0:0:0:0:
153,192,47793,128,0,47898:0:0:0:0:
51,192,47793,1,0,0:0:0:0:
358,192,47793,1,0,0:0:0:0:
460,192,47793,1,0,0:0:0:0:
358,192,48004,128,0,48109:0:0:0:0:
153,192,48004,1,0,0:0:0:0:
460,192,48004,1,0,0:0:0:0:
460,192,48109,1,0,0:0:0:0:
153,192,48214,1,0,0:0:0:0:
51,192,48214,1,0,0:0:0:0:
358,192,48214,1,0,0:0:0:0:
460,192,48319,128,0,48425:0:0:0:0:
51,192,48319,1,0,0:0:0:0:
51,192,48425,128,0,48846:0:0:0:0:
153,192,48425,1,0,0:0:0:0:
358,192,48425,1,0,0:0:0:0:
153,192,48530,1,0,0:0:0:0:
358,192,48530,1,0,0:0:0:0:
256,192,48635,128,0,48740:0:0:0:0:
153,192,48635,1,0,0:0:0:0:
358,192,48635,1,0,0:0:0:0:
460,192,48635,1,0,0:0:0:0:
358,192,48740,1,0,0:0:0:0:
460,192,48740,1,0,0:0:0:0:
460,192,48846,128,0,49688:0:0:0:0:
153,192,48846,128,0,48951:0:0:0:0:
358,192,48846,1,0,0:0:0:0:
256,192,48846,1,0,0:0:0:0:
358,192,49056,1,0,0:0:0:0:
256,192,49056,1,0,0:0:0:0:
153,192,49056,1,0,0:0:0:0:
51,192,49161,128,0,49267:0:0:0:0:
358,192,49161,1,0,0:0:0:0:
153,192,49267,1,0,0:0:0:0:
256,192,49267,1,0,0:0:0:0:
358,192,49372,1,0,0:0:0:0:
153,192,49477,128,0,49582:0:0:0:0:
51,192,49477,1,0,0:0:0:0:
256,192,49477,1,0,0:0:0:0:
358,192,49477,1,0,0:0:0:0:
358,192,49688,128,0,50530:0:0:0:0:
256,192,49688,128,0,49793:0:0:0:0:
153,192,49688,1,0,0:0:0:0:
51,192,49688,1,0,0:0:0:0:
460,192,49793,128,0,49898:0:0:0:0:
51,192,49793,1,0,0:0:0:0:
153,192,49898,1,0,0:0:0:0:
51,192,49898,1,0,0:0:0:0:
256,192,49898,1,0,0:0:0:0:
460,192,50004,128,0,50109:0:0:0:0:
51,192,50004,128,0,50109:0:0:0:0:
153,192,50004,1,0,0:0:0:0:
256,192,50109,1,0,0:0:0:0:
153,192,50109,1,0,0:0:0:0:
153,192,50214,128,0,50319:0:0:0:0:
256,192,50214,1,0,0:0:0:0:
256,192,50319,128,0,50425:0:0:0:0:
51,192,50319,1,0,0:0:0:0:
460,192,50319,128,0,50530:0:0:0:0:
153,192,50425,1,0,0:0:0:0:
51,192,50425,1,0,0:0:0:0:
153,192,50530,128,0,51372:0:0:0:0:
51,192,50530,128,0,50635:0:0:0:0:
256,192,50530,1,0,0:0:0:0:
460,192,50740,128,0,50846:0:0:0:0:
358,192,50740,1,0,0:0:0:0:
256,192,50740,1,0,0:0:0:0:
51,192,50740,1,0,0:0:0:0:
256,192,50846,1,0,0:0:0:0:
51,192,50951,1,0,0:0:0:0:
358,192,50951,1,0,0:0:0:0:
256,192,51056,1,0,0:0:0:0:
358,192,51161,128,0,51267:0:0:0:0:
256,192,51161,1,0,0:0:0:0:
51,192,51161,1,0,0:0:0:0:
460,192,51161,1,0,0:0:0:0:
256,192,51372,128,0,52214:0:0:0:0:
51,192,51372,128,0,51477:0:0:0:0:
358,192,51372,1,0,0:0:0:0:
460,192,51372,1,0,0:0:0:0:
153,192,51477,1,0,0:0:0:0:
460,192,51582,1,0,0:0:0:0:
358,192,51582,1,0,0:0:0:0:
51,192,51582,1,0,0:0:0:0:
153,192,51688,128,0,51793:0:0:0:0:
460,192,51688,1,0,0:0:0:0:
51,192,51793,1,0,0:0:0:0:
358,192,51793,1,0,0:0:0:0:
153,192,51898,1,0,0:0:0:0:
51,192,51898,1,0,0:0:0:0:
460,192,52004,128,0,52109:0:0:0:0:
51,192,52004,1,0,0:0:0:0:
153,192,52004,1,0,0:0:0:0:
358,192,52004,1,0,0:0:0:0:
153,192,52109,1,0,0:0:0:0:
358,192,52109,1,0,0:0:0:0:
358,192,52214,128,0,53056:0:0:0:0:
51,192,52214,128,0,52319:0:0:0:0:
153,192,52214,1,0,0:0:0:0:
460,192,52214,1,0,0:0:0:0:
256,192,52425,1,0,0:0:0:0:
51,192,52425,1,0,0:0:0:0:
460,192,52425,1,0,0:0:0:0:
153,192,52425,128,0,52635:0:0:0:0:
256,192,52530,128,0,52635:0:0:0:0:
460,192,52530,1,0,0:0:0:0:
460,192,52635,1,0,0:0:0:0:
51,192,52635,128,0,52846:0:0:0:0:
153,192,52740,1,0,0:0:0:0:
460,192,52846,128,0,52951:0:0:0:0:
153,192,52846,1,0,0:0:0:0:
256,192,52846,128,0,53056:0:0:0:0:
153,192,53056,128,0,53898:0:0:0:0:
51,192,53056,128,0,53161:0:0:0:0:
460,192,53056,1,0,0:0:0:0:
358,192,53109,1,0,0:0:0:0:
256,192,53161,128,0,53267:0:0:0:0:
51,192,53267,1,0,0:0:0:0:
358,192,53319,1,0,0:0:0:0:
460,192,53372,128,0,53477:0:0:0:0:
51,192,53477,128,0,53582:0:0:0:0:
358,192,53477,1,0,0:0:0:0:
256,192,53530,1,0,0:0:0:0:
358,192,53582,128,0,53688:0:0:0:0:
256,192,53688,128,0,53793:0:0:0:0:
51,192,53688,1,0,0:0:0:0:
460,192,53688,128,0,53898:0:0:0:0:
256,192,53898,1,0,0:0:0:0:
358,192,53898,1,0,0:0:0:0:
51,192,53898,1,0,0:0:0:0:
51,192,59793,5,0,0:0:0:0:
153,192,59846,1,0,0:0:0:0:
256,192,59898,1,0,0:0:0:0:
358,192,59951,1,0,0:0:0:0:
460,192,60004,1,0,0:0:0:0:
358,192,60056,1,0,0:0:0:0:
256,192,60109,1,0,0:0:0:0:
153,192,60161,1,0,0:0:0:0:
51,192,60214,1,0,0:0:0:0:
153,192,60267,1,0,0:0:0:0:
256,192,60319,1,0,0:0:0:0:
358,192,60372,1,0,0:0:0:0:
460,192,60425,1,0,0:0:0:0:
358,192,60477,1,0,0:0:0:0:
256,192,60530,1,0,0:0:0:0:
153,192,60582,1,0,0:0:0:0:
51,192,60635,128,0,61898:0:0:0:0:
358,192,60635,1,0,0:0:0:0:
460,192,60635,1,0,0:0:0:0:
256,192,60740,1,0,0:0:0:0:
358,192,60846,1,0,0:0:0:0:
460,192,60951,1,0,0:0:0:0:
358,192,61161,1,0,0:0:0:0:
256,192,61267,1,0,0:0:0:0:
153,192,61372,1,0,0:0:0:0:
153,192,61582,1,0,0:0:0:0:
256,192,61688,1,0,0:0:0:0:
358,192,61793,1,0,0:0:0:0:
256,192,61898,128,0,62319:0:0:0:0:
460,192,62004,1,0,0:0:0:0:
358,192,62109,1,0,0:0:0:0:
153,192,62214,1,0,0:0:0:0:
358,192,62319,128,0,63161:0:0:0:0:
460,192,62319,1,0,0:0:0:0:
51,192,62319,1,0,0:0:0:0:
153,192,62425,1,0,0:0:0:0:
256,192,62530,1,0,0:0:0:0:
460,192,62635,1,0,0:0:0:0:
256,192,62846,1,0,0:0:0:0:
153,192,62951,1,0,0:0:0:0:
51,192,63056,1,0,0:0:0:0:
460,192,63161,128,0,64004:0:0:0:0:
51,192,63267,1,0,0:0:0:0:
358,192,63372,1,0,0:0:0:0:
153,192,63477,1,0,0:0:0:0:
256,192,63582,1,0,0:0:0:0:
358,192,63688,1,0,0:0:0:0:
256,192,63793,1,0,0:0:0:0:
51,192,63898,1,0,0:0:0:0:
153,192,64004,128,0,64635:0:0:0:0:
358,192,64004,1,0,0:0:0:0:
256,192,64004,1,0,0:0:0:0:
51,192,64109,1,0,0:0:0:0:
256,192,64214,1,0,0:0:0:0:
358,192,64319,1,0,0:0:0:0:
460,192,64530,1,0,0:0:0:0:
256,192,64635,128,0,66740:0:0:0:0:
358,192,64635,1,0,0:0:0:0:
51,192,64740,1,0,0:0:0:0:
153,192,64846,1,0,0:0:0:0:
460,192,64846,1,0,0:0:0:0:
358,192,64951,1,0,0:0:0:0:
153,192,65056,1,0,0:0:0:0:
51,192,65161,1,0,0:0:0:0:
460,192,65267,1,0,0:0:0:0:
358,192,65372,1,0,0:0:0:0:
460,192,65477,1,0,0:0:0:0:
153,192,65582,1,0,0:0:0:0:
51,192,65688,1,0,0:0:0:0:
358,192,65688,1,0,0:0:0:0:
460,192,65793,1,0,0:0:0:0:
153,192,65898,1,0,0:0:0:0:
358,192,66004,1,0,0:0:0:0:
51,192,66109,1,0,0:0:0:0:
153,192,66214,1,0,0:0:0:0:
460,192,66319,1,0,0:0:0:0:
358,192,66425,1,0,0:0:0:0:
51,192,66530,1,0,0:0:0:0:
460,192,66530,1,0,0:0:0:0:
153,192,66635,1,0,0:0:0:0:
358,192,66740,1,0,0:0:0:0:
460,192,66846,1,0,0:0:0:0:
358,192,66951,128,0,67056:0:0:0:0:
256,192,66951,1,0,0:0:0:0:
460,192,67056,128,0,67161:0:0:0:0:
153,192,67056,1,0,0:0:0:0:
358,192,67161,128,0,67267:0:0:0:0:
256,192,67161,1,0,0:0:0:0:
153,192,67267,128,0,67372:0:0:0:0:
51,192,67267,1,0,0:0:0:0:
256,192,67372,128,0,67688:0:0:0:0:
460,192,67372,1,0,0:0:0:0:
358,192,67372,1,0,0:0:0:0:
358,192,67582,1,0,0:0:0:0:
51,192,67688,128,0,68004:0:0:0:0:
460,192,67688,1,0,0:0:0:0:
358,192,67898,1,0,0:0:0:0:
153,192,68004,128,0,69688:0:0:0:0:
460,192,68004,1,0,0:0:0:0:
358,192,68109,1,0,0:0:0:0:
256,192,68214,1,0,0:0:0:0:
51,192,68319,1,0,0:0:0:0:
256,192,68425,1,0,0:0:0:0:
358,192,68530,1,0,0:0:0:0:
460,192,68635,1,0,0:0:0:0:
358,192,68740,1,0,0:0:0:0:
256,192,68846,1,0,0:0:0:0:
51,192,68951,1,0,0:0:0:0:
256,192,69056,1,0,0:0:0:0:
358,192,69056,1,0,0:0:0:0:
460,192,69161,1,0,0:0:0:0:
460,192,69267,1,0,0:0:0:0:
256,192,69372,1,0,0:0:0:0:
256,192,69582,1,0,0:0:0:0:
358,192,69688,1,0,0:0:0:0:
460,192,69793,1,0,0:0:0:0:
256,192,69898,128,0,70214:0:0:0:0:
153,192,69898,1,0,0:0:0:0:
51,192,70004,1,0,0:0:0:0:
460,192,70109,1,0,0:0:0:0:
153,192,70214,128,0,70530:0:0:0:0:
358,192,70214,1,0,0:0:0:0:
51,192,70319,1,0,0:0:0:0:
358,192,70425,1,0,0:0:0:0:
256,192,70530,128,0,70635:0:0:0:0:
460,192,70530,1,0,0:0:0:0:
358,192,70635,128,0,70740:0:0:0:0:
51,192,70635,1,0,0:0:0:0:
460,192,70740,128,0,71056:0:0:0:0:
153,192,70740,1,0,0:0:0:0:
256,192,70740,1,0,0:0:0:0:
51,192,70846,1,0,0:0:0:0:
51,192,70951,1,0,0:0:0:0:
358,192,71056,128,0,71372:0:0:0:0:
256,192,71056,1,0,0:0:0:0:
51,192,71267,1,0,0:0:0:0:
256,192,71372,128,0,71582:0:0:0:0:
153,192,71372,1,0,0:0:0:0:
460,192,71477,1,0,0:0:0:0:
153,192,71582,128,0,73688:0:0:0:0:
51,192,71582,1,0,0:0:0:0:
358,192,71582,1,0,0:0:0:0:
460,192,71688,1,0,0:0:0:0:
358,192,71793,1,0,0:0:0:0:
256,192,71898,1,0,0:0:0:0:
358,192,72004,1,0,0:0:0:0:
51,192,72109,1,0,0:0:0:0:
256,192,72214,1,0,0:0:0:0:
460,192,72319,1,0,0:0:0:0:
51,192,72425,128,0,73688:0:0:0:0:
256,192,72425,1,0,0:0:0:0:
358,192,72425,1,0,0:0:0:0:
460,192,72530,1,0,0:0:0:0:
358,192,72635,1,0,0:0:0:0:
256,192,72740,1,0,0:0:0:0:
358,192,72846,1,0,0:0:0:0:
256,192,72951,1,0,0:0:0:0:
358,192,73056,1,0,0:0:0:0:
460,192,73161,1,0,0:0:0:0:
256,192,73267,1,0,0:0:0:0:
358,192,73372,1,0,0:0:0:0:
460,192,73477,1,0,0:0:0:0:
358,192,73582,1,0,0:0:0:0:
256,192,73688,1,0,0:0:0:0:
51,192,74109,128,0,75372:0:0:0:0:
460,192,74109,1,0,0:0:0:0:
153,192,74109,1,0,0:0:0:0:
256,192,74214,1,0,0:0:0:0:
358,192,74319,1,0,0:0:0:0:
460,192,74425,1,0,0:0:0:0:
460,192,74635,1,0,0:0:0:0:
358,192,74740,1,0,0:0:0:0:
256,192,74846,1,0,0:0:0:0:
256,192,75056,1,0,0:0:0:0:
358,192,75161,1,0,0:0:0:0:
153,192,75267,1,0,0:0:0:0:
256,192,75372,128,0,75793:0:0:0:0:
460,192,75372,1,0,0:0:0:0:
358,192,75477,1,0,0:0:0:0:
153,192,75582,1,0,0:0:0:0:
51,192,75688,1,0,0:0:0:0:
358,192,75793,128,0,76635:0:0:0:0:
153,192,75793,1,0,0:0:0:0:
460,192,75793,1,0,0:0:0:0:
51,192,75898,1,0,0:0:0:0:
153,192,76004,1,0,0:0:0:0:
256,192,76109,1,0,0:0:0:0:
460,192,76319,1,0,0:0:0:0:
256,192,76425,1,0,0:0:0:0:
153,192,76530,1,0,0:0:0:0:
460,192,76635,128,0,77477:0:0:0:0:
256,192,76740,1,0,0:0:0:0:
51,192,76846,1,0,0:0:0:0:
358,192,76951,1,0,0:0:0:0:
256,192,77056,1,0,0:0:0:0:
153,192,77161,1,0,0:0:0:0:
256,192,77267,1,0,0:0:0:0:
358,192,77372,1,0,0:0:0:0:
153,192,77477,128,0,78109:0:0:0:0:
256,192,77477,1,0,0:0:0:0:
51,192,77582,1,0,0:0:0:0:
256,192,77688,1,0,0:0:0:0:
460,192,77793,1,0,0:0:0:0:
51,192,78004,1,0,0:0:0:0:
256,192,78109,128,0,78740:0:0:0:0:
358,192,78109,1,0,0:0:0:0:
460,192,78214,1,0,0:0:0:0:
51,192,78319,1,0,0:0:0:0:
460,192,78425,1,0,0:0:0:0:
358,192,78530,1,0,0:0:0:0:
153,192,78635,1,0,0:0:0:0:
460,192,78740,128,0,80214:0:0:0:0:
51,192,78740,1,0,0:0:0:0:
358,192,78846,1,0,0:0:0:0:
51,192,78951,1,0,0:0:0:0:
256,192,79056,1,0,0:0:0:0:
358,192,79161,1,0,0:0:0:0:
153,192,79267,1,0,0:0:0:0:
256,192,79372,1,0,0:0:0:0:
51,192,79477,1,0,0:0:0:0:
51,192,79688,1,0,0:0:0:0:
256,192,79793,1,0,0:0:0:0:
153,192,79898,1,0,0:0:0:0:
358,192,80004,1,0,0:0:0:0:
51,192,80004,1,0,0:0:0:0:
153,192,80109,1,0,0:0:0:0:
51,192,80214,1,0,0:0:0:0:
153,192,80319,1,0,0:0:0:0:
460,192,80425,128,0,80530:0:0:0:0:
256,192,80425,1,0,0:0:0:0:
358,192,80530,128,0,80635:0:0:0:0:
153,192,80530,1,0,0:0:0:0:
256,192,80635,128,0,80740:0:0:0:0:
51,192,80635,1,0,0:0:0:0:
153,192,80740,128,0,80846:0:0:0:0:
358,192,80740,1,0,0:0:0:0:
256,192,80846,128,0,81898:0:0:0:0:
460,192,80846,1,0,0:0:0:0:
358,192,80951,1,0,0:0:0:0:
51,192,81056,1,0,0:0:0:0:
153,192,81161,1,0,0:0:0:0:
358,192,81267,1,0,0:0:0:0:
460,192,81267,1,0,0:0:0:0:
153,192,81477,1,0,0:0:0:0:
51,192,81582,1,0,0:0:0:0:
153,192,81688,1,0,0:0:0:0:
460,192,81793,1,0,0:0:0:0:
358,192,81898,1,0,0:0:0:0:
153,192,82004,1,0,0:0:0:0:
51,192,82109,128,0,82319:0:0:0:0:
460,192,82109,1,0,0:0:0:0:
460,192,82214,1,0,0:0:0:0:
153,192,82319,128,0,82530:0:0:0:0:
460,192,82319,1,0,0:0:0:0:
460,192,82425,1,0,0:0:0:0:
256,192,82530,128,0,83372:0:0:0:0:
51,192,82530,1,0,0:0:0:0:
51,192,82635,1,0,0:0:0:0:
153,192,82740,1,0,0:0:0:0:
460,192,82740,128,0,83056:0:0:0:0:
358,192,82846,128,0,83056:0:0:0:0:
51,192,83056,1,0,0:0:0:0:
460,192,83161,1,0,0:0:0:0:
153,192,83267,1,0,0:0:0:0:
358,192,83372,128,0,84004:0:0:0:0:
51,192,83372,1,0,0:0:0:0:
460,192,83372,1,0,0:0:0:0:
460,192,83477,1,0,0:0:0:0:
153,192,83477,1,0,0:0:0:0:
256,192,83582,1,0,0:0:0:0:
153,192,83635,1,0,0:0:0:0:
51,192,83688,1,0,0:0:0:0:
153,192,83740,1,0,0:0:0:0:
256,192,83793,128,0,84004:0:0:0:0:
153,192,84004,1,0,0:0:0:0:
460,192,84004,1,0,0:0:0:0:
51,192,84109,1,0,0:0:0:0:
256,192,84109,1,0,0:0:0:0:
358,192,84214,128,0,84846:0:0:0:0:
460,192,84214,128,0,84425:0:0:0:0:
153,192,84214,1,0,0:0:0:0:
51,192,84214,1,0,0:0:0:0:
256,192,84425,1,0,0:0:0:0:
51,192,84425,1,0,0:0:0:0:
153,192,84530,1,0,0:0:0:0:
51,192,84530,1,0,0:0:0:0:
460,192,84530,128,0,84740:0:0:0:0:
51,192,84740,1,0,0:0:0:0:
256,192,84740,1,0,0:0:0:0:
153,192,84846,128,0,85688:0:0:0:0:
256,192,84846,1,0,0:0:0:0:
460,192,84846,1,0,0:0:0:0:
358,192,84951,1,0,0:0:0:0:
256,192,84951,1,0,0:0:0:0:
358,192,85056,1,0,0:0:0:0:
51,192,85056,1,0,0:0:0:0:
358,192,85161,1,0,0:0:0:0:
460,192,85161,1,0,0:0:0:0:
460,192,85267,1,0,0:0:0:0:
51,192,85267,1,0,0:0:0:0:
256,192,85267,128,0,85477:0:0:0:0:
358,192,85477,1,0,0:0:0:0:
51,192,85477,1,0,0:0:0:0:
256,192,85688,1,0,0:0:0:0:
460,192,85688,1,0,0:0:0:0:
51,192,85688,128,0,85898:0:0:0:0:
460,192,85898,128,0,86740:0:0:0:0:
358,192,85898,1,0,0:0:0:0:
153,192,85898,1,0,0:0:0:0:
256,192,86004,1,0,0:0:0:0:
153,192,86109,1,0,0:0:0:0:
51,192,86214,1,0,0:0:0:0:
153,192,86319,1,0,0:0:0:0:
358,192,86319,1,0,0:0:0:0:
256,192,86425,1,0,0:0:0:0:
153,192,86530,1,0,0:0:0:0:
51,192,86530,1,0,0:0:0:0:
256,192,86635,1,0,0:0:0:0:
358,192,86635,1,0,0:0:0:0:
256,192,86740,128,0,87582:0:0:0:0:
51,192,86740,1,0,0:0:0:0:
358,192,86740,1,0,0:0:0:0:
153,192,86793,1,0,0:0:0:0:
460,192,86846,1,0,0:0:0:0:
358,192,86898,1,0,0:0:0:0:
51,192,86951,1,0,0:0:0:0:
153,192,87004,1,0,0:0:0:0:
460,192,87056,1,0,0:0:0:0:
358,192,87109,1,0,0:0:0:0:
153,192,87161,1,0,0:0:0:0:
51,192,87161,1,0,0:0:0:0:
153,192,87267,1,0,0:0:0:0:
51,192,87267,1,0,0:0:0:0:
358,192,87372,1,0,0:0:0:0:
460,192,87372,1,0,0:0:0:0:
358,192,87477,1,0,0:0:0:0:
460,192,87477,1,0,0:0:0:0:
153,192,87582,1,0,0:0:0:0:
51,192,87582,1,0,0:0:0:0:
358,192,87582,1,0,0:0:0:0:
460,192,87582,1,0,0:0:0:0:
153,192,89267,1,0,0:0:0:0:
51,192,89267,1,0,0:0:0:0:
256,192,89267,1,0,0:0:0:0:
358,192,89267,1,0,0:0:0:0:
460,192,90530,1,0,0:0:0:0:
51,192,90530,1,0,0:0:0:0:
256,192,90530,1,0,0:0:0:0:
153,192,90530,1,0,0:0:0:0:
51,192,90951,1,0,0:0:0:0:
460,192,90951,1,0,0:0:0:0:
256,192,90951,1,0,0:0:0:0:
358,192,90951,1,0,0:0:0:0:
51,192,91372,1,0,0:0:0:0:
460,192,91793,1,0,0:0:0:0:
358,192,91793,1,0,0:0:0:0:
153,192,91793,1,0,0:0:0:0:
256,192,91793,1,0,0:0:0:0:
460,192,92214,1,0,0:0:0:0:
153,192,92635,1,0,0:0:0:0:
51,192,92635,1,0,0:0:0:0:
460,192,92635,1,0,0:0:0:0:
358,192,92635,1,0,0:0:0:0:
460,192,93056,1,0,0:0:0:0:
51,192,93056,1,0,0:0:0:0:
256,192,93056,1,0,0:0:0:0:
358,192,93056,1,0,0:0:0:0:
460,192,93477,1,0,0:0:0:0:
358,192,93477,1,0,0:0:0:0:
51,192,93477,1,0,0:0:0:0:
153,192,93530,1,0,0:0:0:0:
256,192,93582,1,0,0:0:0:0:
358,192,93635,1,0,0:0:0:0:
51,192,93688,1,0,0:0:0:0:
153,192,93688,1,0,0:0:0:0:
460,192,93688,1,0,0:0:0:0:
256,192,93740,1,0,0:0:0:0:
358,192,93793,1,0,0:0:0:0:
460,192,93846,1,0,0:0:0:0:
153,192,93898,1,0,0:0:0:0:
51,192,93898,1,0,0:0:0:0:
358,192,93898,1,0,0:0:0:0:
256,192,93951,1,0,0:0:0:0:
153,192,94004,1,0,0:0:0:0:
51,192,94056,1,0,0:0:0:0:
460,192,94109,1,0,0:0:0:0:
256,192,94109,1,0,0:0:0:0:
153,192,94109,1,0,0:0:0:0:
358,192,94161,1,0,0:0:0:0:
256,192,94214,1,0,0:0:0:0:
153,192,94267,1,0,0:0:0:0:
51,192,94319,1,0,0:0:0:0:
358,192,94319,1,0,0:0:0:0:
460,192,94319,1,0,0:0:0:0:
153,192,94425,1,0,0:0:0:0:
256,192,94425,1,0,0:0:0:0:
358,192,94530,1,0,0:0:0:0:
153,192,94530,1,0,0:0:0:0:
51,192,94530,1,0,0:0:0:0:
460,192,94635,1,0,0:0:0:0:
256,192,94635,1,0,0:0:0:0:
153,192,94688,1,0,0:0:0:0:
51,192,94740,1,0,0:0:0:0:
358,192,94740,1,0,0:0:0:0:
460,192,94846,1,0,0:0:0:0:
256,192,94846,1,0,0:0:0:0:
358,192,94951,1,0,0:0:0:0:
153,192,94951,1,0,0:0:0:0:
51,192,94951,1,0,0:0:0:0:
256,192,95056,1,0,0:0:0:0:
51,192,95056,1,0,0:0:0:0:
358,192,95161,1,0,0:0:0:0:
153,192,95161,1,0,0:0:0:0:
460,192,95161,1,0,0:0:0:0:
51,192,95214,1,0,0:0:0:0:
256,192,95267,1,0,0:0:0:0:
460,192,95267,1,0,0:0:0:0:
153,192,95372,1,0,0:0:0:0:
51,192,95372,1,0,0:0:0:0:
358,192,95372,1,0,0:0:0:0:
256,192,95477,1,0,0:0:0:0:
460,192,95477,1,0,0:0:0:0:
51,192,95530,1,0,0:0:0:0:
153,192,95582,1,0,0:0:0:0:
358,192,95582,1,0,0:0:0:0:
51,192,95688,1,0,0:0:0:0:
256,192,95688,1,0,0:0:0:0:
153,192,95793,1,0,0:0:0:0:
51,192,95793,1,0,0:0:0:0:
358,192,95793,1,0,0:0:0:0:
460,192,95898,1,0,0:0:0:0:
358,192,95898,1,0,0:0:0:0:
51,192,96004,1,0,0:0:0:0:
256,192,96004,1,0,0:0:0:0:
460,192,96004,1,0,0:0:0:0:
153,192,96109,1,0,0:0:0:0:
358,192,96109,1,0,0:0:0:0:
358,192,96214,1,0,0:0:0:0:
51,192,96214,1,0,0:0:0:0:
460,192,96214,1,0,0:0:0:0:
256,192,96319,1,0,0:0:0:0:
153,192,96319,1,0,0:0:0:0:
358,192,96372,1,0,0:0:0:0:
51,192,96425,1,0,0:0:0:0:
460,192,96425,1,0,0:0:0:0:
153,192,96530,1,0,0:0:0:0:
256,192,96530,1,0,0:0:0:0:
358,192,96635,1,0,0:0:0:0:
51,192,96635,1,0,0:0:0:0:
460,192,96635,1,0,0:0:0:0:
256,192,96740,1,0,0:0:0:0:
358,192,96740,1,0,0:0:0:0:
153,192,96846,1,0,0:0:0:0:
51,192,96846,1,0,0:0:0:0:
460,192,96846,1,0,0:0:0:0:
256,192,96898,1,0,0:0:0:0:
358,192,96951,1,0,0:0:0:0:
460,192,97004,1,0,0:0:0:0:
153,192,97056,1,0,0:0:0:0:
51,192,97056,1,0,0:0:0:0:
358,192,97056,1,0,0:0:0:0:
256,192,97161,1,0,0:0:0:0:
460,192,97161,1,0,0:0:0:0:
51,192,97267,1,0,0:0:0:0:
358,192,97267,1,0,0:0:0:0:
153,192,97372,1,0,0:0:0:0:
256,192,97372,1,0,0:0:0:0:
153,192,97477,1,0,0:0:0:0:
51,192,97477,1,0,0:0:0:0:
358,192,97477,1,0,0:0:0:0:
256,192,97582,1,0,0:0:0:0:
460,192,97582,1,0,0:0:0:0:
51,192,97688,1,0,0:0:0:0:
358,192,97688,1,0,0:0:0:0:
153,192,97688,1,0,0:0:0:0:
153,192,97793,1,0,0:0:0:0:
256,192,97793,1,0,0:0:0:0:
460,192,97793,1,0,0:0:0:0:
51,192,97898,1,0,0:0:0:0:
358,192,97898,1,0,0:0:0:0:
256,192,97898,1,0,0:0:0:0:
153,192,98004,1,0,0:0:0:0:
256,192,98004,1,0,0:0:0:0:
460,192,98004,1,0,0:0:0:0:
51,192,98056,1,0,0:0:0:0:
358,192,98109,1,0,0:0:0:0:
256,192,98109,1,0,0:0:0:0:
460,192,98109,1,0,0:0:0:0:
460,192,98214,1,0,0:0:0:0:
51,192,98214,1,0,0:0:0:0:
256,192,98214,1,0,0:0:0:0:
358,192,98319,1,0,0:0:0:0:
153,192,98319,1,0,0:0:0:0:
51,192,98319,1,0,0:0:0:0:
153,192,98425,1,0,0:0:0:0:
256,192,98425,1,0,0:0:0:0:
460,192,98425,1,0,0:0:0:0:
51,192,98530,1,0,0:0:0:0:
358,192,98530,1,0,0:0:0:0:
153,192,98530,1,0,0:0:0:0:
256,192,98582,1,0,0:0:0:0:
358,192,98635,1,0,0:0:0:0:
460,192,98688,1,0,0:0:0:0:
51,192,98740,1,0,0:0:0:0:
153,192,98740,1,0,0:0:0:0:
358,192,98740,1,0,0:0:0:0:
256,192,98793,1,0,0:0:0:0:
153,192,98846,1,0,0:0:0:0:
51,192,98898,1,0,0:0:0:0:
460,192,98951,5,0,0:0:0:0:
358,192,98977,1,0,0:0:0:0:
51,192,99004,1,0,0:0:0:0:
153,192,99030,1,0,0:0:0:0:
358,192,99056,1,0,0:0:0:0:
256,192,99082,1,0,0:0:0:0:
51,192,99109,1,0,0:0:0:0:
153,192,99135,1,0,0:0:0:0:
358,192,99161,1,0,0:0:0:0:
460,192,99188,1,0,0:0:0:0:
256,192,99214,1,0,0:0:0:0:
153,192,99240,1,0,0:0:0:0:
358,192,99267,1,0,0:0:0:0:
460,192,99293,1,0,0:0:0:0:
153,192,99319,1,0,0:0:0:0:
51,192,99346,1,0,0:0:0:0:
256,192,99372,5,0,0:0:0:0:
256,192,99477,1,0,0:0:0:0:
256,192,99582,1,0,0:0:0:0:
460,192,99688,1,0,0:0:0:0:
256,192,99793,1,0,0:0:0:0:
256,192,99898,1,0,0:0:0:0:
358,192,100004,1,0,0:0:0:0:
256,192,100109,1,0,0:0:0:0:
153,192,100214,1,0,0:0:0:0:
256,192,100319,1,0,0:0:0:0:
256,192,100425,1,0,0:0:0:0:
51,192,100530,1,0,0:0:0:0:
256,192,100635,1,0,0:0:0:0:
256,192,100740,1,0,0:0:0:0:
460,192,100740,1,0,0:0:0:0:
51,192,100740,1,0,0:0:0:0:
358,192,100793,1,0,0:0:0:0:
153,192,100793,1,0,0:0:0:0:
51,192,100846,1,0,0:0:0:0:
256,192,100846,1,0,0:0:0:0:
460,192,100846,1,0,0:0:0:0:
51,192,101056,128,0,101161:0:0:0:0:
460,192,101056,1,0,0:0:0:0:
256,192,101056,1,0,0:0:0:0:
358,192,101161,1,0,0:0:0:0:
153,192,101161,1,0,0:0:0:0:
51,192,101267,1,0,0:0:0:0:
460,192,101267,1,0,0:0:0:0:
256,192,101267,1,0,0:0:0:0:
358,192,101267,1,0,0:0:0:0:
460,192,101372,128,0,101477:0:0:0:0:
153,192,101372,1,0,0:0:0:0:
256,192,101477,1,0,0:0:0:0:
51,192,101477,1,0,0:0:0:0:
358,192,101582,1,0,0:0:0:0:
153,192,101582,1,0,0:0:0:0:
256,192,101688,1,0,0:0:0:0:
460,192,101688,1,0,0:0:0:0:
358,192,101688,128,0,101793:0:0:0:0:
51,192,101688,1,0,0:0:0:0:
153,192,101793,1,0,0:0:0:0:
256,192,101898,128,0,102004:0:0:0:0:
460,192,101898,1,0,0:0:0:0:
51,192,101898,1,0,0:0:0:0:
153,192,102004,1,0,0:0:0:0:
358,192,102004,1,0,0:0:0:0:
51,192,102109,1,0,0:0:0:0:
358,192,102109,1,0,0:0:0:0:
256,192,102109,1,0,0:0:0:0:
460,192,102109,1,0,0:0:0:0:
51,192,102214,128,0,102319:0:0:0:0:
460,192,102214,1,0,0:0:0:0:
256,192,102319,1,0,0:0:0:0:
153,192,102319,1,0,0:0:0:0:
256,192,102425,1,0,0:0:0:0:
153,192,102425,1,0,0:0:0:0:
256,192,102530,1,0,0:0:0:0:
460,192,102530,1,0,0:0:0:0:
153,192,102530,128,0,102635:0:0:0:0:
51,192,102530,1,0,0:0:0:0:
358,192,102530,1,0,0:0:0:0:
460,192,102635,1,0,0:0:0:0:
256,192,102635,1,0,0:0:0:0:
358,192,102740,128,0,102846:0:0:0:0:
153,192,102740,1,0,0:0:0:0:
51,192,102740,1,0,0:0:0:0:
256,192,102846,1,0,0:0:0:0:
460,192,102846,1,0,0:0:0:0:
153,192,102951,1,0,0:0:0:0:
51,192,102951,1,0,0:0:0:0:
358,192,102951,1,0,0:0:0:0:
460,192,102951,1,0,0:0:0:0:
460,192,103056,128,0,103161:0:0:0:0:
51,192,103056,1,0,0:0:0:0:
358,192,103161,1,0,0:0:0:0:
153,192,103161,1,0,0:0:0:0:
51,192,103267,1,0,0:0:0:0:
460,192,103267,1,0,0:0:0:0:
460,192,103372,1,0,0:0:0:0:
153,192,103372,1,0,0:0:0:0:
358,192,103372,1,0,0:0:0:0:
256,192,103372,128,0,103477:0:0:0:0:
460,192,103477,1,0,0:0:0:0:
153,192,103582,128,0,103688:0:0:0:0:
51,192,103582,1,0,0:0:0:0:
358,192,103582,1,0,0:0:0:0:
256,192,103688,1,0,0:0:0:0:
460,192,103688,1,0,0:0:0:0:
358,192,103793,1,0,0:0:0:0:
153,192,103793,1,0,0:0:0:0:
256,192,103793,1,0,0:0:0:0:
51,192,103793,1,0,0:0:0:0:
51,192,103898,128,0,104004:0:0:0:0:
358,192,103898,1,0,0:0:0:0:
460,192,104004,1,0,0:0:0:0:
256,192,104004,1,0,0:0:0:0:
460,192,104109,1,0,0:0:0:0:
256,192,104109,1,0,0:0:0:0:
256,192,104214,1,0,0:0:0:0:
358,192,104214,1,0,0:0:0:0:
460,192,104214,1,0,0:0:0:0:
153,192,104214,128,0,104319:0:0:0:0:
51,192,104214,1,0,0:0:0:0:
358,192,104319,1,0,0:0:0:0:
51,192,104319,1,0,0:0:0:0:
256,192,104425,128,0,104530:0:0:0:0:
460,192,104425,1,0,0:0:0:0:
153,192,104425,1,0,0:0:0:0:
358,192,104530,1,0,0:0:0:0:
51,192,104530,1,0,0:0:0:0:
51,192,104635,1,0,0:0:0:0:
153,192,104635,1,0,0:0:0:0:
256,192,104635,1,0,0:0:0:0:
358,192,104635,1,0,0:0:0:0:
460,192,104740,128,0,104846:0:0:0:0:
51,192,104740,1,0,0:0:0:0:
358,192,104846,1,0,0:0:0:0:
256,192,104846,1,0,0:0:0:0:
153,192,104951,1,0,0:0:0:0:
51,192,104951,1,0,0:0:0:0:
460,192,105056,1,0,0:0:0:0:
256,192,105056,1,0,0:0:0:0:
153,192,105056,1,0,0:0:0:0:
358,192,105056,128,0,105161:0:0:0:0:
460,192,105161,1,0,0:0:0:0:
256,192,105267,128,0,105372:0:0:0:0:
51,192,105267,1,0,0:0:0:0:
358,192,105267,1,0,0:0:0:0:
460,192,105372,1,0,0:0:0:0:
153,192,105372,1,0,0:0:0:0:
51,192,105477,1,0,0:0:0:0:
256,192,105477,1,0,0:0:0:0:
153,192,105477,1,0,0:0:0:0:
358,192,105477,1,0,0:0:0:0:
51,192,105582,128,0,105688:0:0:0:0:
358,192,105582,1,0,0:0:0:0:
153,192,105688,1,0,0:0:0:0:
256,192,105688,1,0,0:0:0:0:
153,192,105793,1,0,0:0:0:0:
256,192,105793,1,0,0:0:0:0:
358,192,105898,1,0,0:0:0:0:
256,192,105898,1,0,0:0:0:0:
460,192,105898,1,0,0:0:0:0:
153,192,105898,128,0,106004:0:0:0:0:
358,192,106004,1,0,0:0:0:0:
460,192,106004,1,0,0:0:0:0:
256,192,106109,128,0,106214:0:0:0:0:
358,192,106109,1,0,0:0:0:0:
51,192,106109,1,0,0:0:0:0:
153,192,106214,1,0,0:0:0:0:
460,192,106214,1,0,0:0:0:0:
256,192,106319,1,0,0:0:0:0:
51,192,106319,1,0,0:0:0:0:
358,192,106319,1,0,0:0:0:0:
153,192,106319,1,0,0:0:0:0:
358,192,106425,128,0,106530:0:0:0:0:
51,192,106425,1,0,0:0:0:0:
153,192,106530,1,0,0:0:0:0:
460,192,106530,1,0,0:0:0:0:
358,192,106635,1,0,0:0:0:0:
51,192,106635,1,0,0:0:0:0:
153,192,106740,1,0,0:0:0:0:
460,192,106740,1,0,0:0:0:0:
358,192,106740,1,0,0:0:0:0:
51,192,106740,128,0,106846:0:0:0:0:
460,192,106846,1,0,0:0:0:0:
256,192,106951,128,0,107056:0:0:0:0:
51,192,106951,1,0,0:0:0:0:
153,192,106951,1,0,0:0:0:0:
358,192,107056,1,0,0:0:0:0:
460,192,107056,1,0,0:0:0:0:
256,192,107161,1,0,0:0:0:0:
358,192,107161,1,0,0:0:0:0:
51,192,107161,1,0,0:0:0:0:
153,192,107161,1,0,0:0:0:0:
358,192,107267,128,0,107372:0:0:0:0:
51,192,107267,1,0,0:0:0:0:
256,192,107372,1,0,0:0:0:0:
460,192,107372,1,0,0:0:0:0:
256,192,107477,1,0,0:0:0:0:
460,192,107477,1,0,0:0:0:0:
358,192,107582,1,0,0:0:0:0:
460,192,107582,128,0,107688:0:0:0:0:
51,192,107582,1,0,0:0:0:0:
256,192,107582,1,0,0:0:0:0:
51,192,107688,1,0,0:0:0:0:
358,192,107688,1,0,0:0:0:0:
358,192,107793,128,0,107898:0:0:0:0:
51,192,107793,1,0,0:0:0:0:
256,192,107793,1,0,0:0:0:0:
153,192,107898,1,0,0:0:0:0:
460,192,107898,1,0,0:0:0:0:
460,192,108004,1,0,0:0:0:0:
51,192,108004,1,0,0:0:0:0:
256,192,108004,1,0,0:0:0:0:
153,192,108004,1,0,0:0:0:0:
51,192,108109,128,0,108214:0:0:0:0:
358,192,108109,1,0,0:0:0:0:
256,192,108214,1,0,0:0:0:0:
460,192,108214,1,0,0:0:0:0:
153,192,108319,1,0,0:0:0:0:
358,192,108319,1,0,0:0:0:0:
256,192,108425,1,0,0:0:0:0:
51,192,108425,1,0,0:0:0:0:
153,192,108425,128,0,108530:0:0:0:0:
460,192,108425,1,0,0:0:0:0:
358,192,108530,1,0,0:0:0:0:
256,192,108635,128,0,108740:0:0:0:0:
51,192,108635,1,0,0:0:0:0:
460,192,108635,1,0,0:0:0:0:
358,192,108740,1,0,0:0:0:0:
153,192,108740,1,0,0:0:0:0:
460,192,108846,1,0,0:0:0:0:
153,192,108846,1,0,0:0:0:0:
256,192,108846,1,0,0:0:0:0:
51,192,108846,1,0,0:0:0:0:
460,192,108951,128,0,109056:0:0:0:0:
51,192,108951,1,0,0:0:0:0:
256,192,109056,1,0,0:0:0:0:
358,192,109056,1,0,0:0:0:0:
256,192,109161,1,0,0:0:0:0:
358,192,109161,1,0,0:0:0:0:
256,192,109267,1,0,0:0:0:0:
51,192,109267,1,0,0:0:0:0:
358,192,109267,128,0,109372:0:0:0:0:
460,192,109267,1,0,0:0:0:0:
153,192,109267,1,0,0:0:0:0:
51,192,109372,1,0,0:0:0:0:
256,192,109372,1,0,0:0:0:0:
153,192,109477,128,0,109582:0:0:0:0:
358,192,109477,1,0,0:0:0:0:
460,192,109477,1,0,0:0:0:0:
256,192,109582,1,0,0:0:0:0:
51,192,109582,1,0,0:0:0:0:
358,192,109688,1,0,0:0:0:0:
460,192,109688,1,0,0:0:0:0:
153,192,109688,1,0,0:0:0:0:
51,192,109688,1,0,0:0:0:0:
51,192,109793,128,0,109898:0:0:0:0:
460,192,109793,1,0,0:0:0:0:
153,192,109898,1,0,0:0:0:0:
358,192,109898,1,0,0:0:0:0:
460,192,110004,1,0,0:0:0:0:
51,192,110004,1,0,0:0:0:0:
51,192,110109,1,0,0:0:0:0:
358,192,110109,1,0,0:0:0:0:
153,192,110109,1,0,0:0:0:0:
256,192,110109,128,0,110214:0:0:0:0:
153,192,110214,1,0,0:0:0:0:
358,192,110319,128,0,110425:0:0:0:0:
460,192,110319,1,0,0:0:0:0:
51,192,110319,1,0,0:0:0:0:
256,192,110425,1,0,0:0:0:0:
51,192,110425,1,0,0:0:0:0:
153,192,110530,1,0,0:0:0:0:
358,192,110530,1,0,0:0:0:0:
256,192,110530,1,0,0:0:0:0:
460,192,110530,1,0,0:0:0:0:
460,192,110635,128,0,110740:0:0:0:0:
153,192,110635,1,0,0:0:0:0:
51,192,110740,1,0,0:0:0:0:
256,192,110740,1,0,0:0:0:0:
51,192,110846,1,0,0:0:0:0:
256,192,110846,1,0,0:0:0:0:
256,192,110951,1,0,0:0:0:0:
153,192,110951,1,0,0:0:0:0:
51,192,110951,1,0,0:0:0:0:
358,192,110951,128,0,111056:0:0:0:0:
460,192,110951,1,0,0:0:0:0:
153,192,111056,1,0,0:0:0:0:
460,192,111056,1,0,0:0:0:0:
256,192,111161,128,0,111267:0:0:0:0:
51,192,111161,1,0,0:0:0:0:
358,192,111161,1,0,0:0:0:0:
153,192,111267,1,0,0:0:0:0:
460,192,111267,1,0,0:0:0:0:
460,192,111372,1,0,0:0:0:0:
358,192,111372,1,0,0:0:0:0:
256,192,111372,1,0,0:0:0:0:
153,192,111372,1,0,0:0:0:0:
51,192,111477,128,0,111582:0:0:0:0:
460,192,111477,1,0,0:0:0:0:
153,192,111582,1,0,0:0:0:0:
256,192,111582,1,0,0:0:0:0:
358,192,111688,1,0,0:0:0:0:
460,192,111688,1,0,0:0:0:0:
51,192,111793,1,0,0:0:0:0:
256,192,111793,1,0,0:0:0:0:
358,192,111793,1,0,0:0:0:0:
153,192,111793,128,0,111898:0:0:0:0:
358,192,111898,1,0,0:0:0:0:
256,192,112004,128,0,112109:0:0:0:0:
460,192,112004,1,0,0:0:0:0:
153,192,112004,1,0,0:0:0:0:
51,192,112109,1,0,0:0:0:0:
358,192,112109,1,0,0:0:0:0:
460,192,112214,1,0,0:0:0:0:
256,192,112214,1,0,0:0:0:0:
358,192,112214,1,0,0:0:0:0:
153,192,112214,1,0,0:0:0:0:
460,192,112319,128,0,112425:0:0:0:0:
153,192,112319,1,0,0:0:0:0:
358,192,112425,1,0,0:0:0:0:
256,192,112425,1,0,0:0:0:0:
358,192,112530,5,0,0:0:0:0:
256,192,112530,1,0,0:0:0:0:
153,192,112635,1,0,0:0:0:0:
256,192,112635,1,0,0:0:0:0:
51,192,112635,1,0,0:0:0:0:
358,192,112635,128,0,112740:0:0:0:0:
153,192,112740,1,0,0:0:0:0:
51,192,112740,1,0,0:0:0:0:
256,192,112846,128,0,112951:0:0:0:0:
153,192,112846,1,0,0:0:0:0:
460,192,112846,1,0,0:0:0:0:
358,192,112951,1,0,0:0:0:0:
51,192,112951,1,0,0:0:0:0:
256,192,113056,1,0,0:0:0:0:
358,192,113056,1,0,0:0:0:0:
153,192,113056,1,0,0:0:0:0:
460,192,113056,128,0,113267:0:0:0:0:
153,192,113161,128,0,113267:0:0:0:0:
358,192,113161,128,0,113267:0:0:0:0:
51,192,113267,1,0,0:0:0:0:
256,192,113267,1,0,0:0:0:0:
358,192,113319,1,0,0:0:0:0:
153,192,113319,1,0,0:0:0:0:
460,192,113372,1,0,0:0:0:0:
256,192,113372,1,0,0:0:0:0:
358,192,113425,1,0,0:0:0:0:
153,192,113425,1,0,0:0:0:0:
460,192,113477,128,0,113582:0:0:0:0:
256,192,113477,1,0,0:0:0:0:
51,192,113477,128,0,113688:0:0:0:0:
460,192,113688,5,0,0:0:0:0:
358,192,113714,1,0,0:0:0:0:
256,192,113740,1,0,0:0:0:0:
153,192,113767,1,0,0:0:0:0:
51,192,113793,1,0,0:0:0:0:
153,192,113819,1,0,0:0:0:0:
256,192,113846,1,0,0:0:0:0:
358,192,113872,1,0,0:0:0:0:
460,192,113898,1,0,0:0:0:0:
51,192,113898,1,0,0:0:0:0:
51,192,114109,1,0,0:0:0:0:
153,192,114135,1,0,0:0:0:0:
256,192,114161,1,0,0:0:0:0:
358,192,114188,1,0,0:0:0:0:
460,192,114214,1,0,0:0:0:0:
358,192,114240,1,0,0:0:0:0:
256,192,114267,1,0,0:0:0:0:
153,192,114293,1,0,0:0:0:0:
51,192,114319,1,0,0:0:0:0:
460,192,114319,1,0,0:0:0:0:
51,192,114530,128,0,115793:0:0:0:0:
153,192,114530,1,0,0:0:0:0:
460,192,114530,128,0,114635:0:0:0:0:
256,192,114530,1,0,0:0:0:0:
153,192,114635,1,0,0:0:0:0:
358,192,114635,1,0,0:0:0:0:
256,192,114635,1,0,0:0:0:0:
153,192,114740,1,0,0:0:0:0:
460,192,114740,1,0,0:0:0:0:
460,192,114846,1,0,0:0:0:0:
153,192,114846,128,0,114951:0:0:0:0:
256,192,114846,1,0,0:0:0:0:
358,192,114846,1,0,0:0:0:0:
358,192,114951,1,0,0:0:0:0:
460,192,114951,1,0,0:0:0:0:
153,192,115056,1,0,0:0:0:0:
256,192,115056,1,0,0:0:0:0:
460,192,115056,1,0,0:0:0:0:
256,192,115161,128,0,115267:0:0:0:0:
358,192,115161,1,0,0:0:0:0:
153,192,115161,1,0,0:0:0:0:
460,192,115267,1,0,0:0:0:0:
358,192,115267,1,0,0:0:0:0:
153,192,115267,1,0,0:0:0:0:
358,192,115372,128,0,115477:0:0:0:0:
256,192,115372,1,0,0:0:0:0:
460,192,115372,1,0,0:0:0:0:
153,192,115477,1,0,0:0:0:0:
256,192,115477,1,0,0:0:0:0:
460,192,115477,1,0,0:0:0:0:
358,192,115582,1,0,0:0:0:0:
153,192,115582,1,0,0:0:0:0:
153,192,115688,128,0,115793:0:0:0:0:
256,192,115688,1,0,0:0:0:0:
358,192,115688,1,0,0:0:0:0:
460,192,115688,1,0,0:0:0:0:
460,192,115793,128,0,116214:0:0:0:0:
256,192,115793,1,0,0:0:0:0:
358,192,115793,1,0,0:0:0:0:
153,192,115898,1,0,0:0:0:0:
51,192,115898,1,0,0:0:0:0:
358,192,115898,1,0,0:0:0:0:
358,192,116004,128,0,116109:0:0:0:0:
153,192,116004,1,0,0:0:0:0:
51,192,116004,1,0,0:0:0:0:
51,192,116109,1,0,0:0:0:0:
256,192,116109,1,0,0:0:0:0:
153,192,116161,1,0,0:0:0:0:
256,192,116214,128,0,117056:0:0:0:0:
51,192,116214,128,0,116319:0:0:0:0:
358,192,116214,1,0,0:0:0:0:
153,192,116319,1,0,0:0:0:0:
358,192,116319,1,0,0:0:0:0:
460,192,116319,1,0,0:0:0:0:
51,192,116425,1,0,0:0:0:0:
460,192,116425,1,0,0:0:0:0:
460,192,116530,128,0,116635:0:0:0:0:
358,192,116530,1,0,0:0:0:0:
153,192,116530,1,0,0:0:0:0:
51,192,116530,1,0,0:0:0:0:
153,192,116635,1,0,0:0:0:0:
358,192,116635,1,0,0:0:0:0:
51,192,116740,1,0,0:0:0:0:
153,192,116740,1,0,0:0:0:0:
460,192,116740,1,0,0:0:0:0:
358,192,116846,128,0,116951:0:0:0:0:
153,192,116846,1,0,0:0:0:0:
51,192,116846,1,0,0:0:0:0:
153,192,116951,1,0,0:0:0:0:
51,192,116951,1,0,0:0:0:0:
460,192,116951,1,0,0:0:0:0:
153,192,117056,128,0,117898:0:0:0:0:
51,192,117056,128,0,117161:0:0:0:0:
358,192,117056,1,0,0:0:0:0:
460,192,117056,1,0,0:0:0:0:
256,192,117161,1,0,0:0:0:0:
358,192,117161,1,0,0:0:0:0:
460,192,117161,1,0,0:0:0:0:
256,192,117267,1,0,0:0:0:0:
51,192,117267,1,0,0:0:0:0:
460,192,117372,128,0,117477:0:0:0:0:
358,192,117372,1,0,0:0:0:0:
256,192,117372,1,0,0:0:0:0:
51,192,117372,1,0,0:0:0:0:
358,192,117477,1,0,0:0:0:0:
51,192,117477,1,0,0:0:0:0:
358,192,117582,1,0,0:0:0:0:
460,192,117582,1,0,0:0:0:0:
256,192,117582,1,0,0:0:0:0:
256,192,117688,128,0,117793:0:0:0:0:
51,192,117688,1,0,0:0:0:0:
358,192,117688,1,0,0:0:0:0:
460,192,117793,1,0,0:0:0:0:
358,192,117793,1,0,0:0:0:0:
51,192,117793,1,0,0:0:0:0:
51,192,117898,128,0,118740:0:0:0:0:
358,192,117898,128,0,118004:0:0:0:0:
256,192,117898,1,0,0:0:0:0:
460,192,117898,1,0,0:0:0:0:
153,192,118004,1,0,0:0:0:0:
256,192,118004,1,0,0:0:0:0:
460,192,118004,1,0,0:0:0:0:
358,192,118109,1,0,0:0:0:0:
256,192,118109,1,0,0:0:0:0:
460,192,118214,128,0,118319:0:0:0:0:
358,192,118214,1,0,0:0:0:0:
256,192,118214,1,0,0:0:0:0:
153,192,118214,1,0,0:0:0:0:
358,192,118319,1,0,0:0:0:0:
153,192,118319,1,0,0:0:0:0:
153,192,118425,1,0,0:0:0:0:
256,192,118425,1,0,0:0:0:0:
460,192,118425,1,0,0:0:0:0:
358,192,118530,128,0,118635:0:0:0:0:
460,192,118530,1,0,0:0:0:0:
153,192,118530,1,0,0:0:0:0:
460,192,118635,1,0,0:0:0:0:
256,192,118635,1,0,0:0:0:0:
153,192,118635,1,0,0:0:0:0:
256,192,118740,128,0,119582:0:0:0:0:
153,192,118740,128,0,118846:0:0:0:0:
358,192,118740,1,0,0:0:0:0:
460,192,118740,1,0,0:0:0:0:
460,192,118846,1,0,0:0:0:0:
358,192,118846,1,0,0:0:0:0:
51,192,118846,1,0,0:0:0:0:
51,192,118951,1,0,0:0:0:0:
358,192,118951,1,0,0:0:0:0:
51,192,119056,128,0,119161:0:0:0:0:
153,192,119056,1,0,0:0:0:0:
358,192,119056,1,0,0:0:0:0:
460,192,119056,1,0,0:0:0:0:
358,192,119161,1,0,0:0:0:0:
460,192,119161,1,0,0:0:0:0:
460,192,119267,1,0,0:0:0:0:
153,192,119267,1,0,0:0:0:0:
51,192,119267,1,0,0:0:0:0:
358,192,119372,1,0,0:0:0:0:
153,192,119372,128,0,119477:0:0:0:0:
460,192,119372,1,0,0:0:0:0:
51,192,119425,1,0,0:0:0:0:
358,192,119477,1,0,0:0:0:0:
460,192,119477,1,0,0:0:0:0:
51,192,119530,1,0,0:0:0:0:
358,192,119582,128,0,120425:0:0:0:0:
460,192,119582,128,0,119688:0:0:0:0:
153,192,119582,1,0,0:0:0:0:
256,192,119688,1,0,0:0:0:0:
153,192,119688,1,0,0:0:0:0:
51,192,119688,1,0,0:0:0:0:
51,192,119793,1,0,0:0:0:0:
460,192,119793,1,0,0:0:0:0:
256,192,119898,128,0,120004:0:0:0:0:
51,192,119898,1,0,0:0:0:0:
153,192,119898,1,0,0:0:0:0:
460,192,119898,1,0,0:0:0:0:
153,192,120004,1,0,0:0:0:0:
460,192,120004,1,0,0:0:0:0:
51,192,120056,1,0,0:0:0:0:
460,192,120109,1,0,0:0:0:0:
153,192,120109,1,0,0:0:0:0:
256,192,120109,1,0,0:0:0:0:
51,192,120214,128,0,120319:0:0:0:0:
460,192,120214,1,0,0:0:0:0:
256,192,120214,1,0,0:0:0:0:
153,192,120319,1,0,0:0:0:0:
256,192,120319,1,0,0:0:0:0:
460,192,120319,1,0,0:0:0:0:
460,192,120425,128,0,120846:0:0:0:0:
256,192,120425,128,0,120530:0:0:0:0:
153,192,120425,1,0,0:0:0:0:
51,192,120425,1,0,0:0:0:0:
51,192,120530,1,0,0:0:0:0:
358,192,120530,1,0,0:0:0:0:
153,192,120582,1,0,0:0:0:0:
51,192,120635,1,0,0:0:0:0:
358,192,120635,1,0,0:0:0:0:
256,192,120688,1,0,0:0:0:0:
358,192,120740,128,0,120846:0:0:0:0:
153,192,120740,1,0,0:0:0:0:
51,192,120740,1,0,0:0:0:0:
153,192,120846,1,0,0:0:0:0:
51,192,120846,1,0,0:0:0:0:
256,192,120846,1,0,0:0:0:0:
51,192,121267,128,0,122530:0:0:0:0:
153,192,121267,128,0,121372:0:0:0:0:
460,192,121267,1,0,0:0:0:0:
358,192,121267,1,0,0:0:0:0:
358,192,121372,1,0,0:0:0:0:
256,192,121372,1,0,0:0:0:0:
460,192,121372,1,0,0:0:0:0:
358,192,121477,1,0,0:0:0:0:
153,192,121477,1,0,0:0:0:0:
460,192,121582,128,0,121688:0:0:0:0:
358,192,121582,1,0,0:0:0:0:
256,192,121582,1,0,0:0:0:0:
153,192,121582,1,0,0:0:0:0:
256,192,121688,1,0,0:0:0:0:
153,192,121688,1,0,0:0:0:0:
153,192,121793,1,0,0:0:0:0:
358,192,121793,1,0,0:0:0:0:
460,192,121793,1,0,0:0:0:0:
358,192,121898,128,0,122004:0:0:0:0:
256,192,121898,1,0,0:0:0:0:
460,192,121898,1,0,0:0:0:0:
153,192,122004,1,0,0:0:0:0:
256,192,122004,1,0,0:0:0:0:
460,192,122004,1,0,0:0:0:0:
256,192,122109,128,0,122214:0:0:0:0:
358,192,122109,1,0,0:0:0:0:
460,192,122109,1,0,0:0:0:0:
460,192,122214,1,0,0:0:0:0:
358,192,122214,1,0,0:0:0:0:
153,192,122214,1,0,0:0:0:0:
358,192,122319,1,0,0:0:0:0:
153,192,122319,1,0,0:0:0:0:
153,192,122425,128,0,122530:0:0:0:0:
256,192,122425,1,0,0:0:0:0:
358,192,122425,1,0,0:0:0:0:
460,192,122425,1,0,0:0:0:0:
460,192,122530,128,0,122951:0:0:0:0:
358,192,122530,1,0,0:0:0:0:
256,192,122530,1,0,0:0:0:0:
153,192,122635,1,0,0:0:0:0:
51,192,122635,1,0,0:0:0:0:
256,192,122635,1,0,0:0:0:0:
256,192,122740,128,0,122846:0:0:0:0:
153,192,122740,1,0,0:0:0:0:
358,192,122740,1,0,0:0:0:0:
51,192,122846,1,0,0:0:0:0:
153,192,122846,1,0,0:0:0:0:
358,192,122846,1,0,0:0:0:0:
153,192,122951,128,0,123793:0:0:0:0:
358,192,122951,128,0,123056:0:0:0:0:
51,192,122951,1,0,0:0:0:0:
256,192,122951,1,0,0:0:0:0:
51,192,123056,1,0,0:0:0:0:
256,192,123056,1,0,0:0:0:0:
460,192,123056,1,0,0:0:0:0:
256,192,123161,1,0,0:0:0:0:
460,192,123161,1,0,0:0:0:0:
460,192,123267,128,0,123372:0:0:0:0:
358,192,123267,1,0,0:0:0:0:
256,192,123267,1,0,0:0:0:0:
51,192,123267,1,0,0:0:0:0:
51,192,123372,1,0,0:0:0:0:
358,192,123372,1,0,0:0:0:0:
256,192,123477,1,0,0:0:0:0:
460,192,123477,1,0,0:0:0:0:
51,192,123477,1,0,0:0:0:0:
358,192,123582,128,0,123688:0:0:0:0:
460,192,123582,1,0,0:0:0:0:
256,192,123582,1,0,0:0:0:0:
51,192,123688,1,0,0:0:0:0:
256,192,123688,1,0,0:0:0:0:
460,192,123688,1,0,0:0:0:0:
256,192,123793,128,0,124214:0:0:0:0:
460,192,123793,128,0,123898:0:0:0:0:
358,192,123793,1,0,0:0:0:0:
51,192,123793,1,0,0:0:0:0:
153,192,123898,1,0,0:0:0:0:
51,192,123898,1,0,0:0:0:0:
358,192,123898,1,0,0:0:0:0:
51,192,124004,1,0,0:0:0:0:
460,192,124004,1,0,0:0:0:0:
51,192,124109,128,0,124214:0:0:0:0:
153,192,124109,1,0,0:0:0:0:
358,192,124109,1,0,0:0:0:0:
460,192,124109,1,0,0:0:0:0:
358,192,124214,128,0,124635:0:0:0:0:
153,192,124214,1,0,0:0:0:0:
460,192,124214,1,0,0:0:0:0:
51,192,124319,1,0,0:0:0:0:
153,192,124319,1,0,0:0:0:0:
256,192,124319,1,0,0:0:0:0:
256,192,124425,1,0,0:0:0:0:
153,192,124425,128,0,124530:0:0:0:0:
51,192,124425,1,0,0:0:0:0:
460,192,124530,1,0,0:0:0:0:
256,192,124530,1,0,0:0:0:0:
51,192,124530,1,0,0:0:0:0:
460,192,124635,128,0,125477:0:0:0:0:
256,192,124635,128,0,124740:0:0:0:0:
153,192,124635,1,0,0:0:0:0:
51,192,124635,1,0,0:0:0:0:
51,192,124740,1,0,0:0:0:0:
153,192,124740,1,0,0:0:0:0:
358,192,124740,1,0,0:0:0:0:
153,192,124846,1,0,0:0:0:0:
256,192,124846,1,0,0:0:0:0:
358,192,124951,128,0,125056:0:0:0:0:
256,192,124951,1,0,0:0:0:0:
153,192,124951,1,0,0:0:0:0:
51,192,124951,1,0,0:0:0:0:
256,192,125056,1,0,0:0:0:0:
51,192,125056,1,0,0:0:0:0:
51,192,125161,1,0,0:0:0:0:
358,192,125161,1,0,0:0:0:0:
153,192,125161,1,0,0:0:0:0:
153,192,125267,128,0,125372:0:0:0:0:
358,192,125267,1,0,0:0:0:0:
256,192,125267,1,0,0:0:0:0:
51,192,125372,1,0,0:0:0:0:
256,192,125372,1,0,0:0:0:0:
358,192,125372,1,0,0:0:0:0:
51,192,125477,128,0,125582:0:0:0:0:
153,192,125477,1,0,0:0:0:0:
358,192,125477,1,0,0:0:0:0:
256,192,125477,128,0,126319:0:0:0:0:
153,192,125582,1,0,0:0:0:0:
358,192,125582,1,0,0:0:0:0:
460,192,125582,1,0,0:0:0:0:
358,192,125688,1,0,0:0:0:0:
51,192,125688,1,0,0:0:0:0:
153,192,125793,128,0,125898:0:0:0:0:
51,192,125793,1,0,0:0:0:0:
358,192,125793,1,0,0:0:0:0:
460,192,125793,1,0,0:0:0:0:
358,192,125898,1,0,0:0:0:0:
460,192,125898,1,0,0:0:0:0:
460,192,126004,1,0,0:0:0:0:
51,192,126004,1,0,0:0:0:0:
153,192,126004,1,0,0:0:0:0:
460,192,126109,128,0,126214:0:0:0:0:
153,192,126109,1,0,0:0:0:0:
358,192,126109,1,0,0:0:0:0:
51,192,126214,1,0,0:0:0:0:
153,192,126214,1,0,0:0:0:0:
358,192,126214,1,0,0:0:0:0:
358,192,126319,128,0,127161:0:0:0:0:
51,192,126319,128,0,126425:0:0:0:0:
153,192,126319,1,0,0:0:0:0:
460,192,126319,1,0,0:0:0:0:
256,192,126425,1,0,0:0:0:0:
460,192,126425,1,0,0:0:0:0:
51,192,126530,1,0,0:0:0:0:
153,192,126530,1,0,0:0:0:0:
460,192,126530,1,0,0:0:0:0:
51,192,126635,128,0,126740:0:0:0:0:
153,192,126635,1,0,0:0:0:0:
256,192,126635,1,0,0:0:0:0:
460,192,126740,1,0,0:0:0:0:
153,192,126740,1,0,0:0:0:0:
256,192,126793,1,0,0:0:0:0:
51,192,126846,1,0,0:0:0:0:
153,192,126898,1,0,0:0:0:0:
256,192,126951,128,0,127056:0:0:0:0:
460,192,126951,1,0,0:0:0:0:
51,192,127004,1,0,0:0:0:0:
153,192,127056,1,0,0:0:0:0:
256,192,127109,1,0,0:0:0:0:
51,192,127161,1,0,0:0:0:0:
460,192,127161,1,0,0:0:0:0:
153,192,127214,1,0,0:0:0:0:
256,192,127267,1,0,0:0:0:0:
358,192,127319,1,0,0:0:0:0:
153,192,127372,1,0,0:0:0:0:
51,192,127372,1,0,0:0:0:0:
256,192,127425,1,0,0:0:0:0:
358,192,127477,1,0,0:0:0:0:
460,192,127530,1,0,0:0:0:0:
51,192,127582,1,0,0:0:0:0:
153,192,127609,1,0,0:0:0:0:
256,192,127635,1,0,0:0:0:0:
358,192,127661,1,0,0:0:0:0:
460,192,127688,1,0,0:0:0:0:
358,192,127714,1,0,0:0:0:0:
256,192,127740,1,0,0:0:0:0:
153,192,127767,1,0,0:0:0:0:
51,192,127793,1,0,0:0:0:0:
153,192,127819,1,0,0:0:0:0:
256,192,127846,1,0,0:0:0:0:
358,192,127872,1,0,0:0:0:0:
460,192,127898,1,0,0:0:0:0:
358,192,127925,1,0,0:0:0:0:
256,192,127951,1,0,0:0:0:0:
153,192,127977,1,0,0:0:0:0:
51,192,128004,1,0,0:0:0:0:
358,192,128004,1,0,0:0:0:0:
460,192,128004,1,0,0:0:0:0:
