osu file format v14

[General]
AudioFilename: [W9S2015] Icicle Stinger [BGA].mp3
AudioLeadIn: 0
PreviewTime: 39727
Countdown: 0
SampleSet: Normal
StackLeniency: 0.7
Mode: 1
LetterboxInBreaks: 0
WidescreenStoryboard: 0

[Editor]
DistanceSpacing: 0.6
BeatDivisor: 4
GridSize: 32
TimelineZoom: 2.3

[Metadata]
Title:Icicle Stinger
TitleUnicode:Icicle Stinger
Artist:ROKINA
ArtistUnicode:ロキナ
Creator:EdamaMe411
Version:Oni
Source:BMS
Tags:BGA tasuke912 W9S2015
BeatmapID:765426
BeatmapSetID:345990

[Difficulty]
HPDrainRate:6
CircleSize:5
OverallDifficulty:6
ApproachRate:5
SliderMultiplier:1.2
SliderTickRate:1

[Events]
//Background and Video events
0,0,"43_z83atyuu7s.jpg",0,30
//Break Periods
//Storyboard Layer 0 (Background)
//Storyboard Layer 1 (Fail)
//Storyboard Layer 2 (Pass)
//Storyboard Layer 3 (Foreground)
//Storyboard Sound Samples

[TimingPoints]
143,210.526315789474,4,1,0,80,1,0
40564,-100,4,1,0,90,0,1
54037,-100,4,1,0,80,0,0
60985,-133.333333333333,4,1,0,80,0,0
74248,-117.647058823529,4,1,0,80,0,0
87721,-100,4,1,0,80,0,0
101195,-100,4,1,0,80,0,1
128143,-100,4,1,0,80,0,0

[HitObjects]
256,192,3511,5,8,0:0:0:0:
256,192,3932,1,8,0:0:0:0:
256,192,4353,1,8,0:0:0:0:
256,192,4774,1,8,0:0:0:0:
256,192,5195,1,8,0:0:0:0:
256,192,5616,1,8,0:0:0:0:
256,192,6037,1,0,0:0:0:0:
256,192,6143,1,0,0:0:0:0:
256,192,6248,1,8,0:0:0:0:
256,192,6458,1,8,0:0:0:0:
256,192,6564,1,8,0:0:0:0:
256,192,6669,1,8,0:0:0:0:
256,192,6879,1,4,0:0:0:0:
256,192,7090,1,0,0:0:0:0:
256,192,7195,1,0,0:0:0:0:
256,192,7406,1,8,0:0:0:0:
256,192,7511,1,0,0:0:0:0:
256,192,7721,1,0,0:0:0:0:
256,192,8037,1,0,0:0:0:0:
256,192,8353,1,8,0:0:0:0:
256,192,8564,1,0,0:0:0:0:
256,192,8774,1,8,0:0:0:0:
256,192,8879,1,8,0:0:0:0:
256,192,9090,1,0,0:0:0:0:
256,192,9195,1,8,0:0:0:0:
256,192,9406,1,0,0:0:0:0:
256,192,9721,1,8,0:0:0:0:
256,192,10037,1,2,0:0:0:0:
256,192,10248,1,4,0:0:0:0:
256,192,10458,1,0,0:0:0:0:
256,192,10564,1,0,0:0:0:0:
256,192,10774,1,8,0:0:0:0:
256,192,10879,1,0,0:0:0:0:
256,192,11090,1,4,0:0:0:0:
256,192,11300,1,8,0:0:0:0:
256,192,11406,1,8,0:0:0:0:
256,192,11616,1,0,0:0:0:0:
256,192,11721,1,8,0:0:0:0:
256,192,11932,1,4,0:0:0:0:
256,192,12143,1,2,0:0:0:0:
256,192,12353,1,4,0:0:0:0:
256,192,12564,1,8,0:0:0:0:
256,192,12774,1,4,0:0:0:0:
256,192,13616,1,0,0:0:0:0:
256,192,13721,1,8,0:0:0:0:
256,192,13827,1,0,0:0:0:0:
256,192,14037,1,0,0:0:0:0:
256,192,14143,1,8,0:0:0:0:
256,192,14353,1,8,0:0:0:0:
256,192,14564,1,8,0:0:0:0:
256,192,14774,1,8,0:0:0:0:
256,224,14879,1,0,0:0:0:0:
256,192,15090,1,0,0:0:0:0:
256,192,15195,1,8,0:0:0:0:
256,192,15406,1,8,0:0:0:0:
256,192,15721,1,0,0:0:0:0:
256,192,15827,1,8,0:0:0:0:
256,192,16037,1,8,0:0:0:0:
256,192,16248,1,8,0:0:0:0:
256,160,16353,1,0,0:0:0:0:
288,192,16458,1,0,0:0:0:0:
256,192,16564,1,12,0:0:0:0:
256,192,16985,1,0,0:0:0:0:
256,192,17090,1,8,0:0:0:0:
256,192,17300,1,8,0:0:0:0:
256,192,17406,1,0,0:0:0:0:
224,192,17511,1,2,0:0:0:0:
256,192,17827,1,0,0:0:0:0:
256,192,17932,1,0,0:0:0:0:
160,192,17985,1,0,0:0:0:0:
160,192,18037,1,0,0:0:0:0:
256,192,18143,1,8,0:0:0:0:
256,192,18353,1,8,0:0:0:0:
96,160,18458,1,0,0:0:0:0:
256,192,18669,1,0,0:0:0:0:
261,192,18774,1,8,0:0:0:0:
256,192,18879,1,0,0:0:0:0:
256,192,19090,1,0,0:0:0:0:
256,192,19195,1,8,0:0:0:0:
256,192,19406,1,8,0:0:0:0:
256,192,19511,1,0,0:0:0:0:
256,192,19721,1,0,0:0:0:0:
256,192,19932,1,12,0:0:0:0:
256,192,20353,1,4,0:0:0:0:
256,192,20564,1,8,0:0:0:0:
160,160,20669,1,8,0:0:0:0:
256,192,20774,1,0,0:0:0:0:
256,192,20879,1,0,0:0:0:0:
256,192,20985,1,8,0:0:0:0:
256,192,21195,1,0,0:0:0:0:
288,192,21300,1,0,0:0:0:0:
288,192,21406,1,0,0:0:0:0:
256,192,21616,1,8,0:0:0:0:
280,192,21827,1,8,0:0:0:0:
256,192,22037,1,0,0:0:0:0:
256,192,22248,1,8,0:0:0:0:
256,192,22458,1,0,0:0:0:0:
256,192,22564,1,0,0:0:0:0:
256,192,22669,1,8,0:0:0:0:
256,192,22879,1,0,0:0:0:0:
256,192,22985,1,0,0:0:0:0:
256,192,23090,1,0,0:0:0:0:
288,192,23195,1,0,0:0:0:0:
256,192,23300,1,12,0:0:0:0:
256,192,23721,1,4,0:0:0:0:
256,192,23932,1,8,0:0:0:0:
448,192,24037,1,8,0:0:0:0:
256,192,24143,1,0,0:0:0:0:
256,192,24248,1,0,0:0:0:0:
256,192,24353,1,8,0:0:0:0:
256,192,24564,1,0,0:0:0:0:
256,192,24774,1,8,0:0:0:0:
255,176,24879,1,8,0:0:0:0:
256,192,24984,1,0,0:0:0:0:
255,176,25195,1,8,0:0:0:0:
256,192,25405,1,0,0:0:0:0:
256,192,25511,1,0,0:0:0:0:
256,192,25616,1,0,0:0:0:0:
256,192,25721,1,0,0:0:0:0:
256,192,25827,1,8,0:0:0:0:
256,192,26037,1,0,0:0:0:0:
256,192,26143,1,0,0:0:0:0:
256,192,26248,1,12,0:0:0:0:
256,192,26879,1,12,0:0:0:0:
256,192,27090,1,0,0:0:0:0:
256,192,27300,1,8,0:0:0:0:
256,192,27511,1,0,0:0:0:0:
256,192,27616,1,0,0:0:0:0:
256,192,27721,1,8,0:0:0:0:
256,192,27932,1,8,0:0:0:0:
288,192,28037,1,8,0:0:0:0:
256,192,28143,1,0,0:0:0:0:
288,192,28248,1,0,0:0:0:0:
256,192,28353,1,8,0:0:0:0:
256,192,28564,1,8,0:0:0:0:
256,192,28774,1,0,0:0:0:0:
256,192,28985,1,8,0:0:0:0:
256,192,29090,1,8,0:0:0:0:
256,192,29195,1,8,0:0:0:0:
260,186,29406,1,8,0:0:0:0:
256,192,29616,1,0,0:0:0:0:
256,192,29721,1,0,0:0:0:0:
256,192,29827,1,8,0:0:0:0:
256,192,29932,1,8,0:0:0:0:
256,192,30037,1,0,0:0:0:0:
256,192,30248,1,8,0:0:0:0:
256,192,30458,1,0,0:0:0:0:
256,192,30669,1,8,0:0:0:0:
256,192,30775,1,8,0:0:0:0:
256,192,30880,1,0,0:0:0:0:
256,192,31090,1,8,0:0:0:0:
256,192,31300,1,0,0:0:0:0:
256,192,31406,1,0,0:0:0:0:
256,192,31512,1,0,0:0:0:0:
256,192,31721,1,8,0:0:0:0:
256,192,31932,1,0,0:0:0:0:
256,192,32143,1,0,0:0:0:0:
256,192,32248,1,0,0:0:0:0:
256,192,32353,1,8,0:0:0:0:
256,192,32458,1,0,0:0:0:0:
256,192,32564,1,8,0:0:0:0:
256,192,32774,1,0,0:0:0:0:
256,192,32985,1,8,0:0:0:0:
256,192,33196,1,0,0:0:0:0:
256,192,33300,1,0,0:0:0:0:
256,192,33406,1,8,0:0:0:0:
268,194,33827,1,0,0:0:0:0:
256,192,34037,1,8,0:0:0:0:
256,192,34248,1,0,0:0:0:0:
256,192,34353,1,0,0:0:0:0:
268,192,34458,1,8,0:0:0:0:
268,192,34669,1,0,0:0:0:0:
256,192,34774,1,0,0:0:0:0:
256,192,34879,1,8,0:0:0:0:
256,192,34985,1,8,0:0:0:0:
271,176,35090,1,8,0:0:0:0:
256,192,35300,1,8,0:0:0:0:
256,192,35511,1,0,0:0:0:0:
256,192,35721,1,8,0:0:0:0:
256,192,35827,1,0,0:0:0:0:
256,192,35932,1,8,0:0:0:0:
256,192,36143,1,2,0:0:0:0:
256,192,36353,1,8,0:0:0:0:
256,192,36458,1,8,0:0:0:0:
256,192,36564,1,0,0:0:0:0:
256,192,36669,1,0,0:0:0:0:
256,192,36774,1,2,0:0:0:0:
256,192,36985,1,12,0:0:0:0:
256,192,37195,1,0,0:0:0:0:
256,192,37406,1,0,0:0:0:0:
256,192,37511,1,8,0:0:0:0:
256,192,37616,1,0,0:0:0:0:
256,192,37827,1,8,0:0:0:0:
256,192,38037,1,0,0:0:0:0:
256,192,38248,1,8,0:0:0:0:
256,192,38353,1,8,0:0:0:0:
256,192,38459,1,0,0:0:0:0:
256,192,38669,1,8,0:0:0:0:
256,192,38879,1,0,0:0:0:0:
256,192,39090,1,12,0:0:0:0:
256,192,39300,1,0,0:0:0:0:
256,192,39406,1,0,0:0:0:0:
256,192,39511,1,0,0:0:0:0:
256,192,39616,1,0,0:0:0:0:
256,192,39721,1,12,0:0:0:0:
256,192,39932,1,4,0:0:0:0:
256,192,40143,1,12,0:0:0:0:
256,192,40564,1,4,0:0:0:0:
256,192,40774,1,8,0:0:0:0:
256,192,40879,1,0,0:0:0:0:
256,192,41090,1,0,0:0:0:0:
256,192,41195,1,8,0:0:0:0:
256,192,41406,1,0,0:0:0:0:
288,192,41458,1,0,0:0:0:0:
288,192,41511,1,0,0:0:0:0:
256,192,41616,1,8,0:0:0:0:
256,192,41721,1,0,0:0:0:0:
256,192,41932,1,0,0:0:0:0:
256,192,42037,1,8,0:0:0:0:
256,192,42248,1,0,0:0:0:0:
256,192,42458,1,8,0:0:0:0:
256,192,42564,1,8,0:0:0:0:
256,192,42774,1,0,0:0:0:0:
256,192,42879,1,8,0:0:0:0:
256,192,43090,1,0,0:0:0:0:
256,192,43300,1,8,0:0:0:0:
256,192,43406,1,8,0:0:0:0:
256,192,43511,1,0,0:0:0:0:
266,174,43564,1,0,0:0:0:0:
266,174,43616,1,0,0:0:0:0:
266,174,43721,1,8,0:0:0:0:
256,192,43932,1,0,0:0:0:0:
256,192,44143,1,8,0:0:0:0:
256,192,44248,1,0,0:0:0:0:
256,192,44458,1,0,0:0:0:0:
256,192,44564,1,8,0:0:0:0:
256,192,44774,1,0,0:0:0:0:
256,192,44827,1,0,0:0:0:0:
256,192,44879,1,0,0:0:0:0:
256,192,44985,1,8,0:0:0:0:
256,192,45090,1,0,0:0:0:0:
256,192,45300,1,0,0:0:0:0:
256,192,45406,1,8,0:0:0:0:
256,192,45511,1,8,0:0:0:0:
256,192,45616,1,0,0:0:0:0:
256,192,45827,1,8,0:0:0:0:
256,192,45932,1,0,0:0:0:0:
256,192,46143,1,0,0:0:0:0:
256,192,46248,1,8,0:0:0:0:
256,192,46458,1,12,0:0:0:0:
256,192,46669,1,0,0:0:0:0:
384,192,46879,1,8,0:0:0:0:
256,192,47090,1,8,0:0:0:0:
251,186,47195,1,8,0:0:0:0:
256,192,47300,1,0,0:0:0:0:
256,192,47511,1,8,0:0:0:0:
256,192,47616,1,0,0:0:0:0:
256,192,47827,1,0,0:0:0:0:
256,192,47932,1,8,0:0:0:0:
256,192,48143,1,0,0:0:0:0:
256,192,48195,1,0,0:0:0:0:
256,192,48248,1,0,0:0:0:0:
256,192,48353,1,8,0:0:0:0:
256,192,48458,1,8,0:0:0:0:
256,192,48564,1,0,0:0:0:0:
256,192,48774,1,8,0:0:0:0:
256,192,48985,1,0,0:0:0:0:
256,192,49195,1,8,0:0:0:0:
256,192,49300,1,8,0:0:0:0:
256,192,49511,1,0,0:0:0:0:
256,192,49616,1,8,0:0:0:0:
256,192,49827,1,0,0:0:0:0:
256,192,49932,1,8,0:0:0:0:
256,192,50143,1,2,0:0:0:0:
256,192,50248,1,0,0:0:0:0:
256,192,50300,1,0,0:0:0:0:
256,192,50353,1,0,0:0:0:0:
256,192,50458,1,8,0:0:0:0:
256,192,50669,1,0,0:0:0:0:
256,192,50879,1,8,0:0:0:0:
256,192,50985,1,0,0:0:0:0:
256,192,51195,1,0,0:0:0:0:
256,192,51300,1,8,0:0:0:0:
256,192,51511,1,0,0:0:0:0:
256,192,51564,1,0,0:0:0:0:
256,192,51616,1,0,0:0:0:0:
256,192,51721,1,8,0:0:0:0:
256,192,51827,1,0,0:0:0:0:
256,192,52037,1,0,0:0:0:0:
256,192,52143,1,8,0:0:0:0:
256,192,52353,1,4,0:0:0:0:
256,192,52564,1,8,0:0:0:0:
256,192,52669,1,8,0:0:0:0:
256,192,52774,1,0,0:0:0:0:
256,192,52880,1,0,0:0:0:0:
281,176,52985,1,8,0:0:0:0:
256,192,53195,1,8,0:0:0:0:
274,165,53248,1,8,0:0:0:0:
284,183,53300,1,8,0:0:0:0:
256,192,53406,1,0,0:0:0:0:
256,192,53511,1,0,0:0:0:0:
256,192,53616,1,8,0:0:0:0:
256,192,53827,1,8,0:0:0:0:
256,192,54037,1,4,0:0:0:0:
256,192,54143,12,4,59090,0:0:0:0:
256,192,59932,5,0,0:0:0:0:
256,192,60037,1,0,0:0:0:0:
256,192,60143,1,0,0:0:0:0:
256,192,60248,1,0,0:0:0:0:
256,192,60353,1,8,0:0:0:0:
256,192,60458,1,8,0:0:0:0:
256,192,60564,1,8,0:0:0:0:
256,192,60669,1,8,0:0:0:0:
256,192,60774,1,4,0:0:0:0:
256,192,62037,1,8,0:0:0:0:
256,192,62458,1,8,0:0:0:0:
256,192,63300,1,8,0:0:0:0:
256,192,64143,1,0,0:0:0:0:
256,192,64774,1,8,0:0:0:0:
64,192,64985,1,0,0:0:0:0:
288,192,65827,1,0,0:0:0:0:
288,192,66248,1,8,0:0:0:0:
256,192,66458,1,0,0:0:0:0:
256,192,66669,1,0,0:0:0:0:
256,192,67090,1,8,0:0:0:0:
256,192,67195,1,0,0:0:0:0:
256,192,67300,1,0,0:0:0:0:
256,192,67406,1,0,0:0:0:0:
256,192,67511,1,8,0:0:0:0:
288,192,67827,1,0,0:0:0:0:
256,192,68143,1,8,0:0:0:0:
256,192,69195,1,0,0:0:0:0:
256,192,70037,1,0,0:0:0:0:
256,192,70353,1,8,0:0:0:0:
256,192,70669,1,0,0:0:0:0:
256,192,70774,1,8,0:0:0:0:
256,192,70879,1,0,0:0:0:0:
256,192,71195,1,0,0:0:0:0:
256,192,71511,1,8,0:0:0:0:
256,192,71721,1,8,0:0:0:0:
256,192,72564,1,0,0:0:0:0:
256,192,72985,1,8,0:0:0:0:
256,192,73195,1,8,0:0:0:0:
224,192,73406,1,0,0:0:0:0:
64,160,73616,1,0,0:0:0:0:
256,192,73827,1,8,0:0:0:0:
256,192,74248,1,4,0:0:0:0:
256,192,74669,1,8,0:0:0:0:
256,192,74879,1,0,0:0:0:0:
256,192,74985,1,8,0:0:0:0:
256,192,75195,1,8,0:0:0:0:
256,192,75406,1,0,0:0:0:0:
256,192,75511,1,8,0:0:0:0:
256,192,75932,1,0,0:0:0:0:
128,160,76143,1,0,0:0:0:0:
256,192,76353,1,8,0:0:0:0:
256,192,76564,1,0,0:0:0:0:
256,192,76669,1,8,0:0:0:0:
256,192,76879,1,8,0:0:0:0:
256,192,76985,1,0,0:0:0:0:
265,195,77090,1,0,0:0:0:0:
256,192,77195,1,8,0:0:0:0:
256,192,77616,1,0,0:0:0:0:
128,160,77827,1,0,0:0:0:0:
256,192,78037,1,8,0:0:0:0:
256,192,78248,1,0,0:0:0:0:
256,192,78353,1,8,0:0:0:0:
256,192,78564,1,8,0:0:0:0:
256,192,78774,1,0,0:0:0:0:
256,192,78879,1,8,0:0:0:0:
256,192,79090,1,8,0:0:0:0:
256,192,79300,1,0,0:0:0:0:
256,192,79511,1,0,0:0:0:0:
256,192,79616,1,0,0:0:0:0:
256,192,79721,1,8,0:0:0:0:
256,192,79932,1,0,0:0:0:0:
256,192,80143,1,8,0:0:0:0:
256,192,80564,1,8,0:0:0:0:
256,192,80669,1,8,0:0:0:0:
256,192,80774,1,0,0:0:0:0:
256,192,80879,1,0,0:0:0:0:
256,192,80985,1,8,0:0:0:0:
256,192,81195,1,0,0:0:0:0:
256,192,81406,1,8,0:0:0:0:
256,192,81616,1,0,0:0:0:0:
256,192,81721,1,8,0:0:0:0:
256,192,81932,1,8,0:0:0:0:
256,192,82143,1,8,0:0:0:0:
256,192,82248,1,0,0:0:0:0:
256,192,82353,1,0,0:0:0:0:
256,192,82458,1,8,0:0:0:0:
256,192,82669,1,0,0:0:0:0:
256,192,82879,1,0,0:0:0:0:
256,192,83090,1,8,0:0:0:0:
160,224,83195,1,0,0:0:0:0:
256,192,83300,1,0,0:0:0:0:
256,192,83406,1,8,0:0:0:0:
256,192,83511,1,8,0:0:0:0:
256,192,83721,1,0,0:0:0:0:
256,192,83827,1,0,0:0:0:0:
256,192,83932,1,0,0:0:0:0:
256,192,84143,1,8,0:0:0:0:
256,192,84353,1,0,0:0:0:0:
256,192,84564,1,8,0:0:0:0:
256,192,84669,1,0,0:0:0:0:
256,192,84879,1,0,0:0:0:0:
256,192,84985,1,8,0:0:0:0:
256,192,85195,1,8,0:0:0:0:
256,192,85406,1,8,0:0:0:0:
256,192,85511,1,8,0:0:0:0:
256,192,85721,1,0,0:0:0:0:
256,192,85827,1,8,0:0:0:0:
256,192,86037,1,0,0:0:0:0:
256,192,86143,1,8,0:0:0:0:
256,192,86248,1,8,0:0:0:0:
256,192,86353,1,0,0:0:0:0:
256,192,86564,1,0,0:0:0:0:
245,169,86669,1,8,0:0:0:0:
256,192,86879,1,8,0:0:0:0:
275,178,86985,1,8,0:0:0:0:
256,192,87090,1,0,0:0:0:0:
256,192,87195,1,0,0:0:0:0:
256,192,87300,1,8,0:0:0:0:
256,192,87511,1,8,0:0:0:0:
256,192,87721,1,4,0:0:0:0:
256,192,87932,1,8,0:0:0:0:
256,192,88037,1,0,0:0:0:0:
256,192,88248,1,0,0:0:0:0:
256,192,88353,1,8,0:0:0:0:
256,192,88564,1,0,0:0:0:0:
256,192,88879,1,8,0:0:0:0:
128,192,89195,1,2,0:0:0:0:
256,192,89406,1,4,0:0:0:0:
256,192,89616,1,8,0:0:0:0:
256,192,89721,1,0,0:0:0:0:
256,192,89932,1,0,0:0:0:0:
256,192,90037,1,8,0:0:0:0:
256,192,90248,1,0,0:0:0:0:
256,192,90458,1,8,0:0:0:0:
256,192,90669,1,4,0:0:0:0:
256,192,91090,1,4,0:0:0:0:
256,192,91300,1,8,0:0:0:0:
256,192,91406,1,0,0:0:0:0:
256,192,91616,1,0,0:0:0:0:
256,192,91721,1,8,0:0:0:0:
256,192,91932,1,4,0:0:0:0:
256,192,92143,1,8,0:0:0:0:
256,192,92248,1,0,0:0:0:0:
256,192,92458,1,0,0:0:0:0:
256,192,92564,1,8,0:0:0:0:
256,192,92774,1,4,0:0:0:0:
256,192,92985,1,8,0:0:0:0:
256,192,93195,1,4,0:0:0:0:
256,192,93406,1,8,0:0:0:0:
256,192,93616,1,4,0:0:0:0:
256,160,93827,1,8,0:0:0:0:
256,192,94037,1,0,0:0:0:0:
256,192,94090,1,0,0:0:0:0:
224,160,94143,1,0,0:0:0:0:
256,192,94248,1,8,0:0:0:0:
256,192,94458,1,4,0:0:0:0:
256,192,94669,1,8,0:0:0:0:
256,192,94774,1,8,0:0:0:0:
256,192,94879,1,0,0:0:0:0:
256,192,95090,1,8,0:0:0:0:
256,192,95300,1,0,0:0:0:0:
256,192,95511,1,8,0:0:0:0:
256,192,95616,1,8,0:0:0:0:
256,192,95721,1,0,0:0:0:0:
256,192,95932,1,8,0:0:0:0:
256,192,96143,1,0,0:0:0:0:
256,192,96353,1,8,0:0:0:0:
256,192,96458,1,0,0:0:0:0:
256,192,96564,1,0,0:0:0:0:
256,192,96669,1,0,0:0:0:0:
256,192,96774,1,8,0:0:0:0:
256,192,96985,1,0,0:0:0:0:
256,192,97195,1,8,0:0:0:0:
256,192,97300,1,8,0:0:0:0:
256,192,97406,1,0,0:0:0:0:
256,192,97511,1,0,0:0:0:0:
256,192,97616,1,8,0:0:0:0:
256,192,97827,1,8,0:0:0:0:
256,192,97932,1,0,0:0:0:0:
256,192,98037,1,0,0:0:0:0:
256,192,98143,1,0,0:0:0:0:
256,192,98248,1,8,0:0:0:0:
256,192,98353,1,8,0:0:0:0:
256,192,98458,1,0,0:0:0:0:
256,192,98564,1,0,0:0:0:0:
256,192,98669,1,8,0:0:0:0:
256,192,98774,1,0,0:0:0:0:
256,192,98879,1,8,0:0:0:0:
256,192,99090,1,8,0:0:0:0:
256,192,99143,1,8,0:0:0:0:
256,192,99195,1,8,0:0:0:0:
256,192,99300,1,0,0:0:0:0:
256,192,99511,1,8,0:0:0:0:
256,192,100985,1,12,0:0:0:0:
256,192,101195,1,4,0:0:0:0:
256,192,101405,1,8,0:0:0:0:
256,192,101511,1,0,0:0:0:0:
256,192,101721,1,0,0:0:0:0:
256,192,101826,1,8,0:0:0:0:
256,192,102037,1,0,0:0:0:0:
256,192,102090,1,0,0:0:0:0:
256,192,102143,1,0,0:0:0:0:
256,192,102247,1,8,0:0:0:0:
256,192,102352,1,0,0:0:0:0:
256,192,102564,1,0,0:0:0:0:
256,192,102668,1,8,0:0:0:0:
256,192,102879,1,0,0:0:0:0:
256,192,103089,1,8,0:0:0:0:
256,192,103195,1,8,0:0:0:0:
256,192,103406,1,0,0:0:0:0:
256,192,103510,1,8,0:0:0:0:
256,192,103721,1,0,0:0:0:0:
256,192,103827,1,0,0:0:0:0:
256,192,103879,1,0,0:0:0:0:
256,192,103931,1,0,0:0:0:0:
256,192,104037,1,8,0:0:0:0:
256,192,104143,1,0,0:0:0:0:
256,192,104352,1,8,0:0:0:0:
256,192,104563,1,0,0:0:0:0:
256,192,104774,1,8,0:0:0:0:
256,192,104879,1,0,0:0:0:0:
256,192,105090,1,0,0:0:0:0:
256,192,105195,1,8,0:0:0:0:
256,192,105405,1,0,0:0:0:0:
256,192,105458,1,0,0:0:0:0:
256,192,105510,1,0,0:0:0:0:
256,192,105616,1,8,0:0:0:0:
256,192,105721,1,0,0:0:0:0:
256,192,105932,1,0,0:0:0:0:
256,192,106037,1,8,0:0:0:0:
256,192,106247,1,0,0:0:0:0:
256,192,106458,1,8,0:0:0:0:
256,192,106564,1,0,0:0:0:0:
256,192,106668,1,0,0:0:0:0:
256,192,106774,1,0,0:0:0:0:
256,192,106879,1,8,0:0:0:0:
254,178,106985,1,0,0:0:0:0:
251,178,107090,1,8,0:0:0:0:
128,192,107300,1,8,0:0:0:0:
128,192,107406,1,8,0:0:0:0:
256,192,107511,1,0,0:0:0:0:
256,192,107721,1,8,0:0:0:0:
256,192,107931,1,0,0:0:0:0:
256,192,108142,1,8,0:0:0:0:
256,192,108248,1,0,0:0:0:0:
256,160,108300,1,0,0:0:0:0:
256,192,108352,1,0,0:0:0:0:
256,160,108458,1,0,0:0:0:0:
256,192,108563,1,8,0:0:0:0:
256,192,108774,1,0,0:0:0:0:
256,160,108879,1,0,0:0:0:0:
256,192,108984,1,8,0:0:0:0:
256,192,109089,1,0,0:0:0:0:
256,192,109300,1,0,0:0:0:0:
256,192,109405,1,8,0:0:0:0:
256,192,109616,1,0,0:0:0:0:
256,192,109826,1,8,0:0:0:0:
256,128,109932,1,8,0:0:0:0:
256,192,110037,1,0,0:0:0:0:
256,192,110090,1,0,0:0:0:0:
288,160,110143,1,0,0:0:0:0:
256,192,110247,1,8,0:0:0:0:
256,192,110458,1,0,0:0:0:0:
256,192,110564,1,0,0:0:0:0:
256,192,110668,1,8,0:0:0:0:
256,192,110774,1,8,0:0:0:0:
256,192,110985,1,0,0:0:0:0:
256,192,111089,1,8,0:0:0:0:
256,192,111300,1,8,0:0:0:0:
256,192,111510,1,8,0:0:0:0:
256,192,111616,1,0,0:0:0:0:
256,192,111669,1,0,0:0:0:0:
256,192,111721,1,0,0:0:0:0:
288,192,111827,1,0,0:0:0:0:
256,192,111931,1,8,0:0:0:0:
256,192,112142,1,0,0:0:0:0:
288,160,112248,1,0,0:0:0:0:
256,192,112353,1,8,0:0:0:0:
256,192,112458,1,0,0:0:0:0:
256,192,112669,1,0,0:0:0:0:
256,192,112774,1,8,0:0:0:0:
256,192,112985,1,0,0:0:0:0:
256,192,113090,1,0,0:0:0:0:
256,192,113195,1,8,0:0:0:0:
256,192,113248,1,8,0:0:0:0:
256,192,113300,1,8,0:0:0:0:
256,192,113405,1,0,0:0:0:0:
256,192,113616,1,0,0:0:0:0:
256,192,113827,1,8,0:0:0:0:
256,192,114037,1,0,0:0:0:0:
256,192,114248,1,6,0:0:0:0:
256,192,114668,1,4,0:0:0:0:
256,192,114879,1,8,0:0:0:0:
256,192,114985,1,0,0:0:0:0:
256,192,115195,1,0,0:0:0:0:
256,192,115300,1,8,0:0:0:0:
235,174,115406,1,8,0:0:0:0:
256,192,115511,1,0,0:0:0:0:
256,192,115564,1,0,0:0:0:0:
256,192,115616,1,8,0:0:0:0:
256,192,115721,1,8,0:0:0:0:
256,192,115827,1,0,0:0:0:0:
256,192,116037,1,0,0:0:0:0:
256,192,116142,1,8,0:0:0:0:
256,192,116353,1,0,0:0:0:0:
256,192,116563,1,8,0:0:0:0:
256,192,116669,1,8,0:0:0:0:
256,192,116879,1,0,0:0:0:0:
256,192,116984,1,8,0:0:0:0:
256,192,117195,1,0,0:0:0:0:
256,192,117300,1,0,0:0:0:0:
256,192,117353,1,0,0:0:0:0:
256,192,117405,1,0,0:0:0:0:
256,192,117511,1,8,0:0:0:0:
256,192,117616,1,0,0:0:0:0:
262,178,117721,1,0,0:0:0:0:
256,192,117826,1,8,0:0:0:0:
256,192,118037,1,0,0:0:0:0:
256,192,118248,1,8,0:0:0:0:
256,192,118353,1,0,0:0:0:0:
256,192,118564,1,0,0:0:0:0:
256,192,118669,1,8,0:0:0:0:
267,178,118774,1,8,0:0:0:0:
256,192,118879,1,0,0:0:0:0:
256,192,118984,1,0,0:0:0:0:
256,192,119037,1,0,0:0:0:0:
256,192,119090,1,8,0:0:0:0:
256,192,119195,1,0,0:0:0:0:
256,192,119406,1,0,0:0:0:0:
256,160,119511,1,8,0:0:0:0:
256,192,119721,1,0,0:0:0:0:
256,192,119932,1,8,0:0:0:0:
256,160,120037,1,8,0:0:0:0:
288,160,120248,1,8,0:0:0:0:
256,192,120353,1,0,0:0:0:0:
256,192,120458,1,0,0:0:0:0:
256,192,120564,1,8,0:0:0:0:
224,160,120774,1,0,0:0:0:0:
256,192,120879,1,8,0:0:0:0:
256,192,120985,1,0,0:0:0:0:
256,192,121195,1,12,0:0:0:0:
256,192,121405,1,0,0:0:0:0:
256,160,121511,1,0,0:0:0:0:
288,160,121564,1,0,0:0:0:0:
256,192,121616,1,8,0:0:0:0:
256,192,121721,1,0,0:0:0:0:
256,192,121826,1,8,0:0:0:0:
256,192,122037,1,8,0:0:0:0:
256,192,122248,1,0,0:0:0:0:
256,192,122353,1,8,0:0:0:0:
256,192,122458,1,0,0:0:0:0:
256,192,122564,1,0,0:0:0:0:
256,192,122669,1,8,0:0:0:0:
256,192,122774,1,0,0:0:0:0:
256,192,122879,1,8,0:0:0:0:
256,192,123090,1,0,0:0:0:0:
288,128,123143,1,0,0:0:0:0:
288,128,123195,1,0,0:0:0:0:
256,192,123300,1,8,0:0:0:0:
256,192,123406,1,0,0:0:0:0:
256,192,123616,1,0,0:0:0:0:
256,192,123721,1,8,0:0:0:0:
160,192,123827,1,0,0:0:0:0:
288,192,123932,1,8,0:0:0:0:
256,192,124142,1,0,0:0:0:0:
256,192,124248,1,0,0:0:0:0:
288,192,124353,1,8,0:0:0:0:
256,192,124406,1,8,0:0:0:0:
288,192,124458,1,8,0:0:0:0:
256,192,124563,1,0,0:0:0:0:
256,192,124669,1,0,0:0:0:0:
256,192,124774,1,12,0:0:0:0:
266,194,124985,1,8,0:0:0:0:
256,192,125090,1,0,0:0:0:0:
269,185,125300,1,0,0:0:0:0:
256,192,125406,1,8,0:0:0:0:
256,192,125616,1,4,0:0:0:0:
256,192,125826,1,0,0:0:0:0:
256,192,125932,1,8,0:0:0:0:
256,192,126143,1,8,0:0:0:0:
256,192,126248,1,8,0:0:0:0:
96,192,126353,1,0,0:0:0:0:
256,192,126458,1,0,0:0:0:0:
128,160,126564,1,8,0:0:0:0:
256,192,126774,1,8,0:0:0:0:
128,96,126879,1,0,0:0:0:0:
128,96,126932,1,0,0:0:0:0:
256,192,126985,1,0,0:0:0:0:
256,192,127090,1,8,0:0:0:0:
256,192,127300,1,0,0:0:0:0:
256,192,127406,1,0,0:0:0:0:
256,192,127511,1,8,0:0:0:0:
256,192,127616,1,8,0:0:0:0:
256,192,127721,1,0,0:0:0:0:
128,160,127774,1,0,0:0:0:0:
128,160,127827,1,0,0:0:0:0:
256,192,127932,1,8,0:0:0:0:
256,192,128142,1,4,0:0:0:0:
