osu file format v14

[General]
AudioFilename: [W9S2015] Icicle Stinger [BGA].mp3
AudioLeadIn: 0
PreviewTime: 39727
Countdown: 0
SampleSet: Normal
StackLeniency: 0.7
Mode: 1
LetterboxInBreaks: 0
WidescreenStoryboard: 0

[Editor]
DistanceSpacing: 0.6
BeatDivisor: 4
GridSize: 32
TimelineZoom: 1.4

[Metadata]
Title:Icicle Stinger
TitleUnicode:Icicle Stinger
Artist:ROKINA
ArtistUnicode:ロキナ
Creator:EdamaMe411
Version:Muzukashii
Source:BMS
Tags:BGA tasuke912 W9S2015
BeatmapID:765377
BeatmapSetID:345990

[Difficulty]
HPDrainRate:5
CircleSize:5
OverallDifficulty:5
ApproachRate:5
SliderMultiplier:1
SliderTickRate:1

[Events]
//Background and Video events
0,0,"43_z83atyuu7s.jpg",0,30
//Break Periods
//Storyboard Layer 0 (Background)
//Storyboard Layer 1 (Fail)
//Storyboard Layer 2 (Pass)
//Storyboard Layer 3 (Foreground)
//Storyboard Sound Samples

[TimingPoints]
143,210.526315789474,4,1,0,80,1,0
40564,-100,4,1,0,90,0,1
54037,-100,4,1,0,80,0,0
101195,-100,4,1,0,90,0,1
128143,-100,4,1,0,80,0,0

[HitObjects]
256,192,3511,5,2,0:0:0:0:
256,192,3932,1,8,0:0:0:0:
256,192,4353,1,2,0:0:0:0:
256,192,4774,1,8,0:0:0:0:
256,192,5195,1,2,0:0:0:0:
256,192,5616,1,2,0:0:0:0:
256,224,6037,1,0,0:0:0:0:
256,192,6248,1,0,0:0:0:0:
256,192,6458,1,2,0:0:0:0:
256,192,6879,1,4,0:0:0:0:
288,224,7511,1,2,0:0:0:0:
256,192,7721,1,0,0:0:0:0:
256,192,8143,1,0,0:0:0:0:
256,224,8564,1,2,0:0:0:0:
256,192,9195,1,0,0:0:0:0:
256,224,9406,1,0,0:0:0:0:
256,192,9827,1,2,0:0:0:0:
256,192,10037,1,0,0:0:0:0:
256,192,10248,1,0,0:0:0:0:
256,192,10669,1,2,0:0:0:0:
256,192,11090,1,0,0:0:0:0:
256,192,11511,1,2,0:0:0:0:
256,192,11932,1,0,0:0:0:0:
256,192,12353,1,0,0:0:0:0:
256,192,12774,1,4,0:0:0:0:
256,192,13616,1,0,0:0:0:0:
256,192,13721,1,8,0:0:0:0:
288,192,13827,1,0,0:0:0:0:
256,192,14037,1,0,0:0:0:0:
384,224,14143,1,8,0:0:0:0:
384,224,14353,1,8,0:0:0:0:
384,224,14564,1,8,0:0:0:0:
256,192,14774,1,8,0:0:0:0:
288,192,15090,1,0,0:0:0:0:
352,192,15195,1,8,0:0:0:0:
352,192,15406,1,8,0:0:0:0:
256,160,15721,1,0,0:0:0:0:
288,192,15827,1,8,0:0:0:0:
256,192,16037,1,8,0:0:0:0:
288,192,16248,1,8,0:0:0:0:
256,192,16353,1,0,0:0:0:0:
256,192,16564,1,2,0:0:0:0:
256,192,16985,1,0,0:0:0:0:
288,192,17090,1,8,0:0:0:0:
256,192,17300,1,8,0:0:0:0:
256,192,17511,1,8,0:0:0:0:
256,160,17827,1,0,0:0:0:0:
256,192,18037,1,0,0:0:0:0:
256,160,18143,1,8,0:0:0:0:
256,192,18353,1,8,0:0:0:0:
256,192,18669,1,0,0:0:0:0:
288,192,18774,1,8,0:0:0:0:
384,192,18879,1,0,0:0:0:0:
256,192,19090,1,0,0:0:0:0:
256,160,19195,1,8,0:0:0:0:
256,160,19406,1,8,0:0:0:0:
256,192,19511,1,0,0:0:0:0:
352,192,19721,1,0,0:0:0:0:
256,192,19932,1,2,0:0:0:0:
256,192,20353,5,0,0:0:0:0:
256,192,20564,1,8,0:0:0:0:
448,160,20669,1,8,0:0:0:0:
256,192,20774,1,0,0:0:0:0:
256,192,20985,1,2,0:0:0:0:
256,192,21195,1,0,0:0:0:0:
384,192,21406,1,8,0:0:0:0:
256,192,21616,1,0,0:0:0:0:
256,192,22037,1,0,0:0:0:0:
256,192,22248,1,8,0:0:0:0:
256,192,22458,1,0,0:0:0:0:
128,192,22564,1,0,0:0:0:0:
256,192,22669,1,8,0:0:0:0:
256,192,22879,1,0,0:0:0:0:
288,192,23090,1,8,0:0:0:0:
256,192,23300,1,2,0:0:0:0:
256,192,23721,1,0,0:0:0:0:
256,192,23932,1,8,0:0:0:0:
256,192,24037,1,8,0:0:0:0:
256,192,24143,1,0,0:0:0:0:
256,192,24353,1,0,0:0:0:0:
256,192,24564,1,8,0:0:0:0:
256,192,24774,1,0,0:0:0:0:
256,192,24985,1,8,0:0:0:0:
256,192,25406,1,0,0:0:0:0:
256,192,25511,1,0,0:0:0:0:
256,192,25616,1,0,0:0:0:0:
256,192,25827,1,8,0:0:0:0:
256,192,26037,1,0,0:0:0:0:
256,192,26248,1,6,0:0:0:0:
256,192,27090,1,4,0:0:0:0:
256,192,27511,1,0,0:0:0:0:
256,192,27721,1,8,0:0:0:0:
256,160,27932,1,0,0:0:0:0:
256,192,28037,1,0,0:0:0:0:
256,192,28143,1,0,0:0:0:0:
256,192,28353,1,8,0:0:0:0:
256,192,28564,1,2,0:0:0:0:
256,192,28774,1,0,0:0:0:0:
256,192,29195,1,8,0:0:0:0:
256,192,29406,1,0,0:0:0:0:
256,192,29616,1,2,0:0:0:0:
256,192,29721,1,8,0:0:0:0:
256,192,29827,1,8,0:0:0:0:
256,192,30037,1,2,0:0:0:0:
256,192,30458,1,0,0:0:0:0:
256,192,30669,1,0,0:0:0:0:
256,192,30879,1,8,0:0:0:0:
256,192,30985,1,8,0:0:0:0:
256,192,31090,1,8,0:0:0:0:
256,192,31300,1,0,0:0:0:0:
224,160,31511,1,0,0:0:0:0:
256,192,31721,1,8,0:0:0:0:
256,192,32143,1,0,0:0:0:0:
256,160,32353,1,0,0:0:0:0:
248,175,32458,1,0,0:0:0:0:
256,192,32564,1,0,0:0:0:0:
96,160,32774,1,0,0:0:0:0:
256,192,32985,1,8,0:0:0:0:
256,192,33195,1,0,0:0:0:0:
256,192,33406,1,6,0:0:0:0:
256,192,33827,1,0,0:0:0:0:
256,192,34248,1,0,0:0:0:0:
256,192,34458,1,8,0:0:0:0:
256,192,34669,1,0,0:0:0:0:
256,192,34774,1,0,0:0:0:0:
256,192,34880,1,0,0:0:0:0:
256,192,35090,1,8,0:0:0:0:
256,192,35300,1,0,0:0:0:0:
256,192,35511,1,0,0:0:0:0:
256,192,35932,1,8,0:0:0:0:
256,192,36143,1,0,0:0:0:0:
256,192,36353,1,0,0:0:0:0:
256,192,36458,1,0,0:0:0:0:
256,192,36564,1,0,0:0:0:0:
256,192,36774,1,8,0:0:0:0:
256,192,37195,1,8,0:0:0:0:
256,192,37300,1,8,0:0:0:0:
256,192,37406,1,8,0:0:0:0:
256,192,37616,1,8,0:0:0:0:
256,192,37827,1,0,0:0:0:0:
256,192,38037,1,0,0:0:0:0:
256,192,38143,1,0,0:0:0:0:
256,192,38248,1,0,0:0:0:0:
256,192,38458,1,8,0:0:0:0:
256,192,38879,1,4,0:0:0:0:
256,192,39300,1,12,0:0:0:0:
256,192,39721,1,4,0:0:0:0:
256,192,40564,5,4,0:0:0:0:
256,192,40774,1,0,0:0:0:0:
256,192,40879,1,0,0:0:0:0:
256,192,41090,1,0,0:0:0:0:
256,192,41195,1,8,0:0:0:0:
256,192,41406,1,0,0:0:0:0:
256,192,41721,1,0,0:0:0:0:
256,192,42037,1,8,0:0:0:0:
256,192,42248,1,0,0:0:0:0:
256,192,42458,1,8,0:0:0:0:
256,192,42564,1,0,0:0:0:0:
256,192,42774,1,0,0:0:0:0:
256,192,42879,1,2,0:0:0:0:
256,192,43090,1,0,0:0:0:0:
256,224,43406,1,8,0:0:0:0:
256,192,43721,1,0,0:0:0:0:
256,192,43932,1,0,0:0:0:0:
256,192,44143,1,0,0:0:0:0:
256,192,44248,1,0,0:0:0:0:
256,192,44458,1,0,0:0:0:0:
256,192,44564,1,2,0:0:0:0:
256,192,44774,1,0,0:0:0:0:
256,192,45090,1,0,0:0:0:0:
256,192,45406,1,0,0:0:0:0:
256,192,45616,1,2,0:0:0:0:
277,206,45827,1,8,0:0:0:0:
262,195,45932,1,0,0:0:0:0:
256,192,46143,1,0,0:0:0:0:
256,192,46248,1,8,0:0:0:0:
256,192,46458,1,6,0:0:0:0:
256,192,46879,1,2,0:0:0:0:
256,192,47090,1,2,0:0:0:0:
256,192,47300,1,0,0:0:0:0:
224,224,47511,1,0,0:0:0:0:
256,192,47616,1,8,0:0:0:0:
256,192,47827,1,0,0:0:0:0:
256,192,47932,1,8,0:0:0:0:
256,192,48143,1,0,0:0:0:0:
256,192,48458,1,0,0:0:0:0:
256,192,48774,1,2,0:0:0:0:
256,192,48985,1,0,0:0:0:0:
256,192,49195,1,8,0:0:0:0:
256,192,49300,1,0,0:0:0:0:
256,192,49511,1,0,0:0:0:0:
256,192,49616,1,2,0:0:0:0:
256,192,49827,1,0,0:0:0:0:
256,192,50143,1,2,0:0:0:0:
256,192,50458,1,0,0:0:0:0:
256,192,50669,1,8,0:0:0:0:
256,192,50879,1,0,0:0:0:0:
256,192,50985,1,8,0:0:0:0:
256,192,51195,1,0,0:0:0:0:
256,192,51300,1,8,0:0:0:0:
256,192,51511,1,0,0:0:0:0:
256,192,51827,1,0,0:0:0:0:
256,192,52143,1,2,0:0:0:0:
256,192,52353,1,0,0:0:0:0:
238,151,52564,1,8,0:0:0:0:
238,151,52669,1,8,0:0:0:0:
256,192,52879,1,0,0:0:0:0:
256,192,52985,1,8,0:0:0:0:
256,192,53195,1,0,0:0:0:0:
256,192,53511,1,2,0:0:0:0:
256,192,53827,1,2,0:0:0:0:
256,192,54037,1,4,0:0:0:0:
256,192,54458,12,0,59090,0:0:0:0:
256,192,60774,5,4,0:0:0:0:
256,192,62037,1,8,0:0:0:0:
256,192,62458,1,2,0:0:0:0:
251,202,63300,1,8,0:0:0:0:
256,192,64143,1,0,0:0:0:0:
256,192,64774,1,2,0:0:0:0:
256,192,65827,1,2,0:0:0:0:
288,192,66669,1,2,0:0:0:0:
224,160,67090,1,0,0:0:0:0:
256,192,67195,1,0,0:0:0:0:
320,192,67300,1,0,0:0:0:0:
288,160,67511,1,8,0:0:0:0:
256,192,67827,1,0,0:0:0:0:
256,192,68143,1,8,0:0:0:0:
256,192,69195,1,2,0:0:0:0:
256,192,70037,1,0,0:0:0:0:
256,192,70353,1,8,0:0:0:0:
256,192,70669,1,0,0:0:0:0:
256,192,70774,1,0,0:0:0:0:
256,192,70879,1,0,0:0:0:0:
288,192,71195,1,0,0:0:0:0:
256,192,71511,1,8,0:0:0:0:
256,192,71721,1,8,0:0:0:0:
256,192,72564,1,2,0:0:0:0:
288,192,73827,1,0,0:0:0:0:
256,192,74248,1,6,0:0:0:0:
224,192,74669,1,0,0:0:0:0:
256,192,74985,1,0,0:0:0:0:
256,192,75300,1,0,0:0:0:0:
256,192,75511,1,2,0:0:0:0:
256,192,75932,1,0,0:0:0:0:
256,192,76353,1,2,0:0:0:0:
256,192,76669,1,2,0:0:0:0:
256,192,76985,1,2,0:0:0:0:
256,192,77195,1,0,0:0:0:0:
256,192,77616,1,0,0:0:0:0:
256,192,78037,1,2,0:0:0:0:
256,160,78353,1,2,0:0:0:0:
192,192,78669,1,0,0:0:0:0:
256,192,78879,1,2,0:0:0:0:
256,192,79300,1,2,0:0:0:0:
224,192,79616,1,2,0:0:0:0:
256,192,79932,1,2,0:0:0:0:
256,192,80143,1,2,0:0:0:0:
256,192,80564,1,2,0:0:0:0:
256,192,80774,1,0,0:0:0:0:
256,192,80985,1,2,0:0:0:0:
256,192,81300,1,0,0:0:0:0:
256,192,81616,1,0,0:0:0:0:
256,192,81827,1,2,0:0:0:0:
256,192,82037,1,0,0:0:0:0:
256,192,82248,1,2,0:0:0:0:
256,192,82669,1,2,0:0:0:0:
256,192,82985,1,0,0:0:0:0:
256,192,83300,1,2,0:0:0:0:
256,192,83511,1,0,0:0:0:0:
128,160,83721,1,0,0:0:0:0:
256,192,83932,1,2,0:0:0:0:
256,192,84353,1,8,0:0:0:0:
256,192,84669,1,2,0:0:0:0:
256,192,84985,1,2,0:0:0:0:
256,192,85195,1,0,0:0:0:0:
256,192,85406,1,0,0:0:0:0:
256,192,85616,1,2,0:0:0:0:
256,192,86037,1,2,0:0:0:0:
256,192,86353,1,2,0:0:0:0:
256,160,86669,1,2,0:0:0:0:
256,192,86879,1,2,0:0:0:0:
256,192,86985,1,2,0:0:0:0:
256,192,87090,1,2,0:0:0:0:
256,224,87300,1,0,0:0:0:0:
256,192,87511,1,8,0:0:0:0:
256,192,87721,1,4,0:0:0:0:
288,192,88564,1,0,0:0:0:0:
256,192,89406,1,4,0:0:0:0:
288,192,90248,1,0,0:0:0:0:
256,192,90669,1,4,0:0:0:0:
256,192,91090,1,4,0:0:0:0:
256,192,91932,1,4,0:0:0:0:
256,192,92774,1,4,0:0:0:0:
256,192,93195,1,4,0:0:0:0:
256,192,93616,1,4,0:0:0:0:
256,192,93827,1,0,0:0:0:0:
256,192,94037,1,8,0:0:0:0:
256,192,94458,5,0,0:0:0:0:
256,192,94669,1,0,0:0:0:0:
256,192,94774,1,0,0:0:0:0:
256,192,94879,1,0,0:0:0:0:
256,192,95090,1,8,0:0:0:0:
256,192,95300,1,0,0:0:0:0:
256,192,95511,1,0,0:0:0:0:
256,192,95721,1,2,0:0:0:0:
256,192,96143,1,0,0:0:0:0:
256,192,96353,1,8,0:0:0:0:
256,192,96458,1,8,0:0:0:0:
256,192,96564,1,8,0:0:0:0:
256,192,96774,1,0,0:0:0:0:
256,192,96985,1,2,0:0:0:0:
256,192,97195,1,0,0:0:0:0:
256,192,97406,1,2,0:0:0:0:
256,192,97827,1,0,0:0:0:0:
256,192,98037,1,0,0:0:0:0:
256,192,98143,1,0,0:0:0:0:
256,192,98248,1,0,0:0:0:0:
256,192,98458,1,0,0:0:0:0:
256,192,98669,1,2,0:0:0:0:
256,192,98879,1,2,0:0:0:0:
256,192,98985,1,2,0:0:0:0:
256,192,99090,1,2,0:0:0:0:
256,192,99300,1,2,0:0:0:0:
256,192,100985,1,6,0:0:0:0:
256,192,101195,1,4,0:0:0:0:
256,192,101406,1,0,0:0:0:0:
256,192,101511,1,0,0:0:0:0:
288,192,101721,1,0,0:0:0:0:
288,192,101827,1,8,0:0:0:0:
256,192,102037,1,0,0:0:0:0:
256,192,102353,1,0,0:0:0:0:
256,192,102669,1,2,0:0:0:0:
256,192,102879,1,0,0:0:0:0:
256,192,103090,1,8,0:0:0:0:
256,192,103196,1,0,0:0:0:0:
256,192,103406,1,0,0:0:0:0:
256,192,103511,1,2,0:0:0:0:
256,192,103722,1,0,0:0:0:0:
256,224,104037,1,8,0:0:0:0:
256,192,104353,1,0,0:0:0:0:
256,192,104564,1,0,0:0:0:0:
256,192,104774,1,0,0:0:0:0:
256,192,104879,1,0,0:0:0:0:
256,192,105090,1,0,0:0:0:0:
256,192,105196,1,2,0:0:0:0:
256,192,105406,1,0,0:0:0:0:
256,192,105721,1,0,0:0:0:0:
288,192,106037,1,0,0:0:0:0:
256,192,106248,1,2,0:0:0:0:
256,224,106459,1,8,0:0:0:0:
256,224,106564,1,0,0:0:0:0:
256,192,106774,1,0,0:0:0:0:
256,192,106879,1,8,0:0:0:0:
256,192,107090,1,2,0:0:0:0:
256,192,107511,1,2,0:0:0:0:
256,192,107722,1,2,0:0:0:0:
256,192,107932,1,0,0:0:0:0:
224,224,108143,1,0,0:0:0:0:
256,192,108248,1,0,0:0:0:0:
256,192,108353,1,2,0:0:0:0:
256,192,108564,1,2,0:0:0:0:
256,192,108774,1,0,0:0:0:0:
256,192,109090,1,0,0:0:0:0:
256,192,109406,1,8,0:0:0:0:
256,192,109617,1,0,0:0:0:0:
256,192,109827,1,8,0:0:0:0:
256,192,109932,1,8,0:0:0:0:
256,192,110037,1,0,0:0:0:0:
256,192,110248,1,0,0:0:0:0:
256,192,110459,1,2,0:0:0:0:
256,192,110774,1,2,0:0:0:0:
256,192,111090,1,0,0:0:0:0:
256,192,111301,1,2,0:0:0:0:
256,192,111511,1,0,0:0:0:0:
256,192,111616,1,0,0:0:0:0:
256,192,111722,1,0,0:0:0:0:
288,192,111827,1,0,0:0:0:0:
256,192,111932,1,0,0:0:0:0:
256,192,112143,1,0,0:0:0:0:
256,192,112458,1,0,0:0:0:0:
256,192,112774,1,2,0:0:0:0:
256,192,112985,1,0,0:0:0:0:
256,192,113196,1,8,0:0:0:0:
256,192,113301,1,8,0:0:0:0:
256,192,113406,1,8,0:0:0:0:
288,192,113511,1,2,0:0:0:0:
256,192,113617,1,8,0:0:0:0:
256,192,113827,1,4,0:0:0:0:
256,192,114669,5,4,0:0:0:0:
256,192,114879,1,0,0:0:0:0:
256,192,114984,1,0,0:0:0:0:
288,192,115195,1,0,0:0:0:0:
288,192,115300,1,2,0:0:0:0:
256,192,115510,1,0,0:0:0:0:
256,192,115721,1,0,0:0:0:0:
256,192,115827,1,0,0:0:0:0:
256,192,115932,1,0,0:0:0:0:
256,192,116143,1,2,0:0:0:0:
256,192,116352,1,0,0:0:0:0:
256,192,116564,1,0,0:0:0:0:
256,192,116669,1,0,0:0:0:0:
256,192,116879,1,0,0:0:0:0:
256,192,116984,1,2,0:0:0:0:
256,192,117195,1,8,0:0:0:0:
256,224,117300,1,8,0:0:0:0:
256,192,117406,1,0,0:0:0:0:
256,192,117616,1,2,0:0:0:0:
256,192,118037,1,0,0:0:0:0:
224,192,118248,1,0,0:0:0:0:
256,192,118353,1,0,0:0:0:0:
256,192,118564,1,0,0:0:0:0:
256,192,118669,1,2,0:0:0:0:
256,192,118879,1,0,0:0:0:0:
256,192,119090,1,0,0:0:0:0:
256,224,119195,1,0,0:0:0:0:
256,224,119300,1,0,0:0:0:0:
192,192,119511,1,2,0:0:0:0:
256,192,119721,1,0,0:0:0:0:
275,198,119932,1,0,0:0:0:0:
275,198,120037,1,0,0:0:0:0:
256,192,120142,1,2,0:0:0:0:
256,192,120353,1,0,0:0:0:0:
256,192,120563,1,2,0:0:0:0:
256,192,120669,1,8,0:0:0:0:
256,192,120774,1,8,0:0:0:0:
256,192,120879,1,8,0:0:0:0:
256,192,120985,1,2,0:0:0:0:
256,192,121405,1,4,0:0:0:0:
224,224,121616,1,0,0:0:0:0:
256,192,121721,1,0,0:0:0:0:
256,192,121932,1,0,0:0:0:0:
256,192,122037,1,8,0:0:0:0:
256,192,122248,1,0,0:0:0:0:
256,192,122458,1,8,0:0:0:0:
260,198,122564,1,0,0:0:0:0:
256,192,122669,1,0,0:0:0:0:
256,192,122774,1,0,0:0:0:0:
256,192,122879,1,8,0:0:0:0:
256,192,123090,1,0,0:0:0:0:
256,192,123300,1,0,0:0:0:0:
256,192,123405,1,0,0:0:0:0:
256,192,123616,1,0,0:0:0:0:
256,192,123721,1,2,0:0:0:0:
256,192,123932,1,0,0:0:0:0:
256,192,124142,1,8,0:0:0:0:
256,192,124248,1,8,0:0:0:0:
256,192,124353,1,8,0:0:0:0:
256,192,124564,1,0,0:0:0:0:
288,192,124774,1,8,0:0:0:0:
256,192,125195,1,2,0:0:0:0:
256,192,125405,1,0,0:0:0:0:
288,128,125616,1,0,0:0:0:0:
256,192,125827,1,0,0:0:0:0:
256,192,125932,1,0,0:0:0:0:
256,192,126037,1,8,0:0:0:0:
256,192,126248,1,0,0:0:0:0:
256,192,126458,1,8,0:0:0:0:
256,192,126669,1,8,0:0:0:0:
256,192,126774,1,8,0:0:0:0:
256,192,126879,1,8,0:0:0:0:
256,192,127090,1,8,0:0:0:0:
256,192,127300,1,0,0:0:0:0:
256,192,127406,1,0,0:0:0:0:
256,192,127511,1,8,0:0:0:0:
256,192,127721,1,0,0:0:0:0:
256,192,127932,1,8,0:0:0:0:
256,192,128142,5,4,0:0:0:0:
