osu file format v14

[General]
AudioFilename: [W9S2015] Icicle Stinger [BGA].mp3
AudioLeadIn: 0
PreviewTime: 39727
Countdown: 0
SampleSet: Normal
StackLeniency: 0.7
Mode: 1
LetterboxInBreaks: 0
WidescreenStoryboard: 0

[Editor]
DistanceSpacing: 0.6
BeatDivisor: 4
GridSize: 32
TimelineZoom: 1.8

[Metadata]
Title:Icicle Stinger
TitleUnicode:Icicle Stinger
Artist:ROKINA
ArtistUnicode:ロキナ
Creator:EdamaMe411
Version:Inner Oni
Source:BMS
Tags:BGA tasuke912 W9S2015
BeatmapID:802293
BeatmapSetID:345990

[Difficulty]
HPDrainRate:6
CircleSize:5
OverallDifficulty:7
ApproachRate:5
SliderMultiplier:1.4
SliderTickRate:1

[Events]
//Background and Video events
0,0,"43_z83atyuu7s.jpg",0,30
//Break Periods
//Storyboard Layer 0 (Background)
//Storyboard Layer 1 (Fail)
//Storyboard Layer 2 (Pass)
//Storyboard Layer 3 (Foreground)
//Storyboard Sound Samples

[TimingPoints]
143,210.526315789474,4,1,0,80,1,0
40564,-100,4,1,0,90,0,1
54037,-100,4,1,0,80,0,0
60985,-133.333333333333,4,1,0,80,0,0
74248,-117.647058823529,4,1,0,80,0,0
87721,-100,4,1,0,80,0,0
101195,-100,4,1,0,90,0,1
128143,-100,4,1,0,90,0,0

[HitObjects]
256,192,3511,5,8,0:0:0:0:
256,192,3932,1,8,0:0:0:0:
256,192,4353,1,8,0:0:0:0:
256,192,4774,1,8,0:0:0:0:
256,192,5195,1,8,0:0:0:0:
256,192,5616,1,8,0:0:0:0:
256,192,6037,1,0,0:0:0:0:
256,192,6090,1,0,0:0:0:0:
256,192,6143,1,0,0:0:0:0:
256,192,6248,1,8,0:0:0:0:
256,192,6353,1,8,0:0:0:0:
256,192,6458,1,0,0:0:0:0:
256,192,6511,1,0,0:0:0:0:
256,192,6564,1,0,0:0:0:0:
256,192,6669,1,8,0:0:0:0:
256,192,6774,1,8,0:0:0:0:
256,192,6879,1,4,0:0:0:0:
256,192,7090,1,8,0:0:0:0:
256,192,7195,1,0,0:0:0:0:
256,192,7406,1,0,0:0:0:0:
256,192,7511,1,8,0:0:0:0:
256,192,7721,1,0,0:0:0:0:
256,192,7932,1,8,0:0:0:0:
256,192,8037,1,0,0:0:0:0:
256,192,8248,1,0,0:0:0:0:
256,192,8353,1,8,0:0:0:0:
256,192,8458,1,8,0:0:0:0:
256,192,8564,1,0,0:0:0:0:
256,192,8774,1,8,0:0:0:0:
256,192,8879,1,8,0:0:0:0:
256,192,9090,1,0,0:0:0:0:
256,192,9195,1,8,0:0:0:0:
256,192,9300,1,0,0:0:0:0:
256,192,9406,1,0,0:0:0:0:
256,192,9511,1,8,0:0:0:0:
256,192,9616,1,8,0:0:0:0:
256,192,9721,1,0,0:0:0:0:
256,192,9932,1,0,0:0:0:0:
256,192,10037,1,8,0:0:0:0:
256,192,10143,1,0,0:0:0:0:
256,192,10248,1,4,0:0:0:0:
256,160,10458,1,8,0:0:0:0:
256,192,10564,1,0,0:0:0:0:
256,192,10774,1,0,0:0:0:0:
256,192,10879,1,8,0:0:0:0:
256,192,11090,1,4,0:0:0:0:
256,192,11300,1,8,0:0:0:0:
256,192,11406,1,0,0:0:0:0:
256,192,11616,1,0,0:0:0:0:
256,192,11721,1,8,0:0:0:0:
256,192,11932,1,4,0:0:0:0:
256,160,12037,1,8,0:0:0:0:
256,160,12143,1,0,0:0:0:0:
256,160,12248,1,8,0:0:0:0:
256,192,12353,1,4,0:0:0:0:
256,160,12458,1,8,0:0:0:0:
256,160,12564,1,0,0:0:0:0:
256,160,12669,1,8,0:0:0:0:
256,192,12774,1,4,0:0:0:0:
256,192,13616,1,8,0:0:0:0:
256,192,13721,1,0,0:0:0:0:
256,192,13827,1,0,0:0:0:0:
256,192,13932,1,0,0:0:0:0:
256,192,14037,1,0,0:0:0:0:
256,192,14143,1,8,0:0:0:0:
256,192,14353,1,8,0:0:0:0:
256,192,14564,1,8,0:0:0:0:
256,192,14669,1,0,0:0:0:0:
256,192,14774,1,8,0:0:0:0:
256,192,14879,1,0,0:0:0:0:
256,192,14985,1,0,0:0:0:0:
256,192,15090,1,0,0:0:0:0:
256,192,15195,1,8,0:0:0:0:
256,192,15406,1,8,0:0:0:0:
256,160,15616,1,0,0:0:0:0:
256,192,15721,1,0,0:0:0:0:
256,192,15827,1,8,0:0:0:0:
256,192,16037,1,8,0:0:0:0:
256,192,16248,1,8,0:0:0:0:
256,192,16353,1,0,0:0:0:0:
256,192,16458,1,0,0:0:0:0:
256,192,16564,1,12,0:0:0:0:
256,192,16985,1,0,0:0:0:0:
256,192,17090,1,8,0:0:0:0:
256,192,17195,1,0,0:0:0:0:
256,192,17300,1,8,0:0:0:0:
256,192,17406,1,0,0:0:0:0:
256,192,17511,1,8,0:0:0:0:
256,192,17827,1,0,0:0:0:0:
256,192,17932,1,0,0:0:0:0:
256,192,18037,1,0,0:0:0:0:
256,192,18143,1,8,0:0:0:0:
256,192,18248,1,0,0:0:0:0:
256,192,18353,1,8,0:0:0:0:
256,192,18458,1,0,0:0:0:0:
256,192,18511,1,0,0:0:0:0:
256,192,18564,1,0,0:0:0:0:
256,192,18669,1,0,0:0:0:0:
256,192,18774,1,8,0:0:0:0:
256,192,18879,1,0,0:0:0:0:
256,192,18985,1,0,0:0:0:0:
256,192,19090,1,0,0:0:0:0:
256,192,19195,1,8,0:0:0:0:
256,192,19406,1,8,0:0:0:0:
256,192,19616,1,0,0:0:0:0:
256,192,19721,1,0,0:0:0:0:
256,192,19827,1,8,0:0:0:0:
256,192,19932,1,4,0:0:0:0:
256,192,20143,1,8,0:0:0:0:
256,192,20353,1,8,0:0:0:0:
256,192,20458,1,0,0:0:0:0:
256,192,20564,1,0,0:0:0:0:
256,192,20669,1,8,0:0:0:0:
256,192,20774,1,0,0:0:0:0:
256,192,20879,1,0,0:0:0:0:
256,192,20985,1,8,0:0:0:0:
256,192,21090,1,0,0:0:0:0:
256,192,21195,1,0,0:0:0:0:
256,192,21300,1,8,0:0:0:0:
256,192,21406,1,0,0:0:0:0:
256,192,21511,1,0,0:0:0:0:
256,192,21616,1,8,0:0:0:0:
256,192,21827,1,8,0:0:0:0:
256,192,22037,1,8,0:0:0:0:
256,192,22143,1,0,0:0:0:0:
256,192,22248,1,0,0:0:0:0:
256,192,22353,1,8,0:0:0:0:
256,192,22458,1,0,0:0:0:0:
256,192,22564,1,0,0:0:0:0:
256,192,22669,1,8,0:0:0:0:
256,192,22774,1,0,0:0:0:0:
256,192,22879,1,8,0:0:0:0:
256,192,22985,1,8,0:0:0:0:
256,192,23090,1,0,0:0:0:0:
256,192,23143,1,0,0:0:0:0:
256,192,23195,1,0,0:0:0:0:
256,192,23300,1,12,0:0:0:0:
256,192,23721,1,8,0:0:0:0:
256,192,23827,1,0,0:0:0:0:
256,192,23932,1,0,0:0:0:0:
256,192,24037,1,8,0:0:0:0:
256,192,24143,1,0,0:0:0:0:
256,192,24248,1,0,0:0:0:0:
256,192,24353,1,8,0:0:0:0:
256,192,24458,1,0,0:0:0:0:
256,192,24564,1,0,0:0:0:0:
256,192,24668,1,8,0:0:0:0:
256,192,24774,1,0,0:0:0:0:
256,192,24879,1,0,0:0:0:0:
256,192,24984,1,8,0:0:0:0:
256,192,25195,1,8,0:0:0:0:
256,192,25405,1,0,0:0:0:0:
256,192,25458,1,0,0:0:0:0:
256,192,25511,1,0,0:0:0:0:
256,192,25616,1,8,0:0:0:0:
256,192,25721,1,8,0:0:0:0:
256,192,25827,1,0,0:0:0:0:
256,192,25879,1,0,0:0:0:0:
256,192,25932,1,0,0:0:0:0:
256,192,26037,1,8,0:0:0:0:
256,192,26143,1,8,0:0:0:0:
256,192,26248,1,4,0:0:0:0:
256,192,26458,1,12,0:0:0:0:
256,192,26669,1,4,0:0:0:0:
256,192,26879,1,12,0:0:0:0:
256,192,27090,1,0,0:0:0:0:
256,192,27195,1,8,0:0:0:0:
256,192,27300,1,0,0:0:0:0:
256,192,27406,1,0,0:0:0:0:
256,192,27511,1,8,0:0:0:0:
256,192,27616,1,0,0:0:0:0:
256,192,27721,1,0,0:0:0:0:
256,192,27827,1,8,0:0:0:0:
256,192,27932,1,0,0:0:0:0:
256,192,28037,1,8,0:0:0:0:
256,192,28143,1,0,0:0:0:0:
256,192,28248,1,0,0:0:0:0:
256,192,28353,1,8,0:0:0:0:
256,192,28564,1,8,0:0:0:0:
256,192,28774,1,0,0:0:0:0:
256,192,28879,1,8,0:0:0:0:
256,192,28984,1,0,0:0:0:0:
256,192,29090,1,0,0:0:0:0:
256,192,29195,1,8,0:0:0:0:
256,192,29300,1,0,0:0:0:0:
256,192,29405,1,0,0:0:0:0:
256,192,29511,1,8,0:0:0:0:
256,192,29616,1,0,0:0:0:0:
256,192,29721,1,0,0:0:0:0:
256,192,29827,1,8,0:0:0:0:
256,192,29932,1,0,0:0:0:0:
256,192,30037,1,0,0:0:0:0:
256,192,30248,1,8,0:0:0:0:
256,192,30458,1,0,0:0:0:0:
256,192,30564,1,8,0:0:0:0:
256,192,30669,1,0,0:0:0:0:
256,192,30774,1,8,0:0:0:0:
256,192,30879,1,0,0:0:0:0:
256,192,30985,1,0,0:0:0:0:
256,192,31090,1,8,0:0:0:0:
256,192,31300,1,0,0:0:0:0:
256,192,31406,1,8,0:0:0:0:
256,192,31512,1,0,0:0:0:0:
256,192,31617,1,0,0:0:0:0:
256,192,31722,1,8,0:0:0:0:
256,192,31827,1,0,0:0:0:0:
256,192,31932,1,8,0:0:0:0:
256,192,32143,1,0,0:0:0:0:
256,192,32248,1,0,0:0:0:0:
256,192,32353,1,8,0:0:0:0:
256,192,32458,1,0,0:0:0:0:
256,192,32564,1,0,0:0:0:0:
256,192,32669,1,8,0:0:0:0:
256,192,32774,1,0,0:0:0:0:
256,192,32880,1,0,0:0:0:0:
256,192,32985,1,8,0:0:0:0:
256,192,33037,1,8,0:0:0:0:
256,192,33090,1,8,0:0:0:0:
256,192,33196,1,0,0:0:0:0:
256,192,33301,1,0,0:0:0:0:
256,192,33406,1,12,0:0:0:0:
256,192,33617,1,8,0:0:0:0:
268,194,33827,1,0,0:0:0:0:
256,160,33932,1,0,0:0:0:0:
256,192,34037,1,8,0:0:0:0:
256,192,34143,1,8,0:0:0:0:
256,192,34248,1,0,0:0:0:0:
256,192,34353,1,0,0:0:0:0:
256,192,34458,1,8,0:0:0:0:
256,192,34669,1,8,0:0:0:0:
256,192,34774,1,0,0:0:0:0:
256,192,34879,1,0,0:0:0:0:
256,192,34985,1,8,0:0:0:0:
256,192,35090,1,0,0:0:0:0:
256,192,35195,1,0,0:0:0:0:
256,192,35300,1,8,0:0:0:0:
256,192,35511,1,8,0:0:0:0:
256,192,35616,1,0,0:0:0:0:
256,192,35721,1,0,0:0:0:0:
256,192,35827,1,8,0:0:0:0:
256,192,35932,1,0,0:0:0:0:
256,192,36037,1,8,0:0:0:0:
256,192,36143,1,0,0:0:0:0:
288,192,36195,1,0,0:0:0:0:
256,192,36248,1,0,0:0:0:0:
256,192,36353,1,8,0:0:0:0:
256,192,36458,1,8,0:0:0:0:
256,192,36564,1,0,0:0:0:0:
256,192,36669,1,0,0:0:0:0:
256,192,36774,1,8,0:0:0:0:
256,192,36985,1,12,0:0:0:0:
256,192,37195,1,0,0:0:0:0:
256,192,37300,1,0,0:0:0:0:
256,192,37406,1,8,0:0:0:0:
256,192,37511,1,8,0:0:0:0:
256,192,37616,1,0,0:0:0:0:
256,192,37721,1,0,0:0:0:0:
256,192,37827,1,8,0:0:0:0:
256,192,38037,1,8,0:0:0:0:
256,192,38143,1,0,0:0:0:0:
256,192,38248,1,8,0:0:0:0:
256,192,38353,1,8,0:0:0:0:
256,192,38459,1,0,0:0:0:0:
256,192,38564,1,0,0:0:0:0:
256,192,38669,1,0,0:0:0:0:
288,192,38721,1,0,0:0:0:0:
256,192,38774,1,0,0:0:0:0:
256,192,38827,1,0,0:0:0:0:
256,192,38879,1,8,0:0:0:0:
256,192,38985,1,0,0:0:0:0:
256,192,39090,1,12,0:0:0:0:
256,192,39300,1,0,0:0:0:0:
256,192,39406,1,0,0:0:0:0:
256,192,39511,1,0,0:0:0:0:
256,192,39616,1,0,0:0:0:0:
256,192,39721,1,12,0:0:0:0:
256,192,39932,1,4,0:0:0:0:
256,192,40143,1,12,0:0:0:0:
256,192,40564,1,4,0:0:0:0:
256,192,40774,1,8,0:0:0:0:
256,192,40879,1,8,0:0:0:0:
256,192,41090,1,0,0:0:0:0:
256,192,41195,1,8,0:0:0:0:
256,192,41300,1,8,0:0:0:0:
256,192,41406,1,0,0:0:0:0:
256,192,41458,1,0,0:0:0:0:
256,192,41511,1,0,0:0:0:0:
256,192,41616,1,8,0:0:0:0:
256,192,41721,1,0,0:0:0:0:
256,192,41774,1,0,0:0:0:0:
256,192,41827,1,0,0:0:0:0:
256,192,41932,1,0,0:0:0:0:
256,192,42037,1,8,0:0:0:0:
256,192,42248,1,0,0:0:0:0:
256,192,42458,1,8,0:0:0:0:
256,192,42564,1,0,0:0:0:0:
256,192,42669,1,0,0:0:0:0:
256,192,42774,1,0,0:0:0:0:
256,192,42879,1,8,0:0:0:0:
256,192,43090,1,0,0:0:0:0:
256,192,43195,1,0,0:0:0:0:
256,192,43300,1,8,0:0:0:0:
256,192,43406,1,8,0:0:0:0:
256,192,43458,1,8,0:0:0:0:
256,192,43511,1,0,0:0:0:0:
256,192,43616,1,0,0:0:0:0:
256,192,43721,1,8,0:0:0:0:
256,192,43932,1,0,0:0:0:0:
256,192,44143,1,8,0:0:0:0:
256,192,44248,1,8,0:0:0:0:
256,192,44458,1,0,0:0:0:0:
256,192,44564,1,8,0:0:0:0:
266,197,44669,1,0,0:0:0:0:
256,192,44774,1,0,0:0:0:0:
288,224,44827,1,0,0:0:0:0:
256,192,44879,1,0,0:0:0:0:
256,192,44985,1,8,0:0:0:0:
256,192,45090,1,0,0:0:0:0:
256,192,45143,1,0,0:0:0:0:
256,192,45195,1,8,0:0:0:0:
256,224,45248,1,0,0:0:0:0:
256,192,45300,1,0,0:0:0:0:
256,192,45406,1,8,0:0:0:0:
256,192,45616,1,0,0:0:0:0:
256,192,45827,1,8,0:0:0:0:
256,192,45932,1,0,0:0:0:0:
256,192,46037,1,0,0:0:0:0:
256,192,46143,1,0,0:0:0:0:
256,192,46248,1,8,0:0:0:0:
256,192,46458,1,12,0:0:0:0:
256,192,46669,1,0,0:0:0:0:
256,192,46721,1,0,0:0:0:0:
256,192,46774,1,0,0:0:0:0:
256,192,46879,1,8,0:0:0:0:
256,192,46985,1,0,0:0:0:0:
256,192,47090,1,8,0:0:0:0:
256,192,47195,1,8,0:0:0:0:
256,192,47300,1,4,0:0:0:0:
256,192,47511,1,8,0:0:0:0:
256,192,47616,1,8,0:0:0:0:
256,192,47827,1,0,0:0:0:0:
256,192,47932,1,8,0:0:0:0:
266,203,48037,1,8,0:0:0:0:
256,192,48143,1,0,0:0:0:0:
256,192,48248,1,0,0:0:0:0:
256,192,48353,1,8,0:0:0:0:
256,192,48458,1,0,0:0:0:0:
256,192,48511,1,0,0:0:0:0:
256,192,48564,1,0,0:0:0:0:
256,192,48669,1,0,0:0:0:0:
256,192,48774,1,8,0:0:0:0:
256,192,48985,1,0,0:0:0:0:
256,192,49195,1,8,0:0:0:0:
256,192,49300,1,0,0:0:0:0:
224,192,49406,1,0,0:0:0:0:
256,192,49511,1,0,0:0:0:0:
256,192,49616,1,8,0:0:0:0:
266,203,49721,1,8,0:0:0:0:
256,192,49827,1,0,0:0:0:0:
256,192,49879,1,0,0:0:0:0:
256,192,49932,1,8,0:0:0:0:
256,192,50037,1,0,0:0:0:0:
256,192,50143,1,8,0:0:0:0:
256,192,50248,1,0,0:0:0:0:
256,192,50353,1,8,0:0:0:0:
256,192,50458,1,8,0:0:0:0:
256,192,50669,1,0,0:0:0:0:
256,192,50879,1,8,0:0:0:0:
256,192,50985,1,8,0:0:0:0:
256,192,51195,1,0,0:0:0:0:
256,192,51300,1,8,0:0:0:0:
256,192,51406,1,0,0:0:0:0:
256,192,51511,1,0,0:0:0:0:
256,192,51564,1,0,0:0:0:0:
256,192,51616,1,8,0:0:0:0:
256,192,51721,1,8,0:0:0:0:
256,192,51827,1,0,0:0:0:0:
256,160,51879,1,0,0:0:0:0:
256,192,51932,1,8,0:0:0:0:
224,192,51985,1,8,0:0:0:0:
256,192,52037,1,0,0:0:0:0:
256,192,52143,1,8,0:0:0:0:
256,192,52353,1,4,0:0:0:0:
256,192,52564,1,12,0:0:0:0:
256,192,52774,1,4,0:0:0:0:
256,192,52985,1,12,0:0:0:0:
256,192,53195,1,0,0:0:0:0:
256,192,53300,1,8,0:0:0:0:
256,192,53406,1,8,0:0:0:0:
256,192,53511,1,8,0:0:0:0:
256,192,53616,1,0,0:0:0:0:
256,192,53669,1,0,0:0:0:0:
256,192,53721,1,0,0:0:0:0:
256,192,53774,1,0,0:0:0:0:
256,192,53827,1,8,0:0:0:0:
256,192,53932,1,8,0:0:0:0:
256,192,54037,1,4,0:0:0:0:
256,192,54143,12,0,59090,0:0:0:0:
256,192,59932,5,0,0:0:0:0:
256,192,59985,1,0,0:0:0:0:
256,192,60037,1,0,0:0:0:0:
256,192,60143,1,8,0:0:0:0:
256,192,60248,1,8,0:0:0:0:
256,192,60353,1,0,0:0:0:0:
256,192,60406,1,0,0:0:0:0:
256,192,60458,1,0,0:0:0:0:
256,192,60511,1,0,0:0:0:0:
256,192,60564,1,8,0:0:0:0:
256,192,60669,1,8,0:0:0:0:
256,192,60774,1,4,0:0:0:0:
256,192,62037,1,8,0:0:0:0:
256,192,62458,1,8,0:0:0:0:
256,192,63300,1,8,0:0:0:0:
256,192,64143,1,0,0:0:0:0:
256,192,64774,1,8,0:0:0:0:
256,192,64985,1,0,0:0:0:0:
256,160,65300,1,8,0:0:0:0:
256,192,65406,1,0,0:0:0:0:
256,192,65616,1,8,0:0:0:0:
256,192,65827,1,0,0:0:0:0:
256,192,66037,1,8,0:0:0:0:
256,192,66143,1,0,0:0:0:0:
256,192,66248,1,0,0:0:0:0:
256,192,66458,1,8,0:0:0:0:
256,192,66669,1,0,0:0:0:0:
256,192,67090,1,8,0:0:0:0:
256,192,67195,1,0,0:0:0:0:
256,192,67300,1,0,0:0:0:0:
256,192,67406,1,0,0:0:0:0:
256,192,67511,1,8,0:0:0:0:
288,192,67827,1,0,0:0:0:0:
256,192,68143,1,8,0:0:0:0:
256,192,68564,1,0,0:0:0:0:
256,192,68774,1,8,0:0:0:0:
256,192,68985,1,0,0:0:0:0:
256,192,69195,1,8,0:0:0:0:
256,192,69511,1,8,0:0:0:0:
256,192,69616,1,0,0:0:0:0:
256,192,69827,1,8,0:0:0:0:
256,192,70037,1,0,0:0:0:0:
256,192,70353,1,8,0:0:0:0:
256,192,70669,1,0,0:0:0:0:
256,192,70774,1,8,0:0:0:0:
256,192,70879,1,0,0:0:0:0:
256,192,71195,1,0,0:0:0:0:
256,192,71511,1,8,0:0:0:0:
256,192,71721,1,8,0:0:0:0:
256,192,72564,1,0,0:0:0:0:
256,192,72879,1,8,0:0:0:0:
256,192,72985,1,0,0:0:0:0:
256,192,73195,1,8,0:0:0:0:
224,192,73406,1,0,0:0:0:0:
256,192,73616,1,0,0:0:0:0:
256,192,73827,1,8,0:0:0:0:
256,192,74248,1,4,0:0:0:0:
256,192,74669,1,8,0:0:0:0:
256,192,74985,1,8,0:0:0:0:
256,192,75090,1,0,0:0:0:0:
256,192,75300,1,0,0:0:0:0:
256,192,75511,1,8,0:0:0:0:
256,192,75721,1,8,0:0:0:0:
256,192,75827,1,0,0:0:0:0:
256,192,75932,1,0,0:0:0:0:
256,192,76248,1,0,0:0:0:0:
256,192,76353,1,8,0:0:0:0:
256,192,76564,1,8,0:0:0:0:
256,192,76669,1,8,0:0:0:0:
256,192,76774,1,0,0:0:0:0:
256,192,76879,1,8,0:0:0:0:
256,192,76985,1,0,0:0:0:0:
256,192,77195,1,8,0:0:0:0:
256,192,77406,1,8,0:0:0:0:
256,192,77511,1,8,0:0:0:0:
256,192,77616,1,0,0:0:0:0:
256,192,77932,1,0,0:0:0:0:
256,192,78037,1,8,0:0:0:0:
256,192,78248,1,8,0:0:0:0:
256,192,78353,1,8,0:0:0:0:
256,192,78458,1,0,0:0:0:0:
256,192,78564,1,0,0:0:0:0:
256,192,78669,1,0,0:0:0:0:
256,192,78774,1,0,0:0:0:0:
256,192,78879,1,8,0:0:0:0:
256,192,79090,1,8,0:0:0:0:
256,192,79195,1,0,0:0:0:0:
256,192,79300,1,8,0:0:0:0:
256,192,79511,1,0,0:0:0:0:
256,192,79616,1,8,0:0:0:0:
256,192,79721,1,0,0:0:0:0:
256,192,79932,1,0,0:0:0:0:
256,192,80143,1,8,0:0:0:0:
256,192,80564,1,8,0:0:0:0:
256,192,80669,1,8,0:0:0:0:
256,192,80774,1,0,0:0:0:0:
256,192,80879,1,0,0:0:0:0:
256,192,80985,1,8,0:0:0:0:
256,192,81300,1,0,0:0:0:0:
256,192,81406,1,8,0:0:0:0:
256,192,81616,1,0,0:0:0:0:
256,192,81827,1,8,0:0:0:0:
256,192,81932,1,0,0:0:0:0:
256,192,82143,1,0,0:0:0:0:
256,192,82248,1,8,0:0:0:0:
256,192,82458,1,0,0:0:0:0:
256,192,82669,1,8,0:0:0:0:
256,192,82774,1,0,0:0:0:0:
256,192,82879,1,0,0:0:0:0:
256,192,82985,1,8,0:0:0:0:
256,192,83195,1,0,0:0:0:0:
256,192,83300,1,0,0:0:0:0:
256,192,83406,1,0,0:0:0:0:
256,192,83511,1,8,0:0:0:0:
224,192,83721,1,0,0:0:0:0:
256,192,83827,1,8,0:0:0:0:
256,192,83932,1,0,0:0:0:0:
256,192,84143,1,8,0:0:0:0:
256,192,84353,1,8,0:0:0:0:
256,192,84564,1,0,0:0:0:0:
256,192,84669,1,0,0:0:0:0:
256,192,84879,1,0,0:0:0:0:
256,192,84985,1,8,0:0:0:0:
256,192,85090,1,8,0:0:0:0:
256,192,85195,1,0,0:0:0:0:
256,192,85406,1,8,0:0:0:0:
256,192,85511,1,8,0:0:0:0:
256,192,85721,1,8,0:0:0:0:
256,192,85827,1,0,0:0:0:0:
256,192,85932,1,0,0:0:0:0:
256,192,86037,1,0,0:0:0:0:
256,192,86143,1,8,0:0:0:0:
256,192,86248,1,8,0:0:0:0:
256,192,86353,1,8,0:0:0:0:
256,192,86564,1,8,0:0:0:0:
256,192,86669,1,8,0:0:0:0:
256,192,86879,1,8,0:0:0:0:
256,192,86985,1,0,0:0:0:0:
256,192,87090,1,0,0:0:0:0:
256,192,87195,1,0,0:0:0:0:
256,192,87300,1,8,0:0:0:0:
256,192,87511,1,8,0:0:0:0:
256,192,87721,1,4,0:0:0:0:
256,192,87932,1,8,0:0:0:0:
256,192,88037,1,8,0:0:0:0:
256,192,88248,1,0,0:0:0:0:
256,192,88353,1,8,0:0:0:0:
256,192,88564,1,0,0:0:0:0:
256,192,88669,1,0,0:0:0:0:
256,192,88774,1,8,0:0:0:0:
256,192,88879,1,0,0:0:0:0:
256,192,89090,1,0,0:0:0:0:
256,192,89195,1,8,0:0:0:0:
256,192,89406,1,4,0:0:0:0:
256,192,89616,1,8,0:0:0:0:
256,192,89721,1,0,0:0:0:0:
256,192,89932,1,0,0:0:0:0:
256,192,90037,1,8,0:0:0:0:
256,224,90143,1,0,0:0:0:0:
256,192,90248,1,0,0:0:0:0:
256,192,90458,1,8,0:0:0:0:
256,192,90564,1,8,0:0:0:0:
256,192,90669,1,4,0:0:0:0:
256,192,90879,1,8,0:0:0:0:
256,192,91090,1,4,0:0:0:0:
256,160,91300,1,8,0:0:0:0:
256,192,91406,1,8,0:0:0:0:
256,192,91616,1,0,0:0:0:0:
256,192,91721,1,8,0:0:0:0:
256,192,91932,1,4,0:0:0:0:
256,192,92143,1,8,0:0:0:0:
256,192,92248,1,0,0:0:0:0:
256,192,92458,1,0,0:0:0:0:
256,192,92564,1,8,0:0:0:0:
256,192,92774,1,4,0:0:0:0:
256,192,92985,1,8,0:0:0:0:
256,192,93090,1,8,0:0:0:0:
256,192,93195,1,4,0:0:0:0:
256,192,93406,1,8,0:0:0:0:
256,192,93511,1,8,0:0:0:0:
256,192,93616,1,0,0:0:0:0:
256,192,93669,1,0,0:0:0:0:
256,192,93721,1,0,0:0:0:0:
256,160,93827,1,8,0:0:0:0:
256,160,93932,1,8,0:0:0:0:
256,192,94037,1,0,0:0:0:0:
256,192,94090,1,0,0:0:0:0:
256,192,94143,1,0,0:0:0:0:
256,192,94195,1,0,0:0:0:0:
256,192,94248,1,8,0:0:0:0:
256,192,94353,1,8,0:0:0:0:
256,192,94458,1,4,0:0:0:0:
256,192,94669,1,8,0:0:0:0:
256,192,94774,1,0,0:0:0:0:
256,192,94879,1,0,0:0:0:0:
256,192,94985,1,0,0:0:0:0:
256,192,95090,1,8,0:0:0:0:
256,192,95195,1,0,0:0:0:0:
256,192,95300,1,0,0:0:0:0:
256,192,95353,1,0,0:0:0:0:
256,192,95406,1,0,0:0:0:0:
256,192,95511,1,8,0:0:0:0:
256,192,95616,1,0,0:0:0:0:
256,192,95721,1,0,0:0:0:0:
256,192,95774,1,0,0:0:0:0:
256,192,95827,1,8,0:0:0:0:
256,192,95932,1,0,0:0:0:0:
256,192,96037,1,8,0:0:0:0:
256,192,96143,1,8,0:0:0:0:
256,192,96353,1,0,0:0:0:0:
256,192,96458,1,0,0:0:0:0:
256,192,96564,1,8,0:0:0:0:
256,192,96669,1,8,0:0:0:0:
256,192,96774,1,0,0:0:0:0:
256,192,96879,1,8,0:0:0:0:
256,192,96985,1,0,0:0:0:0:
256,192,97037,1,0,0:0:0:0:
256,192,97090,1,0,0:0:0:0:
256,192,97195,1,8,0:0:0:0:
256,192,97300,1,8,0:0:0:0:
256,192,97406,1,0,0:0:0:0:
256,192,97458,1,0,0:0:0:0:
256,192,97511,1,8,0:0:0:0:
256,192,97564,1,8,0:0:0:0:
256,192,97616,1,8,0:0:0:0:
256,192,97721,1,8,0:0:0:0:
256,192,97827,1,0,0:0:0:0:
256,160,97879,1,0,0:0:0:0:
256,192,97932,1,8,0:0:0:0:
256,192,98037,1,0,0:0:0:0:
256,192,98143,1,0,0:0:0:0:
256,192,98248,1,8,0:0:0:0:
256,192,98353,1,8,0:0:0:0:
256,192,98458,1,8,0:0:0:0:
256,192,98564,1,0,0:0:0:0:
256,192,98616,1,0,0:0:0:0:
256,192,98669,1,8,0:0:0:0:
256,192,98774,1,8,0:0:0:0:
256,192,98879,1,8,0:0:0:0:
256,192,98985,1,8,0:0:0:0:
256,192,99090,1,8,0:0:0:0:
256,192,99143,1,8,0:0:0:0:
256,192,99195,1,8,0:0:0:0:
256,224,99248,1,8,0:0:0:0:
256,192,99300,1,8,0:0:0:0:
256,192,99353,1,8,0:0:0:0:
256,192,99406,1,8,0:0:0:0:
256,192,99458,1,8,0:0:0:0:
256,192,99511,1,8,0:0:0:0:
256,192,100879,1,4,0:0:0:0:
256,192,100985,1,12,0:0:0:0:
256,192,101195,1,4,0:0:0:0:
256,192,101406,1,8,0:0:0:0:
256,192,101511,1,8,0:0:0:0:
256,192,101721,1,0,0:0:0:0:
256,192,101827,1,8,0:0:0:0:
256,192,101932,1,0,0:0:0:0:
256,192,102037,1,0,0:0:0:0:
256,160,102090,1,0,0:0:0:0:
256,192,102143,1,0,0:0:0:0:
256,192,102248,1,8,0:0:0:0:
256,192,102353,1,0,0:0:0:0:
224,192,102406,1,0,0:0:0:0:
256,192,102458,1,0,0:0:0:0:
256,192,102564,1,0,0:0:0:0:
256,192,102669,1,8,0:0:0:0:
256,224,102774,1,8,0:0:0:0:
256,192,102879,1,0,0:0:0:0:
256,192,103090,1,8,0:0:0:0:
256,192,103195,1,0,0:0:0:0:
256,192,103300,1,0,0:0:0:0:
256,192,103406,1,0,0:0:0:0:
256,192,103511,1,8,0:0:0:0:
256,192,103721,1,0,0:0:0:0:
288,192,103827,1,8,0:0:0:0:
256,192,103932,1,0,0:0:0:0:
256,192,104037,1,0,0:0:0:0:
256,192,104090,1,0,0:0:0:0:
256,192,104143,1,8,0:0:0:0:
256,192,104248,1,0,0:0:0:0:
256,192,104353,1,8,0:0:0:0:
288,192,104458,1,8,0:0:0:0:
256,192,104564,1,0,0:0:0:0:
256,192,104774,1,8,0:0:0:0:
224,192,104879,1,8,0:0:0:0:
224,192,105090,1,0,0:0:0:0:
256,192,105195,1,8,0:0:0:0:
256,192,105300,1,0,0:0:0:0:
224,192,105406,1,0,0:0:0:0:
256,192,105458,1,0,0:0:0:0:
224,192,105511,1,8,0:0:0:0:
256,192,105616,1,8,0:0:0:0:
224,192,105721,1,8,0:0:0:0:
256,192,105774,1,0,0:0:0:0:
224,192,105827,1,0,0:0:0:0:
224,192,105879,1,0,0:0:0:0:
256,192,105932,1,8,0:0:0:0:
256,192,106037,1,8,0:0:0:0:
224,192,106143,1,8,0:0:0:0:
224,192,106248,1,0,0:0:0:0:
224,192,106458,1,8,0:0:0:0:
224,192,106564,1,0,0:0:0:0:
224,224,106669,1,0,0:0:0:0:
256,192,106774,1,0,0:0:0:0:
256,192,106879,1,8,0:0:0:0:
224,192,107090,1,0,0:0:0:0:
256,192,107143,1,0,0:0:0:0:
256,192,107195,1,0,0:0:0:0:
192,192,107300,1,0,0:0:0:0:
224,192,107406,1,8,0:0:0:0:
224,192,107458,1,8,0:0:0:0:
224,192,107511,1,0,0:0:0:0:
224,192,107616,1,0,0:0:0:0:
224,192,107721,1,8,0:0:0:0:
224,192,107827,1,8,0:0:0:0:
256,192,107932,1,0,0:0:0:0:
256,192,108143,1,8,0:0:0:0:
256,192,108248,1,8,0:0:0:0:
256,192,108458,1,0,0:0:0:0:
256,192,108564,1,8,0:0:0:0:
256,192,108669,1,8,0:0:0:0:
256,192,108774,1,0,0:0:0:0:
256,192,108879,1,0,0:0:0:0:
256,192,108985,1,8,0:0:0:0:
256,192,109090,1,0,0:0:0:0:
256,192,109143,1,0,0:0:0:0:
256,192,109195,1,0,0:0:0:0:
256,192,109300,1,0,0:0:0:0:
256,192,109406,1,8,0:0:0:0:
256,192,109511,1,8,0:0:0:0:
256,192,109616,1,0,0:0:0:0:
256,192,109827,1,8,0:0:0:0:
256,192,109932,1,0,0:0:0:0:
256,192,110037,1,0,0:0:0:0:
256,192,110143,1,0,0:0:0:0:
256,192,110248,1,8,0:0:0:0:
256,192,110458,1,0,0:0:0:0:
256,192,110511,1,0,0:0:0:0:
256,192,110564,1,8,0:0:0:0:
256,192,110669,1,0,0:0:0:0:
256,192,110774,1,8,0:0:0:0:
224,224,110879,1,0,0:0:0:0:
256,192,110985,1,0,0:0:0:0:
256,192,111090,1,8,0:0:0:0:
256,192,111195,1,8,0:0:0:0:
256,192,111248,1,8,0:0:0:0:
256,192,111300,1,0,0:0:0:0:
256,192,111406,1,0,0:0:0:0:
256,192,111511,1,8,0:0:0:0:
224,192,111616,1,8,0:0:0:0:
224,192,111827,1,0,0:0:0:0:
256,192,111932,1,8,0:0:0:0:
256,160,112037,1,0,0:0:0:0:
256,192,112143,1,0,0:0:0:0:
256,192,112195,1,0,0:0:0:0:
256,192,112248,1,0,0:0:0:0:
256,192,112353,1,0,0:0:0:0:
224,160,112458,1,8,0:0:0:0:
256,192,112511,1,8,0:0:0:0:
224,192,112564,1,0,0:0:0:0:
224,192,112669,1,0,0:0:0:0:
224,192,112774,1,8,0:0:0:0:
256,192,112985,1,8,0:0:0:0:
256,192,113090,1,0,0:0:0:0:
256,192,113195,1,0,0:0:0:0:
256,192,113248,1,0,0:0:0:0:
256,192,113300,1,8,0:0:0:0:
256,192,113406,1,0,0:0:0:0:
256,192,113511,1,8,0:0:0:0:
256,192,113564,1,8,0:0:0:0:
256,192,113616,1,8,0:0:0:0:
256,192,113669,1,8,0:0:0:0:
256,192,113721,1,8,0:0:0:0:
256,192,113827,1,4,0:0:0:0:
256,192,114037,1,12,0:0:0:0:
256,192,114248,1,4,0:0:0:0:
224,192,114669,1,4,0:0:0:0:
256,192,114879,1,0,0:0:0:0:
256,192,114985,1,8,0:0:0:0:
256,192,115090,1,0,0:0:0:0:
256,192,115196,1,8,0:0:0:0:
256,192,115300,1,0,0:0:0:0:
256,192,115406,1,8,0:0:0:0:
256,192,115511,1,0,0:0:0:0:
288,224,115564,1,0,0:0:0:0:
256,192,115616,1,0,0:0:0:0:
256,192,115721,1,0,0:0:0:0:
256,192,115827,1,8,0:0:0:0:
256,192,115879,1,0,0:0:0:0:
256,192,115932,1,0,0:0:0:0:
256,192,115985,1,0,0:0:0:0:
256,192,116037,1,8,0:0:0:0:
256,192,116143,1,0,0:0:0:0:
256,192,116248,1,8,0:0:0:0:
256,192,116354,1,0,0:0:0:0:
256,192,116564,1,8,0:0:0:0:
256,192,116669,1,8,0:0:0:0:
256,192,116775,1,0,0:0:0:0:
256,192,116879,1,8,0:0:0:0:
256,192,116985,1,0,0:0:0:0:
256,192,117090,1,8,0:0:0:0:
256,192,117195,1,0,0:0:0:0:
256,192,117248,1,0,0:0:0:0:
256,192,117300,1,0,0:0:0:0:
256,192,117406,1,0,0:0:0:0:
256,192,117511,1,8,0:0:0:0:
256,192,117564,1,8,0:0:0:0:
256,192,117616,1,0,0:0:0:0:
256,192,117721,1,8,0:0:0:0:
256,192,117827,1,0,0:0:0:0:
256,192,117932,1,8,0:0:0:0:
256,192,118037,1,0,0:0:0:0:
256,192,118248,1,0,0:0:0:0:
256,192,118353,1,8,0:0:0:0:
256,192,118458,1,0,0:0:0:0:
256,192,118511,1,0,0:0:0:0:
256,192,118564,1,0,0:0:0:0:
256,192,118669,1,8,0:0:0:0:
256,192,118774,1,8,0:0:0:0:
256,192,118879,1,0,0:0:0:0:
256,192,118932,1,0,0:0:0:0:
256,192,118985,1,8,0:0:0:0:
256,192,119090,1,8,0:0:0:0:
256,192,119195,1,8,0:0:0:0:
224,192,119248,1,8,0:0:0:0:
256,192,119300,1,0,0:0:0:0:
256,192,119353,1,0,0:0:0:0:
256,192,119406,1,0,0:0:0:0:
256,192,119511,1,8,0:0:0:0:
256,192,119616,1,8,0:0:0:0:
256,192,119721,1,0,0:0:0:0:
256,192,119932,1,8,0:0:0:0:
256,192,120037,1,8,0:0:0:0:
256,192,120143,1,0,0:0:0:0:
256,192,120195,1,0,0:0:0:0:
256,192,120248,1,8,0:0:0:0:
256,192,120300,1,8,0:0:0:0:
256,192,120353,1,0,0:0:0:0:
256,192,120458,1,8,0:0:0:0:
256,192,120564,1,8,0:0:0:0:
256,192,120616,1,8,0:0:0:0:
256,192,120669,1,8,0:0:0:0:
256,192,120774,1,0,0:0:0:0:
256,192,120879,1,8,0:0:0:0:
288,160,120985,1,4,0:0:0:0:
288,160,121195,1,8,0:0:0:0:
288,160,121406,1,0,0:0:0:0:
256,192,121511,1,0,0:0:0:0:
276,209,121564,1,0,0:0:0:0:
256,192,121616,1,0,0:0:0:0:
256,192,121722,1,8,0:0:0:0:
256,192,121827,1,0,0:0:0:0:
256,192,121933,1,8,0:0:0:0:
256,192,122037,1,0,0:0:0:0:
256,192,122143,1,8,0:0:0:0:
256,192,122248,1,0,0:0:0:0:
288,224,122300,1,0,0:0:0:0:
256,192,122354,1,0,0:0:0:0:
256,192,122458,1,0,0:0:0:0:
256,192,122564,1,8,0:0:0:0:
256,192,122616,1,8,0:0:0:0:
256,192,122669,1,0,0:0:0:0:
256,192,122721,1,0,0:0:0:0:
256,192,122774,1,8,0:0:0:0:
256,192,122880,1,8,0:0:0:0:
256,192,122985,1,0,0:0:0:0:
256,192,123091,1,8,0:0:0:0:
256,192,123195,1,0,0:0:0:0:
256,192,123248,1,0,0:0:0:0:
256,192,123301,1,0,0:0:0:0:
256,192,123406,1,8,0:0:0:0:
256,192,123512,1,0,0:0:0:0:
224,160,123564,1,0,0:0:0:0:
256,192,123616,1,8,0:0:0:0:
224,192,123721,1,8,0:0:0:0:
256,192,123827,1,0,0:0:0:0:
256,192,123932,1,8,0:0:0:0:
256,192,123985,1,0,0:0:0:0:
256,192,124037,1,8,0:0:0:0:
256,192,124143,1,0,0:0:0:0:
256,192,124248,1,0,0:0:0:0:
224,192,124300,1,0,0:0:0:0:
256,192,124353,1,8,0:0:0:0:
256,192,124458,1,8,0:0:0:0:
256,192,124564,1,0,0:0:0:0:
256,192,124669,1,8,0:0:0:0:
256,192,124774,1,8,0:0:0:0:
256,192,124827,1,8,0:0:0:0:
256,192,124879,1,8,0:0:0:0:
256,192,124932,1,8,0:0:0:0:
256,192,124985,1,0,0:0:0:0:
256,192,125090,1,8,0:0:0:0:
256,192,125195,1,0,0:0:0:0:
256,192,125300,1,0,0:0:0:0:
256,192,125406,1,8,0:0:0:0:
256,192,125511,1,0,0:0:0:0:
256,192,125616,1,8,0:0:0:0:
256,192,125669,1,8,0:0:0:0:
256,192,125722,1,0,0:0:0:0:
256,192,125827,1,0,0:0:0:0:
256,192,125932,1,8,0:0:0:0:
256,192,125985,1,0,0:0:0:0:
256,192,126037,1,0,0:0:0:0:
256,192,126090,1,8,0:0:0:0:
256,192,126143,1,0,0:0:0:0:
256,192,126248,1,8,0:0:0:0:
256,192,126353,1,8,0:0:0:0:
256,192,126458,1,0,0:0:0:0:
256,192,126511,1,0,0:0:0:0:
256,192,126564,1,8,0:0:0:0:
224,192,126616,1,8,0:0:0:0:
256,192,126669,1,8,0:0:0:0:
256,192,126774,1,8,0:0:0:0:
256,192,126880,1,0,0:0:0:0:
256,192,126932,1,0,0:0:0:0:
256,192,126985,1,8,0:0:0:0:
256,192,127090,1,8,0:0:0:0:
256,192,127195,1,8,0:0:0:0:
256,192,127301,1,0,0:0:0:0:
256,224,127353,1,0,0:0:0:0:
256,192,127406,1,8,0:0:0:0:
256,192,127458,1,0,0:0:0:0:
224,192,127511,1,8,0:0:0:0:
256,192,127564,1,8,0:0:0:0:
256,192,127616,1,0,0:0:0:0:
256,192,127669,1,8,0:0:0:0:
256,192,127721,1,0,0:0:0:0:
256,192,127932,1,8,0:0:0:0:
256,192,128143,1,4,0:0:0:0:
