osu file format v14

[General]
AudioFilename: audio.mp3
AudioLeadIn: 0
PreviewTime: 134191
Countdown: 0
SampleSet: Soft
StackLeniency: 0
Mode: 0
LetterboxInBreaks: 0
WidescreenStoryboard: 1

[Editor]
Bookmarks: 22408,43741,54408,70408,71074,74908,81074,107741,129074,134408,139741,150408,155741,161074,171741,182408,214408,227741
DistanceSpacing: 0.8
BeatDivisor: 8
GridSize: 32
TimelineZoom: 1

[Metadata]
Title:Ringo Biyori ~The Wolf Whistling Song x Get Low (feat. Ying Yang Twins)
TitleUnicode:リンゴ日和 ~The Wolf Whistling Song x Get Low (feat. Ying Yang Twins)
Artist:ROCKY CHACK, Lil Jon & The East Side Boyz
ArtistUnicode:ROCKY CHACK, Lil Jon & The East Side Boyz
Creator:Deramok
Version:nautzz's Hard
Source:狼と香辛料
Tags:nautzz spice and wolf ookami to koushinryou Rap-Bit whistle ロッキー・チャック mashup mash up hiyori hip hop anime novelty english pop jpop
BeatmapID:2806832
BeatmapSetID:1062345

[Difficulty]
HPDrainRate:4
CircleSize:5
OverallDifficulty:6
ApproachRate:5
SliderMultiplier:1.5
SliderTickRate:1

[Events]
//Background and Video events
0,0,"horo.jpg",0,0
//Break Periods
//Storyboard Layer 0 (Background)
//Storyboard Layer 1 (Fail)
//Storyboard Layer 2 (Pass)
//Storyboard Layer 3 (Foreground)
//Storyboard Layer 4 (Overlay)
//Storyboard Sound Samples

[TimingPoints]
200,666.666666666667,4,2,0,70,1,0
1200,631.578947368421,4,2,0,70,1,0
2525,666.666666666667,4,2,0,70,1,0
3828,666.666666666667,4,2,0,70,1,0
5494,720.00288001152,4,2,0,70,1,0
5854,677.966101694915,4,2,0,70,1,0
6526,666.666666666667,4,2,0,70,1,0
10548,674.157303370787,4,2,0,70,1,0
11557,645.161290322581,4,2,0,70,1,0
13199,666.666666666667,4,2,0,70,1,0
14517,666.666666666667,4,2,0,70,1,0
22517,666.666666666667,4,2,0,70,1,0
23183,-90.9090909090909,4,2,0,70,0,0
35350,-90.9090909090909,4,2,2,5,0,0
35517,-90.9090909090909,4,2,0,70,0,0
44517,-90.9090909090909,4,2,0,70,0,0
44850,-90.9090909090909,4,2,0,70,0,0
46017,-90.9090909090909,4,2,0,70,0,0
46183,-90.9090909090909,4,2,0,70,0,0
51350,-90.9090909090909,4,2,0,70,0,0
51517,-90.9090909090909,4,2,0,70,0,0
79017,-90.9090909090909,4,2,0,70,0,0
79183,-90.9090909090909,4,2,0,70,0,0
80183,-90.9090909090909,4,2,0,70,0,0
81183,-90.9090909090909,4,2,0,70,0,0
93350,-90.9090909090909,4,2,2,5,0,0
93517,-90.9090909090909,4,2,0,70,0,0
95683,-90.9090909090909,4,2,2,5,0,0
95850,-90.9090909090909,4,2,0,70,0,0
99183,-90.9090909090909,4,2,0,70,0,0
99350,-90.9090909090909,4,2,0,70,0,0
104350,-90.9090909090909,4,2,0,70,0,0
104517,-90.9090909090909,4,2,0,70,0,0
120683,-90.9090909090909,4,2,2,5,0,0
120850,-90.9090909090909,4,2,0,70,0,0
124017,-90.9090909090909,4,2,2,5,0,0
124183,-90.9090909090909,4,2,0,70,0,0
127850,645.161290322581,4,2,0,70,1,0
128817,732.600732600733,4,2,0,70,1,0
129183,666.666666666667,4,2,0,70,1,0
129183,-90.9090909090909,4,2,0,70,0,0
136683,-90.9090909090909,4,2,0,70,0,0
136850,-90.9090909090909,4,2,0,70,0,0
153517,-90.9090909090909,4,2,0,70,0,0
153683,-90.9090909090909,4,2,0,70,0,0
154183,-90.9090909090909,4,2,0,70,0,0
154350,-90.9090909090909,4,2,0,70,0,0
161850,-90.9090909090909,4,2,0,70,0,0
162017,-90.9090909090909,4,2,0,70,0,0
163183,-90.9090909090909,4,2,0,70,0,0
163517,-90.9090909090909,4,2,0,70,0,0
164517,-90.9090909090909,4,2,0,70,0,0
164683,-90.9090909090909,4,2,0,70,0,0
165850,-90.9090909090909,4,2,0,70,0,0
166183,-90.9090909090909,4,2,0,70,0,0
167183,-90.9090909090909,4,2,0,70,0,0
167350,-90.9090909090909,4,2,0,70,0,0
168517,-90.9090909090909,4,2,0,70,0,0
168850,-90.9090909090909,4,2,0,70,0,0
169850,-90.9090909090909,4,2,0,70,0,0
170017,-90.9090909090909,4,2,0,70,0,0
171183,-90.9090909090909,4,2,0,70,0,0
171517,-90.9090909090909,4,2,0,70,0,0
180183,-90.9090909090909,4,2,0,70,0,0
180517,-90.9090909090909,4,2,0,70,0,0
180850,-90.9090909090909,4,2,0,70,0,0
181183,-90.9090909090909,4,2,0,70,0,0
195350,-90.9090909090909,4,2,2,5,0,0
195517,-90.9090909090909,4,2,0,70,0,0
198683,-90.9090909090909,4,2,2,5,0,0
198850,-90.9090909090909,4,2,0,70,0,0
209017,-90.9090909090909,4,2,0,70,0,0
209183,-90.9090909090909,4,2,0,70,0,0
214350,-90.9090909090909,4,2,2,5,0,0
214550,666.666666666667,4,2,0,70,1,0
214550,-90.9090909090909,4,2,0,70,0,0
216383,-90.9090909090909,4,2,2,5,0,0
216550,-90.9090909090909,4,2,0,70,0,0
219050,-90.9090909090909,4,2,2,5,0,0
219216,-90.9090909090909,4,2,0,70,0,0
219849,666.666666666667,4,2,0,70,1,0
219849,-90.9090909090909,4,2,0,70,0,0
221683,-90.9090909090909,4,2,2,5,0,0
221850,-90.9090909090909,4,2,0,70,0,0
222350,-90.9090909090909,4,2,2,5,0,0
222516,666.666666666667,4,2,0,70,1,0
222516,-90.9090909090909,4,2,0,70,0,0
223016,-90.9090909090909,4,2,2,5,0,0
223182,-90.9090909090909,4,2,0,70,0,0
225016,-90.9090909090909,4,2,2,5,0,0
225182,-90.9090909090909,4,2,0,70,0,0
233182,-90.9090909090909,4,2,2,5,0,0

[Colours]
Combo1 : 232,189,40
Combo2 : 196,81,118
Combo3 : 137,177,78
Combo4 : 218,91,31

[HitObjects]
365,340,200,6,0,L|364:363,3,18.75,0|0|0|0,0:0|0:0|0:0|0:0,2:0:0:0:
367,312,533,1,2,0:0:0:0:
425,278,866,1,2,0:0:0:0:
374,220,1200,5,2,0:0:0:0:
336,225,1515,1,0,0:0:0:0:
299,231,1831,1,0,0:0:0:0:
267,291,2147,1,0,0:0:0:0:
211,254,2525,2,0,L|133:250,1,75,2|0,0:0|0:0,2:0:0:0:
142,317,3191,2,0,L|67:313,1,75,2|0,0:0|0:0,2:0:0:0:
22,262,3828,5,2,0:0:0:0:
17,224,4161,1,0,0:0:0:0:
81,202,4494,5,0,0:0:0:0:
76,164,4828,1,0,0:0:0:0:
23,121,5161,1,0,0:0:0:0:
41,56,5494,6,0,L|20:57,3,18.75,0|0|0|0,0:0|0:0|0:0|0:0,2:0:0:0:
69,54,5854,1,2,0:0:0:0:
125,90,6192,1,2,0:0:0:0:
170,39,6526,5,2,0:0:0:0:
208,44,6859,1,0,0:0:0:0:
245,50,7192,1,0,0:0:0:0:
280,107,7526,1,0,0:0:0:0:
328,60,7859,2,0,L|407:55,1,75,2|0,0:0|0:0,2:0:0:0:
427,118,8526,2,0,L|349:122,1,75,2|0,0:0|0:0,2:0:0:0:
324,183,9192,5,2,0:0:0:0:
362,188,9525,1,0,0:0:0:0:
429,184,9858,5,0,0:0:0:0:
467,189,10192,1,0,0:0:0:0:
505,244,10548,1,2,0:0:0:0:
464,297,10885,6,0,L|486:315,3,18.75,0|0|0|0,0:0|0:0|0:0|0:0,2:0:0:0:
442,279,11222,1,2,0:0:0:0:
414,340,11557,1,2,0:0:0:0:
347,330,11879,5,2,0:0:0:0:
342,292,12202,1,0,0:0:0:0:
336,255,12524,1,0,0:0:0:0:
278,291,12847,1,0,0:0:0:0:
220,255,13199,2,0,L|215:177,1,75,2|0,0:0|0:0,2:0:0:0:
282,193,13865,2,0,L|286:115,1,75,2|0,0:0|0:0,2:0:0:0:
219,105,14517,5,2,0:0:0:0:
214,67,14850,1,0,0:0:0:0:
146,64,15183,5,0,0:0:0:0:
141,26,15517,1,0,0:0:0:0:
77,2,15850,1,0,0:0:0:0:
16,31,16183,6,0,L|13:2,3,18.75,0|0|0|0,0:0|0:0|0:0|0:0,2:0:0:0:
17,59,16517,1,2,0:0:0:0:
79,84,16850,1,0,0:0:0:0:
30,131,17183,5,2,0:0:0:0:
31,169,17517,1,0,0:0:0:0:
34,206,17850,1,0,0:0:0:0:
96,179,18183,1,0,0:0:0:0:
99,246,18517,2,0,L|103:324,1,75,2|0,0:0|0:0,2:0:0:0:
171,332,19183,2,0,L|166:254,1,75,2|0,0:0|0:0,2:0:0:0:
188,192,19850,5,2,0:0:0:0:
227,190,20183,1,0,0:0:0:0:
276,236,20517,5,2,0:0:0:0:
278,275,20850,1,0,0:0:0:0:
333,313,21183,1,2,0:0:0:0:
463,242,21517,5,8,3:0:0:0:
471,225,21683,1,0,3:0:0:0:
464,208,21850,2,0,P|441:202|417:207,1,37.5,0|0,3:0|3:0,2:0:0:0:
386,147,22183,2,0,P|369:163|361:189,1,37.5,0|0,3:0|3:0,2:0:0:0:
316,226,22517,5,4,0:0:0:0:
254,197,22850,1,0,0:0:0:0:
364,177,23183,2,0,P|387:134|375:90,1,82.5,0|0,1:0|0:0,2:0:0:0:
192,226,23850,5,0,0:0:0:0:
254,197,24183,1,0,0:0:0:0:
144,177,24517,2,0,P|121:134|133:90,1,82.5,0|0,1:0|0:0,2:0:0:0:
192,226,25183,5,2,0:0:0:0:
185,245,25350,1,0,0:0:0:0:
172,261,25517,1,0,0:0:0:0:
155,273,25683,1,0,0:0:0:0:
136,281,25850,2,0,L|77:278,1,41.25,2|0,1:2|0:0,2:0:0:0:
61,341,26183,2,0,L|120:344,1,41.25,2|0,0:0|0:0,2:0:0:0:
160,384,26517,5,2,0:3:0:0:
199,330,26850,1,0,0:0:0:0:
256,363,27183,2,0,P|244:333|248:265,1,82.5,2|0,1:2|0:0,2:0:0:0:
301,188,27850,6,0,L|218:195,1,82.5,2|0,0:0|0:0,2:0:0:0:
218,195,28517,1,0,1:0:0:0:
176,248,28850,5,0,0:0:0:0:
152,185,29183,1,2,0:0:0:0:
218,195,29517,1,0,0:0:0:0:
237,221,29850,1,2,1:2:0:0:
218,195,30183,5,0,0:0:0:0:
194,132,30517,1,2,0:0:0:0:
260,142,30850,1,0,0:0:0:0:
279,169,31183,1,2,1:2:0:0:
260,142,31517,5,0,0:0:0:0:
236,79,31850,1,2,0:3:0:0:
302,89,32183,1,0,0:0:0:0:
321,116,32517,1,2,1:2:0:0:
309,242,32850,5,2,0:0:0:0:
328,236,33017,1,2,0:0:0:0:
343,224,33183,2,0,P|371:211|393:212,1,41.25,2|0,0:0|2:0,2:0:0:0:
476,192,33517,2,2,B|342:107|217:257|306:263|190:383|98:386,1,453.75,2|0,0:0|2:0,2:0:0:0:
111,311,35517,5,2,0:0:0:0:
92,305,35683,1,2,0:0:0:0:
77,293,35850,2,0,P|49:280|-8:289,1,82.5,2|0,0:0|0:0,2:0:0:0:
0,285,36517,1,0,1:0:0:0:
128,252,36850,5,0,0:0:0:0:
147,258,37017,1,0,0:0:0:0:
162,270,37183,2,0,P|190:283|247:274,1,82.5,2|0,0:3|0:0,2:0:0:0:
240,277,37850,1,0,1:2:0:0:
72,211,38183,5,0,0:0:0:0:
68,191,38350,1,0,0:0:0:0:
64,171,38517,2,0,L|73:116,1,41.25,2|0,0:0|2:0,2:0:0:0:
76,110,38850,1,0,0:0:0:0:
128,150,39183,1,0,1:0:0:0:
139,85,39517,1,0,0:0:0:0:
190,126,39850,1,2,0:0:0:0:
251,31,40183,5,0,0:0:0:0:
269,95,40517,2,0,B|278:137|278:137|250:169,1,82.5,0|0,1:0|0:0,2:0:0:0:
244,237,41183,5,2,0:0:0:0:
296,277,41517,1,0,1:0:0:0:
307,212,41850,1,0,0:0:0:0:
358,253,42183,1,0,1:0:0:0:
369,189,42517,2,0,B|386:181|386:181|446:213,1,82.5,2|0,0:3|3:0,2:0:0:0:
498,301,43183,1,0,3:0:0:0:
477,305,43350,1,0,3:0:0:0:
457,300,43517,1,0,3:0:0:0:
377,343,43850,6,0,P|343:310|274:387,1,165,6|2,0:0|1:2,2:0:0:0:
175,324,44850,2,0,L|191:269,1,41.25,0|0,0:0|0:0,2:0:0:0:
241,318,45183,1,2,0:0:0:0:
245,322,45350,2,0,B|220:311|220:311|101:336|101:336|78:317,1,165,2|0,0:0|0:0,2:0:0:0:
72,312,46183,6,0,P|106:279|175:356,1,165,0|0,0:0|0:0,2:0:0:0:
265,290,47183,2,0,L|281:235,1,41.25,2|0,1:2|2:0,2:0:0:0:
290,234,47517,2,0,L|345:218,1,41.25,0|0,0:0|2:0,2:0:0:0:
351,217,47850,1,0,0:0:0:0:
281,165,48183,2,0,L|226:181,1,41.25,0|0,0:0|2:0,2:0:0:0:
220,182,48517,1,0,1:0:0:0:
108,214,48850,6,0,P|155:213|149:110,1,165,0|0,0:0|0:0,2:0:0:0:
197,62,49850,1,2,1:2:0:0:
249,110,50183,2,0,L|304:126,1,41.25,0|0,0:0|0:0,2:0:0:0:
247,176,50517,1,2,0:0:0:0:
251,180,50683,2,0,B|262:155|262:155|237:36|237:36|256:13,1,165,2|2,0:0|0:0,2:0:0:0:
266,15,51517,6,0,P|219:16|225:119,1,165,4|0,0:0|0:0,2:0:0:0:
224,177,52517,1,0,1:0:0:0:
289,160,52850,2,0,L|305:105,1,41.25,4|0,1:2|2:0,2:0:0:0:
305,99,53183,1,2,0:0:0:0:
309,103,53350,1,2,2:0:0:0:
313,107,53517,2,0,L|368:91,1,41.25,0|0,0:0|2:0,2:0:0:0:
369,84,53850,1,0,0:0:0:0:
373,88,54017,1,0,2:0:0:0:
377,92,54183,2,0,L|393:37,1,41.25,0|0,3:0|3:0,2:0:0:0:
436,2,54517,6,0,B|420:48|428:93|457:72|466:123|445:160,1,165,6|0,0:0|1:0,2:0:0:0:
400,219,55517,1,0,0:0:0:0:
425,279,55850,1,2,0:0:0:0:
464,227,56183,1,0,0:0:0:0:
490,287,56517,1,2,1:2:0:0:
399,204,56850,1,0,0:0:0:0:
395,208,57017,1,0,0:0:0:0:
391,212,57183,6,0,L|303:224,1,82.5,2|2,0:0|0:0,2:0:0:0:
276,318,57850,5,0,1:0:0:0:
258,309,58017,1,0,0:0:0:0:
239,301,58183,1,0,0:0:0:0:
220,293,58350,1,0,0:0:0:0:
201,285,58517,6,0,B|209:276|209:276|282:288,1,82.5,2|2,0:0|0:0,2:0:0:0:
301,349,59183,2,0,B|293:358|293:358|220:346,1,82.5,2|0,1:2|0:0,2:0:0:0:
179,304,59683,1,0,0:0:0:0:
175,308,59850,6,0,B|118:303|117:344|72:376|28:373,1,165,2|0,0:0|1:0,2:0:0:0:
9,240,60850,1,0,0:0:0:0:
51,189,61183,2,0,P|95:206|130:235,1,82.5,2|0,0:0|0:0,2:0:0:0:
162,174,61850,2,0,P|191:210|207:253,1,82.5,2|0,1:2|0:0,2:0:0:0:
203,270,62350,1,0,0:0:0:0:
207,266,62517,6,0,B|237:225|237:225|277:237,1,82.5,2|0,0:0|0:0,2:0:0:0:
279,250,63017,1,0,0:0:0:0:
283,246,63183,2,0,B|313:205|313:205|353:217,1,82.5,2|2,1:2|0:0,2:0:0:0:
349,291,63850,1,0,0:0:0:0:
368,284,64017,1,0,0:0:0:0:
387,276,64183,2,0,L|435:260,1,41.25,2|0,0:0|2:0,2:0:0:0:
444,273,64517,1,2,1:2:0:0:
465,209,64850,1,4,0:0:0:0:
421,159,65183,5,0,0:0:0:0:
417,155,65350,1,0,2:0:0:0:
466,97,65683,2,0,B|417:125|417:125|392:115,1,82.5,0|0,2:0|2:0,2:0:0:0:
374,106,66183,1,0,0:0:0:0:
333,175,66517,6,0,P|306:153|297:95,1,82.5,0|0,0:0|0:0,2:0:0:0:
228,112,67183,2,0,P|233:77|279:40,1,82.5,2|0,1:2|0:0,2:0:0:0:
332,52,67850,5,0,0:0:0:0:
264,49,68183,2,0,L|216:57,1,41.25,2|0,0:0|2:0,2:0:0:0:
205,67,68517,1,0,1:0:0:0:
201,63,68683,1,2,0:0:0:0:
197,59,68850,2,0,L|149:67,1,41.25,2|0,0:0|0:0,2:0:0:0:
135,74,69183,1,2,0:0:0:0:
139,70,69350,1,0,0:0:0:0:
143,66,69517,2,0,L|155:18,1,41.25,2|0,0:0|2:0,2:0:0:0:
158,4,69850,1,2,1:2:0:0:
30,56,70183,1,0,1:0:0:0:
35,76,70350,1,0,1:0:0:0:
40,96,70517,6,0,B|73:107|83:130|112:136,1,82.5,4|0,0:0|0:0,2:0:0:0:
192,128,71183,2,0,P|174:172|187:209,1,82.5,2|0,1:2|0:0,2:0:0:0:
200,230,71683,1,0,0:0:0:0:
196,226,71850,2,0,P|151:208|114:221,1,82.5,2|0,0:0|0:0,2:0:0:0:
104,231,72350,1,2,2:0:0:0:
256,192,72850,2,0,L|256:150,1,41.25,0|0,0:0|0:0,2:0:0:0:
320,128,73183,6,0,P|338:172|325:209,1,82.5,2|0,0:0|0:0,2:0:0:0:
312,230,73683,1,0,0:0:0:0:
316,226,73850,2,0,P|361:208|398:221,1,82.5,2|0,1:2|0:0,2:0:0:0:
412,227,74350,1,0,0:0:0:0:
408,231,74517,2,0,P|363:249|326:236,1,82.5,2|2,0:0|0:0,2:0:0:0:
256,192,75183,1,2,1:2:0:0:
203,232,75517,2,0,L|169:224,2,27.5,0|0|0,0:0|2:0|2:0,2:0:0:0:
219,245,75850,6,0,L|224:342,1,82.5,2|0,0:3|0:0,2:0:0:0:
155,284,76517,2,0,L|91:301,1,41.25,2|0,1:2|0:0,2:0:0:0:
94,295,76850,1,0,0:0:0:0:
98,291,77017,2,0,L|18:312,1,82.5,0|0,0:0|0:0,2:0:0:0:
0,303,77517,2,0,L|47:256,1,41.25,0|0,0:0|0:0,2:0:0:0:
57,261,77850,2,0,B|47:282|47:282|32:190,1,82.5,2|0,1:2|0:0,2:0:0:0:
141,113,78517,6,0,B|158:88|158:88|176:187,1,123.75,0|0,0:0|0:0,2:0:0:0:
179,202,79183,2,0,L|243:219,1,41.25,2|0,1:2|0:0,2:0:0:0:
240,221,79517,1,0,0:0:0:0:
236,225,79683,1,0,1:0:0:0:
232,229,79850,2,0,L|253:309,1,82.5,2|0,1:2|1:0,2:0:0:0:
320,286,80517,1,2,1:2:0:0:
339,293,80683,1,0,3:0:0:0:
358,301,80850,1,0,1:0:0:0:
378,308,81017,1,0,3:0:0:0:
397,315,81183,6,0,P|426:300|446:265,1,41.25,4|0,0:0|0:0,2:0:0:0:
458,290,81517,1,0,0:0:0:0:
462,294,81683,2,0,P|471:262|442:190,1,82.5,2|2,0:0|0:0,2:0:0:0:
366,151,82517,6,0,P|334:160|262:131,1,82.5,2|0,0:0|0:0,2:0:0:0:
257,163,83017,2,0,P|248:131|277:59,1,82.5,2|0,0:0|2:0,2:0:0:0:
393,67,83850,6,0,L|399:17,1,41.25,0|0,0:0|0:0,2:0:0:0:
377,6,84183,2,0,L|330:25,1,41.25,0|0,0:0|0:0,2:0:0:0:
331,49,84517,2,0,L|370:79,2,41.25,2|0|2,1:2|2:0|0:0,2:0:0:0:
256,0,85183,6,0,L|256:99,1,82.5,2|0,0:3|0:0,2:0:0:0:
256,107,85683,2,0,L|213:82,1,41.25,0|2,0:0|1:2,2:0:0:0:
200,72,86017,2,0,L|285:22,1,82.5,0|0,2:0|2:0,2:0:0:0:
126,156,86683,5,0,0:0:0:0:
130,160,86850,2,0,L|199:176,1,41.25,0|0,0:0|0:0,2:0:0:0:
181,188,87183,2,0,L|261:206,1,82.5,2|0,1:2|0:0,2:0:0:0:
385,240,87850,2,0,L|316:256,1,41.25,0|0,0:0|0:0,2:0:0:0:
330,262,88183,2,0,L|290:271,1,41.25,2|0,0:0|2:0,2:0:0:0:
273,284,88517,1,2,1:2:0:0:
257,348,88850,1,0,2:0:0:0:
209,301,89183,6,0,P|166:307|120:267,1,82.5,2|0,0:0|0:0,2:0:0:0:
68,268,89850,1,0,1:0:0:0:
72,264,90017,1,0,0:0:0:0:
76,260,90183,2,0,P|75:215|50:197,1,41.25,0|0,0:0|0:0,2:0:0:0:
37,171,90517,6,0,P|22:132|42:76,1,82.5,2|2,0:3|0:0,2:0:0:0:
91,62,91183,2,0,P|128:79|154:133,1,82.5,2|4,1:2|0:0,2:0:0:0:
140,151,91683,1,0,2:0:0:0:
144,147,91850,6,0,L|227:129,1,82.5,2|0,0:0|0:0,2:0:0:0:
385,72,92517,1,0,1:0:0:0:
378,135,92850,1,0,0:0:0:0:
319,165,93183,2,0,L|273:176,1,41.25,2|0,0:0|2:0,2:0:0:0:
260,188,93517,1,2,0:0:0:0:
256,192,93683,1,0,2:0:0:0:
256,192,94183,1,0,0:0:0:0:
192,160,94517,6,0,P|180:123|212:48,1,123.75,2|2,0:0|0:0,2:0:0:0:
236,36,95183,1,0,1:0:0:0:
294,65,95517,2,0,L|299:107,1,41.25,2|0,0:0|2:0,2:0:0:0:
304,138,95850,5,2,0:3:0:0:
355,181,96183,1,0,0:0:0:0:
359,185,96350,1,2,0:0:0:0:
417,159,96683,1,0,0:0:0:0:
421,155,96850,1,0,0:0:0:0:
473,193,97183,6,0,B|485:203|485:203|472:253,1,41.25,0|0,0:0|0:0,2:0:0:0:
473,250,97517,1,0,0:0:0:0:
469,246,97683,1,0,0:0:0:0:
465,242,97850,2,0,B|452:235|452:235|397:247|397:247|375:237,1,82.5,2|0,1:2|0:0,2:0:0:0:
368,230,98350,1,0,0:0:0:0:
372,234,98517,2,0,L|361:281,1,41.25,2|0,0:0|2:0,2:0:0:0:
357,294,98850,2,0,L|256:316,1,82.5,2|0,0:0|1:0,2:0:0:0:
256,324,99350,1,0,2:0:0:0:
260,320,99517,1,0,0:0:0:0:
264,316,99683,1,0,2:0:0:0:
268,312,99850,6,0,P|276:283|244:224,1,82.5,2|0,0:0|2:0,2:0:0:0:
207,281,100517,2,0,P|186:261|119:261,1,82.5,0|0,2:0|1:0,2:0:0:0:
112,262,101017,1,0,0:0:0:0:
116,266,101183,2,0,P|141:252|162:188,1,82.5,2|2,0:3|1:2,2:0:0:0:
116,93,101850,6,0,P|111:131|127:169,1,41.25,2|0,3:2|3:0,2:0:0:0:
61,175,102183,2,0,P|91:197|132:203,1,41.25,0|0,3:0|0:0,2:0:0:0:
163,204,102517,6,0,L|188:119,1,82.5000025177003,4|0,0:0|2:0,2:0:0:0:
420,146,103350,1,0,0:0:0:0:
418,152,103517,1,0,0:0:0:0:
416,158,103683,1,0,0:0:0:0:
415,164,103850,2,0,P|352:160|315:105,1,123.75,0|0,2:0|0:0,2:0:0:0:
322,91,104517,6,0,B|290:138|290:138|257:144,1,82.5,2|0,1:2|0:0,2:0:0:0:
238,164,105072,5,0,0:0:0:0:
242,160,105183,2,0,B|201:108|201:108|154:105,1,82.5,2|0,0:0|0:0,2:0:0:0:
256,224,105850,6,0,L|256:286,1,41.25,2|0,1:2|0:0,2:0:0:0:
256,286,106183,2,0,L|256:348,1,41.25,0|0,0:0|0:0,2:0:0:0:
320,306,106517,6,0,B|352:353|352:353|385:359,1,82.5,2|0,0:0|0:0,2:0:0:0:
396,379,107072,5,0,2:0:0:0:
400,375,107183,2,0,B|441:323|441:323|488:320,1,82.5,0|0,1:0|0:0,2:0:0:0:
320,306,107850,5,0,0:0:0:0:
258,277,108183,1,0,0:0:0:0:
368,257,108517,2,0,P|391:214|379:170,1,82.5,2|0,1:2|0:0,2:0:0:0:
196,306,109183,5,0,0:0:0:0:
258,277,109517,1,0,0:0:0:0:
148,257,109850,1,2,1:2:0:0:
210,225,110183,2,0,L|191:33,1,165,4|0,0:0|0:0,2:0:0:0:
340,85,111183,6,0,L|337:126,1,41.25,2|0,1:2|0:0,2:0:0:0:
304,183,111517,2,0,L|302:225,1,41.25,4|0,0:0|0:0,2:0:0:0:
288,320,111850,5,2,0:0:0:0:
256,384,112183,1,2,1:2:0:0:
224,320,112517,2,0,P|196:311|176:283,1,41.25,2|0,3:2|3:0,2:0:0:0:
288,320,112850,2,0,P|312:335|324:368,1,41.25,0|0,3:0|2:0,2:0:0:0:
255,264,113183,6,0,L|248:181,1,82.5,4|0,0:0|0:0,2:0:0:0:
248,181,113850,1,0,1:0:0:0:
154,112,114183,5,0,0:0:0:0:
181,173,114517,1,2,0:0:0:0:
221,119,114850,1,0,0:0:0:0:
216,87,115183,1,2,1:2:0:0:
221,119,115517,5,0,0:0:0:0:
248,181,115850,1,2,0:0:0:0:
288,127,116183,1,0,0:0:0:0:
282,95,116517,1,2,1:2:0:0:
288,127,116850,5,0,0:0:0:0:
315,189,117183,1,2,0:0:0:0:
354,134,117517,1,0,0:0:0:0:
349,102,117850,1,2,1:2:0:0:
216,87,118183,5,2,0:0:0:0:
197,81,118350,1,2,0:0:0:0:
182,69,118517,2,0,P|154:56|132:57,1,41.25,2|0,0:0|2:0,2:0:0:0:
49,37,118850,2,2,B|183:-48|308:102|219:108|335:228|427:231,1,453.75,2|0,0:0|2:0,2:0:0:0:
478,245,120850,5,2,0:0:0:0:
472,264,121017,1,2,0:0:0:0:
460,279,121183,2,0,P|447:307|456:364,1,82.5,2|0,0:0|0:0,2:0:0:0:
452,356,121850,1,0,1:0:0:0:
411,229,122183,5,0,0:0:0:0:
417,210,122350,1,0,0:0:0:0:
429,195,122517,2,0,P|442:167|433:110,1,82.5,2|0,0:0|0:0,2:0:0:0:
436,117,123183,1,0,1:0:0:0:
376,287,123517,5,0,3:0:0:0:
356,291,123683,1,0,0:0:0:0:
336,295,123850,2,0,L|281:286,1,41.25,6|0,0:0|2:0,2:0:0:0:
275,283,124183,1,0,0:0:0:0:
224,327,124517,1,2,1:2:0:0:
213,262,124850,1,0,0:0:0:0:
162,303,125183,1,2,0:0:0:0:
101,196,125517,5,0,0:0:0:0:
165,214,125850,2,0,B|207:223|207:223|239:195,1,82.5,0|0,1:0|0:0,2:0:0:0:
252,100,126517,5,2,0:0:0:0:
200,140,126850,1,0,0:0:0:0:
189,75,127183,1,2,1:2:0:0:
138,116,127517,1,0,0:0:0:0:
127,52,127850,2,0,B|102:45|102:45|71:57,1,37.5,2|0,0:0|1:0,2:0:0:0:
52,0,128172,2,0,B|29:12|29:12|17:37,1,37.5,0|0,1:0|3:0,2:0:0:0:
35,89,128495,1,0,3:0:0:0:
47,104,128656,1,0,3:0:0:0:
53,123,128817,1,0,3:0:0:0:
14,176,129183,5,2,0:3:0:0:
60,222,129517,1,0,0:0:0:0:
23,277,129850,1,0,0:0:0:0:
69,323,130183,1,0,0:0:0:0:
32,378,130517,1,2,0:0:0:0:
32,378,130850,6,0,L|103:365,1,41.25,0|0,0:0|0:0,2:0:0:0:
94,366,131183,2,0,L|118:298,1,41.25,2|0,0:0|0:0,2:0:0:0:
114,306,131517,2,0,L|185:293,1,41.25,0|0,0:0|0:0,2:0:0:0:
225,289,131850,5,2,0:0:0:0:
271,335,132183,1,0,0:0:0:0:
326,298,132517,1,0,0:0:0:0:
372,344,132850,1,0,0:0:0:0:
427,307,133183,1,8,3:0:0:0:
427,307,133517,2,0,L|414:236,1,41.25,8|0,3:0|3:0,2:0:0:0:
418,244,133850,2,0,L|485:219,1,41.25,2|0,3:3|3:0,2:0:0:0:
477,221,134183,2,0,L|464:150,1,41.25,0|0,3:0|3:0,2:0:0:0:
457,114,134517,6,0,P|422:90|385:31,1,82.5,4|0,0:0|0:0,2:0:0:0:
397,58,135183,1,2,1:2:0:0:
334,89,135517,2,0,L|279:73,1,41.25,0|0,0:0|0:0,2:0:0:0:
328,23,135850,1,2,0:0:0:0:
332,19,136017,2,0,B|321:44|321:44|346:163|346:163|327:186,1,165,0|0,0:0|0:0,2:0:0:0:
323,192,136850,1,2,0:0:0:0:
270,152,137183,6,0,P|235:176|198:235,1,82.5,2|2,0:0|0:0,2:0:0:0:
210,208,137850,1,0,1:0:0:0:
250,266,138183,2,0,L|195:282,1,41.25,0|0,0:0|2:0,2:0:0:0:
191,284,138517,1,2,0:3:0:0:
146,332,138850,2,0,L|91:348,1,41.25,2|0,0:0|2:0,2:0:0:0:
87,350,139183,1,2,1:2:0:0:
15,311,139517,5,0,0:0:0:0:
19,307,139683,1,0,0:0:0:0:
23,303,139850,2,0,L|36:247,1,41.25,2|2,0:0|0:0,2:0:0:0:
16,232,140183,6,0,P|40:229|74:254,1,41.25,0|0,0:0|2:0,2:0:0:0:
72,251,140517,1,2,1:2:0:0:
136,284,140850,6,0,L|150:228,1,41.25,0|2,0:0|2:0,2:0:0:0:
151,221,141183,1,2,0:0:0:0:
208,273,141517,6,0,L|222:217,1,41.25,0|2,0:0|2:0,2:0:0:0:
223,210,141850,1,2,1:2:0:0:
179,144,142183,6,0,P|155:141|121:166,1,41.25,2|2,0:0|0:0,2:0:0:0:
123,159,142517,2,0,P|99:164|36:122,1,82.5,2|0,0:0|0:0,2:0:0:0:
38,128,143017,1,0,0:0:0:0:
42,124,143183,1,2,1:2:0:0:
104,91,143517,6,0,L|90:35,1,41.25,0|2,0:0|2:0,2:0:0:0:
89,28,143850,1,2,0:3:0:0:
180,102,144183,6,0,L|166:46,1,41.25,0|2,0:0|2:0,2:0:0:0:
165,39,144516,1,2,1:2:0:0:
297,47,144850,5,0,0:0:0:0:
301,51,145017,1,0,0:0:0:0:
305,55,145183,2,0,L|291:110,1,41.25,2|0,0:0|0:0,2:0:0:0:
278,127,145517,6,0,P|302:130|336:105,1,41.25,2|0,0:0|2:0,2:0:0:0:
337,112,145850,1,2,1:2:0:0:
395,62,146183,6,0,L|409:118,1,41.25,0|2,0:0|2:0,2:0:0:0:
410,125,146516,1,2,0:0:0:0:
464,65,146850,6,0,L|478:121,1,41.25,0|2,0:0|2:0,2:0:0:0:
479,128,147183,1,2,1:2:0:0:
512,192,147517,6,0,P|488:189|454:214,1,41.25,0|0,0:0|0:0,2:0:0:0:
454,208,147850,2,0,P|430:213|367:171,1,82.5,2|2,0:0|0:0,2:0:0:0:
369,177,148350,1,0,0:0:0:0:
365,173,148517,1,2,1:2:0:0:
307,203,148850,6,0,L|293:259,1,41.25,0|2,0:0|2:0,2:0:0:0:
292,266,149183,1,2,0:3:0:0:
367,240,149517,6,0,L|353:296,1,41.25,0|2,0:0|2:0,2:0:0:0:
352,303,149850,1,2,1:2:0:0:
294,332,150183,5,0,0:0:0:0:
290,328,150350,1,0,0:0:0:0:
286,324,150517,2,0,P|268:309|221:316,1,41.25,2|0,0:0|2:0,2:0:0:0:
232,289,150850,2,0,P|212:301|204:348,1,41.25,2|0,0:0|2:0,2:0:0:0:
163,364,151183,1,0,1:0:0:0:
131,300,151517,5,0,0:0:0:0:
127,304,151683,1,0,0:0:0:0:
123,308,151850,2,0,P|105:323|58:316,1,41.25,2|0,0:0|2:0,2:0:0:0:
69,343,152183,2,0,P|49:330|41:283,1,41.25,2|0,0:0|2:0,2:0:0:0:
0,268,152517,1,4,1:2:0:0:
93,249,152850,5,0,0:0:0:0:
89,245,153017,1,0,0:0:0:0:
85,241,153183,2,0,P|100:206|169:203,1,82.5,2|0,0:0|1:0,2:0:0:0:
159,204,153683,5,0,0:0:0:0:
155,208,153850,2,0,P|113:207|64:185,1,82.5,2|8,0:0|3:0,2:0:0:0:
61,177,154350,1,0,0:0:0:0:
57,173,154517,2,0,P|87:144|115:132,1,41.25,2|0,0:0|2:0,2:0:0:0:
107,144,154850,2,0,P|108:102|120:74,1,41.25,2|0,3:2|2:0,2:0:0:0:
118,83,155183,1,8,3:0:0:0:
256,65,155517,2,0,P|255:107|243:135,1,41.25,0|0,3:0|3:0,2:0:0:0:
245,126,155850,6,0,P|288:115|343:146,1,82.5,4|0,0:0|0:0,2:0:0:0:
359,69,156517,2,0,P|390:100|390:163,1,82.5,0|0,1:0|0:0,2:0:0:0:
409,153,157017,1,0,0:0:0:0:
413,157,157183,6,0,P|456:168|511:137,1,82.5,2|2,0:0|0:0,2:0:0:0:
491,156,157850,1,0,1:0:0:0:
350,188,158183,5,0,0:0:0:0:
346,192,158350,1,0,0:0:0:0:
342,196,158517,2,0,P|330:222|339:274,1,82.5,2|0,0:0|0:0,2:0:0:0:
365,282,159017,1,0,0:0:0:0:
361,286,159183,2,0,L|279:298,1,82.5,0|0,1:0|0:0,2:0:0:0:
302,364,159683,5,0,0:0:0:0:
306,360,159850,2,0,L|347:354,1,41.25,2|0,0:3|2:0,2:0:0:0:
279,297,160183,2,0,L|225:303,1,41.25,2|0,0:0|2:0,2:0:0:0:
215,306,160517,1,0,1:0:0:0:
195,369,160850,1,0,0:0:0:0:
150,320,161183,1,2,0:0:0:0:
169,257,161517,6,0,B|145:244|145:244|68:268,1,82.5,2|0,0:0|1:2,2:0:0:0:
73,279,162017,2,0,L|76:337,1,41.25,2|0,2:0|0:0,2:0:0:0:
50,331,162516,6,0,L|45:272,1,55.0000016784668,2|0,0:0|0:0,2:0:0:0:
60,252,162850,2,0,B|76:248|76:248|128:267|128:267|138:263,1,82.5,0|2,0:0|1:2,2:0:0:0:
187,219,163517,1,0,0:0:0:0:
238,260,163850,1,0,0:0:0:0:
238,260,164183,6,0,B|262:273|262:273|339:249,1,82.5,2|0,0:0|1:2,2:0:0:0:
334,238,164683,2,0,L|331:180,1,41.25,2|0,2:0|0:0,2:0:0:0:
356,189,165183,6,0,L|358:249,1,55.0000016784668,2|0,0:3|0:0,2:0:0:0:
347,265,165517,2,0,B|331:269|331:269|279:250|279:250|268:253,1,82.5,0|2,0:0|1:2,2:0:0:0:
254,189,166183,1,0,0:0:0:0:
313,149,166517,1,0,0:0:0:0:
313,149,166850,6,0,L|405:159,1,82.5,2|0,0:0|1:2,2:0:0:0:
421,148,167350,2,0,L|375:143,1,41.25,2|0,2:0|0:0,2:0:0:0:
372,131,167850,6,0,L|426:137,1,55.0000016784668,2|0,0:0|0:0,2:0:0:0:
443,163,168183,2,0,B|447:179|447:179|428:231|428:231|431:241,1,82.5,0|2,0:0|1:2,2:0:0:0:
478,287,168850,1,0,0:0:0:0:
431,241,169183,1,0,0:0:0:0:
431,241,169517,6,0,L|339:251,1,82.5,2|0,0:0|1:2,2:0:0:0:
324,238,170017,2,0,L|370:233,1,41.25,2|0,2:0|0:0,2:0:0:0:
370,223,170517,6,0,L|305:229,1,55.0000016784668,2|0,0:3|0:0,2:0:0:0:
301,255,170850,2,0,B|297:271|297:271|316:323|316:323|312:333,1,82.5,0|2,0:0|1:2,2:0:0:0:
256,384,171517,1,0,0:0:0:0:
256,384,171850,6,0,B|202:351|202:351|144:369,1,123.75,2|0,0:0|2:0,2:0:0:0:
128,384,172517,1,2,1:2:0:0:
155,323,172850,1,2,0:0:0:0:
118,268,173183,6,0,L|65:280,1,41.25,2|0,0:0|0:0,2:0:0:0:
61,266,173517,2,0,L|114:254,1,41.25,2|0,0:0|2:0,2:0:0:0:
122,259,173850,2,0,P|156:229|129:162,1,123.75,2|0,1:2|2:0,2:0:0:0:
110,161,174517,6,0,B|164:128|164:128|221:146,1,123.75,2|0,0:0|2:0,2:0:0:0:
238,161,175183,1,2,1:2:0:0:
247,226,175517,1,0,0:0:0:0:
297,267,175850,6,0,L|350:255,1,41.25,2|0,1:3|1:0,2:0:0:0:
354,269,176183,2,0,L|301:281,1,41.25,2|0,1:2|2:0,2:0:0:0:
290,276,176517,2,0,P|287:321|353:349,1,123.75,2|0,1:2|2:0,2:0:0:0:
371,340,177183,6,0,B|425:307|425:307|485:326,1,123.75000377655,6|0,0:0|2:0,2:0:0:0:
499,340,177850,1,2,1:2:0:0:
481,276,178183,1,0,0:0:0:0:
467,211,178517,6,0,L|479:158,1,41.25,2|0,0:0|0:0,2:0:0:0:
465,154,178850,2,0,L|453:207,1,41.25,2|0,0:0|0:0,2:0:0:0:
450,213,179183,2,0,P|404:215|376:149,1,123.75,2|0,1:2|2:0,2:0:0:0:
382,133,179850,6,0,L|287:151,1,82.5,2|0,0:0|1:0,2:0:0:0:
252,193,180517,2,0,L|157:211,1,82.5,2|0,0:0|3:0,2:0:0:0:
120,156,181183,6,0,L|91:201,1,41.25,2|0,0:3|0:0,2:0:0:0:
87,208,181517,1,2,3:2:0:0:
23,190,181850,2,0,L|51:144,1,41.25,2|0,0:0|0:0,2:0:0:0:
56,138,182183,1,2,3:2:0:0:
28,78,182517,5,0,0:0:0:0:
60,20,182850,1,0,0:0:0:0:
121,44,183183,2,0,L|228:30,1,82.5,2|0,0:0|2:0,2:0:0:0:
257,70,183850,5,0,0:0:0:0:
225,127,184183,1,0,0:0:0:0:
164,104,184517,2,0,L|57:118,1,82.5,2|0,0:0|2:0,2:0:0:0:
34,160,185183,5,2,0:0:0:0:
41,179,185350,1,0,0:0:0:0:
54,195,185517,1,0,0:0:0:0:
71,207,185683,1,0,0:0:0:0:
90,215,185850,2,0,L|143:208,1,41.25,2|0,0:0|0:0,2:0:0:0:
152,207,186183,2,0,L|205:200,1,41.25,2|0,0:0|0:0,2:0:0:0:
215,198,186517,5,0,0:0:0:0:
273,166,186850,1,0,0:0:0:0:
331,198,187183,2,0,P|343:228|339:296,1,82.5,2|0,0:0|0:0,2:0:0:0:
256,352,187850,6,0,L|263:269,1,82.5,2|0,0:0|2:0,2:0:0:0:
263,270,188517,1,0,2:0:0:0:
306,218,188850,5,0,0:0:0:0:
263,270,189183,1,2,0:0:0:0:
239,208,189517,1,0,0:0:0:0:
252,178,189850,1,2,0:0:0:0:
239,208,190183,5,0,0:0:0:0:
197,261,190517,1,2,0:0:0:0:
172,198,190850,1,0,0:0:0:0:
186,169,191183,1,2,0:0:0:0:
172,198,191517,5,0,0:0:0:0:
130,251,191850,1,2,0:0:0:0:
105,188,192183,1,0,0:0:0:0:
120,158,192517,1,2,0:0:0:0:
157,105,192850,5,2,0:0:0:0:
163,86,193017,1,2,0:0:0:0:
175,71,193183,2,0,P|188:43|187:21,1,41.25,2|0,0:0|2:0,2:0:0:0:
192,10,193517,2,2,B|277:144|127:269|121:180|1:296|-2:388,1,453.75,2|0,0:0|2:0,2:0:0:0:
20,384,195517,5,2,0:0:0:0:
39,378,195683,1,2,0:0:0:0:
54,366,195850,2,0,P|82:353|139:362,1,82.5,2|0,0:0|0:0,2:0:0:0:
131,358,196517,1,0,0:0:0:0:
148,294,196850,5,0,0:0:0:0:
167,300,197017,1,0,0:0:0:0:
182,312,197183,2,0,P|210:325|267:316,1,82.5,2|0,0:0|0:0,2:0:0:0:
260,319,197850,1,0,0:0:0:0:
327,302,198183,5,0,0:0:0:0:
331,282,198350,1,0,0:0:0:0:
335,262,198517,2,0,L|326:207,1,41.25,2|0,0:0|2:0,2:0:0:0:
323,201,198850,1,0,0:0:0:0:
271,241,199183,1,0,0:0:0:0:
260,176,199517,1,0,0:0:0:0:
209,217,199850,1,2,0:0:0:0:
198,152,200183,1,0,0:0:0:0:
147,193,200517,2,0,B|100:205|100:205|65:171,1,82.5,2|0,0:0|0:0,2:0:0:0:
32,127,201183,5,2,0:0:0:0:
57,66,201517,1,0,0:0:0:0:
99,117,201850,1,0,0:0:0:0:
122,56,202183,1,0,0:0:0:0:
165,108,202517,2,0,B|199:141|199:141|247:129,1,82.5,2|0,0:0|0:0,2:0:0:0:
286,94,203183,2,0,B|251:60|251:60|203:72,1,82.5,2|0,0:0|0:0,2:0:0:0:
232,133,203850,6,0,P|201:227|0:213,1,330,2|2,0:0|0:0,2:0:0:0:
2,216,205517,1,0,0:0:0:0:
56,253,205850,2,0,L|50:352,1,82.5,0|0,0:0|0:0,2:0:0:0:
98,381,206517,6,0,P|143:384|144:185,1,330,2|0,0:0|0:0,2:0:0:0:
143,184,208183,1,2,0:0:0:0:
182,236,208517,2,0,L|305:232,1,123.75,2|0,0:0|0:0,2:0:0:0:
328,231,209183,6,0,P|365:198|435:359,1,330,2|2,0:0|0:0,2:0:0:0:
436,358,210850,1,0,0:0:0:0:
492,323,211183,2,0,L|487:206,1,82.5,2|0,0:0|0:0,2:0:0:0:
482,174,211850,6,0,P|379:98|497:115,1,330,2|2,0:0|0:0,2:0:0:0:
493,104,213517,1,0,0:0:0:0:
450,53,213850,2,0,L|297:62,1,123.75,2|0,0:0|2:0,2:0:0:0:
309,66,214550,6,0,B|316:80|316:80|304:135|304:135|320:166,1,82.5,2|0,0:0|0:0,2:0:0:0:
349,196,215216,1,0,0:0:0:0:
404,160,215550,1,0,0:0:0:0:
404,160,215883,2,0,B|423:178|423:178|404:286,1,123.75,2|0,0:0|2:0,2:0:0:0:
399,294,216550,2,0,L|286:304,1,82.5,0|0,0:0|0:0,2:0:0:0:
256,327,217216,6,0,B|249:313|249:313|261:258|261:258|245:227,1,82.5,2|0,0:0|0:0,2:0:0:0:
270,182,217883,1,0,0:0:0:0:
207,201,218216,1,0,0:0:0:0:
207,201,218550,2,0,B|188:183|188:183|207:75,1,123.75,0|0,0:0|2:0,2:0:0:0:
225,69,219216,2,0,L|117:82,1,82.5,0|0,0:0|0:0,2:0:0:0:
108,134,219850,6,0,B|94:127|94:127|39:139|39:139|8:123,1,82.5,2|0,0:0|2:0,2:0:0:0:
9,197,220515,1,0,0:0:0:0:
74,200,220849,1,0,0:0:0:0:
74,200,221182,2,0,B|93:218|93:218|74:326,1,123.75,0|0,0:0|2:0,2:0:0:0:
73,337,221850,2,0,B|124:297|124:297|181:310,1,123.75,0|0,0:0|2:0,2:0:0:0:
198,325,222516,6,0,B|274:307|251:363|333:350,1,123.75000377655,2|0,1:2|2:0,2:0:0:0:
342,336,223183,1,0,0:0:0:0:
390,291,223515,1,2,0:0:0:0:
342,246,223850,1,0,0:0:0:0:
390,201,224183,1,0,0:0:0:0:
435,249,224516,2,0,B|422:153|422:153|439:119,1,123.75000377655,0|0,1:0|2:0,2:0:0:0:
445,112,225183,6,0,B|401:100|410:129|362:130,1,82.5,2|0,0:0|0:0,2:0:0:0:
307,165,225850,2,0,B|298:103|298:103|282:90,1,82.5,2|0,1:2|0:0,2:0:0:0:
268,82,226350,1,0,1:0:0:0:
264,86,226515,1,2,1:2:0:0:
215,130,226850,1,0,0:0:0:0:
150,112,227183,1,2,3:2:0:0:
140,143,227350,1,0,3:0:0:0:
131,175,227515,1,2,3:2:0:0:
65,180,227850,6,0,B|150:110|328:183|164:266|309:399|580:406|681:242|662:25|563:-89|358:-134|192:-64|121:49|143:155|235:202|316:275|454:304|527:193|493:93|381:50|324:104,1,1320,4|0,0:0|2:0,2:0:0:0:
