osu file format v14

[General]
AudioFilename: audio.mp3
AudioLeadIn: 0
PreviewTime: 134191
Countdown: 0
SampleSet: Soft
StackLeniency: 0
Mode: 0
LetterboxInBreaks: 0
WidescreenStoryboard: 1

[Editor]
Bookmarks: 22408,43741,54408,70408,71074,74908,81074,107741,129074,134408,139741,150408,155741,161074,171741,182408,185349,214408,227741
DistanceSpacing: 1
BeatDivisor: 4
GridSize: 32
TimelineZoom: 1

[Metadata]
Title:Ringo Biyori ~The Wolf Whistling Song x Get Low (feat. Ying Yang Twins)
TitleUnicode:リンゴ日和 ~The Wolf Whistling Song x Get Low (feat. Ying Yang Twins)
Artist:ROCKY CHACK, Lil Jon & The East Side Boyz
ArtistUnicode:ROCKY CHACK, Lil Jon & The East Side Boyz
Creator:Deramok
Version:Lower Insane
Source:狼と香辛料
Tags:nautzz spice and wolf ookami to koushinryou Rap-Bit whistle ロッキー・チャック mashup mash up hiyori hip hop anime novelty english pop jpop
BeatmapID:3154438
BeatmapSetID:1062345

[Difficulty]
HPDrainRate:4
CircleSize:3
OverallDifficulty:5
ApproachRate:4
SliderMultiplier:1.75
SliderTickRate:1

[Events]
//Background and Video events
0,0,"horo.jpg",0,0
//Break Periods
//Storyboard Layer 0 (Background)
//Storyboard Layer 1 (Fail)
//Storyboard Layer 2 (Pass)
//Storyboard Layer 3 (Foreground)
//Storyboard Layer 4 (Overlay)
//Storyboard Sound Samples

[TimingPoints]
200,666.666666666667,4,2,0,70,1,0
1200,631.578947368421,4,2,0,70,1,0
2525,666.666666666667,4,2,0,70,1,0
3828,666.666666666667,4,2,0,70,1,0
5411,-100,4,2,2,5,0,0
5494,720.00288001152,4,2,0,70,1,0
5854,677.966101694915,4,2,0,70,1,0
6526,666.666666666667,4,2,0,70,1,0
10548,674.157303370787,4,2,0,70,1,0
11557,645.161290322581,4,2,0,70,1,0
13199,666.666666666667,4,2,0,70,1,0
14517,666.666666666667,4,2,0,70,1,0
22517,666.666666666667,4,2,0,70,1,0
127850,645.161290322581,4,2,0,70,1,0
128817,732.600732600733,4,2,0,70,1,0
129183,666.666666666667,4,2,0,70,1,0
134766,-100,4,2,2,5,0,0
134849,-100,4,2,0,70,0,0
135099,-100,4,2,2,5,0,0
135183,-100,4,2,0,70,0,0
135433,-100,4,2,2,5,0,0
135516,-100,4,2,0,70,0,0
136766,-100,4,2,2,5,0,0
136849,-100,4,2,0,70,0,0
137099,-100,4,2,2,5,0,0
137183,-100,4,2,0,70,0,0
141099,-100,4,2,2,5,0,0
141183,-100,4,2,0,70,0,0
141433,-100,4,2,2,5,0,0
141516,-100,4,2,0,70,0,0
141766,-100,4,2,2,5,0,0
141849,-100,4,2,0,70,0,0
142099,-100,4,2,2,5,0,0
142183,-100,4,2,0,70,0,0
143766,-100,4,2,2,5,0,0
143849,-100,4,2,0,70,0,0
144099,-100,4,2,2,5,0,0
144183,-100,4,2,0,70,0,0
144433,-100,4,2,2,5,0,0
144516,-100,4,2,0,70,0,0
144766,-100,4,2,2,5,0,0
144849,-100,4,2,0,70,0,0
146433,-100,4,2,2,5,0,0
146516,-100,4,2,0,70,0,0
146766,-100,4,2,2,5,0,0
146849,-100,4,2,0,70,0,0
147099,-100,4,2,2,5,0,0
147183,-100,4,2,0,70,0,0
147433,-100,4,2,2,5,0,0
147516,-100,4,2,0,70,0,0
149099,-100,4,2,2,5,0,0
149183,-100,4,2,0,70,0,0
149433,-100,4,2,2,5,0,0
149516,-100,4,2,0,70,0,0
149766,-100,4,2,2,5,0,0
149851,-100,4,2,0,70,0,0
150101,-100,4,2,2,5,0,0
150183,-100,4,2,0,70,0,0
214550,666.666666666667,4,2,0,70,1,0
219849,666.666666666667,4,2,0,70,1,0
222516,666.666666666667,4,2,0,70,1,0

[Colours]
Combo1 : 232,189,40
Combo2 : 196,81,118
Combo3 : 137,177,78
Combo4 : 218,91,31

[HitObjects]
13,326,200,6,0,L|-5:348,4,21.875,0|0|0|0|2,0:0|0:0|0:0|0:0|0:0,0:0:0:0:
23,326,866,1,2,0:0:0:0:
97,371,1200,2,0,P|134:377|191:370,2,87.5,2|0|0,0:0|0:0|0:0,0:0:0:0:
23,326,2147,5,0,0:0:0:0:
99,285,2525,1,2,0:0:0:0:
109,285,2858,1,0,0:0:0:0:
140,316,3191,1,2,0:0:0:0:
151,316,3525,1,0,0:0:0:0:
178,240,3828,2,0,P|215:234|272:241,3,87.5,2|0|0|0,0:0|0:0|0:0|0:0,0:0:0:0:
317,317,5161,2,0,P|349:318|381:312,1,65.625
402,305,5494,6,0,L|416:333,4,21.875
404,295,6192,1,2,0:0:0:0:
503,313,6526,2,0,P|484:259|488:216,2,87.5,2|0|0,0:0|0:0|0:0,0:0:0:0:
404,295,7526,5,0,0:0:0:0:
402,209,7859,1,2,0:0:0:0:
398,200,8192,1,0,0:0:0:0:
427,166,8526,1,2,0:0:0:0:
423,157,8859,1,0,0:0:0:0:
502,109,9192,2,0,P|500:65|484:25,3,87.5,2|0|0|0,0:0|0:0|0:0|0:0,0:0:0:0:
352,28,10548,2,0,P|392:44|421:72,1,65.625,2|0,0:0|0:0,0:0:0:0:
417,79,10885,6,0,L|412:100,4,21.875,0|0|0|0|2,0:0|0:0|0:0|0:0|0:0,0:0:0:0:
418,108,11557,1,2,0:0:0:0:
327,107,11879,2,0,P|285:119|250:146,2,87.5,2|0|0,0:0|0:0|0:0,0:0:0:0:
251,49,12847,5,0,0:0:0:0:
180,98,13199,1,2,0:0:0:0:
171,101,13532,1,0,0:0:0:0:
145,66,13865,1,2,0:0:0:0:
136,63,14198,1,0,0:0:0:0:
68,1,14517,2,0,P|28:20|-1:52,3,87.5,2|0|0|0,0:0|0:0|0:0|0:0,0:0:0:0:
48,123,15850,2,0,P|33:164|33:203,1,65.625
44,204,16183,6,0,L|53:223,4,21.875,0|0|0|0|2,0:0|0:0|0:0|0:0|0:0,0:0:0:0:
63,225,16850,1,0,0:0:0:0:
149,257,17183,2,0,P|163:298|163:343,2,87.5,2|0|0,0:0|0:0|0:0,0:0:0:0:
134,171,18183,1,0,0:0:0:0:
63,225,18517,1,2,0:0:0:0:
62,234,18850,1,0,0:0:0:0:
27,261,19183,1,2,0:0:0:0:
30,269,19516,1,0,0:0:0:0:
6,367,19850,6,0,P|49:347|89:349,1,87.5,2|0,0:0|0:0,0:0:0:0:
172,384,20517,2,0,P|133:356|114:321,1,87.5,2|0,0:0|0:0,0:0:0:0:
145,241,21183,1,2,0:0:0:0:
289,315,21517,5,8,3:0:0:0:
283,335,21683,1,0,3:0:0:0:
268,351,21850,2,0,L|218:356,2,43.75,0|0|0,3:0|3:0|3:0,0:0:0:0:
215,373,22350,1,0,3:0:0:0:
172,384,22517,5,4,0:0:0:0:
140,355,22850,1,0,0:0:0:0:
86,284,23183,2,0,P|59:316|21:341,1,87.5,0|0,1:0|0:0,0:0:0:0:
7,237,23850,5,0,0:0:0:0:
39,208,24183,1,0,0:0:0:0:
93,137,24516,2,0,P|119:169|158:194,1,87.5,0|0,1:0|0:0,0:0:0:0:
6,92,25183,6,0,L|0:135,2,43.75,2|0|0,0:0|0:0|0:0,0:0:0:0:
51,70,25683,1,0,0:0:0:0:
47,28,25850,6,0,L|95:7,2,43.75,2|0|2,1:2|0:0|0:0,0:0:0:0:
128,30,26350,1,0,0:0:0:0:
171,15,26517,5,2,0:3:0:0:
215,19,26850,1,0,0:0:0:0:
226,61,27183,2,0,P|182:61|140:73,1,87.5,2|0,1:2|0:0,0:0:0:0:
62,223,27850,6,0,P|105:222|147:210,1,87.5,2|0,0:0|0:0,0:0:0:0:
14,135,28850,5,0,0:0:0:0:
0,273,29183,1,2,0:0:0:0:
62,223,29517,2,0,P|59:270|77:319,1,87.5,0|2,0:0|1:2,0:0:0:0:
0,273,30183,5,0,0:0:0:0:
140,361,30517,1,2,0:0:0:0:
149,281,30851,2,0,P|181:316|228:338,1,87.5,0|2,0:0|1:2,0:0:0:0:
140,361,31517,5,0,0:0:0:0:
302,324,31850,1,2,0:3:0:0:
252,261,32184,2,0,P|299:264|349:246,1,87.5,0|2,0:0|1:2,0:0:0:0:
302,324,32850,5,2,0:0:0:0:
323,319,33017,1,2,0:0:0:0:
345,319,33183,2,0,P|376:329|398:348,1,43.75,2|0,0:0|0:0,0:0:0:0:
426,384,33517,2,0,P|367:206|526:20,1,437.5,2|0,0:0|0:0,0:0:0:0:
384,90,35517,1,2,0:0:0:0:
367,76,35683,1,2,0:0:0:0:
346,69,35850,2,0,P|302:69|260:94,2,87.5,2|0|0,0:0|0:0|1:0,0:0:0:0:
323,148,36850,5,0,0:0:0:0:
306,162,37016,1,0,0:0:0:0:
285,169,37183,2,0,P|241:169|199:144,2,87.5,2|0|0,0:3|0:0|1:2,0:0:0:0:
318,240,38183,6,0,L|301:280,1,43.75
349,275,38517,2,0,P|349:313|367:364,1,87.5,2|0,0:0|0:0,0:0:0:0:
406,384,39183,1,0,1:0:0:0:
451,384,39517,1,0,0:0:0:0:
495,359,39850,1,2,0:0:0:0:
431,304,40183,5,0,0:0:0:0:
365,359,40517,1,0,1:0:0:0:
282,337,40850,6,0,L|239:368,1,43.75
239,317,41183,2,0,P|208:318|154:287,1,87.5,2|0,0:0|1:0,0:0:0:0:
153,249,41850,1,0,0:0:0:0:
171,207,42183,1,0,1:0:0:0:
296,174,42517,2,0,P|304:203|289:263,1,87.5,2|0,0:3|3:0,0:0:0:0:
171,207,43183,2,0,L|138:171,2,43.75,0|0|0,3:0|3:0|3:0,0:0:0:0:
239,106,43850,5,6,0:0:0:0:
280,86,44183,1,0,0:0:0:0:
327,88,44517,1,2,1:2:0:0:
302,166,44850,6,0,L|336:211,1,43.75
375,202,45183,1,2,0:0:0:0:
397,163,45350,2,0,P|459:155|503:200,1,131.25,2|0,0:0|1:0,0:0:0:0:
478,237,46017,1,0,0:0:0:0:
510,274,46183,6,0,L|476:319,1,43.75
512,360,46517,2,0,P|470:351|431:369,1,87.5,2|0,0:0|0:0,0:0:0:0:
383,302,47183,1,2,1:2:0:0:
355,335,47517,1,0,0:0:0:0:
311,344,47850,1,0,0:0:0:0:
295,363,48017,5,2,0:0:0:0:
282,342,48183,2,0,P|235:318|188:320,1,87.5,0|0,0:0|1:0,0:0:0:0:
227,201,48850,6,0,L|240:148,1,43.75
213,122,49183,2,0,P|198:85|156:46,1,87.5,2|0,0:0|0:0,0:0:0:0:
77,56,49850,1,2,1:2:0:0:
127,125,50183,6,0,L|85:155,1,43.75
46,151,50517,1,2,0:0:0:0:
70,190,50683,2,0,P|43:218|42:309,1,131.25,2|0,0:0|1:0,0:0:0:0:
71,338,51350,1,2,0:0:0:0:
86,297,51517,6,0,L|131:280,1,43.75,4|0,0:0|0:0,0:0:0:0:
153,360,51850,2,0,P|209:351|240:365,1,87.5,2|0,0:0|0:0,0:0:0:0:
284,382,52517,1,0,1:0:0:0:
276,339,52850,1,4,1:2:0:0:
293,289,53183,1,2,0:0:0:0:
337,246,53517,1,0,0:0:0:0:
404,227,53850,1,0,0:0:0:0:
463,241,54183,5,0,3:0:0:0:
451,222,54350,1,0,3:0:0:0:
504,216,54517,2,0,P|516:176|505:118,2,87.5,6|0|0,0:0|0:0|1:0,0:0:0:0:
471,59,55517,5,0,0:0:0:0:
427,133,55850,1,2,0:0:0:0:
402,98,56184,1,0,0:0:0:0:
358,173,56517,1,2,1:2:0:0:
334,138,56850,5,0,0:0:0:0:
326,159,57017,1,0,0:0:0:0:
304,121,57183,2,0,P|264:109|206:120,1,87.5,2|2,0:0|0:0,0:0:0:0:
156,66,57850,5,0,1:0:0:0:
171,50,58017,1,0,0:0:0:0:
175,28,58183,2,0,L|116:9,1,43.75
52,1,58517,2,0,P|81:36|75:83,1,87.5,2|2,0:0|0:0,0:0:0:0:
9,125,59183,2,0,P|29:162|70:176,1,87.5,2|0,1:2|0:0,0:0:0:0:
83,205,59683,5,0,0:0:0:0:
96,253,59850,2,0,P|137:249|187:281,2,87.5,2|0|0,0:0|0:0|1:0,0:0:0:0:
121,328,60850,1,0,0:0:0:0:
35,347,61183,1,2,0:0:0:0:
77,338,61517,1,0,0:0:0:0:
159,351,61850,2,0,P|197:371|240:367,1,87.5,2|0,1:2|0:0,0:0:0:0:
294,358,62350,5,0,0:0:0:0:
340,384,62517,2,0,P|375:359|418:357,1,87.5,2|0,0:0|0:0,0:0:0:0:
440,329,63017,1,0,0:0:0:0:
461,289,63183,5,2,1:2:0:0:
481,251,63517,1,2,0:0:0:0:
413,199,63850,1,0,0:0:0:0:
416,221,64017,1,0,0:0:0:0:
419,243,64183,1,2,0:0:0:0:
340,283,64517,1,2,1:2:0:0:
360,245,64851,1,4,0:0:0:0:
280,272,65183,6,0,P|296:297|298:336,1,58.3333333333333,0|2,0:0|0:0,0:0:0:0:
217,324,65739,2,0,P|196:354|127:364,1,87.5,0|2,0:0|0:0,0:0:0:0:
121,360,66183,1,0,0:0:0:0:
32,363,66517,1,0,0:0:0:0:
42,320,66850,1,0,0:0:0:0:
73,288,67183,2,0,P|87:254|45:122,1,175,2|0,1:2|0:0,0:0:0:0:
96,156,68017,5,0,0:0:0:0:
136,182,68183,2,0,P|180:167|236:176,1,87.5,2|0,0:0|1:0,0:0:0:0:
245,198,68683,2,0,L|295:187,2,43.75,2|2|0,0:0|0:0|0:0,0:0:0:0:
315,217,69183,1,2,0:0:0:0:
335,226,69350,1,0,0:0:0:0:
350,237,69517,1,2,0:0:0:0:
417,293,69850,2,0,P|463:285|511:239,1,87.5,2|0,1:2|1:0,0:0:0:0:
507,243,70350,5,0,1:0:0:0:
509,197,70517,1,4,0:0:0:0:
427,208,70850,5,0,0:0:0:0:
429,185,71017,1,0,0:0:0:0:
419,165,71183,2,0,P|421:122|454:95,1,87.5,2|0,1:2|0:0,0:0:0:0:
473,87,71684,1,0,0:0:0:0:
487,69,71850,2,0,P|484:34|428:4,2,87.5,2|0|2,0:0|0:0|1:2,0:0:0:0:
384,55,72850,5,0,0:0:0:0:
363,59,73017,1,0,0:0:0:0:
346,47,73183,2,0,P|326:64|252:66,1,87.5,2|0,0:0|0:0,0:0:0:0:
269,50,73684,1,0,0:0:0:0:
252,37,73850,2,0,P|232:54|158:56,1,87.5,2|0,1:2|0:0,0:0:0:0:
152,49,74350,1,0,0:0:0:0:
108,44,74517,5,2,0:0:0:0:
126,85,74850,1,2,0:0:0:0:
96,119,75183,1,2,1:2:0:0:
316,152,76017,5,0,0:0:0:0:
303,169,76183,1,0,0:0:0:0:
286,183,76350,1,0,0:0:0:0:
265,191,76517,2,0,L|204:188,1,43.75,2|0,1:2|0:0,0:0:0:0:
204,203,76850,1,0,0:0:0:0:
186,215,77017,1,0,0:0:0:0:
165,221,77183,2,0,L|114:205,1,43.75,2|0,0:0|0:0,0:0:0:0:
101,218,77517,2,0,L|57:181,1,43.75
64,168,77850,1,2,1:2:0:0:
19,374,78683,5,0,0:0:0:0:
32,356,78850,1,0,0:0:0:0:
50,344,79017,1,0,0:0:0:0:
71,338,79183,2,0,L|138:344,1,43.75,2|0,1:2|0:0,0:0:0:0:
126,360,79517,2,0,L|172:344,1,43.75,0|0,0:0|1:0,0:0:0:0:
190,353,79850,1,2,1:2:0:0:
212,347,80017,1,0,0:0:0:0:
219,327,80183,2,0,L|266:339,1,43.75,0|0,1:0|0:0,0:0:0:0:
281,335,80517,5,2,1:2:0:0:
297,320,80683,1,0,3:0:0:0:
318,315,80850,1,0,1:0:0:0:
338,321,81017,1,0,3:0:0:0:
353,336,81183,6,0,L|327:373,2,43.75,4|0|0,0:0|0:0|0:0,0:0:0:0:
395,351,81683,1,2,0:0:0:0:
477,321,82017,1,2,0:0:0:0:
471,202,82517,6,0,P|449:239|413:263,1,87.5,2|0,0:0|0:0,0:0:0:0:
370,257,83017,2,0,P|336:212|286:196,1,87.5,2|0,0:0|0:0,0:0:0:0:
368,95,83850,2,0,L|394:132,1,43.75
415,135,84183,1,0,0:0:0:0:
436,133,84350,1,0,0:0:0:0:
458,125,84517,2,0,P|465:86|498:44,2,87.5,2|2|2,1:2|0:0|0:3,0:0:0:0:
404,23,85517,1,0,0:0:0:0:
361,14,85684,2,0,P|320:23|288:56,1,87.5,2|0,0:0|0:0,0:0:0:0:
124,119,86683,5,0,0:0:0:0:
140,104,86850,1,0,0:0:0:0:
98,90,87017,1,0,0:0:0:0:
95,68,87183,1,2,1:2:0:0:
13,92,87517,1,0,0:0:0:0:
36,10,87850,2,0,L|51:60,1,43.75
13,92,88183,2,0,P|21:123|11:194,1,87.5,2|2,0:0|1:2,0:0:0:0:
76,248,89017,5,0,0:0:0:0:
102,239,89183,2,0,P|93:270|104:341,1,87.5,2|0,0:0|0:0,0:0:0:0:
24,384,89850,5,0,1:0:0:0:
42,371,90017,1,0,0:0:0:0:
59,384,90183,1,0,0:0:0:0:
77,371,90350,1,0,0:0:0:0:
94,384,90517,2,0,L|133:352,1,43.75,2|0,0:3|0:0,0:0:0:0:
162,384,90850,2,0,P|198:333|230:319,1,87.5,2|2,0:0|1:2,0:0:0:0:
305,338,91517,1,4,0:0:0:0:
393,356,91850,6,0,P|429:332|450:294,1,87.5,2|0,0:0|0:0,0:0:0:0:
420,262,92350,2,0,P|417:218|351:157,1,131.25
334,241,93183,1,2,0:0:0:0:
449,178,93517,2,0,L|463:133,1,43.75,2|0,0:0|0:0,0:0:0:0:
312,68,94183,5,0,0:0:0:0:
330,80,94350,1,0,0:0:0:0:
351,78,94517,1,2,0:0:0:0:
481,82,95017,1,2,0:0:0:0:
429,10,95350,1,0,0:0:0:0:
408,12,95517,1,2,0:0:0:0:
351,78,95850,2,0,P|389:124|444:137,1,87.5,2|0,0:3|0:0,0:0:0:0:
456,145,96350,2,0,P|397:154|358:196,1,87.5,2|0,0:0|0:0,0:0:0:0:
366,191,96850,1,0,0:0:0:0:
235,204,97350,5,0,0:0:0:0:
222,221,97517,1,0,0:0:0:0:
203,232,97683,1,0,0:0:0:0:
181,237,97850,2,0,P|128:221|91:180,1,87.5,2|0,1:2|0:0,0:0:0:0:
84,208,98350,1,0,0:0:0:0:
25,225,98517,6,0,B|55:166|55:166|55:143,1,87.5,2|2,0:0|0:0,0:0:0:0:
19,34,99517,6,0,P|59:19|105:26,1,87.5,0|2,0:0|0:0,0:0:0:0:
120,43,100017,2,0,L|118:71,2,21.875
140,34,100350,1,0,0:0:0:0:
177,29,100517,6,0,L|211:76,1,43.75
201,86,100850,1,0,1:0:0:0:
222,86,101017,1,0,0:0:0:0:
220,107,101183,2,0,L|254:154,1,43.75,2|0,0:3|0:0,0:0:0:0:
244,164,101517,2,0,L|278:211,1,43.75,2|0,1:2|0:0,0:0:0:0:
268,221,101850,1,2,3:2:0:0:
290,221,102017,2,0,L|307:243,2,21.875,0|2|0,3:0|0:0|3:0,0:0:0:0:
330,242,102350,1,0,0:0:0:0:
367,219,102517,6,0,L|386:262,1,43.75,4|0,0:0|0:0,0:0:0:0:
507,260,103351,5,0,0:0:0:0:
491,246,103517,1,0,0:0:0:0:
471,255,103683,1,0,0:0:0:0:
414,340,104017,5,0,0:0:0:0:
430,326,104183,1,2,0:0:0:0:
450,335,104349,1,0,0:0:0:0:
434,348,104517,2,0,P|414:357|327:340,1,87.5,2|0,1:2|0:0,0:0:0:0:
295,368,105017,1,0,0:0:0:0:
302,363,105183,1,2,0:0:0:0:
178,374,105683,5,0,0:0:0:0:
192,357,105850,2,0,L|199:304,1,43.75,2|0,1:2|0:0,0:0:0:0:
240,305,106183,2,0,L|247:252,1,43.75
288,251,106517,2,0,P|289:187|260:134,1,87.5,2|0,0:0|0:0,0:0:0:0:
253,131,107017,1,2,0:0:0:0:
260,126,107183,1,0,1:0:0:0:
98,19,107850,5,0,0:0:0:0:
21,60,108183,1,0,0:0:0:0:
51,143,108517,1,2,1:2:0:0:
34,350,109183,1,0,0:0:0:0:
4,267,109517,1,0,0:0:0:0:
81,226,109850,1,2,1:2:0:0:
234,354,110517,6,0,L|268:383,2,43.75,2|0|0,0:0|0:0|0:0,0:0:0:0:
276,337,111017,1,0,0:0:0:0:
316,350,111183,6,0,L|350:379,2,43.75,2|0|4,0:0|0:0|0:0,0:0:0:0:
360,339,111683,1,0,1:2:0:0:
401,359,111850,5,2,0:0:0:0:
502,365,112183,1,2,1:2:0:0:
511,348,112350,1,0,1:0:0:0:
495,329,112517,2,0,L|492:281,2,43.75,2|0|0,3:2|3:0|3:0,0:0:0:0:
415,277,113183,2,0,P|378:236|394:109,1,175,4|0,0:0|1:0,0:0:0:0:
448,74,114183,5,0,0:0:0:0:
310,88,114516,1,2,0:0:0:0:
360,26,114850,2,0,P|313:29|264:11,1,87.5,0|2,0:0|1:2,0:0:0:0:
310,88,115516,5,0,0:0:0:0:
163,165,115850,1,2,0:0:0:0:
228,213,116184,2,0,P|181:223|139:252,1,87.5,0|2,0:0|1:2,0:0:0:0:
163,165,116850,5,0,0:0:0:0:
15,86,117183,1,2,0:0:0:0:
80,39,117517,2,0,P|33:29|-9:0,1,87.5,0|2,0:0|1:2,0:0:0:0:
86,131,118183,5,2,0:0:0:0:
72,148,118350,1,2,0:0:0:0:
61,167,118517,2,0,P|53:213|52:222,1,43.75,2|0,0:0|0:0,0:0:0:0:
16,239,118850,2,0,P|63:304|391:277,1,437.5,2|0,0:0|0:0,0:0:0:0:
335,219,120850,1,2,0:0:0:0:
315,229,121017,1,2,0:0:0:0:
306,251,121183,2,0,P|269:273|202:284,2,87.5,2|0|0,0:0|0:0|1:0,0:0:0:0:
237,196,122183,5,0,0:0:0:0:
217,186,122350,1,0,0:0:0:0:
208,164,122516,2,0,P|171:142|104:131,2,87.5,2|0|0,0:0|0:0|1:0,0:0:0:0:
83,197,123517,2,0,L|51:159,1,43.75,0|0,3:0|0:0,0:0:0:0:
40,129,123850,2,0,P|63:73|112:44,1,87.5,6|0,0:0|0:0,0:0:0:0:
128,46,124517,1,2,1:2:0:0:
171,57,124850,1,0,0:0:0:0:
206,87,125183,1,2,0:0:0:0:
162,102,125517,5,0,0:0:0:0:
220,35,125850,1,0,1:0:0:0:
290,88,126183,2,0,L|336:83,1,43.75
364,115,126517,2,0,P|431:83|451:37,1,87.5,2|0,0:0|0:0,0:0:0:0:
463,41,127183,1,2,1:2:0:0:
510,107,127517,5,0,0:0:0:0:
501,126,127683,1,0,1:0:0:0:
502,150,127850,2,0,P|500:175|491:203,2,43.75,2|0|0,0:0|1:0|1:0,0:0:0:0:
464,203,128333,1,0,3:0:0:0:
423,220,128495,2,0,P|415:244|414:273,1,43.75,0|0,3:0|3:0,0:0:0:0:
426,299,128817,1,0,3:0:0:0:
508,384,129183,5,2,0:3:0:0:
469,363,129516,1,0,0:0:0:0:
427,376,129849,1,0,0:0:0:0:
388,355,130183,6,0,L|330:373,3,43.75,0|0|2|2,0:0|0:0|0:0|0:0,0:0:0:0:
309,346,130849,2,0,L|251:364,3,43.75,0|0|2|0,0:0|0:0|0:0|0:0,0:0:0:0:
228,337,131516,6,0,L|170:355,1,43.75
153,377,131849,1,2,0:0:0:0:
112,359,132183,1,0,0:0:0:0:
101,316,132516,1,0,0:0:0:0:
109,273,132849,1,0,0:0:0:0:
130,234,133183,5,8,3:0:0:0:
141,252,133349,1,0,0:0:0:0:
109,273,133516,2,0,L|51:251,1,43.75,8|0,3:0|3:0,0:0:0:0:
38,263,133849,1,2,3:3:0:0:
24,245,134016,1,0,0:0:0:0:
18,223,134183,6,0,L|28:168,1,43.75,0|0,3:0|3:0,0:0:0:0:
13,100,134516,6,0,P|53:69|86:65,1,65.625,4|0,0:0|0:0,0:0:0:0:
66,55,134849,2,0,P|102:59|127:79,1,65.625
133,70,135183,2,0,P|151:101|150:133,1,65.625,2|0,1:2|0:0,0:0:0:0:
162,131,135516,6,0,L|123:172,1,43.75
118,178,135849,1,2,0:0:0:0:
124,198,136016,1,0,0:0:0:0:
126,219,136183,2,0,L|87:260,1,43.75
104,271,136516,6,0,P|130:289|162:292,1,65.625,2|0,1:2|0:0,0:0:0:0:
162,282,136850,2,0,P|192:270|215:247,1,65.625,2|0,0:0|0:0,0:0:0:0:
204,242,137183,2,0,P|212:221|213:199,2,43.75,2|2|2,0:0|0:0|0:0,0:0:0:0:
229,159,137849,1,0,1:0:0:0:
266,137,138183,1,0,0:0:0:0:
308,148,138516,1,2,0:3:0:0:
289,159,138683,5,0,0:0:0:0:
294,180,138849,2,0,P|296:237|282:271,1,87.5,2|2,0:0|1:2,0:0:0:0:
260,300,139349,5,0,0:0:0:0:
265,321,139516,1,0,0:0:0:0:
280,336,139683,1,0,0:0:0:0:
324,345,139849,2,0,L|376:335,1,43.75,2|2,0:0|0:0,0:0:0:0:
410,345,140183,1,0,0:0:0:0:
493,298,140516,1,2,1:2:0:0:
413,249,140849,6,0,P|379:200|375:180,1,65.625
368,189,141183,2,0,P|417:155|437:151,1,65.625,2|0,0:0|0:0,0:0:0:0:
428,144,141516,2,0,P|462:193|466:213,1,65.625
473,204,141849,2,0,P|424:238|404:242,1,65.625,2|0,1:2|0:0,0:0:0:0:
413,249,142183,5,2,0:0:0:0:
391,243,142349,1,2,0:0:0:0:
353,266,142516,2,0,P|336:226|294:188,1,87.5,2|0,0:0|0:0,0:0:0:0:
265,182,143016,1,0,0:0:0:0:
279,124,143183,1,2,1:2:0:0:
229,52,143516,6,0,P|254:24|291:9,1,65.625
279,20,143849,2,0,P|315:27|347:52,1,65.625,2|0,0:3|0:0,0:0:0:0:
342,32,144183,2,0,P|377:20|417:25,1,65.625
401,29,144516,2,0,P|428:53|443:90,1,65.625,2|0,1:2|0:0,0:0:0:0:
444,89,144849,5,0,0:0:0:0:
438,110,145016,1,0,0:0:0:0:
454,150,145183,2,0,L|394:140,1,43.75,2|0,0:0|0:0,0:0:0:0:
371,161,145516,1,2,0:0:0:0:
279,124,145849,1,2,1:2:0:0:
191,143,146183,6,0,P|170:175|166:207,1,65.625
155,205,146516,2,0,P|123:184|91:180,1,65.625,2|0,0:0|0:0,0:0:0:0:
93,169,146849,2,0,P|114:137|118:105,1,65.625
129,107,147183,2,0,P|161:128|193:132,1,65.625,2|0,1:2|0:0,0:0:0:0:
199,127,147516,5,0,0:0:0:0:
216,114,147683,1,0,0:0:0:0:
205,70,147849,1,2,0:0:0:0:
124,53,148183,1,2,0:0:0:0:
107,66,148350,1,0,0:0:0:0:
118,110,148516,1,2,1:2:0:0:
35,146,148849,6,0,P|25:181|21:217,1,65.625
20,221,149183,2,0,P|19:257|24:293,1,65.625,2|0,0:3|0:0,0:0:0:0:
26,296,149516,2,0,P|52:276|80:260,1,65.625
91,256,149849,2,0,P|121:243|153:235,1,65.625,2|0,1:2|0:0,0:0:0:0:
163,235,150183,5,0,0:0:0:0:
184,240,150349,1,0,0:0:0:0:
214,275,150516,1,2,0:0:0:0:
191,359,150849,1,2,0:0:0:0:
290,227,151516,5,0,0:0:0:0:
311,232,151683,1,0,0:0:0:0:
341,267,151849,1,2,0:0:0:0:
318,351,152182,1,2,0:0:0:0:
444,253,152849,5,0,0:0:0:0:
433,272,153016,1,0,0:0:0:0:
396,238,153183,2,0,P|340:226|298:238,1,87.5,2|0,0:0|1:0,0:0:0:0:
300,251,153682,1,0,0:0:0:0:
263,217,153849,2,0,P|207:205|165:217,1,87.5,2|8,0:0|3:0,0:0:0:0:
167,230,154349,1,0,0:0:0:0:
130,196,154516,2,0,P|74:184|32:196,1,87.5,2|2,0:0|3:2,0:0:0:0:
88,105,155183,5,8,3:0:0:0:
69,92,155349,1,0,3:0:0:0:
67,48,155516,5,0,3:0:0:0:
86,61,155683,1,0,3:0:0:0:
129,57,155849,2,0,P|179:31|229:27,2,87.5,4|0|0,0:0|0:0|1:0,0:0:0:0:
202,114,156849,5,0,0:0:0:0:
206,136,157016,1,0,0:0:0:0:
239,164,157183,2,0,P|292:180|329:212,3,87.5,2|2|0|0,0:0|0:0|1:0|0:0,0:0:0:0:
326,219,158349,5,0,0:0:0:0:
329,175,158516,2,0,P|292:150|250:139,1,87.5,2|0,0:0|0:0,0:0:0:0:
229,144,159016,1,0,0:0:0:0:
261,114,159183,2,0,P|303:125|340:150,1,87.5,0|0,1:0|0:0,0:0:0:0:
348,169,159682,1,0,0:0:0:0:
351,125,159849,2,0,P|314:100|272:89,2,87.5,2|2|0,0:3|0:0|1:0,0:0:0:0:
422,77,160849,6,0,L|442:121,2,43.75,0|0|2,0:0|0:0|0:0,0:0:0:0:
511,73,161516,5,2,0:0:0:0:
512,161,161849,2,0,P|491:186|455:213,1,58.3333333333333,0|2,1:2|0:0,0:0:0:0:
468,317,162516,1,2,0:0:0:0:
448,307,162683,1,0,0:0:0:0:
426,309,162849,1,0,0:0:0:0:
346,271,163183,2,0,P|301:299|231:310,2,87.5,2|0|0,1:2|0:0|0:0,0:0:0:0:
382,188,164183,5,2,0:0:0:0:
312,240,164516,2,0,P|276:243|246:239,1,58.3333333333333,0|2,1:2|0:0,0:0:0:0:
146,202,165183,1,2,0:3:0:0:
124,199,165349,1,0,0:0:0:0:
103,207,165516,1,0,0:0:0:0:
139,281,165849,1,2,1:2:0:0:
75,341,166183,2,0,P|21:343|-13:310,1,87.5
1,238,166849,6,0,P|11:181|-13:132,1,87.5,2|0,0:0|1:2,0:0:0:0:
55,142,167405,2,0,P|65:76|112:39,1,116.666666666667,2|2,0:0|0:0,0:0:0:0:
121,42,168016,1,0,0:0:0:0:
141,48,168183,1,0,0:0:0:0:
226,23,168516,1,2,1:2:0:0:
207,109,168849,2,0,P|197:166|221:215,1,87.5
161,267,169516,5,2,0:0:0:0:
220,332,169849,1,0,1:2:0:0:
236,308,170071,1,2,0:0:0:0:
344,338,170516,1,2,0:3:0:0:
356,320,170683,1,0,0:0:0:0:
376,314,170849,1,0,0:0:0:0:
464,313,171183,2,0,P|472:257|456:202,1,87.5,2|0,1:2|0:0,0:0:0:0:
411,160,171849,5,2,0:0:0:0:
411,160,172516,5,2,1:2:0:0:
367,84,172849,1,2,0:0:0:0:
355,168,173183,1,2,0:0:0:0:
333,130,173349,1,0,0:0:0:0:
344,173,173516,1,2,0:0:0:0:
322,135,173682,1,0,0:0:0:0:
333,178,173849,2,0,P|318:232|287:259,1,87.5,2|0,1:2|0:0,0:0:0:0:
211,278,174516,5,2,0:0:0:0:
211,278,175183,5,2,1:2:0:0:
135,234,175516,1,0,0:0:0:0:
219,222,175850,1,2,1:3:0:0:
181,200,176016,1,0,1:0:0:0:
224,211,176183,1,2,1:2:0:0:
186,189,176349,1,0,0:0:0:0:
229,200,176516,2,0,P|211:160|219:105,1,87.5,2|0,1:2|0:0,0:0:0:0:
197,31,177183,5,6,0:0:0:0:
197,31,177849,5,2,1:2:0:0:
137,100,178183,1,0,0:0:0:0:
39,94,178516,1,2,0:0:0:0:
15,58,178683,1,0,0:0:0:0:
49,86,178849,1,2,0:0:0:0:
25,50,179016,1,0,0:0:0:0:
59,78,179183,1,2,1:2:0:0:
72,166,179516,1,0,0:0:0:0:
16,234,179849,5,2,0:0:0:0:
16,234,180516,5,2,0:0:0:0:
35,319,180849,1,0,3:0:0:0:
110,366,181183,1,2,0:3:0:0:
162,362,181349,1,0,0:0:0:0:
110,354,181516,1,2,3:2:0:0:
162,350,181682,1,0,0:0:0:0:
206,347,181849,2,0,L|232:309,1,43.75,2|0,0:0|0:0,0:0:0:0:
251,318,182183,2,0,L|226:354,1,43.75,2|0,3:2|0:0,0:0:0:0:
269,356,182516,5,0,0:0:0:0:
353,375,182849,1,0,0:0:0:0:
440,367,183183,2,0,P|492:329|514:217,1,175,2|0,0:0|0:0,0:0:0:0:
507,137,184183,1,0,0:0:0:0:
432,185,184516,2,0,P|408:124|306:74,1,175,2|2,0:0|0:0,0:0:0:0:
294,81,185349,5,0,0:0:0:0:
271,78,185516,2,0,L|222:140,1,43.75
219,112,185849,2,0,L|191:146,2,43.75,2|0|2,0:0|0:0|0:0,0:0:0:0:
172,155,186349,1,0,0:0:0:0:
128,157,186516,5,0,0:0:0:0:
53,109,186849,1,0,0:0:0:0:
68,20,187183,1,2,0:0:0:0:
221,10,187849,6,0,P|246:51|373:84,1,175,2|0,0:0|0:0,0:0:0:0:
455,76,188849,5,0,0:0:0:0:
504,190,189183,1,2,0:0:0:0:
422,160,189516,1,0,0:0:0:0:
422,224,189850,1,2,0:0:0:0:
504,190,190183,5,0,0:0:0:0:
458,306,190517,1,2,0:0:0:0:
422,224,190850,1,0,0:0:0:0:
377,269,191184,1,2,0:0:0:0:
458,306,191516,5,0,0:0:0:0:
344,355,191849,1,2,0:0:0:0:
377,269,192182,1,0,0:0:0:0:
313,269,192516,1,2,0:0:0:0:
255,333,192849,5,2,0:0:0:0:
233,339,193016,1,2,0:0:0:0:
211,340,193183,2,0,L|157:334,1,43.75,2|0,0:0|0:0,0:0:0:0:
134,365,193516,2,0,P|82:333|91:2,1,437.5,2|0,0:0|0:0,0:0:0:0:
126,83,195516,1,2,0:0:0:0:
146,75,195683,1,2,0:0:0:0:
167,73,195849,2,0,P|222:86|261:115,1,87.5,2|0,0:0|0:0,0:0:0:0:
255,249,196849,5,0,0:0:0:0:
275,241,197016,1,0,0:0:0:0:
296,239,197182,2,0,P|351:252|390:281,1,87.5,2|0,0:0|0:0,0:0:0:0:
182,280,198183,5,0,0:0:0:0:
176,258,198349,1,0,0:0:0:0:
163,239,198516,1,2,0:0:0:0:
92,187,198849,1,0,0:0:0:0:
20,238,199183,1,0,0:0:0:0:
46,321,199516,1,0,0:0:0:0:
136,323,199849,1,2,0:0:0:0:
48,314,200183,5,0,0:0:0:0:
22,231,200516,2,0,P|28:185|57:139,1,87.5,2|0,0:0|0:0,0:0:0:0:
37,62,201183,5,2,0:0:0:0:
114,22,201516,1,0,0:0:0:0:
200,30,201849,1,0,0:0:0:0:
272,79,202183,1,0,0:0:0:0:
288,164,202516,1,2,0:0:0:0:
191,73,203183,6,0,P|133:62|71:79,1,87.5,2|0,0:0|0:0,0:0:0:0:
143,147,203849,5,2,0:0:0:0:
230,152,204183,1,0,0:0:0:0:
280,80,204516,1,0,0:0:0:0:
367,85,204849,1,0,0:0:0:0:
380,67,205016,1,0,0:0:0:0:
401,71,205183,2,0,L|438:18,1,43.75,2|2,0:0|0:0,0:0:0:0:
470,35,205516,5,0,0:0:0:0:
457,53,205683,1,0,0:0:0:0:
469,70,205850,2,0,L|432:123,1,43.75
467,129,206183,6,0,L|430:182,1,43.75
454,207,206516,1,2,0:0:0:0:
482,289,206849,1,0,0:0:0:0:
434,362,207183,1,0,0:0:0:0:
346,365,207516,1,0,0:0:0:0:
261,341,207849,1,0,0:0:0:0:
244,355,208016,5,0,0:0:0:0:
219,320,208183,2,0,P|161:304|121:318,1,87.5,2|2,0:0|0:0,0:0:0:0:
53,317,208849,6,0,L|69:245,1,43.75
35,239,209183,2,0,P|61:204|100:187,1,87.5,2|0,0:0|0:0,0:0:0:0:
188,185,209849,1,0,0:0:0:0:
265,226,210183,1,0,0:0:0:0:
274,245,210349,1,0,0:0:0:0:
295,248,210516,2,0,L|287:297,1,43.75,2|2,0:0|0:0,0:0:0:0:
309,295,210849,5,0,0:0:0:0:
318,314,211015,1,0,0:0:0:0:
339,317,211182,2,0,L|331:366,1,43.75,2|0,0:0|0:0,0:0:0:0:
371,381,211516,6,0,L|378:337,1,43.75
375,293,211849,2,0,P|396:246|454:206,1,87.5,2|0,0:0|0:0,0:0:0:0:
501,184,212516,1,0,0:0:0:0:
429,133,212849,1,0,0:0:0:0:
509,96,213183,1,2,0:0:0:0:
490,106,213349,5,0,0:0:0:0:
490,84,213516,2,0,P|433:44|394:40,2,87.5,0|2|0,0:0|0:0|0:0,0:0:0:0:
348,96,214550,6,0,P|299:123|171:119,1,175,2|0,0:0|0:0,0:0:0:0:
14,82,215883,2,0,P|61:110|122:223,1,175,2|0,0:0|0:0,0:0:0:0:
168,378,217217,2,0,P|169:322|236:213,1,175,2|0,0:0|0:0,0:0:0:0:
315,203,218217,1,0,0:0:0:0:
289,287,218550,2,0,P|360:336|446:346,1,175
417,181,219849,6,0,P|441:113|523:31,3,175,2|0|0|0,0:0|0:0|0:0|0:0,0:0:0:0:
349,96,222516,6,0,P|277:90|241:76,2,87.5,2|0|0,1:2|0:0|0:0,0:0:0:0:
213,171,223516,2,0,P|166:116|150:80,2,87.5,2|0|0,0:0|0:0|0:0,0:0:0:0:
64,128,224516,2,0,P|69:56|83:20,1,87.5,0|0,1:0|0:0,0:0:0:0:
118,190,225183,5,2,0:0:0:0:
116,233,225516,1,0,0:0:0:0:
83,274,225849,1,2,1:2:0:0:
24,291,226183,2,0,P|-3:300|-20:310,2,43.75,0|0|2,0:0|1:0|1:2,0:0:0:0:
89,315,226849,1,0,0:0:0:0:
149,365,227183,1,2,3:2:0:0:
186,377,227349,1,0,3:0:0:0:
225,371,227516,1,2,3:2:0:0:
329,384,227849,1,4,0:0:0:0:
